  0
SECTION
  2
HEADER
  9
$ACADVER
  1
AC1027
  9
$ACADMAINTVER
 70
   105
  9
$DWGCODEPAGE
  3
ANSI_1252
  9
$REQUIREDVERSIONS
160
                 0
  9
$LASTSAVEDBY
  1
andrea.zolin
  9
$INSBASE
 10
0.0
 20
0.0
 30
0.0
  9
$EXTMIN
 10
0.0
 20
0.0
 30
0.0
  9
$EXTMAX
 10
594.0
 20
420.0
 30
0.0
  9
$LIMMIN
 10
0.0
 20
0.0
  9
$LIMMAX
 10
594.0
 20
420.0
  9
$ORTHOMODE
 70
     0
  9
$REGENMODE
 70
     1
  9
$FILLMODE
 70
     1
  9
$QTEXTMODE
 70
     0
  9
$MIRRTEXT
 70
     1
  9
$LTSCALE
 40
32.67
  9
$ATTMODE
 70
     1
  9
$TEXTSIZE
 40
0.2
  9
$TRACEWID
 40
0.05
  9
$TEXTSTYLE
  7
STANDARD
  9
$CLAYER
  8
0
  9
$CELTYPE
  6
BYLAYER
  9
$CECOLOR
 62
   256
  9
$CELTSCALE
 40
1.0
  9
$DISPSILH
 70
     0
  9
$DIMSCALE
 40
1.0
  9
$DIMASZ
 40
2.5
  9
$DIMEXO
 40
0.75
  9
$DIMDLI
 40
22.572
  9
$DIMRND
 40
0.0
  9
$DIMDLE
 40
0.0
  9
$DIMEXE
 40
0.75
  9
$DIMTP
 40
0.01
  9
$DIMTM
 40
0.01
  9
$DIMTXT
 40
3.0
  9
$DIMCEN
 40
5.346
  9
$DIMTSZ
 40
0.0
  9
$DIMTOL
 70
     1
  9
$DIMLIM
 70
     0
  9
$DIMTIH
 70
     1
  9
$DIMTOH
 70
     1
  9
$DIMSE1
 70
     0
  9
$DIMSE2
 70
     0
  9
$DIMTAD
 70
     0
  9
$DIMZIN
 70
     0
  9
$DIMBLK
  1
CLOSED
  9
$DIMASO
 70
     1
  9
$DIMSHO
 70
     1
  9
$DIMPOST
  1

  9
$DIMAPOST
  1

  9
$DIMALT
 70
     0
  9
$DIMALTD
 70
     2
  9
$DIMALTF
 40
25.4
  9
$DIMLFAC
 40
1.0
  9
$DIMTOFL
 70
     0
  9
$DIMTVP
 40
0.0
  9
$DIMTIX
 70
     0
  9
$DIMSOXD
 70
     0
  9
$DIMSAH
 70
     0
  9
$DIMBLK1
  1

  9
$DIMBLK2
  1

  9
$DIMSTYLE
  2
STANDARD
  9
$DIMCLRD
 70
     0
  9
$DIMCLRE
 70
     0
  9
$DIMCLRT
 70
     0
  9
$DIMTFAC
 40
1.0
  9
$DIMGAP
 40
0.625
  9
$DIMJUST
 70
     0
  9
$DIMSD1
 70
     0
  9
$DIMSD2
 70
     0
  9
$DIMTOLJ
 70
     1
  9
$DIMTZIN
 70
     0
  9
$DIMALTZ
 70
     0
  9
$DIMALTTZ
 70
     0
  9
$DIMUPT
 70
     0
  9
$DIMDEC
 70
     4
  9
$DIMTDEC
 70
     4
  9
$DIMALTU
 70
     2
  9
$DIMALTTD
 70
     2
  9
$DIMTXSTY
  7
STANDARD
  9
$DIMAUNIT
 70
     0
  9
$DIMADEC
 70
     0
  9
$DIMALTRND
 40
0.0
  9
$DIMAZIN
 70
     0
  9
$DIMDSEP
 70
    46
  9
$DIMATFIT
 70
     3
  9
$DIMFRAC
 70
     0
  9
$DIMLDRBLK
  1

  9
$DIMLUNIT
 70
     2
  9
$DIMLWD
 70
    -2
  9
$DIMLWE
 70
    -2
  9
$DIMTMOVE
 70
     2
  9
$DIMFXL
 40
1.0
  9
$DIMFXLON
 70
     0
  9
$DIMJOGANG
 40
0.7853981633974483
  9
$DIMTFILL
 70
     0
  9
$DIMTFILLCLR
 70
     0
  9
$DIMARCSYM
 70
     0
  9
$DIMLTYPE
  6

  9
$DIMLTEX1
  6

  9
$DIMLTEX2
  6

  9
$DIMTXTDIRECTION
 70
     0
  9
$LUNITS
 70
     2
  9
$LUPREC
 70
     4
  9
$SKETCHINC
 40
0.1
  9
$FILLETRAD
 40
0.5
  9
$AUNITS
 70
     0
  9
$AUPREC
 70
     0
  9
$MENU
  1
.
  9
$ELEVATION
 40
0.0
  9
$PELEVATION
 40
0.0
  9
$THICKNESS
 40
0.0
  9
$LIMCHECK
 70
     0
  9
$CHAMFERA
 40
0.0
  9
$CHAMFERB
 40
0.0
  9
$CHAMFERC
 40
0.0
  9
$CHAMFERD
 40
0.0
  9
$SKPOLY
 70
     0
  9
$TDCREATE
 40
2447893.041666667
  9
$TDUCREATE
 40
0.0
  9
$TDUPDATE
 40
2458466.745063206
  9
$TDUUPDATE
 40
2458466.703396539
  9
$TDINDWG
 40
0.0001974884
  9
$TDUSRTIMER
 40
0.0001974884
  9
$USRTIMER
 70
     1
  9
$ANGBASE
 50
0.0
  9
$ANGDIR
 70
     0
  9
$PDMODE
 70
     3
  9
$PDSIZE
 40
0.3125
  9
$PLINEWID
 40
0.0
  9
$SPLFRAME
 70
     0
  9
$SPLINETYPE
 70
     6
  9
$SPLINESEGS
 70
     8
  9
$HANDSEED
  5
69E
  9
$SURFTAB1
 70
     6
  9
$SURFTAB2
 70
     6
  9
$SURFTYPE
 70
     6
  9
$SURFU
 70
     6
  9
$SURFV
 70
     6
  9
$UCSBASE
  2

  9
$UCSNAME
  2

  9
$UCSORG
 10
0.0
 20
0.0
 30
0.0
  9
$UCSXDIR
 10
1.0
 20
0.0
 30
0.0
  9
$UCSYDIR
 10
0.0
 20
1.0
 30
0.0
  9
$UCSORTHOREF
  2

  9
$UCSORTHOVIEW
 70
     0
  9
$UCSORGTOP
 10
0.0
 20
0.0
 30
0.0
  9
$UCSORGBOTTOM
 10
0.0
 20
0.0
 30
0.0
  9
$UCSORGLEFT
 10
0.0
 20
0.0
 30
0.0
  9
$UCSORGRIGHT
 10
0.0
 20
0.0
 30
0.0
  9
$UCSORGFRONT
 10
0.0
 20
0.0
 30
0.0
  9
$UCSORGBACK
 10
0.0
 20
0.0
 30
0.0
  9
$PUCSBASE
  2

  9
$PUCSNAME
  2

  9
$PUCSORG
 10
0.0
 20
0.0
 30
0.0
  9
$PUCSXDIR
 10
1.0
 20
0.0
 30
0.0
  9
$PUCSYDIR
 10
0.0
 20
1.0
 30
0.0
  9
$PUCSORTHOREF
  2

  9
$PUCSORTHOVIEW
 70
     0
  9
$PUCSORGTOP
 10
0.0
 20
0.0
 30
0.0
  9
$PUCSORGBOTTOM
 10
0.0
 20
0.0
 30
0.0
  9
$PUCSORGLEFT
 10
0.0
 20
0.0
 30
0.0
  9
$PUCSORGRIGHT
 10
0.0
 20
0.0
 30
0.0
  9
$PUCSORGFRONT
 10
0.0
 20
0.0
 30
0.0
  9
$PUCSORGBACK
 10
0.0
 20
0.0
 30
0.0
  9
$USERI1
 70
     0
  9
$USERI2
 70
     0
  9
$USERI3
 70
     0
  9
$USERI4
 70
     0
  9
$USERI5
 70
     0
  9
$USERR1
 40
0.0
  9
$USERR2
 40
0.0
  9
$USERR3
 40
0.0
  9
$USERR4
 40
0.0
  9
$USERR5
 40
0.0
  9
$WORLDVIEW
 70
     1
  9
$SHADEDGE
 70
     3
  9
$SHADEDIF
 70
    70
  9
$TILEMODE
 70
     0
  9
$MAXACTVP
 70
    64
  9
$PINSBASE
 10
0.0
 20
0.0
 30
0.0
  9
$PLIMCHECK
 70
     0
  9
$PEXTMIN
 10
0.0
 20
0.0
 30
0.0
  9
$PEXTMAX
 10
594.0
 20
420.0
 30
0.0
  9
$PLIMMIN
 10
-12.2568093385214
 20
-32.68482490272373
  9
$PLIMMAX
 10
674.1245136186769
 20
452.6848249027237
  9
$UNITMODE
 70
     0
  9
$VISRETAIN
 70
     1
  9
$PLINEGEN
 70
     0
  9
$PSLTSCALE
 70
     1
  9
$TREEDEPTH
 70
  3020
  9
$CMLSTYLE
  2
STANDARD
  9
$CMLJUST
 70
     0
  9
$CMLSCALE
 40
1.0
  9
$PROXYGRAPHICS
 70
     1
  9
$MEASUREMENT
 70
     1
  9
$CELWEIGHT
370
    -1
  9
$ENDCAPS
280
     0
  9
$JOINSTYLE
280
     0
  9
$LWDISPLAY
290
     0
  9
$INSUNITS
 70
     0
  9
$HYPERLINKBASE
  1

  9
$STYLESHEET
  1

  9
$XEDIT
290
     1
  9
$CEPSNTYPE
380
     0
  9
$PSTYLEMODE
290
     1
  9
$FINGERPRINTGUID
  2
{E8F1FF54-E388-4EF5-86E4-025BCC56416E}
  9
$VERSIONGUID
  2
{FAEB1C32-E019-11D5-929B-00C0DF256EC4}
  9
$EXTNAMES
290
     1
  9
$PSVPSCALE
 40
0.0
  9
$OLESTARTUP
290
     0
  9
$SORTENTS
280
   127
  9
$INDEXCTL
280
     0
  9
$HIDETEXT
280
     1
  9
$XCLIPFRAME
280
     2
  9
$HALOGAP
280
     0
  9
$OBSCOLOR
 70
   257
  9
$OBSLTYPE
280
     0
  9
$INTERSECTIONDISPLAY
280
     0
  9
$INTERSECTIONCOLOR
 70
   257
  9
$DIMASSOC
280
     2
  9
$PROJECTNAME
  1

  9
$CAMERADISPLAY
290
     0
  9
$LENSLENGTH
 40
50.0
  9
$CAMERAHEIGHT
 40
0.0
  9
$STEPSPERSEC
 40
2.0
  9
$STEPSIZE
 40
6.0
  9
$3DDWFPREC
 40
2.0
  9
$PSOLWIDTH
 40
0.25
  9
$PSOLHEIGHT
 40
4.0
  9
$LOFTANG1
 40
1.570796326794897
  9
$LOFTANG2
 40
1.570796326794897
  9
$LOFTMAG1
 40
0.0
  9
$LOFTMAG2
 40
0.0
  9
$LOFTPARAM
 70
     7
  9
$LOFTNORMALS
280
     1
  9
$LATITUDE
 40
37.795
  9
$LONGITUDE
 40
-122.394
  9
$NORTHDIRECTION
 40
0.0
  9
$TIMEZONE
 70
 -8000
  9
$LIGHTGLYPHDISPLAY
280
     1
  9
$TILEMODELIGHTSYNCH
280
     1
  9
$SOLIDHIST
280
     0
  9
$SHOWHIST
280
     1
  9
$DWFFRAME
280
     2
  9
$DGNFRAME
280
     2
  9
$REALWORLDSCALE
290
     1
  9
$INTERFERECOLOR
 62
   256
  9
$CSHADOW
280
     0
  9
$SHADOWPLANELOCATION
 40
0.0
  0
ENDSEC
  0
SECTION
  2
CLASSES
  0
CLASS
  1
ACDBDICTIONARYWDFLT
  2
AcDbDictionaryWithDefault
  3
ObjectDBX Classes
 90
        0
 91
        4
280
     0
281
     0
  0
CLASS
  1
SCALE
  2
AcDbScale
  3
ObjectDBX Classes
 90
     1153
 91
        4
280
     0
281
     0
  0
CLASS
  1
VISUALSTYLE
  2
AcDbVisualStyle
  3
ObjectDBX Classes
 90
     4095
 91
        4
280
     0
281
     0
  0
CLASS
  1
MATERIAL
  2
AcDbMaterial
  3
ObjectDBX Classes
 90
     1153
 91
        4
280
     0
281
     0
  0
CLASS
  1
TABLESTYLE
  2
AcDbTableStyle
  3
ObjectDBX Classes
 90
     4095
 91
        4
280
     0
281
     0
  0
CLASS
  1
MLEADERSTYLE
  2
AcDbMLeaderStyle
  3
ACDB_MLEADERSTYLE_CLASS
 90
     4095
 91
        4
280
     0
281
     0
  0
CLASS
  1
DICTIONARYVAR
  2
AcDbDictionaryVar
  3
ObjectDBX Classes
 90
        0
 91
        4
280
     0
281
     0
  0
CLASS
  1
CELLSTYLEMAP
  2
AcDbCellStyleMap
  3
ObjectDBX Classes
 90
     1152
 91
        4
280
     0
281
     0
  0
ENDSEC
  0
SECTION
  2
TABLES
  0
TABLE
  2
VPORT
  5
8
330
0
100
AcDbSymbolTable
 70
     1
  0
VPORT
  5
1F4
330
8
100
AcDbSymbolTableRecord
100
AcDbViewportTableRecord
  2
*ACTIVE
 70
     0
 10
0.0
 20
0.0
 11
1.0
 21
1.0
 12
297.0
 22
210.0
 13
0.0
 23
0.0
 14
1.0
 24
1.0
 15
0.0
 25
0.0
 16
0.0
 26
0.0
 36
1.0
 17
0.0
 27
0.0
 37
0.0
 40
420.0
 41
1.4142857143
 42
50.0
 43
0.0
 44
0.0
 50
0.0
 51
0.0
 71
     0
 72
   100
 73
     1
 74
     1
 75
     0
 76
     0
 77
     0
 78
     0
281
     0
 65
     1
110
0.0
120
0.0
130
0.0
111
1.0
121
0.0
131
0.0
112
0.0
122
1.0
132
0.0
 79
     0
146
0.0
348
677
 60
     3
 61
     5
292
     1
282
     1
141
0.0
142
0.0
 63
   256
  0
ENDTAB
  0
TABLE
  2
LTYPE
  5
5
330
0
100
AcDbSymbolTable
 70
     6
  0
LTYPE
  5
14
330
5
100
AcDbSymbolTableRecord
100
AcDbLinetypeTableRecord
  2
BYBLOCK
 70
     0
  3

 72
    65
 73
     0
 40
0.0
  0
LTYPE
  5
15
330
5
100
AcDbSymbolTableRecord
100
AcDbLinetypeTableRecord
  2
BYLAYER
 70
     0
  3

 72
    65
 73
     0
 40
0.0
  0
LTYPE
  5
16
330
5
100
AcDbSymbolTableRecord
100
AcDbLinetypeTableRecord
  2
CONTINUOUS
 70
     0
  3
Solid line
 72
    65
 73
     0
 40
0.0
  0
LTYPE
  5
1F5
330
5
100
AcDbSymbolTableRecord
100
AcDbLinetypeTableRecord
  2
CENTER
 70
     0
  3
____ _ ____ _ ____ _ ____ _ ____ _ ____ _ ____
 72
    65
 73
     4
 40
0.6
 49
0.375
 74
     0
 49
-0.075
 74
     0
 49
0.075
 74
     0
 49
-0.075
 74
     0
  0
LTYPE
  5
1F6
330
5
100
AcDbSymbolTableRecord
100
AcDbLinetypeTableRecord
  2
HIDDEN
 70
     0
  3
- - - - - - - - - - - - - - - - - - - -
 72
    65
 73
     2
 40
0.2
 49
0.1
 74
     0
 49
-0.1
 74
     0
  0
LTYPE
  5
1F7
330
5
100
AcDbSymbolTableRecord
100
AcDbLinetypeTableRecord
  2
PHANTOM
 70
     0
  3
_____ _ _ _____ _ _ _____ _ _ _____
 72
    65
 73
     6
 40
0.8
 49
0.45
 74
     0
 49
-0.05
 74
     0
 49
0.1
 74
     0
 49
-0.05
 74
     0
 49
0.1
 74
     0
 49
-0.05
 74
     0
  0
LTYPE
  5
1F8
330
5
100
AcDbSymbolTableRecord
100
AcDbLinetypeTableRecord
  2
DOT
 70
     0
  3
. . . . . . . . . . . . . . . . . . . .
 72
    65
 73
     2
 40
0.2
 49
0.1
 74
     0
 49
-0.1
 74
     0
  0
LTYPE
  5
1F9
330
5
100
AcDbSymbolTableRecord
100
AcDbLinetypeTableRecord
  2
DASHED
 70
     0
  3
- - - - - - - - - - - - - - - - - - - -
 72
    65
 73
     2
 40
0.2
 49
0.1
 74
     0
 49
-0.1
 74
     0
  0
ENDTAB
  0
TABLE
  2
LAYER
  5
2
330
0
100
AcDbSymbolTable
 70
    37
  0
LAYER
  5
10
330
2
100
AcDbSymbolTableRecord
100
AcDbLayerTableRecord
  2
0
 70
     0
 62
     7
  6
CONTINUOUS
370
    -3
390
64C
347
68E
348
0
  0
LAYER
  5
1FA
330
2
100
AcDbSymbolTableRecord
100
AcDbLayerTableRecord
  2
DEFAULT_1
 70
     0
 62
     7
  6
CENTER
370
    -3
390
64C
347
68E
348
0
  0
LAYER
  5
1FB
330
2
100
AcDbSymbolTableRecord
100
AcDbLayerTableRecord
  2
DEFAULT_2
 70
     0
 62
     8
  6
HIDDEN
370
    -3
390
64C
347
68E
348
0
  0
LAYER
  5
1FC
330
2
100
AcDbSymbolTableRecord
100
AcDbLayerTableRecord
  2
DEFAULT_3
 70
     0
 62
     7
  6
PHANTOM
370
    -3
390
64C
347
68E
348
0
  0
LAYER
  5
1FD
330
2
100
AcDbSymbolTableRecord
100
AcDbLayerTableRecord
  2
01_ALL_DTM_PLN
 70
     0
 62
     7
  6
CONTINUOUS
370
    -3
390
64C
347
68E
348
0
  0
LAYER
  5
1FE
330
2
100
AcDbSymbolTableRecord
100
AcDbLayerTableRecord
  2
01__ASM_ALL_DTM_PLN
 70
     0
 62
     7
  6
CONTINUOUS
370
    -3
390
64C
347
68E
348
0
  0
LAYER
  5
1FF
330
2
100
AcDbSymbolTableRecord
100
AcDbLayerTableRecord
  2
01__ASM_DEF_DTM_PLN
 70
     0
 62
     7
  6
CONTINUOUS
370
    -3
390
64C
347
68E
348
0
  0
LAYER
  5
200
330
2
100
AcDbSymbolTableRecord
100
AcDbLayerTableRecord
  2
01___PRT_ALL_DTM_PLN
 70
     0
 62
     7
  6
CONTINUOUS
370
    -3
390
64C
347
68E
348
0
  0
LAYER
  5
201
330
2
100
AcDbSymbolTableRecord
100
AcDbLayerTableRecord
  2
01___PRT_DEF_DTM_PLN
 70
     0
 62
     7
  6
CONTINUOUS
370
    -3
390
64C
347
68E
348
0
  0
LAYER
  5
202
330
2
100
AcDbSymbolTableRecord
100
AcDbLayerTableRecord
  2
02_ALL_AXES
 70
     0
 62
     7
  6
CONTINUOUS
370
    -3
390
64C
347
68E
348
0
  0
LAYER
  5
203
330
2
100
AcDbSymbolTableRecord
100
AcDbLayerTableRecord
  2
02__ASM_ALL_AXES
 70
     0
 62
     7
  6
CONTINUOUS
370
    -3
390
64C
347
68E
348
0
  0
LAYER
  5
204
330
2
100
AcDbSymbolTableRecord
100
AcDbLayerTableRecord
  2
02___PRT_ALL_AXES
 70
     0
 62
     7
  6
CONTINUOUS
370
    -3
390
64C
347
68E
348
0
  0
LAYER
  5
205
330
2
100
AcDbSymbolTableRecord
100
AcDbLayerTableRecord
  2
03_ALL_CURVES
 70
     0
 62
     7
  6
CONTINUOUS
370
    -3
390
64C
347
68E
348
0
  0
LAYER
  5
206
330
2
100
AcDbSymbolTableRecord
100
AcDbLayerTableRecord
  2
03__ASM_ALL_CURVES
 70
     0
 62
     7
  6
CONTINUOUS
370
    -3
390
64C
347
68E
348
0
  0
LAYER
  5
207
330
2
100
AcDbSymbolTableRecord
100
AcDbLayerTableRecord
  2
03___PRT_ALL_CURVES
 70
     0
 62
     7
  6
CONTINUOUS
370
    -3
390
64C
347
68E
348
0
  0
LAYER
  5
208
330
2
100
AcDbSymbolTableRecord
100
AcDbLayerTableRecord
  2
04_ALL_DTM_PNT
 70
     0
 62
     7
  6
CONTINUOUS
370
    -3
390
64C
347
68E
348
0
  0
LAYER
  5
209
330
2
100
AcDbSymbolTableRecord
100
AcDbLayerTableRecord
  2
04__ASM_ALL_DTM_PNT
 70
     0
 62
     7
  6
CONTINUOUS
370
    -3
390
64C
347
68E
348
0
  0
LAYER
  5
20A
330
2
100
AcDbSymbolTableRecord
100
AcDbLayerTableRecord
  2
04___PRT_ALL_DTM_PNT
 70
     0
 62
     7
  6
CONTINUOUS
370
    -3
390
64C
347
68E
348
0
  0
LAYER
  5
20B
330
2
100
AcDbSymbolTableRecord
100
AcDbLayerTableRecord
  2
05_ALL_DTM_CSYS
 70
     0
 62
     7
  6
CONTINUOUS
370
    -3
390
64C
347
68E
348
0
  0
LAYER
  5
20C
330
2
100
AcDbSymbolTableRecord
100
AcDbLayerTableRecord
  2
05__ASM_ALL_DTM_CSYS
 70
     0
 62
     7
  6
CONTINUOUS
370
    -3
390
64C
347
68E
348
0
  0
LAYER
  5
20D
330
2
100
AcDbSymbolTableRecord
100
AcDbLayerTableRecord
  2
05__ASM_DEF_DTM_CSYS
 70
     0
 62
     7
  6
CONTINUOUS
370
    -3
390
64C
347
68E
348
0
  0
LAYER
  5
20E
330
2
100
AcDbSymbolTableRecord
100
AcDbLayerTableRecord
  2
05___PRT_ALL_DTM_CSYS
 70
     0
 62
     7
  6
CONTINUOUS
370
    -3
390
64C
347
68E
348
0
  0
LAYER
  5
20F
330
2
100
AcDbSymbolTableRecord
100
AcDbLayerTableRecord
  2
05___PRT_DEF_DTM_CSYS
 70
     0
 62
     7
  6
CONTINUOUS
370
    -3
390
64C
347
68E
348
0
  0
LAYER
  5
210
330
2
100
AcDbSymbolTableRecord
100
AcDbLayerTableRecord
  2
06_ALL_SURFS
 70
     0
 62
     7
  6
CONTINUOUS
370
    -3
390
64C
347
68E
348
0
  0
LAYER
  5
211
330
2
100
AcDbSymbolTableRecord
100
AcDbLayerTableRecord
  2
06__ASM_ALL_SURFS
 70
     0
 62
     7
  6
CONTINUOUS
370
    -3
390
64C
347
68E
348
0
  0
LAYER
  5
212
330
2
100
AcDbSymbolTableRecord
100
AcDbLayerTableRecord
  2
06___PRT_ALL_SURFS
 70
     0
 62
     7
  6
CONTINUOUS
370
    -3
390
64C
347
68E
348
0
  0
LAYER
  5
213
330
2
100
AcDbSymbolTableRecord
100
AcDbLayerTableRecord
  2
07__ASM_ALL_SKELETONS
 70
     0
 62
     7
  6
CONTINUOUS
370
    -3
390
64C
347
68E
348
0
  0
LAYER
  5
214
330
2
100
AcDbSymbolTableRecord
100
AcDbLayerTableRecord
  2
1_ALL_PLANES
 70
     0
 62
     7
  6
CONTINUOUS
370
    -3
390
64C
347
68E
348
0
  0
LAYER
  5
215
330
2
100
AcDbSymbolTableRecord
100
AcDbLayerTableRecord
  2
2_ALL_CSYS
 70
     0
 62
     7
  6
CONTINUOUS
370
    -3
390
64C
347
68E
348
0
  0
LAYER
  5
216
330
2
100
AcDbSymbolTableRecord
100
AcDbLayerTableRecord
  2
3_ALL_AXES
 70
     0
 62
     7
  6
CONTINUOUS
370
    -3
390
64C
347
68E
348
0
  0
LAYER
  5
217
330
2
100
AcDbSymbolTableRecord
100
AcDbLayerTableRecord
  2
4_ALL_POINTS
 70
     0
 62
     7
  6
CONTINUOUS
370
    -3
390
64C
347
68E
348
0
  0
LAYER
  5
218
330
2
100
AcDbSymbolTableRecord
100
AcDbLayerTableRecord
  2
5_ALL_CURVES
 70
     0
 62
     7
  6
CONTINUOUS
370
    -3
390
64C
347
68E
348
0
  0
LAYER
  5
219
330
2
100
AcDbSymbolTableRecord
100
AcDbLayerTableRecord
  2
6_ALL_SURFS
 70
     0
 62
     7
  6
CONTINUOUS
370
    -3
390
64C
347
68E
348
0
  0
LAYER
  5
21A
330
2
100
AcDbSymbolTableRecord
100
AcDbLayerTableRecord
  2
7_ALL_FEATURES
 70
     0
 62
     7
  6
CONTINUOUS
370
    -3
390
64C
347
68E
348
0
  0
LAYER
  5
21B
330
2
100
AcDbSymbolTableRecord
100
AcDbLayerTableRecord
  2
9_SOLID
 70
     0
 62
     7
  6
CONTINUOUS
370
    -3
390
64C
347
68E
348
0
  0
LAYER
  5
21C
330
2
100
AcDbSymbolTableRecord
100
AcDbLayerTableRecord
  2
INTFCLR_2
 70
     0
 62
     7
  6
CONTINUOUS
370
    -3
390
64C
347
68E
348
0
  0
LAYER
  5
21D
330
2
100
AcDbSymbolTableRecord
100
AcDbLayerTableRecord
  2
XXX_SOLIDO
 70
     0
 62
     7
  6
CONTINUOUS
370
    -3
390
64C
347
68E
348
0
  0
ENDTAB
  0
TABLE
  2
STYLE
  5
3
330
0
100
AcDbSymbolTable
 70
     7
  0
STYLE
  5
11
330
3
100
AcDbSymbolTableRecord
100
AcDbTextStyleTableRecord
  2
STANDARD
 70
     0
 40
0.0
 41
1.0
 50
0.0
 71
     0
 42
0.2
  3
arial.ttf
  4

  0
STYLE
  5
21E
330
3
100
AcDbSymbolTableRecord
100
AcDbTextStyleTableRecord
  2
TEXTSTYLE_1
 70
     0
 40
0.0
 41
0.8
 50
0.0
 71
     0
 42
0.2
  3
gdt
  4

  0
STYLE
  5
21F
330
3
100
AcDbSymbolTableRecord
100
AcDbTextStyleTableRecord
  2
TEXTSTYLE_2
 70
     0
 40
0.0
 41
0.9
 50
0.0
 71
     0
 42
0.2
  3
txt
  4

  0
STYLE
  5
220
330
3
100
AcDbSymbolTableRecord
100
AcDbTextStyleTableRecord
  2
TEXTSTYLE_3
 70
     0
 40
0.0
 41
0.9
 50
0.0
 71
     0
 42
0.2
  3
txt
  4

  0
STYLE
  5
221
330
3
100
AcDbSymbolTableRecord
100
AcDbTextStyleTableRecord
  2
TEXTSTYLE_4
 70
     0
 40
0.0
 41
0.85
 50
0.0
 71
     0
 42
0.2
  3
gdt
  4

  0
STYLE
  5
222
330
3
100
AcDbSymbolTableRecord
100
AcDbTextStyleTableRecord
  2
TEXTSTYLE_5
 70
     0
 40
0.0
 41
2.0
 50
0.0
 71
     0
 42
0.2
  3
txt
  4

  0
STYLE
  5
223
330
3
100
AcDbSymbolTableRecord
100
AcDbTextStyleTableRecord
  2
TEXTSTYLE_6
 70
     0
 40
0.0
 41
0.85
 50
0.0
 71
     0
 42
0.2
  3
txt
  4

  0
ENDTAB
  0
TABLE
  2
VIEW
  5
6
330
0
100
AcDbSymbolTable
 70
     0
  0
ENDTAB
  0
TABLE
  2
UCS
  5
7
330
0
100
AcDbSymbolTable
 70
     0
  0
ENDTAB
  0
TABLE
  2
APPID
  5
9
330
0
100
AcDbSymbolTable
 70
     1
  0
APPID
  5
224
330
9
100
AcDbSymbolTableRecord
100
AcDbRegAppTableRecord
  2
ACAD
 70
     0
  0
ENDTAB
  0
TABLE
  2
DIMSTYLE
  5
A
330
0
100
AcDbSymbolTable
 70
     4
100
AcDbDimStyleTable
  0
DIMSTYLE
105
22C
330
A
100
AcDbSymbolTableRecord
100
AcDbDimStyleTableRecord
  2
STANDARD
 70
     0
 41
2.5
 42
0.75
 44
0.75
 47
0.01
 48
0.01
 71
     1
 73
     0
 74
     0
 77
     1
 78
     8
 79
     2
140
3.0
147
0.625
171
     1
178
     0
179
     2
271
     2
272
     2
284
     8
340
11
341
225
342
225
343
225
344
225
  0
DIMSTYLE
105
22D
330
A
100
AcDbSymbolTableRecord
100
AcDbDimStyleTableRecord
  2
DIMSTYLE_1
 70
     0
 41
2.5
 42
0.75
 44
0.75
 47
0.5
 48
0.5
 73
     0
 74
     0
 77
     1
 78
     8
 79
     2
140
3.0
147
0.75
171
     1
178
     0
179
     2
271
     2
272
     2
284
     8
340
11
341
225
342
225
343
225
344
225
  0
DIMSTYLE
105
22E
330
A
100
AcDbSymbolTableRecord
100
AcDbDimStyleTableRecord
  2
DIMSTYLE_2
 70
     0
 41
2.5
 42
0.75
 44
0.75
 47
0.3
 48
0.3
 73
     0
 74
     0
 77
     1
 78
     8
 79
     2
140
3.0
147
0.75
171
     1
178
     0
179
     2
271
     2
272
     2
284
     8
340
11
341
225
342
225
343
225
344
225
  0
DIMSTYLE
105
22F
330
A
100
AcDbSymbolTableRecord
100
AcDbDimStyleTableRecord
  2
DIMSTYLE_3
 70
     0
 41
2.5
 42
0.75
 44
0.75
 47
0.2
 48
0.2
 73
     0
 74
     0
 77
     1
 78
     8
 79
     2
140
3.0
147
0.75
171
     1
178
     0
179
     2
271
     2
272
     2
284
     8
340
11
341
225
342
225
343
225
344
225
  0
ENDTAB
  0
TABLE
  2
BLOCK_RECORD
  5
1
330
0
100
AcDbSymbolTable
 70
     7
  0
BLOCK_RECORD
  5
1F
330
1
100
AcDbSymbolTableRecord
100
AcDbBlockTableRecord
  2
*MODEL_SPACE
340
670
 70
     0
280
     1
281
     0
  0
BLOCK_RECORD
  5
1B
330
1
100
AcDbSymbolTableRecord
100
AcDbBlockTableRecord
  2
*PAPER_SPACE
340
671
 70
     0
280
     1
281
     0
  0
BLOCK_RECORD
  5
225
330
1
100
AcDbSymbolTableRecord
100
AcDbBlockTableRecord
  2
_CLOSED
340
0
102
{BLKREFS
331
282
331
283
331
28B
331
28C
331
296
331
297
331
29F
331
2A0
102
}
 70
     0
280
     1
281
     0
  0
BLOCK_RECORD
  5
226
330
1
100
AcDbSymbolTableRecord
100
AcDbBlockTableRecord
  2
*D1
340
0
 70
     0
280
     1
281
     0
  0
BLOCK_RECORD
  5
227
330
1
100
AcDbSymbolTableRecord
100
AcDbBlockTableRecord
  2
*D2
340
0
 70
     0
280
     1
281
     0
  0
BLOCK_RECORD
  5
228
330
1
100
AcDbSymbolTableRecord
100
AcDbBlockTableRecord
  2
*D3
340
0
 70
     0
280
     1
281
     0
  0
BLOCK_RECORD
  5
229
330
1
100
AcDbSymbolTableRecord
100
AcDbBlockTableRecord
  2
*D4
340
0
 70
     0
280
     1
281
     0
  0
BLOCK_RECORD
  5
22A
330
1
100
AcDbSymbolTableRecord
100
AcDbBlockTableRecord
  2
LOGO2_BL1
340
0
102
{BLKREFS
331
634
102
}
 70
     0
280
     1
281
     0
  0
BLOCK_RECORD
  5
22B
330
1
100
AcDbSymbolTableRecord
100
AcDbBlockTableRecord
  2
PROIEZIONE_EU_BL0
340
0
102
{BLKREFS
331
631
102
}
 70
     0
280
     1
281
     0
  0
ENDTAB
  0
ENDSEC
  0
SECTION
  2
BLOCKS
  0
BLOCK
  5
20
330
1F
100
AcDbEntity
  8
0
100
AcDbBlockBegin
  2
*MODEL_SPACE
 70
     0
 10
0.0
 20
0.0
 30
0.0
  3
*MODEL_SPACE
  1

  0
ENDBLK
  5
21
330
1F
100
AcDbEntity
  8
0
100
AcDbBlockEnd
  0
BLOCK
  5
1C
330
1B
100
AcDbEntity
 67
     1
  8
0
100
AcDbBlockBegin
  2
*PAPER_SPACE
 70
     0
 10
0.0
 20
0.0
 30
0.0
  3
*PAPER_SPACE
  1

  0
ENDBLK
  5
1D
330
1B
100
AcDbEntity
 67
     1
  8
0
100
AcDbBlockEnd
  0
BLOCK
  5
276
330
225
100
AcDbEntity
  8
0
100
AcDbBlockBegin
  2
_CLOSED
 70
     0
 10
0.0
 20
0.0
 30
0.0
  3
_CLOSED
  1

  0
LINE
  5
277
330
225
100
AcDbEntity
  8
0
  6
ByBlock
 62
     0
100
AcDbLine
 10
0.0
 20
0.0
 30
0.0
 11
-1.0
 21
0.2
 31
0.0
  0
LINE
  5
278
330
225
100
AcDbEntity
  8
0
  6
ByBlock
 62
     0
100
AcDbLine
 10
-1.0
 20
0.2
 30
0.0
 11
-1.0
 21
-0.2
 31
0.0
  0
LINE
  5
279
330
225
100
AcDbEntity
  8
0
  6
ByBlock
 62
     0
100
AcDbLine
 10
-1.0
 20
-0.2
 30
0.0
 11
0.0
 21
0.0
 31
0.0
  0
LINE
  5
27A
330
225
100
AcDbEntity
  8
0
  6
ByBlock
 62
     0
100
AcDbLine
 10
-1.0
 20
0.0
 30
0.0
 11
0.0
 21
0.0
 31
0.0
  0
ENDBLK
  5
27B
330
225
100
AcDbEntity
  8
0
  6
ByBlock
 62
     0
100
AcDbBlockEnd
  0
BLOCK
  5
27C
330
226
100
AcDbEntity
  8
0
100
AcDbBlockBegin
  2
*D1
 70
     1
 10
0.0
 20
0.0
 30
0.0
  3
*D1
  1

  0
MTEXT
  5
27D
330
226
100
AcDbEntity
  8
0
  6
Continuous
 62
     2
100
AcDbMText
 10
158.4626320912
 20
211.1638042069
 30
0.0
 40
3.0
 41
6.9925650558
 46
0.0
 71
     2
 72
     1
  1
140
 73
     1
 44
1.0
  0
LINE
  5
27E
330
226
100
AcDbEntity
  8
0
  6
Continuous
 62
     2
100
AcDbLine
 10
88.4626320912
 20
172.6488961037
 30
0.0
 11
88.4626320912
 21
208.1638042069
 31
0.0
  0
LINE
  5
27F
330
226
100
AcDbEntity
  8
0
  6
Continuous
 62
     2
100
AcDbLine
 10
228.4626320912
 20
172.6488961037
 30
0.0
 11
228.4626320912
 21
208.1638042069
 31
0.0
  0
LINE
  5
280
330
226
100
AcDbEntity
  8
0
  6
Continuous
 62
     2
100
AcDbLine
 10
88.4626320912
 20
207.4138042069
 30
0.0
 11
158.4626320912
 21
207.4138042069
 31
0.0
  0
LINE
  5
281
330
226
100
AcDbEntity
  8
0
  6
Continuous
 62
     2
100
AcDbLine
 10
228.4626320912
 20
207.4138042069
 30
0.0
 11
158.4626320912
 21
207.4138042069
 31
0.0
  0
INSERT
  5
282
330
226
100
AcDbEntity
  8
0
  6
Continuous
 62
     2
100
AcDbBlockReference
  2
_CLOSED
 10
88.4626320912
 20
207.4138042069
 30
0.0
 41
2.5
 42
2.5
 43
2.5
 50
180.0
  0
INSERT
  5
283
330
226
100
AcDbEntity
  8
0
  6
Continuous
 62
     2
100
AcDbBlockReference
  2
_CLOSED
 10
228.4626320912
 20
207.4138042069
 30
0.0
 41
2.5
 42
2.5
 43
2.5
  0
ENDBLK
  5
284
330
226
100
AcDbEntity
  8
0
  6
ByBlock
 62
     0
100
AcDbBlockEnd
  0
BLOCK
  5
285
330
227
100
AcDbEntity
  8
0
100
AcDbBlockBegin
  2
*D2
 70
     1
 10
0.0
 20
0.0
 30
0.0
  3
*D2
  1

  0
MTEXT
  5
286
330
227
100
AcDbEntity
  8
0
  6
Continuous
 62
     2
100
AcDbMText
 10
158.4626320912
 20
198.6560875373
 30
0.0
 40
3.0
 41
12.2774163569
 46
0.0
 71
     2
 72
     1
  1
{\Fgdt;o}\Farial.ttf;97,7
  7
TEXTSTYLE_4
 73
     1
 44
1.0
  0
LINE
  5
287
330
227
100
AcDbEntity
  8
0
  6
Continuous
 62
     2
100
AcDbLine
 10
109.6126320912
 20
183.5020091769
 30
0.0
 11
109.6126320912
 21
195.6560875373
 31
0.0
  0
LINE
  5
288
330
227
100
AcDbEntity
  8
0
  6
Continuous
 62
     2
100
AcDbLine
 10
207.3126320912
 20
182.7020091769
 30
0.0
 11
207.3126320912
 21
195.6560875373
 31
0.0
  0
LINE
  5
289
330
227
100
AcDbEntity
  8
0
  6
Continuous
 62
     2
100
AcDbLine
 10
109.6126320912
 20
194.9060875373
 30
0.0
 11
158.4626320912
 21
194.9060875373
 31
0.0
  0
LINE
  5
28A
330
227
100
AcDbEntity
  8
0
  6
Continuous
 62
     2
100
AcDbLine
 10
207.3126320912
 20
194.9060875373
 30
0.0
 11
158.4626320912
 21
194.9060875373
 31
0.0
  0
INSERT
  5
28B
330
227
100
AcDbEntity
  8
0
  6
Continuous
 62
     2
100
AcDbBlockReference
  2
_CLOSED
 10
109.6126320912
 20
194.9060875373
 30
0.0
 41
2.5
 42
2.5
 43
2.5
 50
180.0
  0
INSERT
  5
28C
330
227
100
AcDbEntity
  8
0
  6
Continuous
 62
     2
100
AcDbBlockReference
  2
_CLOSED
 10
207.3126320912
 20
194.9060875373
 30
0.0
 41
2.5
 42
2.5
 43
2.5
  0
ENDBLK
  5
28D
330
227
100
AcDbEntity
  8
0
  6
ByBlock
 62
     0
100
AcDbBlockEnd
  0
BLOCK
  5
28E
330
228
100
AcDbEntity
  8
0
100
AcDbBlockBegin
  2
*D3
 70
     1
 10
0.0
 20
0.0
 30
0.0
  3
*D3
  1

  0
MTEXT
  5
28F
330
228
100
AcDbEntity
  8
0
  6
Continuous
 62
     2
100
AcDbMText
 10
234.3625446683
 20
336.1500458843
 30
0.0
 40
3.0
 41
8.1524163569
 46
0.0
 71
     2
 72
     1
  1
12,5
 11
0.0
 21
1.0
 31
0.0
 73
     1
 44
1.0
  0
LINE
  5
290
330
228
100
AcDbEntity
  8
0
  6
Continuous
 62
     2
100
AcDbLine
 10
212.0327664421
 20
342.4000458843
 30
0.0
 11
238.8625446683
 21
342.4000458843
 31
0.0
  0
LINE
  5
291
330
228
100
AcDbEntity
  8
0
  6
Continuous
 62
     2
100
AcDbLine
 10
230.4285486904
 20
329.9000458843
 30
0.0
 11
238.8625446683
 21
329.9000458843
 31
0.0
  0
LINE
  5
292
330
228
100
AcDbEntity
  8
0
  6
Continuous
 62
     2
100
AcDbLine
 10
238.1125446683
 20
342.4000458843
 30
0.0
 11
238.1125446683
 21
343.4000458843
 31
0.0
  0
LINE
  5
293
330
228
100
AcDbEntity
  8
0
  6
Continuous
 62
     2
100
AcDbLine
 10
238.1125446683
 20
343.4000458843
 30
0.0
 11
238.1125446683
 21
336.1500458843
 31
0.0
  0
LINE
  5
294
330
228
100
AcDbEntity
  8
0
  6
Continuous
 62
     2
100
AcDbLine
 10
238.1125446683
 20
329.9000458843
 30
0.0
 11
238.1125446683
 21
328.9000458843
 31
0.0
  0
LINE
  5
295
330
228
100
AcDbEntity
  8
0
  6
Continuous
 62
     2
100
AcDbLine
 10
238.1125446683
 20
328.9000458843
 30
0.0
 11
238.1125446683
 21
336.1500458843
 31
0.0
  0
INSERT
  5
296
330
228
100
AcDbEntity
  8
0
  6
Continuous
 62
     2
100
AcDbBlockReference
  2
_CLOSED
 10
238.1125446683
 20
342.4000458843
 30
0.0
 41
2.5
 42
2.5
 43
2.5
 50
270.0
  0
INSERT
  5
297
330
228
100
AcDbEntity
  8
0
  6
Continuous
 62
     2
100
AcDbBlockReference
  2
_CLOSED
 10
238.1125446683
 20
329.9000458843
 30
0.0
 41
2.5
 42
2.5
 43
2.5
 50
90.0
  0
ENDBLK
  5
298
330
228
100
AcDbEntity
  8
0
  6
ByBlock
 62
     0
100
AcDbBlockEnd
  0
BLOCK
  5
299
330
229
100
AcDbEntity
  8
0
100
AcDbBlockBegin
  2
*D4
 70
     1
 10
0.0
 20
0.0
 30
0.0
  3
*D4
  1

  0
MTEXT
  5
29A
330
229
100
AcDbEntity
  8
0
  6
Continuous
 62
     2
100
AcDbMText
 10
467.6159535864
 20
310.6500458843
 30
0.0
 40
3.0
 41
8.1524163569
 46
0.0
 71
     2
 72
     1
  1
63,5
 11
0.0
 21
1.0
 31
0.0
 73
     1
 44
1.0
  0
LINE
  5
29B
330
229
100
AcDbEntity
  8
0
  6
Continuous
 62
     2
100
AcDbLine
 10
456.5798895519
 20
278.9000458843
 30
0.0
 11
472.1159535864
 21
278.9000458843
 31
0.0
  0
LINE
  5
29C
330
229
100
AcDbEntity
  8
0
  6
Continuous
 62
     2
100
AcDbLine
 10
455.7289833148
 20
342.4000458843
 30
0.0
 11
472.1159535864
 21
342.4000458843
 31
0.0
  0
LINE
  5
29D
330
229
100
AcDbEntity
  8
0
  6
Continuous
 62
     2
100
AcDbLine
 10
471.3659535864
 20
278.9000458843
 30
0.0
 11
471.3659535864
 21
310.6500458843
 31
0.0
  0
LINE
  5
29E
330
229
100
AcDbEntity
  8
0
  6
Continuous
 62
     2
100
AcDbLine
 10
471.3659535864
 20
342.4000458843
 30
0.0
 11
471.3659535864
 21
310.6500458843
 31
0.0
  0
INSERT
  5
29F
330
229
100
AcDbEntity
  8
0
  6
Continuous
 62
     2
100
AcDbBlockReference
  2
_CLOSED
 10
471.3659535864
 20
278.9000458843
 30
0.0
 41
2.5
 42
2.5
 43
2.5
 50
270.0
  0
INSERT
  5
2A0
330
229
100
AcDbEntity
  8
0
  6
Continuous
 62
     2
100
AcDbBlockReference
  2
_CLOSED
 10
471.3659535864
 20
342.4000458843
 30
0.0
 41
2.5
 42
2.5
 43
2.5
 50
90.0
  0
ENDBLK
  5
2A1
330
229
100
AcDbEntity
  8
0
  6
ByBlock
 62
     0
100
AcDbBlockEnd
  0
BLOCK
  5
230
330
22A
100
AcDbEntity
  8
0
100
AcDbBlockBegin
  2
LOGO2_BL1
 70
     0
 10
467.8360420644
 20
42.025479964
 30
0.0
  3
LOGO2_BL1
  1

  0
LINE
  5
231
330
22A
100
AcDbEntity
  8
0
  6
Continuous
 62
     7
100
AcDbLine
 10
459.5789672926
 20
45.2209713028
 30
0.0
 11
458.2746263632
 21
45.2209713028
 31
0.0
  0
LINE
  5
232
330
22A
100
AcDbEntity
  8
0
  6
Continuous
 62
     7
100
AcDbLine
 10
458.2746263632
 20
45.2209713028
 30
0.0
 11
458.2746263632
 21
34.761905243
 31
0.0
  0
LINE
  5
233
330
22A
100
AcDbEntity
  8
0
  6
Continuous
 62
     7
100
AcDbLine
 10
458.2746263632
 20
34.761905243
 30
0.0
 11
462.7556812515
 21
34.761905243
 31
0.0
  0
LINE
  5
234
330
22A
100
AcDbEntity
  8
0
  6
Continuous
 62
     7
100
AcDbLine
 10
462.7556812515
 20
34.761905243
 30
0.0
 11
462.7556812515
 21
35.954759568
 31
0.0
  0
LINE
  5
235
330
22A
100
AcDbEntity
  8
0
  6
Continuous
 62
     7
100
AcDbLine
 10
462.7556812515
 20
35.954759568
 30
0.0
 11
459.5789672926
 21
35.954759568
 31
0.0
  0
LINE
  5
236
330
22A
100
AcDbEntity
  8
0
  6
Continuous
 62
     7
100
AcDbLine
 10
459.5789672926
 20
35.954759568
 30
0.0
 11
459.5789672926
 21
45.2209713028
 31
0.0
  0
LINE
  5
237
330
22A
100
AcDbEntity
  8
0
  6
Continuous
 62
     7
100
AcDbLine
 10
474.5152935089
 20
45.2209713028
 30
0.0
 11
473.2114759908
 21
45.2209713028
 31
0.0
  0
LINE
  5
238
330
22A
100
AcDbEntity
  8
0
  6
Continuous
 62
     7
100
AcDbLine
 10
473.2114759908
 20
45.2209713028
 30
0.0
 11
473.2114759908
 21
34.761905243
 31
0.0
  0
LINE
  5
239
330
22A
100
AcDbEntity
  8
0
  6
Continuous
 62
     7
100
AcDbLine
 10
473.2114759908
 20
34.761905243
 30
0.0
 11
477.6926617319
 21
34.761905243
 31
0.0
  0
LINE
  5
23A
330
22A
100
AcDbEntity
  8
0
  6
Continuous
 62
     7
100
AcDbLine
 10
477.6926617319
 20
34.761905243
 30
0.0
 11
477.6926617319
 21
35.954759568
 31
0.0
  0
LINE
  5
23B
330
22A
100
AcDbEntity
  8
0
  6
Continuous
 62
     7
100
AcDbLine
 10
477.6926617319
 20
35.954759568
 30
0.0
 11
474.5152935089
 21
35.954759568
 31
0.0
  0
LINE
  5
23C
330
22A
100
AcDbEntity
  8
0
  6
Continuous
 62
     7
100
AcDbLine
 10
474.5152935089
 20
35.954759568
 30
0.0
 11
474.5152935089
 21
45.2209713028
 31
0.0
  0
LWPOLYLINE
  5
23D
330
22A
100
AcDbEntity
  8
0
  6
Continuous
 62
     7
100
AcDbPolyline
 90
        2
 70
     0
 43
0.2
 10
456.6290212741
 20
31.4183539361
 10
456.6290212741
 20
29.5612906867
  0
LWPOLYLINE
  5
23E
330
22A
100
AcDbEntity
  8
0
  6
Continuous
 62
     7
100
AcDbPolyline
 90
        2
 70
     0
 43
0.2
 10
456.6290212741
 20
29.5612906867
 10
457.4247372845
 20
29.5612906867
  0
LWPOLYLINE
  5
23F
330
22A
100
AcDbEntity
  8
0
  6
Continuous
 62
     7
100
AcDbPolyline
 90
        2
 70
     0
 43
0.2
 10
457.4247372845
 20
29.5612906867
 10
457.4247372845
 20
29.7732722583
  0
LWPOLYLINE
  5
240
330
22A
100
AcDbEntity
  8
0
  6
Continuous
 62
     7
100
AcDbPolyline
 90
        2
 70
     0
 43
0.2
 10
457.4247372845
 20
29.7732722583
 10
456.860630769
 20
29.7732722583
  0
LWPOLYLINE
  5
241
330
22A
100
AcDbEntity
  8
0
  6
Continuous
 62
     7
100
AcDbPolyline
 90
        2
 70
     0
 43
0.2
 10
456.860630769
 20
29.7732722583
 10
456.860630769
 20
31.4183539361
  0
LWPOLYLINE
  5
242
330
22A
100
AcDbEntity
  8
0
  6
Continuous
 62
     7
100
AcDbPolyline
 90
        2
 70
     0
 43
0.2
 10
456.860630769
 20
31.4183539361
 10
456.6290212741
 20
31.4183539361
  0
SPLINE
  5
243
330
22A
100
AcDbEntity
  8
0
  6
Continuous
 62
     7
100
AcDbSpline
 70
     3
 71
     3
 72
    35
 73
    31
 74
     0
 42
0.000000001
 43
0.0000001
 40
0.0
 40
0.0
 40
0.0
 40
0.0
 40
1.0
 40
1.0
 40
1.0
 40
2.0
 40
2.0
 40
2.0
 40
3.0
 40
3.0
 40
3.0
 40
4.0
 40
4.0
 40
4.0
 40
5.0
 40
5.0
 40
5.0
 40
6.0
 40
6.0
 40
6.0
 40
7.0
 40
7.0
 40
7.0
 40
8.0
 40
8.0
 40
8.0
 40
9.0
 40
9.0
 40
9.0
 40
10.0
 40
10.0
 40
10.0
 40
10.0
 10
458.82303054
 20
30.7138423426
 30
0.0
 10
458.82303054
 20
30.7138423426
 30
0.0
 10
458.82303054
 20
30.0517270634
 30
0.0
 10
458.82303054
 20
30.0517270634
 30
0.0
 10
458.82303054
 20
29.7366334681
 30
0.0
 10
458.9708942289
 20
29.5220348401
 30
0.0
 10
459.3109807132
 20
29.5220348401
 30
0.0
 10
459.6505437862
 20
29.5220348401
 30
0.0
 10
459.7986691806
 20
29.7366334681
 30
0.0
 10
459.7986691806
 20
30.0517270634
 30
0.0
 10
459.7986691806
 20
30.0517270634
 30
0.0
 10
459.7986691806
 20
30.7138423426
 30
0.0
 10
459.7986691806
 20
30.7138423426
 30
0.0
 10
459.7986691806
 20
30.7138423426
 30
0.0
 10
459.5766119418
 20
30.7138423426
 30
0.0
 10
459.5766119418
 20
30.7138423426
 30
0.0
 10
459.5766119418
 20
30.7138423426
 30
0.0
 10
459.5766119418
 20
30.0768508053
 30
0.0
 10
459.5766119418
 20
30.0768508053
 30
0.0
 10
459.5766119418
 20
29.8910397981
 30
0.0
 10
459.5298974843
 20
29.7282588875
 30
0.0
 10
459.3109807132
 20
29.7282588875
 30
0.0
 10
459.0915405307
 20
29.7282588875
 30
0.0
 10
459.0448260733
 20
29.8910397981
 30
0.0
 10
459.0448260733
 20
30.0768508053
 30
0.0
 10
459.0448260733
 20
30.0768508053
 30
0.0
 10
459.0448260733
 20
30.7138423426
 30
0.0
 10
459.0448260733
 20
30.7138423426
 30
0.0
 10
459.0448260733
 20
30.7138423426
 30
0.0
 10
458.82303054
 20
30.7138423426
 30
0.0
 10
458.82303054
 20
30.7138423426
 30
0.0
  0
SPLINE
  5
244
330
22A
100
AcDbEntity
  8
0
  6
Continuous
 62
     7
100
AcDbSpline
 70
     3
 71
     3
 72
    35
 73
    31
 74
     0
 42
0.000000001
 43
0.0000001
 40
0.0
 40
0.0
 40
0.0
 40
0.0
 40
1.0
 40
1.0
 40
1.0
 40
2.0
 40
2.0
 40
2.0
 40
3.0
 40
3.0
 40
3.0
 40
4.0
 40
4.0
 40
4.0
 40
5.0
 40
5.0
 40
5.0
 40
6.0
 40
6.0
 40
6.0
 40
7.0
 40
7.0
 40
7.0
 40
8.0
 40
8.0
 40
8.0
 40
9.0
 40
9.0
 40
9.0
 40
10.0
 40
10.0
 40
10.0
 40
10.0
 10
462.2218017378
 20
30.6724928509
 30
0.0
 10
462.1333452302
 20
30.7237871571
 30
0.0
 10
462.0198958335
 20
30.7489108989
 30
0.0
 10
461.9162603985
 20
30.7489108989
 30
0.0
 10
461.5613875454
 20
30.7489108989
 30
0.0
 10
461.2859423551
 20
30.4851116098
 30
0.0
 10
461.2859423551
 20
30.1276217002
 30
0.0
 10
461.2859423551
 20
29.7826936615
 30
0.0
 10
461.5643971603
 20
29.5225582514
 30
0.0
 10
461.9039602333
 20
29.5225582514
 30
0.0
 10
462.0198958335
 20
29.5225582514
 30
0.0
 10
462.1206525065
 20
29.5445415255
 30
0.0
 10
462.2218017378
 20
29.5984528881
 30
0.0
 10
462.2218017378
 20
29.5984528881
 30
0.0
 10
462.2218017378
 20
29.8810949836
 30
0.0
 10
462.2218017378
 20
29.8810949836
 30
0.0
 10
462.137925079
 20
29.7879277744
 30
0.0
 10
462.0344204968
 20
29.7287822988
 30
0.0
 10
461.9063155841
 20
29.7287822988
 30
0.0
 10
461.672612444
 20
29.7287822988
 30
0.0
 10
461.5073453299
 20
29.9009846125
 30
0.0
 10
461.5073453299
 20
30.1375665147
 30
0.0
 10
461.5073453299
 20
30.3495480862
 30
0.0
 10
461.6750986477
 20
30.5416400289
 30
0.0
 10
461.8919217737
 20
30.5416400289
 30
0.0
 10
462.024737388
 20
30.5416400289
 30
0.0
 10
462.1333452302
 20
30.4877286662
 30
0.0
 10
462.2218017378
 20
30.3867102877
 30
0.0
 10
462.2218017378
 20
30.3867102877
 30
0.0
 10
462.2218017378
 20
30.6724928509
 30
0.0
 10
462.2218017378
 20
30.6724928509
 30
0.0
  0
SPLINE
  5
245
330
22A
100
AcDbEntity
  8
0
  6
Continuous
 62
     7
100
AcDbSpline
 70
     3
 71
     3
 72
    32
 73
    28
 74
     0
 42
0.000000001
 43
0.0000001
 40
0.0
 40
0.0
 40
0.0
 40
0.0
 40
1.0
 40
1.0
 40
1.0
 40
2.0
 40
2.0
 40
2.0
 40
3.0
 40
3.0
 40
3.0
 40
4.0
 40
4.0
 40
4.0
 40
5.0
 40
5.0
 40
5.0
 40
6.0
 40
6.0
 40
6.0
 40
7.0
 40
7.0
 40
7.0
 40
8.0
 40
8.0
 40
8.0
 40
9.0
 40
9.0
 40
9.0
 40
9.0
 10
464.7536729901
 20
30.1009277245
 30
0.0
 10
464.7536729901
 20
30.1009277245
 30
0.0
 10
464.7536729901
 20
30.1349494582
 30
0.0
 10
464.7536729901
 20
30.1349494582
 30
0.0
 10
464.7536729901
 20
30.4772604405
 30
0.0
 10
464.5808164123
 20
30.7489108989
 30
0.0
 10
464.2141668051
 20
30.7489108989
 30
0.0
 10
463.8425447907
 20
30.7489108989
 30
0.0
 10
463.6528081989
 20
30.4824945534
 30
0.0
 10
463.6528081989
 20
30.1276217002
 30
0.0
 10
463.6528081989
 20
29.7879277744
 30
0.0
 10
463.8668834156
 20
29.5220348401
 30
0.0
 10
464.2190083595
 20
29.5220348401
 30
0.0
 10
464.4430283907
 20
29.5220348401
 30
0.0
 10
464.6451960007
 20
29.6377087347
 30
0.0
 10
464.7536729901
 20
29.8371284354
 30
0.0
 10
464.7536729901
 20
29.8371284354
 30
0.0
 10
464.5660300434
 20
29.9439043381
 30
0.0
 10
464.5660300434
 20
29.9439043381
 30
0.0
 10
464.482545943
 20
29.8052003469
 30
0.0
 10
464.3913415261
 20
29.7193608956
 30
0.0
 10
464.2217562688
 20
29.7193608956
 30
0.0
 10
464.0097746972
 20
29.7193608956
 30
0.0
 10
463.8768282301
 20
29.9041250803
 30
0.0
 10
463.8744728793
 20
30.1009277245
 30
0.0
 10
463.8744728793
 20
30.1009277245
 30
0.0
 10
464.7536729901
 20
30.1009277245
 30
0.0
 10
464.7536729901
 20
30.1009277245
 30
0.0
  0
SPLINE
  5
246
330
22A
100
AcDbEntity
  8
0
  6
Continuous
 62
     7
100
AcDbSpline
 70
     3
 71
     3
 72
    14
 73
    10
 74
     0
 42
0.000000001
 43
0.0000001
 40
0.0
 40
0.0
 40
0.0
 40
0.0
 40
1.0
 40
1.0
 40
1.0
 40
2.0
 40
2.0
 40
2.0
 40
3.0
 40
3.0
 40
3.0
 40
3.0
 10
463.8865113389
 20
30.2684193366
 30
0.0
 10
463.9141212843
 20
30.4332938923
 30
0.0
 10
464.0419644914
 20
30.5562955449
 30
0.0
 10
464.2141668051
 20
30.5562955449
 30
0.0
 10
464.3913415261
 20
30.5562955449
 30
0.0
 10
464.5047909227
 20
30.4406216503
 30
0.0
 10
464.5320083097
 20
30.2684193366
 30
0.0
 10
464.5320083097
 20
30.2684193366
 30
0.0
 10
463.8865113389
 20
30.2684193366
 30
0.0
 10
463.8865113389
 20
30.2684193366
 30
0.0
  0
SPLINE
  5
247
330
22A
100
AcDbEntity
  8
0
  6
Continuous
 62
     7
100
AcDbSpline
 70
     3
 71
     3
 72
    20
 73
    16
 74
     0
 42
0.000000001
 43
0.0000001
 40
0.0
 40
0.0
 40
0.0
 40
0.0
 40
1.0
 40
1.0
 40
1.0
 40
2.0
 40
2.0
 40
2.0
 40
3.0
 40
3.0
 40
3.0
 40
4.0
 40
4.0
 40
4.0
 40
5.0
 40
5.0
 40
5.0
 40
5.0
 10
466.7777044403
 20
30.4777838518
 30
0.0
 10
466.7777044403
 20
30.4777838518
 30
0.0
 10
467.1888440069
 20
29.9753090154
 30
0.0
 10
467.1888440069
 20
29.9753090154
 30
0.0
 10
467.0727775538
 20
29.8596351208
 30
0.0
 10
466.9349895323
 20
29.7293057101
 30
0.0
 10
466.7630489242
 20
29.7293057101
 30
0.0
 10
466.5856124976
 20
29.7293057101
 30
0.0
 10
466.4181208855
 20
29.8936568545
 30
0.0
 10
466.4181208855
 20
30.0705698698
 30
0.0
 10
466.4181208855
 20
30.2485297077
 30
0.0
 10
466.6278779591
 20
30.3746718281
 30
0.0
 10
466.7554594605
 20
30.4626049244
 30
0.0
 10
466.7554594605
 20
30.4626049244
 30
0.0
 10
466.7777044403
 20
30.4777838518
 30
0.0
 10
466.7777044403
 20
30.4777838518
 30
0.0
  0
SPLINE
  5
248
330
22A
100
AcDbEntity
  8
0
  6
Continuous
 62
     7
100
AcDbSpline
 70
     3
 71
     3
 72
    23
 73
    19
 74
     0
 42
0.000000001
 43
0.0000001
 40
0.0
 40
0.0
 40
0.0
 40
0.0
 40
1.0
 40
1.0
 40
1.0
 40
2.0
 40
2.0
 40
2.0
 40
3.0
 40
3.0
 40
3.0
 40
4.0
 40
4.0
 40
4.0
 40
5.0
 40
5.0
 40
5.0
 40
6.0
 40
6.0
 40
6.0
 40
6.0
 10
466.8270359542
 20
30.7688005278
 30
0.0
 10
466.8270359542
 20
30.7688005278
 30
0.0
 10
466.765404275
 20
30.847312221
 30
0.0
 10
466.765404275
 20
30.847312221
 30
0.0
 10
466.7114929124
 20
30.9158790997
 30
0.0
 10
466.6547027876
 20
30.9849693897
 30
0.0
 10
466.6547027876
 20
31.0786600102
 30
0.0
 10
466.6547027876
 20
31.1974743726
 30
0.0
 10
466.7506179061
 20
31.2749392432
 30
0.0
 10
466.8615810992
 20
31.2749392432
 30
0.0
 10
466.9848444575
 20
31.2749392432
 30
0.0
 10
467.0781425195
 20
31.203755308
 30
0.0
 10
467.0781425195
 20
31.0734258974
 30
0.0
 10
467.0781425195
 20
30.9383857851
 30
0.0
 10
466.9500376068
 20
30.8619677371
 30
0.0
 10
466.8564778391
 20
30.7881667455
 30
0.0
 10
466.8564778391
 20
30.7881667455
 30
0.0
 10
466.8270359542
 20
30.7688005278
 30
0.0
 10
466.8270359542
 20
30.7688005278
 30
0.0
  0
SPLINE
  5
249
330
22A
100
AcDbEntity
  8
0
  6
Continuous
 62
     7
100
AcDbSpline
 70
     3
 71
     3
 72
    50
 73
    46
 74
     0
 42
0.000000001
 43
0.0000001
 40
0.0
 40
0.0
 40
0.0
 40
0.0
 40
1.0
 40
1.0
 40
1.0
 40
2.0
 40
2.0
 40
2.0
 40
3.0
 40
3.0
 40
3.0
 40
4.0
 40
4.0
 40
4.0
 40
5.0
 40
5.0
 40
5.0
 40
6.0
 40
6.0
 40
6.0
 40
7.0
 40
7.0
 40
7.0
 40
8.0
 40
8.0
 40
8.0
 40
9.0
 40
9.0
 40
9.0
 40
10.0
 40
10.0
 40
10.0
 40
11.0
 40
11.0
 40
11.0
 40
12.0
 40
12.0
 40
12.0
 40
13.0
 40
13.0
 40
13.0
 40
14.0
 40
14.0
 40
14.0
 40
15.0
 40
15.0
 40
15.0
 40
15.0
 10
467.5291921968
 20
29.561814098
 30
0.0
 10
467.5291921968
 20
29.561814098
 30
0.0
 10
467.8145822015
 20
29.561814098
 30
0.0
 10
467.8145822015
 20
29.561814098
 30
0.0
 10
467.8145822015
 20
29.561814098
 30
0.0
 10
467.4822160338
 20
29.972691959
 30
0.0
 10
467.4822160338
 20
29.972691959
 30
0.0
 10
467.4822160338
 20
29.972691959
 30
0.0
 10
467.7087222686
 20
30.2385848932
 30
0.0
 10
467.7087222686
 20
30.2385848932
 30
0.0
 10
467.7087222686
 20
30.2385848932
 30
0.0
 10
467.5604660213
 20
30.3914209893
 30
0.0
 10
467.5604660213
 20
30.3914209893
 30
0.0
 10
467.5604660213
 20
30.3914209893
 30
0.0
 10
467.344558865
 20
30.1401835711
 30
0.0
 10
467.344558865
 20
30.1401835711
 30
0.0
 10
467.344558865
 20
30.1401835711
 30
0.0
 10
466.9574962177
 20
30.6081132624
 30
0.0
 10
466.9574962177
 20
30.6081132624
 30
0.0
 10
467.1129493702
 20
30.7222169232
 30
0.0
 10
467.2952273512
 20
30.8619677371
 30
0.0
 10
467.2952273512
 20
31.0713322522
 30
0.0
 10
467.2952273512
 20
31.3152419124
 30
0.0
 10
467.093190594
 20
31.4586566052
 30
0.0
 10
466.8666843592
 20
31.4586566052
 30
0.0
 10
466.6225129934
 20
31.4586566052
 30
0.0
 10
466.4381413673
 20
31.3079141543
 30
0.0
 10
466.4381413673
 20
31.0514426233
 30
0.0
 10
466.4381413673
 20
30.8938958256
 30
0.0
 10
466.536804395
 20
30.7562386569
 30
0.0
 10
466.6421409167
 20
30.6452754639
 30
0.0
 10
466.6421409167
 20
30.6452754639
 30
0.0
 10
466.5265978749
 20
30.5615296578
 30
0.0
 10
466.5265978749
 20
30.5615296578
 30
0.0
 10
466.3488997427
 20
30.4332938923
 30
0.0
 10
466.2015594652
 20
30.3055815381
 30
0.0
 10
466.2015594652
 20
30.0684762247
 30
0.0
 10
466.2015594652
 20
29.7481485165
 30
0.0
 10
466.4601246414
 20
29.5220348401
 30
0.0
 10
466.7705075351
 20
29.5220348401
 30
0.0
 10
466.9894243062
 20
29.5220348401
 30
0.0
 10
467.1866195089
 20
29.6471301379
 30
0.0
 10
467.3268937341
 20
29.8130515162
 30
0.0
 10
467.3268937341
 20
29.8130515162
 30
0.0
 10
467.5291921968
 20
29.561814098
 30
0.0
 10
467.5291921968
 20
29.561814098
 30
0.0
  0
LWPOLYLINE
  5
24A
330
22A
100
AcDbEntity
  8
0
  6
Continuous
 62
     7
100
AcDbPolyline
 90
        2
 70
     0
 43
0.2
 10
469.4646362866
 20
31.4183539361
 10
469.2332884973
 20
31.4183539361
  0
LWPOLYLINE
  5
24B
330
22A
100
AcDbEntity
  8
0
  6
Continuous
 62
     7
100
AcDbPolyline
 90
        2
 70
     0
 43
0.2
 10
469.2332884973
 20
31.4183539361
 10
469.2332884973
 20
29.5612906867
  0
LWPOLYLINE
  5
24C
330
22A
100
AcDbEntity
  8
0
  6
Continuous
 62
     7
100
AcDbPolyline
 90
        2
 70
     0
 43
0.2
 10
469.2332884973
 20
29.5612906867
 10
470.0286119492
 20
29.5612906867
  0
LWPOLYLINE
  5
24D
330
22A
100
AcDbEntity
  8
0
  6
Continuous
 62
     7
100
AcDbPolyline
 90
        2
 70
     0
 43
0.2
 10
470.0286119492
 20
29.5612906867
 10
470.0286119492
 20
29.7732722583
  0
LWPOLYLINE
  5
24E
330
22A
100
AcDbEntity
  8
0
  6
Continuous
 62
     7
100
AcDbPolyline
 90
        2
 70
     0
 43
0.2
 10
470.0286119492
 20
29.7732722583
 10
469.4646362866
 20
29.7732722583
  0
LWPOLYLINE
  5
24F
330
22A
100
AcDbEntity
  8
0
  6
Continuous
 62
     7
100
AcDbPolyline
 90
        2
 70
     0
 43
0.2
 10
469.4646362866
 20
29.7732722583
 10
469.4646362866
 20
31.4183539361
  0
LWPOLYLINE
  5
250
330
22A
100
AcDbEntity
  8
0
  6
Continuous
 62
     7
100
AcDbPolyline
 90
        2
 70
     0
 43
0.2
 10
471.7077153607
 20
30.7138423426
 10
471.4865740916
 20
30.7138423426
  0
LWPOLYLINE
  5
251
330
22A
100
AcDbEntity
  8
0
  6
Continuous
 62
     7
100
AcDbPolyline
 90
        2
 70
     0
 43
0.2
 10
471.4865740916
 20
30.7138423426
 10
471.4865740916
 20
29.561814098
  0
LWPOLYLINE
  5
252
330
22A
100
AcDbEntity
  8
0
  6
Continuous
 62
     7
100
AcDbPolyline
 90
        2
 70
     0
 43
0.2
 10
471.4865740916
 20
29.561814098
 10
471.7077153607
 20
29.561814098
  0
LWPOLYLINE
  5
253
330
22A
100
AcDbEntity
  8
0
  6
Continuous
 62
     7
100
AcDbPolyline
 90
        2
 70
     0
 43
0.2
 10
471.7077153607
 20
29.561814098
 10
471.7077153607
 20
30.7138423426
  0
LWPOLYLINE
  5
254
330
22A
100
AcDbEntity
  8
0
  6
Continuous
 62
     7
100
AcDbPolyline
 90
        2
 70
     1
 43
0.2
 10
471.4446920835
 20
31.2437962716
 42
1.0
 10
471.7498590744
 20
31.2437962716
 42
1.0
  0
SPLINE
  5
255
330
22A
100
AcDbEntity
  8
0
  6
Continuous
 62
     7
100
AcDbSpline
 70
     3
 71
     3
 72
    17
 73
    13
 74
     0
 42
0.000000001
 43
0.0000001
 40
0.0
 40
0.0
 40
0.0
 40
0.0
 40
1.0
 40
1.0
 40
1.0
 40
2.0
 40
2.0
 40
2.0
 40
3.0
 40
3.0
 40
3.0
 40
4.0
 40
4.0
 40
4.0
 40
4.0
 10
473.8379993024
 20
29.7193608956
 30
0.0
 10
473.6040344567
 20
29.7193608956
 30
0.0
 10
473.473705046
 20
29.9213976528
 30
0.0
 10
473.473705046
 20
30.1375665147
 30
0.0
 10
473.473705046
 20
30.3521651427
 30
0.0
 10
473.6095302752
 20
30.5510614321
 30
0.0
 10
473.8379993024
 20
30.5510614321
 30
0.0
 10
474.0774599666
 20
30.5510614321
 30
0.0
 10
474.2130234901
 20
30.3621099571
 30
0.0
 10
474.2130234901
 20
30.1375665147
 30
0.0
 10
474.2130234901
 20
29.9114528383
 30
0.0
 10
474.0798153174
 20
29.7193608956
 30
0.0
 10
473.8379993024
 20
29.7193608956
 30
0.0
  0
SPLINE
  5
256
330
22A
100
AcDbEntity
  8
0
  6
Continuous
 62
     7
100
AcDbSpline
 70
     3
 71
     3
 72
    50
 73
    46
 74
     0
 42
0.000000001
 43
0.0000001
 40
0.0
 40
0.0
 40
0.0
 40
0.0
 40
1.0
 40
1.0
 40
1.0
 40
2.0
 40
2.0
 40
2.0
 40
3.0
 40
3.0
 40
3.0
 40
4.0
 40
4.0
 40
4.0
 40
5.0
 40
5.0
 40
5.0
 40
6.0
 40
6.0
 40
6.0
 40
7.0
 40
7.0
 40
7.0
 40
8.0
 40
8.0
 40
8.0
 40
9.0
 40
9.0
 40
9.0
 40
10.0
 40
10.0
 40
10.0
 40
11.0
 40
11.0
 40
11.0
 40
12.0
 40
12.0
 40
12.0
 40
13.0
 40
13.0
 40
13.0
 40
14.0
 40
14.0
 40
14.0
 40
15.0
 40
15.0
 40
15.0
 40
15.0
 10
474.4221262996
 20
30.7143657539
 30
0.0
 10
474.4221262996
 20
30.7143657539
 30
0.0
 10
474.2004616192
 20
30.7143657539
 30
0.0
 10
474.2004616192
 20
30.7143657539
 30
0.0
 10
474.2004616192
 20
30.7143657539
 30
0.0
 10
474.2004616192
 20
30.5170396984
 30
0.0
 10
474.2004616192
 20
30.5170396984
 30
0.0
 10
474.2004616192
 20
30.5170396984
 30
0.0
 10
474.1957509176
 20
30.5170396984
 30
0.0
 10
474.1957509176
 20
30.5170396984
 30
0.0
 10
474.1044156479
 20
30.6599309799
 30
0.0
 10
473.9664967735
 20
30.7483874876
 30
0.0
 10
473.7937710485
 20
30.7483874876
 30
0.0
 10
473.4614048807
 20
30.7483874876
 30
0.0
 10
473.2523020712
 20
30.4605112793
 30
0.0
 10
473.2523020712
 20
30.1448942727
 30
0.0
 10
473.2523020712
 20
29.8151451613
 30
0.0
 10
473.4493664211
 20
29.5220348401
 30
0.0
 10
473.8042392743
 20
29.5220348401
 30
0.0
 10
473.9664967735
 20
29.5220348401
 30
0.0
 10
474.106509293
 20
29.6104913478
 30
0.0
 10
474.1957509176
 20
29.7413441697
 30
0.0
 10
474.1957509176
 20
29.7413441697
 30
0.0
 10
474.2004616192
 20
29.7413441697
 30
0.0
 10
474.2004616192
 20
29.7413441697
 30
0.0
 10
474.2004616192
 20
29.7413441697
 30
0.0
 10
474.2004616192
 20
29.5220348401
 30
0.0
 10
474.2004616192
 20
29.5220348401
 30
0.0
 10
474.2004616192
 20
29.285452938
 30
0.0
 10
474.1439332001
 20
29.0985951082
 30
0.0
 10
473.8707125078
 20
29.0985951082
 30
0.0
 10
473.6684140451
 20
29.0985951082
 30
0.0
 10
473.5257844691
 20
29.2168860593
 30
0.0
 10
473.5257844691
 20
29.4231101067
 30
0.0
 10
473.5257844691
 20
29.4231101067
 30
0.0
 10
473.3041197887
 20
29.4231101067
 30
0.0
 10
473.3041197887
 20
29.4231101067
 30
0.0
 10
473.309092196
 20
29.0985951082
 30
0.0
 10
473.5401782796
 20
28.901792464
 30
0.0
 10
473.8605059877
 20
28.901792464
 30
0.0
 10
474.3085460502
 20
28.901792464
 30
0.0
 10
474.4221262996
 20
29.1870516159
 30
0.0
 10
474.4221262996
 20
29.5837973721
 30
0.0
 10
474.4221262996
 20
29.5837973721
 30
0.0
 10
474.4221262996
 20
30.7143657539
 30
0.0
 10
474.4221262996
 20
30.7143657539
 30
0.0
  0
SPLINE
  5
257
330
22A
100
AcDbEntity
  8
0
  6
Continuous
 62
     7
100
AcDbSpline
 70
     3
 71
     3
 72
    44
 73
    40
 74
     0
 42
0.000000001
 43
0.0000001
 40
0.0
 40
0.0
 40
0.0
 40
0.0
 40
1.0
 40
1.0
 40
1.0
 40
2.0
 40
2.0
 40
2.0
 40
3.0
 40
3.0
 40
3.0
 40
4.0
 40
4.0
 40
4.0
 40
5.0
 40
5.0
 40
5.0
 40
6.0
 40
6.0
 40
6.0
 40
7.0
 40
7.0
 40
7.0
 40
8.0
 40
8.0
 40
8.0
 40
9.0
 40
9.0
 40
9.0
 40
10.0
 40
10.0
 40
10.0
 40
11.0
 40
11.0
 40
11.0
 40
12.0
 40
12.0
 40
12.0
 40
13.0
 40
13.0
 40
13.0
 40
13.0
 10
475.991051635
 20
31.6994257977
 30
0.0
 10
475.991051635
 20
31.6994257977
 30
0.0
 10
475.991051635
 20
29.5612906867
 30
0.0
 10
475.991051635
 20
29.5612906867
 30
0.0
 10
475.991051635
 20
29.5612906867
 30
0.0
 10
476.2124546098
 20
29.5612906867
 30
0.0
 10
476.2124546098
 20
29.5612906867
 30
0.0
 10
476.2124546098
 20
29.5612906867
 30
0.0
 10
476.2124546098
 20
30.09098291
 30
0.0
 10
476.2124546098
 20
30.09098291
 30
0.0
 10
476.2124546098
 20
30.3008708365
 30
0.0
 10
476.2124546098
 20
30.5515848434
 30
0.0
 10
476.4977137617
 20
30.5515848434
 30
0.0
 10
476.724612555
 20
30.5515848434
 30
0.0
 10
476.7515682363
 20
30.4186383762
 30
0.0
 10
476.7515682363
 20
30.2223591433
 30
0.0
 10
476.7515682363
 20
30.2223591433
 30
0.0
 10
476.7515682363
 20
29.5612906867
 30
0.0
 10
476.7515682363
 20
29.5612906867
 30
0.0
 10
476.7515682363
 20
29.5612906867
 30
0.0
 10
476.9734946223
 20
29.5612906867
 30
0.0
 10
476.9734946223
 20
29.5612906867
 30
0.0
 10
476.9734946223
 20
29.5612906867
 30
0.0
 10
476.9734946223
 20
30.2485297077
 30
0.0
 10
476.9734946223
 20
30.2485297077
 30
0.0
 10
476.9734946223
 20
30.529078158
 30
0.0
 10
476.8894871106
 20
30.7489108989
 30
0.0
 10
476.5644487009
 20
30.7489108989
 30
0.0
 10
476.424697887
 20
30.7489108989
 30
0.0
 10
476.286517307
 20
30.6824376653
 30
0.0
 10
476.2171653114
 20
30.5594360127
 30
0.0
 10
476.2171653114
 20
30.5594360127
 30
0.0
 10
476.2124546098
 20
30.5594360127
 30
0.0
 10
476.2124546098
 20
30.5594360127
 30
0.0
 10
476.2124546098
 20
30.5594360127
 30
0.0
 10
476.2124546098
 20
31.6994257977
 30
0.0
 10
476.2124546098
 20
31.6994257977
 30
0.0
 10
476.2124546098
 20
31.6994257977
 30
0.0
 10
475.991051635
 20
31.6994257977
 30
0.0
 10
475.991051635
 20
31.6994257977
 30
0.0
  0
LWPOLYLINE
  5
258
330
22A
100
AcDbEntity
  8
0
  6
Continuous
 62
     7
100
AcDbPolyline
 90
        2
 70
     0
 43
0.2
 10
478.8132852992
 20
30.5070948839
 10
479.0297158667
 20
30.5070948839
  0
LWPOLYLINE
  5
259
330
22A
100
AcDbEntity
  8
0
  6
Continuous
 62
     7
100
AcDbPolyline
 90
        2
 70
     0
 43
0.2
 10
479.0297158667
 20
30.5070948839
 10
479.0297158667
 20
30.7138423426
  0
LWPOLYLINE
  5
25A
330
22A
100
AcDbEntity
  8
0
  6
Continuous
 62
     7
100
AcDbPolyline
 90
        2
 70
     0
 43
0.2
 10
479.0297158667
 20
30.7138423426
 10
478.8132852992
 20
30.7138423426
  0
LWPOLYLINE
  5
25B
330
22A
100
AcDbEntity
  8
0
  6
Continuous
 62
     7
100
AcDbPolyline
 90
        2
 70
     0
 43
0.2
 10
478.8132852992
 20
30.7138423426
 10
478.8132852992
 20
31.154554647
  0
LWPOLYLINE
  5
25C
330
22A
100
AcDbEntity
  8
0
  6
Continuous
 62
     7
100
AcDbPolyline
 90
        2
 70
     0
 43
0.2
 10
478.8132852992
 20
31.154554647
 10
478.5916206188
 20
31.154554647
  0
LWPOLYLINE
  5
25D
330
22A
100
AcDbEntity
  8
0
  6
Continuous
 62
     7
100
AcDbPolyline
 90
        2
 70
     0
 43
0.2
 10
478.5916206188
 20
31.154554647
 10
478.5916206188
 20
30.7138423426
  0
LWPOLYLINE
  5
25E
330
22A
100
AcDbEntity
  8
0
  6
Continuous
 62
     7
100
AcDbPolyline
 90
        2
 70
     0
 43
0.2
 10
478.5916206188
 20
30.7138423426
 10
478.4709743169
 20
30.7138423426
  0
LWPOLYLINE
  5
25F
330
22A
100
AcDbEntity
  8
0
  6
Continuous
 62
     7
100
AcDbPolyline
 90
        2
 70
     0
 43
0.2
 10
478.4709743169
 20
30.7138423426
 10
478.4709743169
 20
30.5070948839
  0
LWPOLYLINE
  5
260
330
22A
100
AcDbEntity
  8
0
  6
Continuous
 62
     7
100
AcDbPolyline
 90
        2
 70
     0
 43
0.2
 10
478.4709743169
 20
30.5070948839
 10
478.5916206188
 20
30.5070948839
  0
LWPOLYLINE
  5
261
330
22A
100
AcDbEntity
  8
0
  6
Continuous
 62
     7
100
AcDbPolyline
 90
        2
 70
     0
 43
0.2
 10
478.5916206188
 20
30.5070948839
 10
478.5916206188
 20
29.5612906867
  0
LWPOLYLINE
  5
262
330
22A
100
AcDbEntity
  8
0
  6
Continuous
 62
     7
100
AcDbPolyline
 90
        2
 70
     0
 43
0.2
 10
478.5916206188
 20
29.5612906867
 10
478.8132852992
 20
29.5612906867
  0
LWPOLYLINE
  5
263
330
22A
100
AcDbEntity
  8
0
  6
Continuous
 62
     7
100
AcDbPolyline
 90
        2
 70
     0
 43
0.2
 10
478.8132852992
 20
29.5612906867
 10
478.8132852992
 20
30.5070948839
  0
SPLINE
  5
264
330
22A
100
AcDbEntity
  8
0
  6
Continuous
 62
     7
100
AcDbSpline
 70
     3
 71
     3
 72
    20
 73
    16
 74
     0
 42
0.000000001
 43
0.0000001
 40
0.0
 40
0.0
 40
0.0
 40
0.0
 40
1.0
 40
1.0
 40
1.0
 40
2.0
 40
2.0
 40
2.0
 40
3.0
 40
3.0
 40
3.0
 40
4.0
 40
4.0
 40
4.0
 40
5.0
 40
5.0
 40
5.0
 40
5.0
 10
466.5952956065
 20
39.9222171301
 30
0.0
 10
466.5952956065
 20
39.9222171301
 30
0.0
 10
468.9116522609
 20
37.0926557079
 30
0.0
 10
468.9116522609
 20
37.0926557079
 30
0.0
 10
468.2600052075
 20
36.4404852432
 30
0.0
 10
467.4831320035
 20
35.7045689724
 30
0.0
 10
466.5119423589
 20
35.7045689724
 30
0.0
 10
465.5134044744
 20
35.7045689724
 30
0.0
 10
464.5700864809
 20
36.6341474197
 30
0.0
 10
464.5700864809
 20
37.6333395682
 30
0.0
 10
464.5700864809
 20
38.6325317168
 30
0.0
 10
465.748939554
 20
39.3391369554
 30
0.0
 10
466.4704620143
 20
39.8389947353
 30
0.0
 10
466.4704620143
 20
39.8389947353
 30
0.0
 10
466.5952956065
 20
39.9222171301
 30
0.0
 10
466.5952956065
 20
39.9222171301
 30
0.0
  0
SPLINE
  5
265
330
22A
100
AcDbEntity
  8
0
  6
Continuous
 62
     7
100
AcDbSpline
 70
     3
 71
     3
 72
    23
 73
    19
 74
     0
 42
0.000000001
 43
0.0000001
 40
0.0
 40
0.0
 40
0.0
 40
0.0
 40
1.0
 40
1.0
 40
1.0
 40
2.0
 40
2.0
 40
2.0
 40
3.0
 40
3.0
 40
3.0
 40
4.0
 40
4.0
 40
4.0
 40
5.0
 40
5.0
 40
5.0
 40
6.0
 40
6.0
 40
6.0
 40
6.0
 10
466.872703589
 20
41.5599710498
 30
0.0
 10
466.872703589
 20
41.5599710498
 30
0.0
 10
466.5262053165
 20
42.0033004107
 30
0.0
 10
466.5262053165
 20
42.0033004107
 30
0.0
 10
466.2204022715
 20
42.3914098806
 30
0.0
 10
465.9015139444
 20
42.779911909
 30
0.0
 10
465.9015139444
 20
43.3068562231
 30
0.0
 10
465.9015139444
 20
43.9730279397
 30
0.0
 10
466.4428520689
 20
44.416749859
 30
0.0
 10
467.066758324
 20
44.416749859
 30
0.0
 10
467.7605399861
 20
44.416749859
 30
0.0
 10
468.2877460058
 20
44.0145082843
 30
0.0
 10
468.2877460058
 20
43.2795079833
 30
0.0
 10
468.2877460058
 20
42.5162434728
 30
0.0
 10
467.5664852511
 20
42.086130247
 30
0.0
 10
467.0394100842
 20
41.6704108316
 30
0.0
 10
467.0394100842
 20
41.6704108316
 30
0.0
 10
466.872703589
 20
41.5599710498
 30
0.0
 10
466.872703589
 20
41.5599710498
 30
0.0
  0
SPLINE
  5
266
330
22A
100
AcDbEntity
  8
0
  6
Continuous
 62
     7
100
AcDbSpline
 70
     3
 71
     3
 72
    50
 73
    46
 74
     0
 42
0.000000001
 43
0.0000001
 40
0.0
 40
0.0
 40
0.0
 40
0.0
 40
1.0
 40
1.0
 40
1.0
 40
2.0
 40
2.0
 40
2.0
 40
3.0
 40
3.0
 40
3.0
 40
4.0
 40
4.0
 40
4.0
 40
5.0
 40
5.0
 40
5.0
 40
6.0
 40
6.0
 40
6.0
 40
7.0
 40
7.0
 40
7.0
 40
8.0
 40
8.0
 40
8.0
 40
9.0
 40
9.0
 40
9.0
 40
10.0
 40
10.0
 40
10.0
 40
11.0
 40
11.0
 40
11.0
 40
12.0
 40
12.0
 40
12.0
 40
13.0
 40
13.0
 40
13.0
 40
14.0
 40
14.0
 40
14.0
 40
15.0
 40
15.0
 40
15.0
 40
15.0
 10
470.826290752
 20
34.7613818317
 30
0.0
 10
470.826290752
 20
34.7613818317
 30
0.0
 10
472.4355187565
 20
34.7613818317
 30
0.0
 10
472.4355187565
 20
34.7613818317
 30
0.0
 10
472.4355187565
 20
34.7613818317
 30
0.0
 10
470.5624914629
 20
37.0785236031
 30
0.0
 10
470.5624914629
 20
37.0785236031
 30
0.0
 10
470.5624914629
 20
37.0785236031
 30
0.0
 10
471.8388298883
 20
38.5760032977
 30
0.0
 10
471.8388298883
 20
38.5760032977
 30
0.0
 10
471.8388298883
 20
38.5760032977
 30
0.0
 10
471.0066059406
 20
39.4370148662
 30
0.0
 10
471.0066059406
 20
39.4370148662
 30
0.0
 10
471.0066059406
 20
39.4370148662
 30
0.0
 10
469.7860108173
 20
38.0217107438
 30
0.0
 10
469.7860108173
 20
38.0217107438
 30
0.0
 10
469.7860108173
 20
38.0217107438
 30
0.0
 10
467.6080964485
 20
40.6570865783
 30
0.0
 10
467.6080964485
 20
40.6570865783
 30
0.0
 10
468.4816698879
 20
41.2951249382
 30
0.0
 10
469.5083411291
 20
42.086130247
 30
0.0
 10
469.5083411291
 20
43.2649833201
 30
0.0
 10
469.5083411291
 20
44.6386762451
 30
0.0
 10
468.3704449893
 20
45.4431593945
 30
0.0
 10
467.0951533864
 20
45.4431593945
 30
0.0
 10
465.721722167
 20
45.4431593945
 30
0.0
 10
464.6807879682
 20
44.5969341949
 30
0.0
 10
464.6807879682
 20
43.1542818327
 30
0.0
 10
464.6807879682
 20
42.2667071413
 30
0.0
 10
465.2361273447
 20
41.4898339373
 30
0.0
 10
465.8322928016
 20
40.8654042708
 30
0.0
 10
465.8322928016
 20
40.8654042708
 30
0.0
 10
465.1803840425
 20
40.3938107005
 30
0.0
 10
465.1803840425
 20
40.3938107005
 30
0.0
 10
464.1818461581
 20
39.6725499458
 30
0.0
 10
463.3489679463
 20
38.9512891911
 30
0.0
 10
463.3489679463
 20
37.6197308748
 30
0.0
 10
463.3489679463
 20
35.8160555768
 30
0.0
 10
464.8060141189
 20
34.5394554456
 30
0.0
 10
466.5535535562
 20
34.5394554456
 30
0.0
 10
467.7884116372
 20
34.5394554456
 30
0.0
 10
468.8977818618
 20
35.2476309181
 30
0.0
 10
469.6886563178
 20
36.1761625428
 30
0.0
 10
469.6886563178
 20
36.1761625428
 30
0.0
 10
470.826290752
 20
34.7613818317
 30
0.0
 10
470.826290752
 20
34.7613818317
 30
0.0
  0
LINE
  5
267
330
22A
100
AcDbEntity
  8
0
  6
Continuous
 62
     7
100
AcDbLine
 10
456.6291521269
 20
32.7352567364
 30
0.0
 11
479.0430628546
 21
32.7352567364
 31
0.0
  0
LINE
  5
268
330
22A
100
AcDbEntity
  8
0
  6
Continuous
 62
     7
100
AcDbLine
 10
479.0430628546
 20
32.7352567364
 30
0.0
 11
479.0430628546
 21
55.149167464
 31
0.0
  0
LINE
  5
269
330
22A
100
AcDbEntity
  8
0
  6
Continuous
 62
     7
100
AcDbLine
 10
479.0430628546
 20
55.149167464
 30
0.0
 11
456.6291521269
 21
55.149167464
 31
0.0
  0
LINE
  5
26A
330
22A
100
AcDbEntity
  8
0
  6
Continuous
 62
     7
100
AcDbLine
 10
456.6291521269
 20
55.149167464
 30
0.0
 11
456.6291521269
 21
32.7352567364
 31
0.0
  0
ENDBLK
  5
26B
330
22A
100
AcDbEntity
  8
0
  6
ByBlock
 62
     0
100
AcDbBlockEnd
  0
BLOCK
  5
26C
330
22B
100
AcDbEntity
  8
0
100
AcDbBlockBegin
  2
PROIEZIONE_EU_BL0
 70
     0
 10
469.0099950196
 20
67.650479964
 30
0.0
  3
PROIEZIONE_EU_BL0
  1

  0
LWPOLYLINE
  5
26D
330
22B
100
AcDbEntity
  8
DEFAULT_1
  6
CENTER
 62
     7
100
AcDbPolyline
 90
        2
 70
     0
 43
0.25
 10
475.1366156812
 20
72.6501740959
 10
475.1366566636
 20
62.6507858321
  0
LWPOLYLINE
  5
26E
330
22B
100
AcDbEntity
  8
DEFAULT_1
  6
CENTER
 62
     7
100
AcDbPolyline
 90
        2
 70
     0
 43
0.25
 10
481.1366455063
 20
67.6507510991
 10
456.8833445328
 20
67.6504804387
  0
LWPOLYLINE
  5
26F
330
22B
100
AcDbEntity
  8
0
  6
Continuous
 62
     7
100
AcDbPolyline
 90
        2
 70
     1
 43
0.25
 10
471.5895055054
 20
67.6319322098
 42
1.0
 10
478.6958346041
 20
67.6319322098
 42
1.0
  0
LWPOLYLINE
  5
270
330
22B
100
AcDbEntity
  8
0
  6
Continuous
 62
     7
100
AcDbPolyline
 90
        2
 70
     1
 43
0.25
 10
473.1392493338
 20
67.6498302544
 42
1.0
 10
477.1510010839
 20
67.6498302544
 42
1.0
  0
LWPOLYLINE
  5
271
330
22B
100
AcDbEntity
  8
0
  6
Continuous
 62
     7
100
AcDbPolyline
 90
        2
 70
     0
 43
0.25
 10
469.1366433003
 20
71.2256834592
 10
469.1366429457
 20
64.1254805509
  0
LWPOLYLINE
  5
272
330
22B
100
AcDbEntity
  8
0
  6
Continuous
 62
     7
100
AcDbPolyline
 90
        2
 70
     0
 43
0.25
 10
469.1366713821
 20
64.1254521145
 10
459.1421141109
 20
65.6455455274
  0
LWPOLYLINE
  5
273
330
22B
100
AcDbEntity
  8
0
  6
Continuous
 62
     7
100
AcDbPolyline
 90
        2
 70
     0
 43
0.25
 10
459.1398041253
 20
65.6448679858
 10
459.1371372212
 20
69.6505065973
  0
LWPOLYLINE
  5
274
330
22B
100
AcDbEntity
  8
0
  6
Continuous
 62
     7
100
AcDbPolyline
 90
        2
 70
     0
 43
0.25
 10
459.1371289452
 20
69.6504983212
 10
469.1368721825
 20
71.2256555413
  0
ENDBLK
  5
275
330
22B
100
AcDbEntity
  8
0
  6
ByBlock
 62
     0
100
AcDbBlockEnd
  0
ENDSEC
  0
SECTION
  2
ENTITIES
  0
LINE
  5
2A2
330
1B
100
AcDbEntity
 67
     1
  8
0
  6
Continuous
 62
     7
100
AcDbLine
 10
0.0
 20
0.0
 30
0.0
 11
594.0
 21
0.0
 31
0.0
  0
LINE
  5
2A3
330
1B
100
AcDbEntity
 67
     1
  8
0
  6
Continuous
 62
     7
100
AcDbLine
 10
594.0
 20
0.0
 30
0.0
 11
594.0
 21
420.0
 31
0.0
  0
LINE
  5
2A4
330
1B
100
AcDbEntity
 67
     1
  8
0
  6
Continuous
 62
     7
100
AcDbLine
 10
0.0
 20
420.0
 30
0.0
 11
594.0
 21
420.0
 31
0.0
  0
LINE
  5
2A5
330
1B
100
AcDbEntity
 67
     1
  8
0
  6
Continuous
 62
     7
100
AcDbLine
 10
0.0
 20
0.0
 30
0.0
 11
0.0
 21
420.0
 31
0.0
  0
LWPOLYLINE
  5
2A6
330
1B
100
AcDbEntity
 67
     1
  8
0
  6
Continuous
 62
     7
100
AcDbPolyline
 90
        2
 70
     0
 43
0.5
 10
584.0
 20
10.0318435754
 10
584.0
 20
410.0
  0
LWPOLYLINE
  5
2A7
330
1B
100
AcDbEntity
 67
     1
  8
0
  6
Continuous
 62
     7
100
AcDbPolyline
 90
        2
 70
     0
 43
0.5
 10
10.0536312849
 20
10.0318435754
 10
10.0536312849
 20
410.0
  0
LWPOLYLINE
  5
2A8
330
1B
100
AcDbEntity
 67
     1
  8
0
  6
Continuous
 62
     7
100
AcDbPolyline
 90
        2
 70
     0
 43
0.5
 10
10.0536312849
 20
10.0318435754
 10
584.0
 20
10.0318435754
  0
LWPOLYLINE
  5
2A9
330
1B
100
AcDbEntity
 67
     1
  8
0
  6
Continuous
 62
     7
100
AcDbPolyline
 90
        2
 70
     0
 43
0.1
 10
297.0
 20
10.0
 10
297.0
 20
0.0
  0
LWPOLYLINE
  5
2AA
330
1B
100
AcDbEntity
 67
     1
  8
0
  6
Continuous
 62
     7
100
AcDbPolyline
 90
        2
 70
     0
 43
0.1
 10
297.0
 20
410.0
 10
297.0
 20
420.0
  0
LWPOLYLINE
  5
2AB
330
1B
100
AcDbEntity
 67
     1
  8
0
  6
Continuous
 62
     7
100
AcDbPolyline
 90
        2
 70
     0
 43
0.1
 10
584.0
 20
210.0
 10
594.0
 20
210.0
  0
LWPOLYLINE
  5
2AC
330
1B
100
AcDbEntity
 67
     1
  8
0
  6
Continuous
 62
     7
100
AcDbPolyline
 90
        2
 70
     0
 43
0.1
 10
10.0
 20
210.0
 10
0.0
 20
210.0
  0
LWPOLYLINE
  5
2AD
330
1B
100
AcDbEntity
 67
     1
  8
0
  6
Continuous
 62
     7
100
AcDbPolyline
 90
        2
 70
     0
 43
0.5
 10
10.0536312849
 20
410.0
 10
584.0
 20
410.0
  0
LWPOLYLINE
  5
2AE
330
1B
100
AcDbEntity
 67
     1
  8
0
  6
Continuous
 62
     7
100
AcDbPolyline
 90
        2
 70
     0
 43
0.1
 10
0.0
 20
413.0
 10
594.0
 20
413.0
  0
LWPOLYLINE
  5
2AF
330
1B
100
AcDbEntity
 67
     1
  8
0
  6
Continuous
 62
     7
100
AcDbPolyline
 90
        2
 70
     0
 43
0.1
 10
7.0536312849
 20
0.0
 10
7.0536312849
 20
420.0
  0
LWPOLYLINE
  5
2B0
330
1B
100
AcDbEntity
 67
     1
  8
0
  6
Continuous
 62
     7
100
AcDbPolyline
 90
        2
 70
     0
 43
0.1
 10
587.0
 20
0.0
 10
587.0
 20
420.0
  0
LWPOLYLINE
  5
2B1
330
1B
100
AcDbEntity
 67
     1
  8
0
  6
Continuous
 62
     7
100
AcDbPolyline
 90
        2
 70
     0
 43
0.1
 10
0.0
 20
7.0318435754
 10
594.0
 20
7.0318435754
  0
LINE
  5
2B2
330
1B
100
AcDbEntity
 67
     1
  8
0
  6
Continuous
 62
     7
100
AcDbLine
 10
384.0
 20
0.0
 30
0.0
 11
384.0
 21
10.0
 31
0.0
  0
LINE
  5
2B3
330
1B
100
AcDbEntity
 67
     1
  8
0
  6
Continuous
 62
     7
100
AcDbLine
 10
487.0
 20
7.0
 30
0.0
 11
487.0
 21
0.0
 31
0.0
  0
LINE
  5
2B4
330
1B
100
AcDbEntity
 67
     1
  8
0
  6
Continuous
 62
     7
100
AcDbLine
 10
287.0
 20
7.0
 30
0.0
 11
287.0
 21
0.0
 31
0.0
  0
LINE
  5
2B5
330
1B
100
AcDbEntity
 67
     1
  8
0
  6
Continuous
 62
     7
100
AcDbLine
 10
187.0
 20
7.0
 30
0.0
 11
187.0
 21
0.0
 31
0.0
  0
LINE
  5
2B6
330
1B
100
AcDbEntity
 67
     1
  8
0
  6
Continuous
 62
     7
100
AcDbLine
 10
87.0
 20
7.0
 30
0.0
 11
87.0
 21
0.0
 31
0.0
  0
LINE
  5
2B7
330
1B
100
AcDbEntity
 67
     1
  8
0
  6
Continuous
 62
     7
100
AcDbLine
 10
173.5
 20
420.0
 30
0.0
 11
173.5
 21
410.0
 31
0.0
  0
LINE
  5
2B8
330
1B
100
AcDbEntity
 67
     1
  8
0
  6
Continuous
 62
     7
100
AcDbLine
 10
384.0
 20
410.0
 30
0.0
 11
384.0
 21
420.0
 31
0.0
  0
LINE
  5
2B9
330
1B
100
AcDbEntity
 67
     1
  8
0
  6
Continuous
 62
     7
100
AcDbLine
 10
487.0
 20
420.0
 30
0.0
 11
487.0
 21
413.0
 31
0.0
  0
LINE
  5
2BA
330
1B
100
AcDbEntity
 67
     1
  8
0
  6
Continuous
 62
     7
100
AcDbLine
 10
287.0
 20
420.0
 30
0.0
 11
287.0
 21
413.0
 31
0.0
  0
LINE
  5
2BB
330
1B
100
AcDbEntity
 67
     1
  8
0
  6
Continuous
 62
     7
100
AcDbLine
 10
187.0
 20
420.0
 30
0.0
 11
187.0
 21
413.0
 31
0.0
  0
LINE
  5
2BC
330
1B
100
AcDbEntity
 67
     1
  8
0
  6
Continuous
 62
     7
100
AcDbLine
 10
87.0
 20
420.0
 30
0.0
 11
87.0
 21
413.0
 31
0.0
  0
LINE
  5
2BD
330
1B
100
AcDbEntity
 67
     1
  8
0
  6
Continuous
 62
     7
100
AcDbLine
 10
587.0
 20
307.0
 30
0.0
 11
594.0
 21
307.0
 31
0.0
  0
LINE
  5
2BE
330
1B
100
AcDbEntity
 67
     1
  8
0
  6
Continuous
 62
     7
100
AcDbLine
 10
0.0
 20
107.0
 30
0.0
 11
7.0
 21
107.0
 31
0.0
  0
LINE
  5
2BF
330
1B
100
AcDbEntity
 67
     1
  8
0
  6
Continuous
 62
     7
100
AcDbLine
 10
0.0
 20
207.0
 30
0.0
 11
7.0
 21
207.0
 31
0.0
  0
LINE
  5
2C0
330
1B
100
AcDbEntity
 67
     1
  8
0
  6
Continuous
 62
     7
100
AcDbLine
 10
0.0
 20
307.0
 30
0.0
 11
7.0
 21
307.0
 31
0.0
  0
MTEXT
  5
2C1
330
1B
100
AcDbEntity
 67
     1
  8
0
  6
Continuous
 62
     2
100
AcDbMText
 10
536.154890719
 20
5.35876025
 30
0.0
 40
4.0
 41
3.6
 46
0.0
 71
     1
 72
     1
  1
A
  7
TEXTSTYLE_2
 73
     1
 44
1.0
  0
MTEXT
  5
2C2
330
1B
100
AcDbEntity
 67
     1
  8
0
  6
Continuous
 62
     2
100
AcDbMText
 10
436.154890719
 20
5.35876025
 30
0.0
 40
4.0
 41
3.6
 46
0.0
 71
     1
 72
     1
  1
B
  7
TEXTSTYLE_2
 73
     1
 44
1.0
  0
MTEXT
  5
2C3
330
1B
100
AcDbEntity
 67
     1
  8
0
  6
Continuous
 62
     2
100
AcDbMText
 10
336.154890719
 20
5.35876025
 30
0.0
 40
4.0
 41
3.6
 46
0.0
 71
     1
 72
     1
  1
C
  7
TEXTSTYLE_2
 73
     1
 44
1.0
  0
MTEXT
  5
2C4
330
1B
100
AcDbEntity
 67
     1
  8
0
  6
Continuous
 62
     2
100
AcDbMText
 10
236.154890719
 20
5.35876025
 30
0.0
 40
4.0
 41
3.6
 46
0.0
 71
     1
 72
     1
  1
D
  7
TEXTSTYLE_2
 73
     1
 44
1.0
  0
MTEXT
  5
2C5
330
1B
100
AcDbEntity
 67
     1
  8
0
  6
Continuous
 62
     2
100
AcDbMText
 10
136.154890719
 20
5.35876025
 30
0.0
 40
4.0
 41
3.6
 46
0.0
 71
     1
 72
     1
  1
E
  7
TEXTSTYLE_2
 73
     1
 44
1.0
  0
MTEXT
  5
2C6
330
1B
100
AcDbEntity
 67
     1
  8
0
  6
Continuous
 62
     2
100
AcDbMText
 10
588.6467220993
 20
60.6268709614
 30
0.0
 40
4.0
 41
3.4285714286
 46
0.0
 71
     1
 72
     1
  1
1
  7
TEXTSTYLE_3
 73
     1
 44
1.0
  0
MTEXT
  5
2C7
330
1B
100
AcDbEntity
 67
     1
  8
0
  6
Continuous
 62
     2
100
AcDbMText
 10
588.6467220993
 20
260.6268709614
 30
0.0
 40
4.0
 41
4.2857142857
 46
0.0
 71
     1
 72
     1
  1
3
  7
TEXTSTYLE_3
 73
     1
 44
1.0
  0
MTEXT
  5
2C8
330
1B
100
AcDbEntity
 67
     1
  8
0
  6
Continuous
 62
     2
100
AcDbMText
 10
588.6467220993
 20
360.6268709614
 30
0.0
 40
4.0
 41
4.7142857143
 46
0.0
 71
     1
 72
     1
  1
4
  7
TEXTSTYLE_3
 73
     1
 44
1.0
  0
MTEXT
  5
2C9
330
1B
100
AcDbEntity
 67
     1
  8
0
  6
Continuous
 62
     2
100
AcDbMText
 10
36.154890719
 20
5.35876025
 30
0.0
 40
4.0
 41
3.6
 46
0.0
 71
     1
 72
     1
  1
F
  7
TEXTSTYLE_2
 73
     1
 44
1.0
  0
MTEXT
  5
2CA
330
1B
100
AcDbEntity
 67
     1
  8
0
  6
Continuous
 62
     2
100
AcDbMText
 10
536.154890719
 20
418.35876025
 30
0.0
 40
4.0
 41
3.6
 46
0.0
 71
     1
 72
     1
  1
A
  7
TEXTSTYLE_2
 73
     1
 44
1.0
  0
MTEXT
  5
2CB
330
1B
100
AcDbEntity
 67
     1
  8
0
  6
Continuous
 62
     2
100
AcDbMText
 10
436.154890719
 20
418.35876025
 30
0.0
 40
4.0
 41
3.6
 46
0.0
 71
     1
 72
     1
  1
B
  7
TEXTSTYLE_2
 73
     1
 44
1.0
  0
MTEXT
  5
2CC
330
1B
100
AcDbEntity
 67
     1
  8
0
  6
Continuous
 62
     2
100
AcDbMText
 10
336.154890719
 20
418.35876025
 30
0.0
 40
4.0
 41
3.6
 46
0.0
 71
     1
 72
     1
  1
C
  7
TEXTSTYLE_2
 73
     1
 44
1.0
  0
MTEXT
  5
2CD
330
1B
100
AcDbEntity
 67
     1
  8
0
  6
Continuous
 62
     2
100
AcDbMText
 10
236.154890719
 20
418.35876025
 30
0.0
 40
4.0
 41
3.6
 46
0.0
 71
     1
 72
     1
  1
D
  7
TEXTSTYLE_2
 73
     1
 44
1.0
  0
MTEXT
  5
2CE
330
1B
100
AcDbEntity
 67
     1
  8
0
  6
Continuous
 62
     2
100
AcDbMText
 10
136.154890719
 20
418.35876025
 30
0.0
 40
4.0
 41
3.6
 46
0.0
 71
     1
 72
     1
  1
E
  7
TEXTSTYLE_2
 73
     1
 44
1.0
  0
MTEXT
  5
2CF
330
1B
100
AcDbEntity
 67
     1
  8
0
  6
Continuous
 62
     2
100
AcDbMText
 10
36.154890719
 20
418.35876025
 30
0.0
 40
4.0
 41
3.6
 46
0.0
 71
     1
 72
     1
  1
F
  7
TEXTSTYLE_2
 73
     1
 44
1.0
  0
MTEXT
  5
2D0
330
1B
100
AcDbEntity
 67
     1
  8
0
  6
Continuous
 62
     2
100
AcDbMText
 10
1.6467220993
 20
60.6268709614
 30
0.0
 40
4.0
 41
3.4285714286
 46
0.0
 71
     1
 72
     1
  1
1
  7
TEXTSTYLE_3
 73
     1
 44
1.0
  0
MTEXT
  5
2D1
330
1B
100
AcDbEntity
 67
     1
  8
0
  6
Continuous
 62
     2
100
AcDbMText
 10
1.6467220993
 20
160.6268709614
 30
0.0
 40
4.0
 41
4.7142857143
 46
0.0
 71
     1
 72
     1
  1
2
  7
TEXTSTYLE_3
 73
     1
 44
1.0
  0
MTEXT
  5
2D2
330
1B
100
AcDbEntity
 67
     1
  8
0
  6
Continuous
 62
     2
100
AcDbMText
 10
1.6467220993
 20
260.6268709614
 30
0.0
 40
4.0
 41
4.2857142857
 46
0.0
 71
     1
 72
     1
  1
3
  7
TEXTSTYLE_3
 73
     1
 44
1.0
  0
MTEXT
  5
2D3
330
1B
100
AcDbEntity
 67
     1
  8
0
  6
Continuous
 62
     2
100
AcDbMText
 10
1.6467220993
 20
360.6268709614
 30
0.0
 40
4.0
 41
4.7142857143
 46
0.0
 71
     1
 72
     1
  1
4
  7
TEXTSTYLE_3
 73
     1
 44
1.0
  0
VIEWPORT
  5
2D4
330
1B
100
AcDbEntity
 67
     1
  8
0
100
AcDbViewport
 10
0.0
 20
0.0
 30
0.0
 40
700.1089494163423
 41
495.0770428015564
 68
     1
 69
     1
 12
330.9338521400778
 22
210.0
 13
0.0
 23
0.0
 14
1.0
 24
1.0
 15
0.0
 25
0.0
 16
0.0
 26
0.0
 36
1.0
 17
0.0
 27
0.0
 37
0.0
 42
50.0
 43
0.0
 44
0.0
 45
495.0770428015564
 50
0.0
 51
0.0
 72
   100
 90
   557216
  1

281
     0
 71
     1
 74
     0
110
0.0
120
0.0
130
0.0
111
1.0
121
0.0
131
0.0
112
0.0
122
1.0
132
0.0
 79
     0
146
0.0
170
     0
 61
     5
348
677
292
     1
282
     1
141
0.0
142
0.0
 63
   256
  0
ARC
  5
2D5
330
1B
100
AcDbEntity
 67
     1
  8
7_ALL_FEATURES
  6
Continuous
 62
     7
100
AcDbCircle
 10
158.4626320912
 20
133.9020091769
 30
0.0
 40
49.1863433895
100
AcDbArc
 50
84.88728915290001
 51
85.79792273180001
  0
ARC
  5
2D6
330
1B
100
AcDbEntity
 67
     1
  8
7_ALL_FEATURES
  6
Continuous
 62
     7
100
AcDbCircle
 10
158.4626320912
 20
133.9020091769
 30
0.0
 40
49.1863433895
100
AcDbArc
 50
84.6514196343
 51
84.88728915290001
  0
ARC
  5
2D7
330
1B
100
AcDbEntity
 67
     1
  8
7_ALL_FEATURES
  6
Continuous
 62
     7
100
AcDbCircle
 10
158.4626320912
 20
133.9020091769
 30
0.0
 40
49.1863433895
100
AcDbArc
 50
275.093911715
 51
275.5343585783
  0
ARC
  5
2D8
330
1B
100
AcDbEntity
 67
     1
  8
7_ALL_FEATURES
  6
Continuous
 62
     7
100
AcDbCircle
 10
158.4626320912
 20
133.9020091769
 30
0.0
 40
49.1863433895
100
AcDbArc
 50
274.2095917405999
 51
275.093911715
  0
ARC
  5
2D9
330
1B
100
AcDbEntity
 67
     1
  8
7_ALL_FEATURES
  6
Continuous
 62
     7
100
AcDbCircle
 10
158.4626320912
 20
133.9020091769
 30
0.0
 40
49.1863433895
100
AcDbArc
 50
264.9060882846001
 51
265.7904082592
  0
ARC
  5
2DA
330
1B
100
AcDbEntity
 67
     1
  8
7_ALL_FEATURES
  6
Continuous
 62
     7
100
AcDbCircle
 10
158.4626320912
 20
133.9020091769
 30
0.0
 40
49.1863433895
100
AcDbArc
 50
264.4656414364
 51
264.9060882846001
  0
ARC
  5
2DB
330
1B
100
AcDbEntity
 67
     1
  8
7_ALL_FEATURES
  6
Continuous
 62
     7
100
AcDbCircle
 10
158.4626320912
 20
133.9020091769
 30
0.0
 40
49.1863433895
100
AcDbArc
 50
95.1127108425
 51
95.3485803753
  0
ARC
  5
2DC
330
1B
100
AcDbEntity
 67
     1
  8
7_ALL_FEATURES
  6
Continuous
 62
     7
100
AcDbCircle
 10
158.4626320912
 20
133.9020091769
 30
0.0
 40
49.1863433895
100
AcDbArc
 50
94.202077262
 51
95.1127108425
  0
LINE
  5
2DD
330
1B
100
AcDbEntity
 67
     1
  8
7_ALL_FEATURES
  6
Continuous
 62
     7
100
AcDbLine
 10
206.4626320912
 20
95.1599946404
 30
0.0
 11
206.4626320912
 21
172.6440237133
 31
0.0
  0
LINE
  5
2DE
330
1B
100
AcDbEntity
 67
     1
  8
7_ALL_FEATURES
  6
Continuous
 62
     7
100
AcDbLine
 10
119.7206175548
 20
85.9020091769
 30
0.0
 11
197.2046466276
 21
85.9020091769
 31
0.0
  0
LINE
  5
2DF
330
1B
100
AcDbEntity
 67
     1
  8
7_ALL_FEATURES
  6
Continuous
 62
     7
100
AcDbLine
 10
110.4626320912
 20
172.6440237133
 30
0.0
 11
110.4626320912
 21
95.1599946404
 31
0.0
  0
LINE
  5
2E0
330
1B
100
AcDbEntity
 67
     1
  8
7_ALL_FEATURES
  6
Continuous
 62
     7
100
AcDbLine
 10
197.2046466276
 20
181.9020091769
 30
0.0
 11
119.7206175548
 21
181.9020091769
 31
0.0
  0
LINE
  5
2E1
330
1B
100
AcDbEntity
 67
     1
  8
7_ALL_FEATURES
  6
Continuous
 62
     7
100
AcDbLine
 10
197.2046466276
 20
181.9020091769
 30
0.0
 11
205.9627082436
 21
181.9020091769
 31
0.0
  0
LINE
  5
2E2
330
1B
100
AcDbEntity
 67
     1
  8
7_ALL_FEATURES
  6
Continuous
 62
     7
100
AcDbLine
 10
110.4626320912
 20
172.6440237133
 30
0.0
 11
110.4626320912
 21
181.4020853293
 31
0.0
  0
LINE
  5
2E3
330
1B
100
AcDbEntity
 67
     1
  8
7_ALL_FEATURES
  6
Continuous
 62
     7
100
AcDbLine
 10
119.7206175548
 20
85.9020091769
 30
0.0
 11
110.9625559388
 21
85.9020091769
 31
0.0
  0
LINE
  5
2E4
330
1B
100
AcDbEntity
 67
     1
  8
7_ALL_FEATURES
  6
Continuous
 62
     7
100
AcDbLine
 10
206.4626320912
 20
95.1599946404
 30
0.0
 11
206.4626320912
 21
86.4019330244
 31
0.0
  0
ARC
  5
2E5
330
1B
100
AcDbEntity
 67
     1
  8
7_ALL_FEATURES
  6
Continuous
 62
     7
100
AcDbCircle
 10
157.1758672586
 20
135.1888010496
 30
0.0
 40
0.5001797641
100
AcDbArc
 50
271.025914816
 51
337.819924092
  0
ARC
  5
2E6
330
1B
100
AcDbEntity
 67
     1
  8
7_ALL_FEATURES
  6
Continuous
 62
     7
100
AcDbCircle
 10
157.1730943056
 20
135.1892423445
 30
0.0
 40
0.5029145259
100
AcDbArc
 50
337.8926328531999
 51
349.3275011267
  0
ARC
  5
2E7
330
1B
100
AcDbEntity
 67
     1
  8
7_ALL_FEATURES
  6
Continuous
 62
     7
100
AcDbCircle
 10
159.7493969238
 20
132.6152173041
 30
0.0
 40
0.5001797641
100
AcDbArc
 50
91.02591481600001
 51
157.819924092
  0
ARC
  5
2E8
330
1B
100
AcDbEntity
 67
     1
  8
7_ALL_FEATURES
  6
Continuous
 62
     7
100
AcDbCircle
 10
159.7521698768
 20
132.6147760093
 30
0.0
 40
0.5029145259
100
AcDbArc
 50
157.8926328532
 51
169.3275011266
  0
SPLINE
  5
2E9
330
1B
100
AcDbEntity
 67
     1
  8
7_ALL_FEATURES
  6
Continuous
 62
     7
100
AcDbSpline
 70
     0
 71
     3
 72
     9
 73
     5
 74
     0
 42
0.000000001
 43
0.0000001
 40
0.0
 40
0.0
 40
0.0
 40
0.0
 40
0.2722565473
 40
1.0
 40
1.0
 40
1.0
 40
1.0
 10
119.3544524681
 20
180.5811804594
 30
0.0
 10
119.642986278
 20
180.5808043189
 30
0.0
 10
120.7027711629
 20
180.5768900656
 30
0.0
 10
121.762502518
 20
180.5648887821
 30
0.0
 10
122.5336999031
 20
180.5555991799
 30
0.0
  0
LINE
  5
2EA
330
1B
100
AcDbEntity
 67
     1
  8
7_ALL_FEATURES
  6
Continuous
 62
     7
100
AcDbLine
 10
119.1321370022
 20
180.5813248279
 30
0.0
 11
119.3544524681
 21
180.5811804594
 31
0.0
  0
LINE
  5
2EB
330
1B
100
AcDbEntity
 67
     1
  8
7_ALL_FEATURES
  6
Continuous
 62
     7
100
AcDbLine
 10
197.5708117144
 20
180.5811804594
 30
0.0
 11
197.7931271803
 21
180.5813248279
 31
0.0
  0
SPLINE
  5
2EC
330
1B
100
AcDbEntity
 67
     1
  8
7_ALL_FEATURES
  6
Continuous
 62
     7
100
AcDbSpline
 70
     0
 71
     3
 72
     9
 73
     5
 74
     0
 42
0.000000001
 43
0.0000001
 40
0.0
 40
0.0
 40
0.0
 40
0.0
 40
0.2311973973
 40
1.0
 40
1.0
 40
1.0
 40
1.0
 10
194.3914915299
 20
180.5555983101
 30
0.0
 10
194.6364990395
 20
180.5585495606
 30
0.0
 10
195.6962302009
 20
180.5712701518
 30
0.0
 10
196.7560278198
 20
180.5801183684
 30
0.0
 10
197.5708117144
 20
180.5811804594
 30
0.0
  0
SPLINE
  5
2ED
330
1B
100
AcDbEntity
 67
     1
  8
7_ALL_FEATURES
  6
Continuous
 62
     7
100
AcDbSpline
 70
     0
 71
     3
 72
     9
 73
     5
 74
     0
 42
0.000000001
 43
0.0000001
 40
0.0
 40
0.0
 40
0.0
 40
0.0
 40
0.2722565473
 40
1.0
 40
1.0
 40
1.0
 40
1.0
 10
111.7834608086
 20
94.7938295537
 30
0.0
 10
111.7838369491
 20
95.0823633636
 30
0.0
 10
111.7877512025
 20
96.1421482485
 30
0.0
 10
111.799752486
 20
97.2018796036
 30
0.0
 10
111.8090420882
 20
97.9730769887
 30
0.0
  0
LINE
  5
2EE
330
1B
100
AcDbEntity
 67
     1
  8
7_ALL_FEATURES
  6
Continuous
 62
     7
100
AcDbLine
 10
111.7833164401
 20
94.5715140878
 30
0.0
 11
111.7834608086
 21
94.7938295537
 31
0.0
  0
LINE
  5
2EF
330
1B
100
AcDbEntity
 67
     1
  8
7_ALL_FEATURES
  6
Continuous
 62
     7
100
AcDbLine
 10
111.7834608086
 20
173.0101888
 30
0.0
 11
111.7833164401
 21
173.2325042659
 31
0.0
  0
SPLINE
  5
2F0
330
1B
100
AcDbEntity
 67
     1
  8
7_ALL_FEATURES
  6
Continuous
 62
     7
100
AcDbSpline
 70
     0
 71
     3
 72
     9
 73
     5
 74
     0
 42
0.000000001
 43
0.0000001
 40
0.0
 40
0.0
 40
0.0
 40
0.0
 40
0.2311973973
 40
1.0
 40
1.0
 40
1.0
 40
1.0
 10
111.809042958
 20
169.8308686155
 30
0.0
 10
111.8060917075
 20
170.0758761252
 30
0.0
 10
111.7933711163
 20
171.1356072866
 30
0.0
 10
111.7845228997
 20
172.1954049055
 30
0.0
 10
111.7834608086
 20
173.0101888
 30
0.0
  0
LINE
  5
2F1
330
1B
100
AcDbEntity
 67
     1
  8
7_ALL_FEATURES
  6
Continuous
 62
     7
100
AcDbLine
 10
119.3544524681
 20
87.2228378943
 30
0.0
 11
119.1321370022
 21
87.2226935258
 31
0.0
  0
SPLINE
  5
2F2
330
1B
100
AcDbEntity
 67
     1
  8
7_ALL_FEATURES
  6
Continuous
 62
     7
100
AcDbSpline
 70
     0
 71
     3
 72
     9
 73
     5
 74
     0
 42
0.000000001
 43
0.0000001
 40
0.0
 40
0.0
 40
0.0
 40
0.0
 40
0.2311973973
 40
1.0
 40
1.0
 40
1.0
 40
1.0
 10
122.5337726525
 20
87.2484200436
 30
0.0
 10
122.2887651429
 20
87.2454687931
 30
0.0
 10
121.2290339815
 20
87.2327482019
 30
0.0
 10
120.1692363626
 20
87.2238999853
 30
0.0
 10
119.3544524681
 20
87.2228378943
 30
0.0
  0
SPLINE
  5
2F3
330
1B
100
AcDbEntity
 67
     1
  8
7_ALL_FEATURES
  6
Continuous
 62
     7
100
AcDbSpline
 70
     0
 71
     3
 72
     9
 73
     5
 74
     0
 42
0.000000001
 43
0.0000001
 40
0.0
 40
0.0
 40
0.0
 40
0.0
 40
0.2722565473
 40
1.0
 40
1.0
 40
1.0
 40
1.0
 10
197.5708117144
 20
87.2228378943
 30
0.0
 10
197.2822779044
 20
87.2232140348
 30
0.0
 10
196.2224930195
 20
87.2271282882
 30
0.0
 10
195.1627616645
 20
87.2391295716
 30
0.0
 10
194.3915642793
 20
87.2484191738
 30
0.0
  0
LINE
  5
2F4
330
1B
100
AcDbEntity
 67
     1
  8
7_ALL_FEATURES
  6
Continuous
 62
     7
100
AcDbLine
 10
197.7931271803
 20
87.2226935258
 30
0.0
 11
197.5708117144
 21
87.2228378943
 31
0.0
  0
LINE
  5
2F5
330
1B
100
AcDbEntity
 67
     1
  8
7_ALL_FEATURES
  6
Continuous
 62
     7
100
AcDbLine
 10
205.1418033738
 20
94.7938295537
 30
0.0
 11
205.1419477423
 21
94.5715140878
 31
0.0
  0
SPLINE
  5
2F6
330
1B
100
AcDbEntity
 67
     1
  8
7_ALL_FEATURES
  6
Continuous
 62
     7
100
AcDbSpline
 70
     0
 71
     3
 72
     9
 73
     5
 74
     0
 42
0.000000001
 43
0.0000001
 40
0.0
 40
0.0
 40
0.0
 40
0.0
 40
0.2311973973
 40
1.0
 40
1.0
 40
1.0
 40
1.0
 10
205.1162212244
 20
97.9731497382
 30
0.0
 10
205.119172475
 20
97.7281422285
 30
0.0
 10
205.1318930661
 20
96.6684110671
 30
0.0
 10
205.1407412828
 20
95.6086134483
 30
0.0
 10
205.1418033738
 20
94.7938295537
 30
0.0
  0
SPLINE
  5
2F7
330
1B
100
AcDbEntity
 67
     1
  8
7_ALL_FEATURES
  6
Continuous
 62
     7
100
AcDbSpline
 70
     0
 71
     3
 72
     9
 73
     5
 74
     0
 42
0.000000001
 43
0.0000001
 40
0.0
 40
0.0
 40
0.0
 40
0.0
 40
0.2722565473
 40
1.0
 40
1.0
 40
1.0
 40
1.0
 10
205.1418033738
 20
173.0101888
 30
0.0
 10
205.1414272333
 20
172.7216549901
 30
0.0
 10
205.1375129799
 20
171.6618701052
 30
0.0
 10
205.1255116965
 20
170.6021387501
 30
0.0
 10
205.1162220942
 20
169.830941365
 30
0.0
  0
LINE
  5
2F8
330
1B
100
AcDbEntity
 67
     1
  8
7_ALL_FEATURES
  6
Continuous
 62
     7
100
AcDbLine
 10
205.1419477423
 20
173.2325042659
 30
0.0
 11
205.1418033738
 21
173.0101888
 31
0.0
  0
LINE
  5
2F9
330
1B
100
AcDbEntity
 67
     1
  8
7_ALL_FEATURES
  6
Continuous
 62
     7
100
AcDbLine
 10
206.4626320912
 20
172.6440237133
 30
0.0
 11
206.4626320912
 21
181.4020853293
 31
0.0
  0
ELLIPSE
  5
2FA
330
1B
100
AcDbEntity
 67
     1
  8
06___PRT_ALL_SURFS
  6
Continuous
 62
     7
100
AcDbEllipse
 10
205.9625559272
 20
181.4019330128
 30
0.0
 11
0.3536610945999999
 21
0.3536610945999999
 31
0.0
210
0.0
220
0.0
230
1.0
 40
0.9996954599000001
 41
-0.0000002988
 42
0.7852458701
  0
ELLIPSE
  5
2FB
330
1B
100
AcDbEntity
 67
     1
  8
06___PRT_ALL_SURFS
  6
Continuous
 62
     7
100
AcDbEllipse
 10
205.9625559272
 20
181.4019330128
 30
0.0
 11
0.3536610945999999
 21
0.3536610945999999
 31
0.0
210
0.0
220
0.0
230
1.0
 40
0.9996954599000001
 41
-0.7852458701
 42
-0.0000002988
  0
LINE
  5
2FC
330
1B
100
AcDbEntity
 67
     1
  8
7_ALL_FEATURES
  6
Continuous
 62
     7
100
AcDbLine
 10
119.7206175548
 20
181.9020091769
 30
0.0
 11
110.9625559388
 21
181.9020091769
 31
0.0
  0
ELLIPSE
  5
2FD
330
1B
100
AcDbEntity
 67
     1
  8
06___PRT_ALL_SURFS
  6
Continuous
 62
     7
100
AcDbEllipse
 10
110.9627082552
 20
181.4019330128
 30
0.0
 11
-0.3536610945999999
 21
0.3536610945999999
 31
0.0
210
0.0
220
0.0
230
1.0
 40
0.9996954599000001
 41
-0.0000002988
 42
0.7852458701
  0
ELLIPSE
  5
2FE
330
1B
100
AcDbEntity
 67
     1
  8
06___PRT_ALL_SURFS
  6
Continuous
 62
     7
100
AcDbEllipse
 10
110.9627082552
 20
181.4019330128
 30
0.0
 11
-0.3536610945999999
 21
0.3536610945999999
 31
0.0
210
0.0
220
0.0
230
1.0
 40
0.9996954599000001
 41
-0.7852458701
 42
-0.0000002988
  0
LINE
  5
2FF
330
1B
100
AcDbEntity
 67
     1
  8
7_ALL_FEATURES
  6
Continuous
 62
     7
100
AcDbLine
 10
110.4626320912
 20
95.1599946404
 30
0.0
 11
110.4626320912
 21
86.4019330244
 31
0.0
  0
ELLIPSE
  5
300
330
1B
100
AcDbEntity
 67
     1
  8
06___PRT_ALL_SURFS
  6
Continuous
 62
     7
100
AcDbEllipse
 10
110.9627082552
 20
86.4020853409
 30
0.0
 11
0.3536610945999999
 21
0.3536610945999999
 31
0.0
210
0.0
220
0.0
230
1.0
 40
0.9996954599000001
 41
-3.1415929524
 42
-2.3563467834
  0
ELLIPSE
  5
301
330
1B
100
AcDbEntity
 67
     1
  8
06___PRT_ALL_SURFS
  6
Continuous
 62
     7
100
AcDbEllipse
 10
110.9627082552
 20
86.4020853409
 30
0.0
 11
0.3536610945999999
 21
0.3536610945999999
 31
0.0
210
0.0
220
0.0
230
1.0
 40
0.9996954599000001
 41
-3.9268385237
 42
-3.1415929524
  0
LINE
  5
302
330
1B
100
AcDbEntity
 67
     1
  8
7_ALL_FEATURES
  6
Continuous
 62
     7
100
AcDbLine
 10
197.2046466276
 20
85.9020091769
 30
0.0
 11
205.9627082436
 21
85.9020091769
 31
0.0
  0
ELLIPSE
  5
303
330
1B
100
AcDbEntity
 67
     1
  8
06___PRT_ALL_SURFS
  6
Continuous
 62
     7
100
AcDbEllipse
 10
205.9625559272
 20
86.4020853409
 30
0.0
 11
0.3536610945999999
 21
-0.3536610945999999
 31
0.0
210
0.0
220
0.0
230
1.0
 40
0.9996954599000001
 41
-0.0000002988
 42
0.7852458701
  0
ELLIPSE
  5
304
330
1B
100
AcDbEntity
 67
     1
  8
06___PRT_ALL_SURFS
  6
Continuous
 62
     7
100
AcDbEllipse
 10
205.9625559272
 20
86.4020853409
 30
0.0
 11
-0.3536610945999999
 21
0.3536610945999999
 31
0.0
210
0.0
220
0.0
230
1.0
 40
0.9996954599000001
 41
-3.9268385237
 42
-3.1415929524
  0
LINE
  5
305
330
1B
100
AcDbEntity
 67
     1
  8
7_ALL_FEATURES
  6
Continuous
 62
     9
100
AcDbLine
 10
112.7238169029
 20
86.966654536
 30
0.0
 11
157.3342781572
 21
86.966654536
 31
0.0
  0
ARC
  5
306
330
1B
100
AcDbEntity
 67
     1
  8
7_ALL_FEATURES
  6
Continuous
 62
     9
100
AcDbCircle
 10
205.8771350531
 20
86.4875062149
 30
0.0
 40
0.2999367548
100
AcDbArc
 50
269.9966466823
 51
0.0033533176
  0
LINE
  5
307
330
1B
100
AcDbEntity
 67
     1
  8
7_ALL_FEATURES
  6
Continuous
 62
     9
100
AcDbLine
 10
205.8771174989
 20
86.1875694606
 30
0.0
 11
111.0481466835
 21
86.1875694606
 31
0.0
  0
ARC
  5
308
330
1B
100
AcDbEntity
 67
     1
  8
7_ALL_FEATURES
  6
Continuous
 62
     9
100
AcDbCircle
 10
157.3342642988
 20
87.6665672244
 30
0.0
 40
0.6999111959
100
AcDbArc
 50
270.001134467
 51
359.9984199122999
  0
ARC
  5
309
330
1B
100
AcDbEntity
 67
     1
  8
7_ALL_FEATURES
  6
Continuous
 62
     9
100
AcDbCircle
 10
111.0481291293
 20
86.4875062149
 30
0.0
 40
0.2999367548
100
AcDbArc
 50
179.9966466824
 51
270.0033533175999
  0
ARC
  5
30A
330
1B
100
AcDbEntity
 67
     1
  8
7_ALL_FEATURES
  6
Continuous
 62
     9
100
AcDbCircle
 10
112.7238169029
 20
88.1631939886
 30
0.0
 40
1.1965394526
100
AcDbArc
 50
180.0
 51
270.0
  0
LINE
  5
30B
330
1B
100
AcDbEntity
 67
     1
  8
7_ALL_FEATURES
  6
Continuous
 62
     9
100
AcDbLine
 10
110.748192375
 20
86.4875237692
 30
0.0
 11
110.748192375
 21
181.3164945846
 31
0.0
  0
ARC
  5
30C
330
1B
100
AcDbEntity
 67
     1
  8
7_ALL_FEATURES
  6
Continuous
 62
     9
100
AcDbCircle
 10
157.3342633622
 20
132.7736350044
 30
0.0
 40
0.6999122127
100
AcDbArc
 50
0.0016567592
 51
89.99878886159999
  0
LINE
  5
30D
330
1B
100
AcDbEntity
 67
     1
  8
7_ALL_FEATURES
  6
Continuous
 62
     9
100
AcDbLine
 10
205.8771174989
 20
181.8164184321
 30
0.0
 11
205.9627082436
 21
181.9020091769
 31
0.0
  0
LINE
  5
30E
330
1B
100
AcDbEntity
 67
     1
  8
7_ALL_FEATURES
  6
Continuous
 62
     9
100
AcDbLine
 10
111.0481604498
 20
181.8164184321
 30
0.0
 11
205.8771174989
 21
181.8164184321
 31
0.0
  0
LINE
  5
30F
330
1B
100
AcDbEntity
 67
     1
  8
7_ALL_FEATURES
  6
Continuous
 62
     9
100
AcDbLine
 10
111.0481604498
 20
181.8164184321
 30
0.0
 11
110.9625559388
 21
181.9020091769
 31
0.0
  0
LINE
  5
310
330
1B
100
AcDbEntity
 67
     1
  8
7_ALL_FEATURES
  6
Continuous
 62
     9
100
AcDbLine
 10
157.3342781572
 20
133.4735486295
 30
0.0
 11
112.2271708369
 21
133.4735486295
 31
0.0
  0
LINE
  5
311
330
1B
100
AcDbEntity
 67
     1
  8
7_ALL_FEATURES
  6
Continuous
 62
     9
100
AcDbLine
 10
110.5482228359
 20
181.3164945846
 30
0.0
 11
110.4626320912
 21
181.4020853293
 31
0.0
  0
LINE
  5
312
330
1B
100
AcDbEntity
 67
     1
  8
7_ALL_FEATURES
  6
Continuous
 62
     9
100
AcDbLine
 10
110.5482228359
 20
86.4875375354
 30
0.0
 11
110.5482228359
 21
181.3164945846
 31
0.0
  0
LINE
  5
313
330
1B
100
AcDbEntity
 67
     1
  8
7_ALL_FEATURES
  6
Continuous
 62
     9
100
AcDbLine
 10
110.5482228359
 20
86.4875375354
 30
0.0
 11
110.4626320912
 21
86.4019330244
 31
0.0
  0
ARC
  5
314
330
1B
100
AcDbEntity
 67
     1
  8
7_ALL_FEATURES
  6
Continuous
 62
     9
100
AcDbCircle
 10
112.2271910855
 20
132.7736404377
 30
0.0
 40
0.699912253
100
AcDbArc
 50
90.00165758759998
 51
179.9987880332
  0
LINE
  5
315
330
1B
100
AcDbEntity
 67
     1
  8
7_ALL_FEATURES
  6
Continuous
 62
     9
100
AcDbLine
 10
111.0481466835
 20
85.9875999216
 30
0.0
 11
110.9625559388
 21
85.9020091769
 31
0.0
  0
LINE
  5
316
330
1B
100
AcDbEntity
 67
     1
  8
7_ALL_FEATURES
  6
Continuous
 62
     9
100
AcDbLine
 10
205.8771037326
 20
85.9875999216
 30
0.0
 11
111.0481466835
 21
85.9875999216
 31
0.0
  0
LINE
  5
317
330
1B
100
AcDbEntity
 67
     1
  8
7_ALL_FEATURES
  6
Continuous
 62
     9
100
AcDbLine
 10
205.8771037326
 20
85.9875999216
 30
0.0
 11
205.9627082436
 21
85.9020091769
 31
0.0
  0
LINE
  5
318
330
1B
100
AcDbEntity
 67
     1
  8
7_ALL_FEATURES
  6
Continuous
 62
     9
100
AcDbLine
 10
111.5272774503
 20
132.7736552429
 30
0.0
 11
111.5272774503
 21
88.1631939886
 31
0.0
  0
LINE
  5
319
330
1B
100
AcDbEntity
 67
     1
  8
7_ALL_FEATURES
  6
Continuous
 62
     9
100
AcDbLine
 10
206.3770413465
 20
86.4875237692
 30
0.0
 11
206.4626320912
 21
86.4019330244
 31
0.0
  0
LINE
  5
31A
330
1B
100
AcDbEntity
 67
     1
  8
7_ALL_FEATURES
  6
Continuous
 62
     9
100
AcDbLine
 10
206.3770413465
 20
181.3164808183
 30
0.0
 11
206.3770413465
 21
86.4875237692
 31
0.0
  0
LINE
  5
31B
330
1B
100
AcDbEntity
 67
     1
  8
7_ALL_FEATURES
  6
Continuous
 62
     9
100
AcDbLine
 10
206.3770413465
 20
181.3164808183
 30
0.0
 11
206.4626320912
 21
181.4020853293
 31
0.0
  0
LINE
  5
31C
330
1B
100
AcDbEntity
 67
     1
  8
7_ALL_FEATURES
  6
Continuous
 62
     9
100
AcDbLine
 10
158.0341715438
 20
87.6665479226
 30
0.0
 11
158.0341715438
 21
132.7736552429
 31
0.0
  0
ARC
  5
31D
330
1B
100
AcDbEntity
 67
     1
  8
7_ALL_FEATURES
  6
Continuous
 62
     9
100
AcDbCircle
 10
111.0481291293
 20
181.3165121388
 30
0.0
 40
0.2999367548
100
AcDbArc
 50
89.9966466824
 51
180.0033533176
  0
LINE
  5
31E
330
1B
100
AcDbEntity
 67
     1
  8
7_ALL_FEATURES
  6
Continuous
 62
     9
100
AcDbLine
 10
157.6673694293
 20
135.0960937869
 30
0.0
 11
157.6760204242
 21
135.1885446915
 31
0.0
  0
LINE
  5
31F
330
1B
100
AcDbEntity
 67
     1
  8
7_ALL_FEATURES
  6
Continuous
 62
     9
100
AcDbLine
 10
157.3342781572
 20
180.8373638178
 30
0.0
 11
112.7238169029
 21
180.8373638178
 31
0.0
  0
LINE
  5
320
330
1B
100
AcDbEntity
 67
     1
  8
7_ALL_FEATURES
  6
Continuous
 62
     9
100
AcDbLine
 10
159.2578947531
 20
132.7079245668
 30
0.0
 11
159.2492437582
 21
132.6154736623
 31
0.0
  0
ARC
  5
321
330
1B
100
AcDbEntity
 67
     1
  8
7_ALL_FEATURES
  6
Continuous
 62
     9
100
AcDbCircle
 10
112.7238169029
 20
179.6408243651
 30
0.0
 40
1.1965394526
100
AcDbArc
 50
90.0
 51
180.0
  0
LINE
  5
322
330
1B
100
AcDbEntity
 67
     1
  8
7_ALL_FEATURES
  6
Continuous
 62
     9
100
AcDbLine
 10
111.0481466835
 20
181.8164184321
 30
0.0
 11
111.0481466835
 21
181.6164488931
 31
0.0
  0
LINE
  5
323
330
1B
100
AcDbEntity
 67
     1
  8
7_ALL_FEATURES
  6
Continuous
 62
     9
100
AcDbLine
 10
110.5482228359
 20
181.3164945846
 30
0.0
 11
110.748192375
 21
181.3164945846
 31
0.0
  0
LINE
  5
324
330
1B
100
AcDbEntity
 67
     1
  8
7_ALL_FEATURES
  6
Continuous
 62
     9
100
AcDbLine
 10
110.5482228359
 20
86.4875237692
 30
0.0
 11
110.748192375
 21
86.4875237692
 31
0.0
  0
LINE
  5
325
330
1B
100
AcDbEntity
 67
     1
  8
7_ALL_FEATURES
  6
Continuous
 62
     9
100
AcDbLine
 10
111.0481466835
 20
85.9875999216
 30
0.0
 11
111.0481466835
 21
86.1875694606
 31
0.0
  0
LINE
  5
326
330
1B
100
AcDbEntity
 67
     1
  8
7_ALL_FEATURES
  6
Continuous
 62
     9
100
AcDbLine
 10
205.8771174989
 20
85.9875999216
 30
0.0
 11
205.8771174989
 21
86.1875694606
 31
0.0
  0
LINE
  5
327
330
1B
100
AcDbEntity
 67
     1
  8
7_ALL_FEATURES
  6
Continuous
 62
     9
100
AcDbLine
 10
206.3770413465
 20
86.4875237692
 30
0.0
 11
206.1770718075
 21
86.4875237692
 31
0.0
  0
LINE
  5
328
330
1B
100
AcDbEntity
 67
     1
  8
7_ALL_FEATURES
  6
Continuous
 62
     9
100
AcDbLine
 10
206.3770413465
 20
181.3164945846
 30
0.0
 11
206.1770718075
 21
181.3164945846
 31
0.0
  0
LINE
  5
329
330
1B
100
AcDbEntity
 67
     1
  8
7_ALL_FEATURES
  6
Continuous
 62
     9
100
AcDbLine
 10
205.8771174989
 20
181.8164184321
 30
0.0
 11
205.8771174989
 21
181.6164488931
 31
0.0
  0
LINE
  5
32A
330
1B
100
AcDbEntity
 67
     1
  8
7_ALL_FEATURES
  6
Continuous
 62
     9
100
AcDbLine
 10
204.2014472795
 20
180.6373942787
 30
0.0
 11
204.2014472795
 21
180.8373638178
 31
0.0
  0
LINE
  5
32B
330
1B
100
AcDbEntity
 67
     1
  8
7_ALL_FEATURES
  6
Continuous
 62
     9
100
AcDbLine
 10
205.1980171931
 20
179.6408243651
 30
0.0
 11
205.3979867217
 21
179.6408243686
 31
0.0
  0
LINE
  5
32C
330
1B
100
AcDbEntity
 67
     1
  8
7_ALL_FEATURES
  6
Continuous
 62
     9
100
AcDbLine
 10
205.1980171931
 20
135.0303631108
 30
0.0
 11
205.3979867321
 21
135.0303631108
 31
0.0
  0
LINE
  5
32D
330
1B
100
AcDbEntity
 67
     1
  8
7_ALL_FEATURES
  6
Continuous
 62
     9
100
AcDbLine
 10
204.6980933455
 20
134.5304392633
 30
0.0
 11
204.6980933455
 21
134.3304697242
 31
0.0
  0
LINE
  5
32E
330
1B
100
AcDbEntity
 67
     1
  8
7_ALL_FEATURES
  6
Continuous
 62
     9
100
AcDbLine
 10
159.5909860252
 20
134.5304392633
 30
0.0
 11
159.5909860252
 21
134.3304697242
 31
0.0
  0
LINE
  5
32F
330
1B
100
AcDbEntity
 67
     1
  8
7_ALL_FEATURES
  6
Continuous
 62
     9
100
AcDbLine
 10
159.0910621776
 20
135.0303631108
 30
0.0
 11
158.8910926386
 21
135.0303631108
 31
0.0
  0
LINE
  5
330
330
1B
100
AcDbEntity
 67
     1
  8
7_ALL_FEATURES
  6
Continuous
 62
     9
100
AcDbLine
 10
159.0910621776
 20
180.1374704312
 30
0.0
 11
158.8910926386
 21
180.1374704312
 31
0.0
  0
LINE
  5
331
330
1B
100
AcDbEntity
 67
     1
  8
7_ALL_FEATURES
  6
Continuous
 62
     9
100
AcDbLine
 10
159.5909860252
 20
180.6373942787
 30
0.0
 11
159.5909860255
 21
180.8373638177
 31
0.0
  0
LINE
  5
332
330
1B
100
AcDbEntity
 67
     1
  8
7_ALL_FEATURES
  6
Continuous
 62
     9
100
AcDbLine
 10
158.8910926386
 20
87.6665479226
 30
0.0
 11
159.0910621776
 21
87.6665479226
 31
0.0
  0
LINE
  5
333
330
1B
100
AcDbEntity
 67
     1
  8
7_ALL_FEATURES
  6
Continuous
 62
     9
100
AcDbLine
 10
159.5909860252
 20
86.966654536
 30
0.0
 11
159.5909860245
 21
87.166624075
 31
0.0
  0
LINE
  5
334
330
1B
100
AcDbEntity
 67
     1
  8
7_ALL_FEATURES
  6
Continuous
 62
     9
100
AcDbLine
 10
204.0485631333
 20
169.830941365
 30
0.0
 11
204.0485631333
 21
135.1885446915
 31
0.0
  0
LINE
  5
335
330
1B
100
AcDbEntity
 67
     1
  8
7_ALL_FEATURES
  6
Continuous
 62
     9
100
AcDbLine
 10
204.0485631333
 20
135.1885446915
 30
0.0
 11
159.7491676058
 21
135.1885446915
 31
0.0
  0
LINE
  5
336
330
1B
100
AcDbEntity
 67
     1
  8
7_ALL_FEATURES
  6
Continuous
 62
     9
100
AcDbLine
 10
159.7491676058
 20
135.1885446915
 30
0.0
 11
159.7491676058
 21
179.487940219
 31
0.0
  0
LINE
  5
337
330
1B
100
AcDbEntity
 67
     1
  8
7_ALL_FEATURES
  6
Continuous
 62
     9
100
AcDbLine
 10
159.7491676058
 20
179.487940219
 30
0.0
 11
194.3915642793
 21
179.487940219
 31
0.0
  0
ARC
  5
338
330
1B
100
AcDbEntity
 67
     1
  8
7_ALL_FEATURES
  6
Continuous
 62
     9
100
AcDbCircle
 10
194.3915642793
 20
176.9020091769
 30
0.0
 40
2.5859310421
100
AcDbArc
 50
45.0
 51
90.0
  0
LINE
  5
339
330
1B
100
AcDbEntity
 67
     1
  8
7_ALL_FEATURES
  6
Continuous
 62
     9
100
AcDbLine
 10
196.2200936549
 20
178.7305385524
 30
0.0
 11
203.2911614668
 21
171.6594707406
 31
0.0
  0
ARC
  5
33A
330
1B
100
AcDbEntity
 67
     1
  8
7_ALL_FEATURES
  6
Continuous
 62
     9
100
AcDbCircle
 10
201.4626320912
 20
169.830941365
 30
0.0
 40
2.5859310421
100
AcDbArc
 50
0.0
 51
45.0
  0
LINE
  5
33B
330
1B
100
AcDbEntity
 67
     1
  8
7_ALL_FEATURES
  6
Continuous
 62
     9
100
AcDbLine
 10
204.0485631333
 20
132.6154736623
 30
0.0
 11
204.0485631333
 21
97.9730769887
 31
0.0
  0
ARC
  5
33C
330
1B
100
AcDbEntity
 67
     1
  8
7_ALL_FEATURES
  6
Continuous
 62
     9
100
AcDbCircle
 10
201.4626320912
 20
97.9730769887
 30
0.0
 40
2.5859310421
100
AcDbArc
 50
315.0
 51
360.0
  0
LINE
  5
33D
330
1B
100
AcDbEntity
 67
     1
  8
7_ALL_FEATURES
  6
Continuous
 62
     9
100
AcDbLine
 10
203.2911614668
 20
96.1445476132
 30
0.0
 11
196.2200936549
 21
89.0734798013
 31
0.0
  0
ARC
  5
33E
330
1B
100
AcDbEntity
 67
     1
  8
7_ALL_FEATURES
  6
Continuous
 62
     9
100
AcDbCircle
 10
194.3915642793
 20
90.9020091769
 30
0.0
 40
2.5859310421
100
AcDbArc
 50
270.0
 51
315.0
  0
LINE
  5
33F
330
1B
100
AcDbEntity
 67
     1
  8
7_ALL_FEATURES
  6
Continuous
 62
     9
100
AcDbLine
 10
194.3915642793
 20
88.3160781348
 30
0.0
 11
159.7491676058
 21
88.3160781348
 31
0.0
  0
LINE
  5
340
330
1B
100
AcDbEntity
 67
     1
  8
7_ALL_FEATURES
  6
Continuous
 62
     9
100
AcDbLine
 10
159.7491676058
 20
88.3160781348
 30
0.0
 11
159.7491676058
 21
132.6154736623
 31
0.0
  0
LINE
  5
341
330
1B
100
AcDbEntity
 67
     1
  8
7_ALL_FEATURES
  6
Continuous
 62
     9
100
AcDbLine
 10
159.7491676058
 20
132.6154736623
 30
0.0
 11
204.0485631333
 21
132.6154736623
 31
0.0
  0
LINE
  5
342
330
1B
100
AcDbEntity
 67
     1
  8
7_ALL_FEATURES
  6
Continuous
 62
     9
100
AcDbLine
 10
112.8767010491
 20
97.9730769887
 30
0.0
 11
112.8767010491
 21
132.6154736623
 31
0.0
  0
LINE
  5
343
330
1B
100
AcDbEntity
 67
     1
  8
7_ALL_FEATURES
  6
Continuous
 62
     9
100
AcDbLine
 10
112.8767010491
 20
132.6154736623
 30
0.0
 11
157.1760965766
 21
132.6154736623
 31
0.0
  0
LINE
  5
344
330
1B
100
AcDbEntity
 67
     1
  8
7_ALL_FEATURES
  6
Continuous
 62
     9
100
AcDbLine
 10
157.1760965766
 20
132.6154736623
 30
0.0
 11
157.1760965766
 21
88.3160781348
 31
0.0
  0
LINE
  5
345
330
1B
100
AcDbEntity
 67
     1
  8
7_ALL_FEATURES
  6
Continuous
 62
     9
100
AcDbLine
 10
157.1760965766
 20
88.3160781348
 30
0.0
 11
122.5336999031
 21
88.3160781348
 31
0.0
  0
ARC
  5
346
330
1B
100
AcDbEntity
 67
     1
  8
7_ALL_FEATURES
  6
Continuous
 62
     9
100
AcDbCircle
 10
122.5336999031
 20
90.9020091769
 30
0.0
 40
2.5859310421
100
AcDbArc
 50
225.0
 51
270.0
  0
LINE
  5
347
330
1B
100
AcDbEntity
 67
     1
  8
7_ALL_FEATURES
  6
Continuous
 62
     9
100
AcDbLine
 10
120.7051705275
 20
89.0734798013
 30
0.0
 11
113.6341027157
 21
96.1445476132
 31
0.0
  0
ARC
  5
348
330
1B
100
AcDbEntity
 67
     1
  8
7_ALL_FEATURES
  6
Continuous
 62
     9
100
AcDbCircle
 10
115.4626320912
 20
97.9730769887
 30
0.0
 40
2.5859310421
100
AcDbArc
 50
180.0
 51
225.0
  0
LINE
  5
349
330
1B
100
AcDbEntity
 67
     1
  8
7_ALL_FEATURES
  6
Continuous
 62
     9
100
AcDbLine
 10
112.8767010491
 20
135.1885446915
 30
0.0
 11
112.8767010491
 21
169.830941365
 31
0.0
  0
ARC
  5
34A
330
1B
100
AcDbEntity
 67
     1
  8
7_ALL_FEATURES
  6
Continuous
 62
     9
100
AcDbCircle
 10
115.4626320912
 20
169.830941365
 30
0.0
 40
2.5859310421
100
AcDbArc
 50
135.0
 51
180.0
  0
LINE
  5
34B
330
1B
100
AcDbEntity
 67
     1
  8
7_ALL_FEATURES
  6
Continuous
 62
     9
100
AcDbLine
 10
113.6341027157
 20
171.6594707406
 30
0.0
 11
120.7051705275
 21
178.7305385524
 31
0.0
  0
ARC
  5
34C
330
1B
100
AcDbEntity
 67
     1
  8
7_ALL_FEATURES
  6
Continuous
 62
     9
100
AcDbCircle
 10
122.5336999031
 20
176.9020091769
 30
0.0
 40
2.5859310421
100
AcDbArc
 50
90.0
 51
135.0
  0
LINE
  5
34D
330
1B
100
AcDbEntity
 67
     1
  8
7_ALL_FEATURES
  6
Continuous
 62
     9
100
AcDbLine
 10
122.5336999031
 20
179.487940219
 30
0.0
 11
157.1760965766
 21
179.487940219
 31
0.0
  0
LINE
  5
34E
330
1B
100
AcDbEntity
 67
     1
  8
7_ALL_FEATURES
  6
Continuous
 62
     9
100
AcDbLine
 10
157.1760965766
 20
179.487940219
 30
0.0
 11
157.1760965766
 21
135.1885446915
 31
0.0
  0
LINE
  5
34F
330
1B
100
AcDbEntity
 67
     1
  8
7_ALL_FEATURES
  6
Continuous
 62
     9
100
AcDbLine
 10
157.1760965766
 20
135.1885446915
 30
0.0
 11
112.8767010491
 21
135.1885446915
 31
0.0
  0
LINE
  5
350
330
1B
100
AcDbEntity
 67
     1
  8
7_ALL_FEATURES
  6
Continuous
 62
     9
100
AcDbLine
 10
157.3342295787
 20
180.6373942787
 30
0.0
 11
112.7238169029
 21
180.6373942787
 31
0.0
  0
LINE
  5
351
330
1B
100
AcDbEntity
 67
     1
  8
7_ALL_FEATURES
  6
Continuous
 62
     9
100
AcDbLine
 10
157.3342295787
 20
180.6373942787
 30
0.0
 11
157.1846717926
 21
180.4877879141
 31
0.0
  0
LINE
  5
352
330
1B
100
AcDbEntity
 67
     1
  8
7_ALL_FEATURES
  6
Continuous
 62
     9
100
AcDbLine
 10
122.5336999031
 20
180.4877879141
 30
0.0
 11
157.1846717926
 21
180.4877879141
 31
0.0
  0
LINE
  5
353
330
1B
100
AcDbEntity
 67
     1
  8
7_ALL_FEATURES
  6
Continuous
 62
     9
100
AcDbLine
 10
122.5336999031
 20
180.4877879141
 30
0.0
 11
122.5336999031
 21
180.5555991799
 31
0.0
  0
LINE
  5
354
330
1B
100
AcDbEntity
 67
     1
  8
7_ALL_FEATURES
  6
Continuous
 62
     9
100
AcDbLine
 10
111.5272774503
 20
179.6408243651
 30
0.0
 11
111.5272774503
 21
135.0303631108
 31
0.0
  0
ARC
  5
355
330
1B
100
AcDbEntity
 67
     1
  8
7_ALL_FEATURES
  6
Continuous
 62
     9
100
AcDbCircle
 10
112.2271901388
 20
135.0303769692
 30
0.0
 40
0.6999111957
100
AcDbArc
 50
180.0011344651
 51
269.9984199142
  0
LINE
  5
356
330
1B
100
AcDbEntity
 67
     1
  8
7_ALL_FEATURES
  6
Continuous
 62
     9
100
AcDbLine
 10
112.7238169029
 20
180.5813248279
 30
0.0
 11
119.1321370022
 21
180.5813248279
 31
0.0
  0
LINE
  5
357
330
1B
100
AcDbEntity
 67
     1
  8
7_ALL_FEATURES
  6
Continuous
 62
     9
100
AcDbLine
 10
112.7238169029
 20
180.6373942787
 30
0.0
 11
112.7238169029
 21
180.5813248279
 31
0.0
  0
LINE
  5
358
330
1B
100
AcDbEntity
 67
     1
  8
7_ALL_FEATURES
  6
Continuous
 62
     9
100
AcDbLine
 10
204.2014472795
 20
180.6373942787
 30
0.0
 11
204.2014472795
 21
180.5813248279
 31
0.0
  0
LINE
  5
359
330
1B
100
AcDbEntity
 67
     1
  8
7_ALL_FEATURES
  6
Continuous
 62
     9
100
AcDbLine
 10
197.7931271803
 20
180.5813248279
 30
0.0
 11
204.2014472795
 21
180.5813248279
 31
0.0
  0
LINE
  5
35A
330
1B
100
AcDbEntity
 67
     1
  8
7_ALL_FEATURES
  6
Continuous
 62
     9
100
AcDbLine
 10
112.2271708369
 20
134.3304697242
 30
0.0
 11
157.3342781572
 21
134.3304697242
 31
0.0
  0
ARC
  5
35B
330
1B
100
AcDbEntity
 67
     1
  8
7_ALL_FEATURES
  6
Continuous
 62
     9
100
AcDbCircle
 10
157.3342642988
 20
135.0303824127
 30
0.0
 40
0.6999111959
100
AcDbArc
 50
270.0011344673
 51
359.9984199121
  0
LINE
  5
35C
330
1B
100
AcDbEntity
 67
     1
  8
7_ALL_FEATURES
  6
Continuous
 62
     9
100
AcDbLine
 10
194.3914915299
 20
180.5555983101
 30
0.0
 11
194.3915642793
 21
180.4877879141
 31
0.0
  0
LINE
  5
35D
330
1B
100
AcDbEntity
 67
     1
  8
7_ALL_FEATURES
  6
Continuous
 62
     9
100
AcDbLine
 10
159.7405923898
 20
180.4877879141
 30
0.0
 11
194.3915642793
 21
180.4877879141
 31
0.0
  0
LINE
  5
35E
330
1B
100
AcDbEntity
 67
     1
  8
7_ALL_FEATURES
  6
Continuous
 62
     9
100
AcDbLine
 10
159.7405923898
 20
180.4877879141
 30
0.0
 11
159.5910330063
 21
180.6373942787
 31
0.0
  0
LINE
  5
35F
330
1B
100
AcDbEntity
 67
     1
  8
7_ALL_FEATURES
  6
Continuous
 62
     9
100
AcDbLine
 10
204.2014472795
 20
180.6373942787
 30
0.0
 11
159.5910330063
 21
180.6373942787
 31
0.0
  0
LINE
  5
360
330
1B
100
AcDbEntity
 67
     1
  8
7_ALL_FEATURES
  6
Continuous
 62
     9
100
AcDbLine
 10
111.7272469893
 20
132.7736066644
 30
0.0
 11
111.7272469893
 21
88.1631939886
 31
0.0
  0
LINE
  5
361
330
1B
100
AcDbEntity
 67
     1
  8
7_ALL_FEATURES
  6
Continuous
 62
     9
100
AcDbLine
 10
111.7272469893
 20
132.7736066644
 30
0.0
 11
111.8768533539
 21
132.6240488783
 31
0.0
  0
LINE
  5
362
330
1B
100
AcDbEntity
 67
     1
  8
7_ALL_FEATURES
  6
Continuous
 62
     9
100
AcDbLine
 10
111.8768533539
 20
97.9730769887
 30
0.0
 11
111.8768533539
 21
132.6240488783
 31
0.0
  0
LINE
  5
363
330
1B
100
AcDbEntity
 67
     1
  8
7_ALL_FEATURES
  6
Continuous
 62
     9
100
AcDbLine
 10
111.8768533539
 20
97.9730769887
 30
0.0
 11
111.8090420882
 21
97.9730769887
 31
0.0
  0
LINE
  5
364
330
1B
100
AcDbEntity
 67
     1
  8
7_ALL_FEATURES
  6
Continuous
 62
     9
100
AcDbLine
 10
158.0341715438
 20
135.0303631108
 30
0.0
 11
158.0341715438
 21
180.1374704312
 31
0.0
  0
ARC
  5
365
330
1B
100
AcDbEntity
 67
     1
  8
7_ALL_FEATURES
  6
Continuous
 62
     9
100
AcDbCircle
 10
157.3342633622
 20
180.1374501927
 30
0.0
 40
0.6999122127
100
AcDbArc
 50
0.0016567592
 51
89.99878886159999
  0
LINE
  5
366
330
1B
100
AcDbEntity
 67
     1
  8
7_ALL_FEATURES
  6
Continuous
 62
     9
100
AcDbLine
 10
111.7833164401
 20
88.1631939886
 30
0.0
 11
111.7833164401
 21
94.5715140878
 31
0.0
  0
LINE
  5
367
330
1B
100
AcDbEntity
 67
     1
  8
7_ALL_FEATURES
  6
Continuous
 62
     9
100
AcDbLine
 10
111.7272469893
 20
88.1631939886
 30
0.0
 11
111.7833164401
 21
88.1631939886
 31
0.0
  0
LINE
  5
368
330
1B
100
AcDbEntity
 67
     1
  8
7_ALL_FEATURES
  6
Continuous
 62
     9
100
AcDbLine
 10
111.7272469893
 20
179.6408243651
 30
0.0
 11
111.7272469893
 21
135.030410092
 31
0.0
  0
LINE
  5
369
330
1B
100
AcDbEntity
 67
     1
  8
7_ALL_FEATURES
  6
Continuous
 62
     9
100
AcDbLine
 10
111.7272469893
 20
179.6408243651
 30
0.0
 11
111.7833164401
 21
179.6408243651
 31
0.0
  0
LINE
  5
36A
330
1B
100
AcDbEntity
 67
     1
  8
7_ALL_FEATURES
  6
Continuous
 62
     9
100
AcDbLine
 10
111.7833164401
 20
173.2325042659
 30
0.0
 11
111.7833164401
 21
179.6408243651
 31
0.0
  0
LINE
  5
36B
330
1B
100
AcDbEntity
 67
     1
  8
7_ALL_FEATURES
  6
Continuous
 62
     9
100
AcDbLine
 10
205.3979867321
 20
132.7736552429
 30
0.0
 11
205.3979867321
 21
88.1631939886
 31
0.0
  0
ARC
  5
36C
330
1B
100
AcDbEntity
 67
     1
  8
7_ALL_FEATURES
  6
Continuous
 62
     9
100
AcDbCircle
 10
204.6980407162
 20
132.7735800887
 30
0.0
 40
0.6999584352
100
AcDbArc
 50
0.0061519254
 51
89.9956920362
  0
LINE
  5
36D
330
1B
100
AcDbEntity
 67
     1
  8
7_ALL_FEATURES
  6
Continuous
 62
     9
100
AcDbLine
 10
111.809042958
 20
169.8308686155
 30
0.0
 11
111.8768533539
 21
169.830941365
 31
0.0
  0
LINE
  5
36E
330
1B
100
AcDbEntity
 67
     1
  8
7_ALL_FEATURES
  6
Continuous
 62
     9
100
AcDbLine
 10
111.8768533539
 20
135.1799694755
 30
0.0
 11
111.8768533539
 21
169.830941365
 31
0.0
  0
LINE
  5
36F
330
1B
100
AcDbEntity
 67
     1
  8
7_ALL_FEATURES
  6
Continuous
 62
     9
100
AcDbLine
 10
111.8768533539
 20
135.1799694755
 30
0.0
 11
111.7272469893
 21
135.030410092
 31
0.0
  0
LINE
  5
370
330
1B
100
AcDbEntity
 67
     1
  8
7_ALL_FEATURES
  6
Continuous
 62
     9
100
AcDbLine
 10
112.7238169029
 20
87.166624075
 30
0.0
 11
157.3342311761
 21
87.166624075
 31
0.0
  0
LINE
  5
371
330
1B
100
AcDbEntity
 67
     1
  8
7_ALL_FEATURES
  6
Continuous
 62
     9
100
AcDbLine
 10
112.7238169029
 20
87.166624075
 30
0.0
 11
112.7238169029
 21
87.2226935258
 31
0.0
  0
LINE
  5
372
330
1B
100
AcDbEntity
 67
     1
  8
7_ALL_FEATURES
  6
Continuous
 62
     9
100
AcDbLine
 10
119.1321370022
 20
87.2226935258
 30
0.0
 11
112.7238169029
 21
87.2226935258
 31
0.0
  0
LINE
  5
373
330
1B
100
AcDbEntity
 67
     1
  8
7_ALL_FEATURES
  6
Continuous
 62
     9
100
AcDbLine
 10
159.5909860252
 20
133.4735486295
 30
0.0
 11
204.6980933455
 21
133.4735486295
 31
0.0
  0
ARC
  5
374
330
1B
100
AcDbEntity
 67
     1
  8
7_ALL_FEATURES
  6
Continuous
 62
     9
100
AcDbCircle
 10
159.5910611793
 20
132.7736026136
 30
0.0
 40
0.6999584351
100
AcDbArc
 50
90.00615192019998
 51
179.9956920407
  0
LINE
  5
375
330
1B
100
AcDbEntity
 67
     1
  8
7_ALL_FEATURES
  6
Continuous
 62
     9
100
AcDbLine
 10
122.5337726525
 20
87.2484200436
 30
0.0
 11
122.5336999031
 21
87.3162304396
 31
0.0
  0
LINE
  5
376
330
1B
100
AcDbEntity
 67
     1
  8
7_ALL_FEATURES
  6
Continuous
 62
     9
100
AcDbLine
 10
157.1846717926
 20
87.3162304396
 30
0.0
 11
122.5336999031
 21
87.3162304396
 31
0.0
  0
LINE
  5
377
330
1B
100
AcDbEntity
 67
     1
  8
7_ALL_FEATURES
  6
Continuous
 62
     9
100
AcDbLine
 10
157.1846717926
 20
87.3162304396
 30
0.0
 11
157.3342311761
 21
87.166624075
 31
0.0
  0
LINE
  5
378
330
1B
100
AcDbEntity
 67
     1
  8
7_ALL_FEATURES
  6
Continuous
 62
     9
100
AcDbLine
 10
204.2014472795
 20
87.166624075
 30
0.0
 11
159.5910302587
 21
87.166624075
 31
0.0
  0
LINE
  5
379
330
1B
100
AcDbEntity
 67
     1
  8
7_ALL_FEATURES
  6
Continuous
 62
     9
100
AcDbLine
 10
159.5910302587
 20
87.166624075
 30
0.0
 11
159.7405923898
 21
87.3162304396
 31
0.0
  0
LINE
  5
37A
330
1B
100
AcDbEntity
 67
     1
  8
7_ALL_FEATURES
  6
Continuous
 62
     9
100
AcDbLine
 10
194.3915642793
 20
87.3162304396
 30
0.0
 11
159.7405923898
 21
87.3162304396
 31
0.0
  0
LINE
  5
37B
330
1B
100
AcDbEntity
 67
     1
  8
7_ALL_FEATURES
  6
Continuous
 62
     9
100
AcDbLine
 10
194.3915642793
 20
87.3162304396
 30
0.0
 11
194.3915642793
 21
87.2484191738
 31
0.0
  0
LINE
  5
37C
330
1B
100
AcDbEntity
 67
     1
  8
7_ALL_FEATURES
  6
Continuous
 62
     9
100
AcDbLine
 10
158.8910926386
 20
87.6665479226
 30
0.0
 11
158.8910926386
 21
132.7736552429
 31
0.0
  0
ARC
  5
37D
330
1B
100
AcDbEntity
 67
     1
  8
7_ALL_FEATURES
  6
Continuous
 62
     9
100
AcDbCircle
 10
159.5910645572
 20
87.6666051336
 30
0.0
 40
0.699962838
100
AcDbArc
 50
180.004682975
 51
269.9935716157
  0
LINE
  5
37E
330
1B
100
AcDbEntity
 67
     1
  8
7_ALL_FEATURES
  6
Continuous
 62
     9
100
AcDbLine
 10
204.2014472795
 20
87.2226935258
 30
0.0
 11
197.7931271803
 21
87.2226935258
 31
0.0
  0
LINE
  5
37F
330
1B
100
AcDbEntity
 67
     1
  8
7_ALL_FEATURES
  6
Continuous
 62
     9
100
AcDbLine
 10
204.2014472795
 20
87.166624075
 30
0.0
 11
204.2014472795
 21
87.2226935258
 31
0.0
  0
LINE
  5
380
330
1B
100
AcDbEntity
 67
     1
  8
7_ALL_FEATURES
  6
Continuous
 62
     9
100
AcDbLine
 10
205.1980171931
 20
132.7739537842
 30
0.0
 11
205.1980171931
 21
88.1631939886
 31
0.0
  0
LINE
  5
381
330
1B
100
AcDbEntity
 67
     1
  8
7_ALL_FEATURES
  6
Continuous
 62
     9
100
AcDbLine
 10
205.1980171931
 20
88.1631939886
 30
0.0
 11
205.1419477423
 21
88.1631939886
 31
0.0
  0
LINE
  5
382
330
1B
100
AcDbEntity
 67
     1
  8
7_ALL_FEATURES
  6
Continuous
 62
     9
100
AcDbLine
 10
205.1419477423
 20
94.5715140878
 30
0.0
 11
205.1419477423
 21
88.1631939886
 31
0.0
  0
LINE
  5
383
330
1B
100
AcDbEntity
 67
     1
  8
7_ALL_FEATURES
  6
Continuous
 62
     9
100
AcDbLine
 10
204.2014472795
 20
86.966654536
 30
0.0
 11
159.5909860252
 21
86.966654536
 31
0.0
  0
ARC
  5
384
330
1B
100
AcDbEntity
 67
     1
  8
7_ALL_FEATURES
  6
Continuous
 62
     9
100
AcDbCircle
 10
204.2014472795
 20
88.1631939886
 30
0.0
 40
1.1965394526
100
AcDbArc
 50
270.0
 51
360.0
  0
LINE
  5
385
330
1B
100
AcDbEntity
 67
     1
  8
7_ALL_FEATURES
  6
Continuous
 62
     9
100
AcDbLine
 10
205.1162212244
 20
97.9731497382
 30
0.0
 11
205.0484108285
 21
97.9730769887
 31
0.0
  0
LINE
  5
386
330
1B
100
AcDbEntity
 67
     1
  8
7_ALL_FEATURES
  6
Continuous
 62
     9
100
AcDbLine
 10
205.0484108285
 20
132.6240488783
 30
0.0
 11
205.0484108285
 21
97.9730769887
 31
0.0
  0
LINE
  5
387
330
1B
100
AcDbEntity
 67
     1
  8
7_ALL_FEATURES
  6
Continuous
 62
     9
100
AcDbLine
 10
205.0484108285
 20
132.6240488783
 30
0.0
 11
205.1980171931
 21
132.7739537842
 31
0.0
  0
LINE
  5
388
330
1B
100
AcDbEntity
 67
     1
  8
7_ALL_FEATURES
  6
Continuous
 62
     9
100
AcDbLine
 10
205.1980171931
 20
179.6408243651
 30
0.0
 11
205.1419477423
 21
179.6408243651
 31
0.0
  0
LINE
  5
389
330
1B
100
AcDbEntity
 67
     1
  8
7_ALL_FEATURES
  6
Continuous
 62
     9
100
AcDbLine
 10
205.1980171931
 20
135.0304116893
 30
0.0
 11
205.1980171931
 21
179.6408243651
 31
0.0
  0
LINE
  5
38A
330
1B
100
AcDbEntity
 67
     1
  8
7_ALL_FEATURES
  6
Continuous
 62
     9
100
AcDbLine
 10
205.1980171931
 20
135.0304116893
 30
0.0
 11
205.0484108285
 21
135.1799694755
 31
0.0
  0
LINE
  5
38B
330
1B
100
AcDbEntity
 67
     1
  8
7_ALL_FEATURES
  6
Continuous
 62
     9
100
AcDbLine
 10
205.0484108285
 20
169.830941365
 30
0.0
 11
205.0484108285
 21
135.1799694755
 31
0.0
  0
LINE
  5
38C
330
1B
100
AcDbEntity
 67
     1
  8
7_ALL_FEATURES
  6
Continuous
 62
     9
100
AcDbLine
 10
205.0484108285
 20
169.830941365
 30
0.0
 11
205.1162220942
 21
169.830941365
 31
0.0
  0
ARC
  5
38D
330
1B
100
AcDbEntity
 67
     1
  8
7_ALL_FEATURES
  6
Continuous
 62
     9
100
AcDbCircle
 10
159.5909998898
 20
180.1374511231
 30
0.0
 40
0.6999112298
100
AcDbArc
 50
90.0011349769
 51
179.9984194024
  0
LINE
  5
38E
330
1B
100
AcDbEntity
 67
     1
  8
7_ALL_FEATURES
  6
Continuous
 62
     9
100
AcDbLine
 10
158.8910926386
 20
180.1374704312
 30
0.0
 11
158.8910926386
 21
135.0303631108
 31
0.0
  0
LINE
  5
38F
330
1B
100
AcDbEntity
 67
     1
  8
7_ALL_FEATURES
  6
Continuous
 62
     9
100
AcDbLine
 10
205.1419477423
 20
179.6408243651
 30
0.0
 11
205.1419477423
 21
173.2325042659
 31
0.0
  0
LINE
  5
390
330
1B
100
AcDbEntity
 67
     1
  8
7_ALL_FEATURES
  6
Continuous
 62
     9
100
AcDbLine
 10
196.9750425462
 20
88.3185309101
 30
0.0
 11
204.046110358
 21
95.3895987219
 31
0.0
  0
LINE
  5
391
330
1B
100
AcDbEntity
 67
     1
  8
7_ALL_FEATURES
  6
Continuous
 62
     9
100
AcDbLine
 10
196.9270927403
 20
88.3664807159
 30
0.0
 11
196.9750425462
 21
88.3185309101
 31
0.0
  0
LINE
  5
392
330
1B
100
AcDbEntity
 67
     1
  8
7_ALL_FEATURES
  6
Continuous
 62
     9
100
AcDbLine
 10
203.9981605522
 20
95.4375485278
 30
0.0
 11
196.9270927403
 21
88.3664807159
 31
0.0
  0
LINE
  5
393
330
1B
100
AcDbEntity
 67
     1
  8
7_ALL_FEATURES
  6
Continuous
 62
     9
100
AcDbLine
 10
204.046110358
 20
95.3895987219
 30
0.0
 11
203.9981605522
 21
95.4375485278
 31
0.0
  0
LINE
  5
394
330
1B
100
AcDbEntity
 67
     1
  8
7_ALL_FEATURES
  6
Continuous
 62
     9
100
AcDbLine
 10
204.046110358
 20
172.4144196318
 30
0.0
 11
196.9750425462
 21
179.4854874437
 31
0.0
  0
LINE
  5
395
330
1B
100
AcDbEntity
 67
     1
  8
7_ALL_FEATURES
  6
Continuous
 62
     9
100
AcDbLine
 10
203.9981605522
 20
172.366469826
 30
0.0
 11
204.046110358
 21
172.4144196318
 31
0.0
  0
LINE
  5
396
330
1B
100
AcDbEntity
 67
     1
  8
7_ALL_FEATURES
  6
Continuous
 62
     9
100
AcDbLine
 10
196.9270927403
 20
179.4375376378
 30
0.0
 11
203.9981605522
 21
172.366469826
 31
0.0
  0
LINE
  5
397
330
1B
100
AcDbEntity
 67
     1
  8
7_ALL_FEATURES
  6
Continuous
 62
     9
100
AcDbLine
 10
196.9750425462
 20
179.4854874437
 30
0.0
 11
196.9270927403
 21
179.4375376378
 31
0.0
  0
LINE
  5
398
330
1B
100
AcDbEntity
 67
     1
  8
7_ALL_FEATURES
  6
Continuous
 62
     9
100
AcDbLine
 10
119.9502216363
 20
179.4854874437
 30
0.0
 11
112.8791538244
 21
172.4144196318
 31
0.0
  0
LINE
  5
399
330
1B
100
AcDbEntity
 67
     1
  8
7_ALL_FEATURES
  6
Continuous
 62
     9
100
AcDbLine
 10
119.9981714421
 20
179.4375376378
 30
0.0
 11
119.9502216363
 21
179.4854874437
 31
0.0
  0
LINE
  5
39A
330
1B
100
AcDbEntity
 67
     1
  8
7_ALL_FEATURES
  6
Continuous
 62
     9
100
AcDbLine
 10
112.9271036303
 20
172.366469826
 30
0.0
 11
119.9981714421
 21
179.4375376378
 31
0.0
  0
LINE
  5
39B
330
1B
100
AcDbEntity
 67
     1
  8
7_ALL_FEATURES
  6
Continuous
 62
     9
100
AcDbLine
 10
112.8791538244
 20
172.4144196318
 30
0.0
 11
112.9271036303
 21
172.366469826
 31
0.0
  0
LINE
  5
39C
330
1B
100
AcDbEntity
 67
     1
  8
7_ALL_FEATURES
  6
Continuous
 62
     9
100
AcDbLine
 10
112.8791538244
 20
95.3895987219
 30
0.0
 11
119.9502216363
 21
88.3185309101
 31
0.0
  0
LINE
  5
39D
330
1B
100
AcDbEntity
 67
     1
  8
7_ALL_FEATURES
  6
Continuous
 62
     9
100
AcDbLine
 10
112.9271036303
 20
95.4375485278
 30
0.0
 11
112.8791538244
 21
95.3895987219
 31
0.0
  0
LINE
  5
39E
330
1B
100
AcDbEntity
 67
     1
  8
7_ALL_FEATURES
  6
Continuous
 62
     9
100
AcDbLine
 10
119.9981714421
 20
88.3664807159
 30
0.0
 11
112.9271036303
 21
95.4375485278
 31
0.0
  0
LINE
  5
39F
330
1B
100
AcDbEntity
 67
     1
  8
7_ALL_FEATURES
  6
Continuous
 62
     9
100
AcDbLine
 10
119.9502216363
 20
88.3185309101
 30
0.0
 11
119.9981714421
 21
88.3664807159
 31
0.0
  0
ARC
  5
3A0
330
1B
100
AcDbEntity
 67
     1
  8
7_ALL_FEATURES
  6
Continuous
 62
     9
100
AcDbCircle
 10
201.4626320912
 20
97.9730769887
 30
0.0
 40
3.653590003
100
AcDbArc
 50
315.0
 51
0.0011408756
  0
ARC
  5
3A1
330
1B
100
AcDbEntity
 67
     1
  8
7_ALL_FEATURES
  6
Continuous
 62
     9
100
AcDbCircle
 10
201.4626320912
 20
97.9730769887
 30
0.0
 40
3.5857787373
100
AcDbArc
 50
315.0
 51
360.0
  0
ARC
  5
3A2
330
1B
100
AcDbEntity
 67
     1
  8
7_ALL_FEATURES
  6
Continuous
 62
     9
100
AcDbCircle
 10
194.3915642793
 20
90.9020091769
 30
0.0
 40
3.653590003
100
AcDbArc
 50
270.0
 51
315.0
  0
ARC
  5
3A3
330
1B
100
AcDbEntity
 67
     1
  8
7_ALL_FEATURES
  6
Continuous
 62
     9
100
AcDbCircle
 10
194.3915642793
 20
90.9020091769
 30
0.0
 40
3.5857787373
100
AcDbArc
 50
270.0
 51
315.0
  0
ARC
  5
3A4
330
1B
100
AcDbEntity
 67
     1
  8
7_ALL_FEATURES
  6
Continuous
 62
     9
100
AcDbCircle
 10
122.5336999031
 20
90.9020091769
 30
0.0
 40
3.653590003
100
AcDbArc
 50
225.0
 51
270.0011408756
  0
ARC
  5
3A5
330
1B
100
AcDbEntity
 67
     1
  8
7_ALL_FEATURES
  6
Continuous
 62
     9
100
AcDbCircle
 10
122.5336999031
 20
90.9020091769
 30
0.0
 40
3.5857787373
100
AcDbArc
 50
225.0
 51
270.0
  0
ARC
  5
3A6
330
1B
100
AcDbEntity
 67
     1
  8
7_ALL_FEATURES
  6
Continuous
 62
     9
100
AcDbCircle
 10
115.4626320912
 20
97.9730769887
 30
0.0
 40
3.653590003
100
AcDbArc
 50
180.0
 51
225.0
  0
ARC
  5
3A7
330
1B
100
AcDbEntity
 67
     1
  8
7_ALL_FEATURES
  6
Continuous
 62
     9
100
AcDbCircle
 10
115.4626320912
 20
97.9730769887
 30
0.0
 40
3.5857787373
100
AcDbArc
 50
180.0
 51
225.0
  0
ARC
  5
3A8
330
1B
100
AcDbEntity
 67
     1
  8
7_ALL_FEATURES
  6
Continuous
 62
     9
100
AcDbCircle
 10
115.4626320912
 20
169.830941365
 30
0.0
 40
3.653590003
100
AcDbArc
 50
135.0
 51
180.0011408755
  0
ARC
  5
3A9
330
1B
100
AcDbEntity
 67
     1
  8
7_ALL_FEATURES
  6
Continuous
 62
     9
100
AcDbCircle
 10
115.4626320912
 20
169.830941365
 30
0.0
 40
3.5857787373
100
AcDbArc
 50
135.0
 51
180.0
  0
ARC
  5
3AA
330
1B
100
AcDbEntity
 67
     1
  8
7_ALL_FEATURES
  6
Continuous
 62
     9
100
AcDbCircle
 10
122.5336999031
 20
176.9020091769
 30
0.0
 40
3.653590003
100
AcDbArc
 50
90.0
 51
135.0
  0
ARC
  5
3AB
330
1B
100
AcDbEntity
 67
     1
  8
7_ALL_FEATURES
  6
Continuous
 62
     9
100
AcDbCircle
 10
122.5336999031
 20
176.9020091769
 30
0.0
 40
3.5857787373
100
AcDbArc
 50
90.0
 51
135.0
  0
ARC
  5
3AC
330
1B
100
AcDbEntity
 67
     1
  8
7_ALL_FEATURES
  6
Continuous
 62
     9
100
AcDbCircle
 10
194.3915642793
 20
176.9020091769
 30
0.0
 40
3.653590003
100
AcDbArc
 50
45.0
 51
90.00114087560002
  0
ARC
  5
3AD
330
1B
100
AcDbEntity
 67
     1
  8
7_ALL_FEATURES
  6
Continuous
 62
     9
100
AcDbCircle
 10
194.3915642793
 20
176.9020091769
 30
0.0
 40
3.5857787373
100
AcDbArc
 50
45.0
 51
90.0
  0
ARC
  5
3AE
330
1B
100
AcDbEntity
 67
     1
  8
7_ALL_FEATURES
  6
Continuous
 62
     9
100
AcDbCircle
 10
201.4626320912
 20
169.830941365
 30
0.0
 40
3.653590003
100
AcDbArc
 50
0.0
 51
45.0
  0
ARC
  5
3AF
330
1B
100
AcDbEntity
 67
     1
  8
7_ALL_FEATURES
  6
Continuous
 62
     9
100
AcDbCircle
 10
201.4626320912
 20
169.830941365
 30
0.0
 40
3.5857787373
100
AcDbArc
 50
0.0
 51
45.0
  0
LINE
  5
3B0
330
1B
100
AcDbEntity
 67
     1
  8
7_ALL_FEATURES
  6
Continuous
 62
     9
100
AcDbLine
 10
112.8767010491
 20
169.830941365
 30
0.0
 11
111.8768533539
 21
169.830941365
 31
0.0
  0
LINE
  5
3B1
330
1B
100
AcDbEntity
 67
     1
  8
7_ALL_FEATURES
  6
Continuous
 62
     9
100
AcDbLine
 10
113.6341027157
 20
171.6594707406
 30
0.0
 11
112.9271036303
 21
172.366469826
 31
0.0
  0
LINE
  5
3B2
330
1B
100
AcDbEntity
 67
     1
  8
7_ALL_FEATURES
  6
Continuous
 62
     9
100
AcDbLine
 10
120.7051705275
 20
178.7305385524
 30
0.0
 11
119.9981714421
 21
179.4375376378
 31
0.0
  0
LINE
  5
3B3
330
1B
100
AcDbEntity
 67
     1
  8
7_ALL_FEATURES
  6
Continuous
 62
     9
100
AcDbLine
 10
122.5336999031
 20
179.487940219
 30
0.0
 11
122.5336999031
 21
180.4877879141
 31
0.0
  0
SPLINE
  5
3B4
330
1B
100
AcDbEntity
 67
     1
  8
7_ALL_FEATURES
  6
Continuous
 62
     9
100
AcDbSpline
 70
     0
 71
     3
 72
    16
 73
    12
 74
     0
 42
0.000000001
 43
0.0000001
 40
0.0
 40
0.0
 40
0.0
 40
0.0
 40
0.0064605867
 40
0.0222459472
 40
0.0472110979
 40
0.0811695662
 40
0.1746030912
 40
0.2990892425
 40
0.4498472261
 40
0.6212913982
 40
1.0
 40
1.0
 40
1.0
 40
1.0
 10
157.1846717926
 20
180.4877879141
 30
0.0
 10
157.1836978122
 20
180.4858672905
 30
0.0
 10
157.1840842594
 20
180.4780659221
 30
0.0
 10
157.1825061297
 20
180.4626917501
 30
0.0
 10
157.1821855284
 20
180.4376185524
 30
0.0
 10
157.1807878367
 20
180.3869515907
 30
0.0
 10
157.1797455319
 20
180.3029279514
 30
0.0
 10
157.178430297
 20
180.1800787059
 30
0.0
 10
157.1774423092
 20
180.0311778143
 30
0.0
 10
157.1763797017
 20
179.797554607
 30
0.0
 10
157.1760952751
 20
179.6141729672
 30
0.0
 10
157.1760965766
 20
179.487940219
 30
0.0
  0
SPLINE
  5
3B5
330
1B
100
AcDbEntity
 67
     1
  8
7_ALL_FEATURES
  6
Continuous
 62
     9
100
AcDbSpline
 70
     0
 71
     3
 72
    16
 73
    12
 74
     0
 42
0.000000001
 43
0.0000001
 40
0.0
 40
0.0
 40
0.0
 40
0.0
 40
0.3787086018
 40
0.5501527739
 40
0.7009107575
 40
0.8253969088
 40
0.9188304338
 40
0.9527889021
 40
0.9777540528
 40
0.9935394133
 40
1.0
 40
1.0
 40
1.0
 40
1.0
 10
159.7491676058
 20
179.487940219
 30
0.0
 10
159.7491689073
 20
179.6141729672
 30
0.0
 10
159.7488844807
 20
179.797554607
 30
0.0
 10
159.7478218732
 20
180.0311778143
 30
0.0
 10
159.7468338854
 20
180.1800787059
 30
0.0
 10
159.7455186505
 20
180.3029279514
 30
0.0
 10
159.7444763457
 20
180.3869515907
 30
0.0
 10
159.743078654
 20
180.4376185524
 30
0.0
 10
159.7427580527
 20
180.4626917501
 30
0.0
 10
159.741179923
 20
180.4780659221
 30
0.0
 10
159.7415663702
 20
180.4858672905
 30
0.0
 10
159.7405923898
 20
180.4877879141
 30
0.0
  0
LINE
  5
3B6
330
1B
100
AcDbEntity
 67
     1
  8
7_ALL_FEATURES
  6
Continuous
 62
     9
100
AcDbLine
 10
194.3915642793
 20
179.487940219
 30
0.0
 11
194.3915642793
 21
180.4877879141
 31
0.0
  0
LINE
  5
3B7
330
1B
100
AcDbEntity
 67
     1
  8
7_ALL_FEATURES
  6
Continuous
 62
     9
100
AcDbLine
 10
196.2200936549
 20
178.7305385524
 30
0.0
 11
196.9270927403
 21
179.4375376378
 31
0.0
  0
LINE
  5
3B8
330
1B
100
AcDbEntity
 67
     1
  8
7_ALL_FEATURES
  6
Continuous
 62
     9
100
AcDbLine
 10
203.2911614668
 20
171.6594707406
 30
0.0
 11
203.9981605522
 21
172.366469826
 31
0.0
  0
LINE
  5
3B9
330
1B
100
AcDbEntity
 67
     1
  8
7_ALL_FEATURES
  6
Continuous
 62
     9
100
AcDbLine
 10
204.0485631333
 20
169.830941365
 30
0.0
 11
205.0484108285
 21
169.830941365
 31
0.0
  0
SPLINE
  5
3BA
330
1B
100
AcDbEntity
 67
     1
  8
7_ALL_FEATURES
  6
Continuous
 62
     9
100
AcDbSpline
 70
     0
 71
     3
 72
    16
 73
    12
 74
     0
 42
0.000000001
 43
0.0000001
 40
0.0
 40
0.0
 40
0.0
 40
0.0
 40
0.0064605867
 40
0.0222459472
 40
0.0472110979
 40
0.0811695662
 40
0.1746030912
 40
0.2990892425
 40
0.4498472261
 40
0.6212913982
 40
1.0
 40
1.0
 40
1.0
 40
1.0
 10
205.0484108285
 20
135.1799694755
 30
0.0
 10
205.0464902048
 20
135.1809434558
 30
0.0
 10
205.0386888364
 20
135.1805570087
 30
0.0
 10
205.0233146645
 20
135.1821351384
 30
0.0
 10
204.9982414667
 20
135.1824557397
 30
0.0
 10
204.947574505
 20
135.1838534313
 30
0.0
 10
204.8635508658
 20
135.1848957362
 30
0.0
 10
204.7407016202
 20
135.186210971
 30
0.0
 10
204.5918007286
 20
135.1871989588
 30
0.0
 10
204.3581775214
 20
135.1882615664
 30
0.0
 10
204.1747958816
 20
135.188545993
 30
0.0
 10
204.0485631333
 20
135.1885446915
 30
0.0
  0
SPLINE
  5
3BB
330
1B
100
AcDbEntity
 67
     1
  8
7_ALL_FEATURES
  6
Continuous
 62
     9
100
AcDbSpline
 70
     0
 71
     3
 72
    16
 73
    12
 74
     0
 42
0.000000001
 43
0.0000001
 40
0.0
 40
0.0
 40
0.0
 40
0.0
 40
0.3787086018
 40
0.5501527739
 40
0.7009107575
 40
0.8253969088
 40
0.9188304338
 40
0.9527889021
 40
0.9777540528
 40
0.9935394133
 40
1.0
 40
1.0
 40
1.0
 40
1.0
 10
204.0485631333
 20
132.6154736623
 30
0.0
 10
204.1747958816
 20
132.6154723608
 30
0.0
 10
204.3581775214
 20
132.6157567874
 30
0.0
 10
204.5918007286
 20
132.6168193949
 30
0.0
 10
204.7407016202
 20
132.6178073827
 30
0.0
 10
204.8635508658
 20
132.6191226175
 30
0.0
 10
204.947574505
 20
132.6201649224
 30
0.0
 10
204.9982414667
 20
132.621562614
 30
0.0
 10
205.0233146645
 20
132.6218832153
 30
0.0
 10
205.0386888364
 20
132.6234613451
 30
0.0
 10
205.0464902048
 20
132.6230748979
 30
0.0
 10
205.0484108285
 20
132.6240488783
 30
0.0
  0
LINE
  5
3BC
330
1B
100
AcDbEntity
 67
     1
  8
7_ALL_FEATURES
  6
Continuous
 62
     9
100
AcDbLine
 10
204.0485631333
 20
97.9730769887
 30
0.0
 11
205.0484108285
 21
97.9730769887
 31
0.0
  0
LINE
  5
3BD
330
1B
100
AcDbEntity
 67
     1
  8
7_ALL_FEATURES
  6
Continuous
 62
     9
100
AcDbLine
 10
203.2911614668
 20
96.1445476132
 30
0.0
 11
203.9981605522
 21
95.4375485278
 31
0.0
  0
LINE
  5
3BE
330
1B
100
AcDbEntity
 67
     1
  8
7_ALL_FEATURES
  6
Continuous
 62
     9
100
AcDbLine
 10
196.2200936549
 20
89.0734798013
 30
0.0
 11
196.9270927403
 21
88.3664807159
 31
0.0
  0
LINE
  5
3BF
330
1B
100
AcDbEntity
 67
     1
  8
7_ALL_FEATURES
  6
Continuous
 62
     9
100
AcDbLine
 10
194.3915642793
 20
88.3160781348
 30
0.0
 11
194.3915642793
 21
87.3162304396
 31
0.0
  0
SPLINE
  5
3C0
330
1B
100
AcDbEntity
 67
     1
  8
7_ALL_FEATURES
  6
Continuous
 62
     9
100
AcDbSpline
 70
     0
 71
     3
 72
    16
 73
    12
 74
     0
 42
0.000000001
 43
0.0000001
 40
0.0
 40
0.0
 40
0.0
 40
0.0
 40
0.0064605867
 40
0.0222459472
 40
0.0472110979
 40
0.0811695662
 40
0.1746030912
 40
0.2990892425
 40
0.4498472261
 40
0.6212913982
 40
1.0
 40
1.0
 40
1.0
 40
1.0
 10
159.7405923898
 20
87.3162304396
 30
0.0
 10
159.7415663702
 20
87.3181510633
 30
0.0
 10
159.741179923
 20
87.3259524316
 30
0.0
 10
159.7427580527
 20
87.3413266036
 30
0.0
 10
159.743078654
 20
87.3663998013
 30
0.0
 10
159.7444763457
 20
87.4170667631
 30
0.0
 10
159.7455186505
 20
87.5010904023
 30
0.0
 10
159.7468338854
 20
87.6239396478
 30
0.0
 10
159.7478218732
 20
87.7728405394
 30
0.0
 10
159.7488844807
 20
88.0064637467
 30
0.0
 10
159.7491689073
 20
88.1898453865
 30
0.0
 10
159.7491676058
 20
88.3160781348
 30
0.0
  0
SPLINE
  5
3C1
330
1B
100
AcDbEntity
 67
     1
  8
7_ALL_FEATURES
  6
Continuous
 62
     9
100
AcDbSpline
 70
     0
 71
     3
 72
    16
 73
    12
 74
     0
 42
0.000000001
 43
0.0000001
 40
0.0
 40
0.0
 40
0.0
 40
0.0
 40
0.3787086018
 40
0.5501527739
 40
0.7009107575
 40
0.8253969088
 40
0.9188304338
 40
0.9527889021
 40
0.9777540528
 40
0.9935394133
 40
1.0
 40
1.0
 40
1.0
 40
1.0
 10
157.1760965766
 20
88.3160781348
 30
0.0
 10
157.1760952751
 20
88.1898453865
 30
0.0
 10
157.1763797017
 20
88.0064637467
 30
0.0
 10
157.1774423092
 20
87.7728405394
 30
0.0
 10
157.178430297
 20
87.6239396478
 30
0.0
 10
157.1797455319
 20
87.5010904023
 30
0.0
 10
157.1807878367
 20
87.4170667631
 30
0.0
 10
157.1821855284
 20
87.3663998013
 30
0.0
 10
157.1825061297
 20
87.3413266036
 30
0.0
 10
157.1840842594
 20
87.3259524316
 30
0.0
 10
157.1836978122
 20
87.3181510633
 30
0.0
 10
157.1846717926
 20
87.3162304396
 30
0.0
  0
LINE
  5
3C2
330
1B
100
AcDbEntity
 67
     1
  8
7_ALL_FEATURES
  6
Continuous
 62
     9
100
AcDbLine
 10
122.5336999031
 20
88.3160781348
 30
0.0
 11
122.5336999031
 21
87.3162304396
 31
0.0
  0
LINE
  5
3C3
330
1B
100
AcDbEntity
 67
     1
  8
7_ALL_FEATURES
  6
Continuous
 62
     9
100
AcDbLine
 10
120.7051705275
 20
89.0734798013
 30
0.0
 11
119.9981714421
 21
88.3664807159
 31
0.0
  0
LINE
  5
3C4
330
1B
100
AcDbEntity
 67
     1
  8
7_ALL_FEATURES
  6
Continuous
 62
     9
100
AcDbLine
 10
113.6341027157
 20
96.1445476132
 30
0.0
 11
112.9271036303
 21
95.4375485278
 31
0.0
  0
LINE
  5
3C5
330
1B
100
AcDbEntity
 67
     1
  8
7_ALL_FEATURES
  6
Continuous
 62
     9
100
AcDbLine
 10
112.8767010491
 20
97.9730769887
 30
0.0
 11
111.8768533539
 21
97.9730769887
 31
0.0
  0
SPLINE
  5
3C6
330
1B
100
AcDbEntity
 67
     1
  8
7_ALL_FEATURES
  6
Continuous
 62
     9
100
AcDbSpline
 70
     0
 71
     3
 72
    16
 73
    12
 74
     0
 42
0.000000001
 43
0.0000001
 40
0.0
 40
0.0
 40
0.0
 40
0.0
 40
0.0064605867
 40
0.0222459472
 40
0.0472110979
 40
0.0811695662
 40
0.1746030912
 40
0.2990892425
 40
0.4498472261
 40
0.6212913982
 40
1.0
 40
1.0
 40
1.0
 40
1.0
 10
111.8768533539
 20
132.6240488783
 30
0.0
 10
111.8787739776
 20
132.6230748979
 30
0.0
 10
111.886575346
 20
132.6234613451
 30
0.0
 10
111.901949518
 20
132.6218832153
 30
0.0
 10
111.9270227157
 20
132.621562614
 30
0.0
 10
111.9776896774
 20
132.6201649224
 30
0.0
 10
112.0617133167
 20
132.6191226175
 30
0.0
 10
112.1845625622
 20
132.6178073827
 30
0.0
 10
112.3334634538
 20
132.6168193949
 30
0.0
 10
112.567086661
 20
132.6157567874
 30
0.0
 10
112.7504683009
 20
132.6154723608
 30
0.0
 10
112.8767010491
 20
132.6154736623
 30
0.0
  0
SPLINE
  5
3C7
330
1B
100
AcDbEntity
 67
     1
  8
7_ALL_FEATURES
  6
Continuous
 62
     9
100
AcDbSpline
 70
     0
 71
     3
 72
    16
 73
    12
 74
     0
 42
0.000000001
 43
0.0000001
 40
0.0
 40
0.0
 40
0.0
 40
0.0
 40
0.3787086018
 40
0.5501527739
 40
0.7009107575
 40
0.8253969088
 40
0.9188304338
 40
0.9527889021
 40
0.9777540528
 40
0.9935394133
 40
1.0
 40
1.0
 40
1.0
 40
1.0
 10
112.8767010491
 20
135.1885446915
 30
0.0
 10
112.7504683009
 20
135.188545993
 30
0.0
 10
112.567086661
 20
135.1882615664
 30
0.0
 10
112.3334634538
 20
135.1871989588
 30
0.0
 10
112.1845625622
 20
135.186210971
 30
0.0
 10
112.0617133167
 20
135.1848957362
 30
0.0
 10
111.9776896774
 20
135.1838534313
 30
0.0
 10
111.9270227157
 20
135.1824557397
 30
0.0
 10
111.901949518
 20
135.1821351384
 30
0.0
 10
111.886575346
 20
135.1805570087
 30
0.0
 10
111.8787739776
 20
135.1809434558
 30
0.0
 10
111.8768533539
 20
135.1799694755
 30
0.0
  0
LINE
  5
3C8
330
1B
100
AcDbEntity
 67
     1
  8
7_ALL_FEATURES
  6
Continuous
 62
     9
100
AcDbLine
 10
204.2014472795
 20
86.966654536
 30
0.0
 11
204.2014472795
 21
87.166624075
 31
0.0
  0
LINE
  5
3C9
330
1B
100
AcDbEntity
 67
     1
  8
7_ALL_FEATURES
  6
Continuous
 62
     9
100
AcDbLine
 10
205.3979867321
 20
88.1631939886
 30
0.0
 11
205.1980171931
 21
88.1631939738
 31
0.0
  0
LINE
  5
3CA
330
1B
100
AcDbEntity
 67
     1
  8
7_ALL_FEATURES
  6
Continuous
 62
     9
100
AcDbLine
 10
205.3979867321
 20
132.7736552429
 30
0.0
 11
205.1980171931
 21
132.7736552429
 31
0.0
  0
ARC
  5
3CB
330
1B
100
AcDbEntity
 67
     1
  8
7_ALL_FEATURES
  6
Continuous
 62
     9
100
AcDbCircle
 10
159.5910008306
 20
135.0303833597
 30
0.0
 40
0.6999122538
100
AcDbArc
 50
180.0016576081
 51
269.9987880128
  0
LINE
  5
3CC
330
1B
100
AcDbEntity
 67
     1
  8
7_ALL_FEATURES
  6
Continuous
 62
     9
100
AcDbLine
 10
159.5909860252
 20
134.3304697242
 30
0.0
 11
204.6980933455
 21
134.3304697242
 31
0.0
  0
ARC
  5
3CD
330
1B
100
AcDbEntity
 67
     1
  8
7_ALL_FEATURES
  6
Continuous
 62
     9
100
AcDbCircle
 10
205.877060704
 20
181.3164377892
 30
0.0
 40
0.4999806461
100
AcDbArc
 50
0.0049311866
 51
89.99349152839999
  0
LINE
  5
3CE
330
1B
100
AcDbEntity
 67
     1
  8
7_ALL_FEATURES
  6
Continuous
 62
     9
100
AcDbLine
 10
204.6980933455
 20
133.4735486295
 30
0.0
 11
204.6980933465
 21
133.2735790905
 31
0.0
  0
LINE
  5
3CF
330
1B
100
AcDbEntity
 67
     1
  8
7_ALL_FEATURES
  6
Continuous
 62
     9
100
AcDbLine
 10
159.5909860252
 20
133.4735486295
 30
0.0
 11
159.5909860252
 21
133.2735790905
 31
0.0
  0
LINE
  5
3D0
330
1B
100
AcDbEntity
 67
     1
  8
7_ALL_FEATURES
  6
Continuous
 62
     9
100
AcDbLine
 10
158.8910926386
 20
132.7736552429
 30
0.0
 11
159.0910621776
 21
132.7736552439
 31
0.0
  0
ARC
  5
3D1
330
1B
100
AcDbEntity
 67
     1
  8
7_ALL_FEATURES
  6
Continuous
 62
     9
100
AcDbCircle
 10
204.6980731071
 20
135.0303779058
 30
0.0
 40
0.6999122126
100
AcDbArc
 50
270.001656755
 51
359.9987888658
  0
LINE
  5
3D2
330
1B
100
AcDbEntity
 67
     1
  8
7_ALL_FEATURES
  6
Continuous
 62
     9
100
AcDbLine
 10
205.3979867321
 20
135.0303631108
 30
0.0
 11
205.3979867321
 21
179.6408243651
 31
0.0
  0
ARC
  5
3D3
330
1B
100
AcDbEntity
 67
     1
  8
7_ALL_FEATURES
  6
Continuous
 62
     9
100
AcDbCircle
 10
111.0482034789
 20
181.3164377896
 30
0.0
 40
0.4999806461
100
AcDbArc
 50
90.00493118660002
 51
179.9934915284
  0
LINE
  5
3D4
330
1B
100
AcDbEntity
 67
     1
  8
7_ALL_FEATURES
  6
Continuous
 62
     9
100
AcDbLine
 10
157.3342781572
 20
180.6373942787
 30
0.0
 11
157.3342781572
 21
180.8373638178
 31
0.0
  0
LINE
  5
3D5
330
1B
100
AcDbEntity
 67
     1
  8
7_ALL_FEATURES
  6
Continuous
 62
     9
100
AcDbLine
 10
157.8342020048
 20
180.1374704312
 30
0.0
 11
158.0341715438
 21
180.1374704312
 31
0.0
  0
LINE
  5
3D6
330
1B
100
AcDbEntity
 67
     1
  8
7_ALL_FEATURES
  6
Continuous
 62
     9
100
AcDbLine
 10
157.8342020048
 20
135.0303631108
 30
0.0
 11
158.0341715438
 21
135.0303631108
 31
0.0
  0
ARC
  5
3D7
330
1B
100
AcDbEntity
 67
     1
  8
7_ALL_FEATURES
  6
Continuous
 62
     9
100
AcDbCircle
 10
204.2014472795
 20
179.6408243651
 30
0.0
 40
1.1965394526
100
AcDbArc
 50
0.0
 51
90.0
  0
LINE
  5
3D8
330
1B
100
AcDbEntity
 67
     1
  8
7_ALL_FEATURES
  6
Continuous
 62
     9
100
AcDbLine
 10
204.2014472795
 20
180.8373638178
 30
0.0
 11
159.5909860252
 21
180.8373638178
 31
0.0
  0
ARC
  5
3D9
330
1B
100
AcDbEntity
 67
     1
  8
7_ALL_FEATURES
  6
Continuous
 62
     9
100
AcDbCircle
 10
111.0482034784
 20
86.4875805645
 30
0.0
 40
0.4999806461
100
AcDbArc
 50
180.0049311866
 51
269.9934915284
  0
LINE
  5
3DA
330
1B
100
AcDbEntity
 67
     1
  8
7_ALL_FEATURES
  6
Continuous
 62
     9
100
AcDbLine
 10
157.3342781572
 20
134.5304392633
 30
0.0
 11
157.3342781569
 21
134.3304697243
 31
0.0
  0
LINE
  5
3DB
330
1B
100
AcDbEntity
 67
     1
  8
7_ALL_FEATURES
  6
Continuous
 62
     9
100
AcDbLine
 10
112.2271708369
 20
134.5304392633
 30
0.0
 11
112.2271708369
 21
134.3304697242
 31
0.0
  0
LINE
  5
3DC
330
1B
100
AcDbEntity
 67
     1
  8
7_ALL_FEATURES
  6
Continuous
 62
     9
100
AcDbLine
 10
111.7272469893
 20
135.0303631108
 30
0.0
 11
111.5272774504
 21
135.0303631111
 31
0.0
  0
ARC
  5
3DD
330
1B
100
AcDbEntity
 67
     1
  8
7_ALL_FEATURES
  6
Continuous
 62
     9
100
AcDbCircle
 10
205.8771350531
 20
181.3165121388
 30
0.0
 40
0.2999367548
100
AcDbArc
 50
359.9966466823
 51
90.00335331770002
  0
LINE
  5
3DE
330
1B
100
AcDbEntity
 67
     1
  8
7_ALL_FEATURES
  6
Continuous
 62
     9
100
AcDbLine
 10
206.1770718075
 20
181.3164945846
 30
0.0
 11
206.1770718075
 21
86.4875237692
 31
0.0
  0
ARC
  5
3DF
330
1B
100
AcDbEntity
 67
     1
  8
7_ALL_FEATURES
  6
Continuous
 62
     9
100
AcDbCircle
 10
205.8770607036
 20
86.4875805641
 30
0.0
 40
0.4999806461
100
AcDbArc
 50
270.0049311866
 51
359.9934915284001
  0
LINE
  5
3E0
330
1B
100
AcDbEntity
 67
     1
  8
7_ALL_FEATURES
  6
Continuous
 62
     9
100
AcDbLine
 10
204.6420238947
 20
179.6408243651
 30
0.0
 11
204.6420238947
 21
173.2325042659
 31
0.0
  0
LINE
  5
3E1
330
1B
100
AcDbEntity
 67
     1
  8
7_ALL_FEATURES
  6
Continuous
 62
     9
100
AcDbLine
 10
204.6420238947
 20
173.2325042659
 30
0.0
 11
197.7931271803
 21
180.0814009804
 31
0.0
  0
LINE
  5
3E2
330
1B
100
AcDbEntity
 67
     1
  8
7_ALL_FEATURES
  6
Continuous
 62
     9
100
AcDbLine
 10
197.7931271803
 20
180.0814009804
 30
0.0
 11
204.2014472795
 21
180.0814009804
 31
0.0
  0
ARC
  5
3E3
330
1B
100
AcDbEntity
 67
     1
  8
7_ALL_FEATURES
  6
Continuous
 62
     9
100
AcDbCircle
 10
204.2014472795
 20
179.6408243651
 30
0.0
 40
0.4405766152
100
AcDbArc
 50
0.0
 51
90.0
  0
ARC
  5
3E4
330
1B
100
AcDbEntity
 67
     1
  8
7_ALL_FEATURES
  6
Continuous
 62
     9
100
AcDbCircle
 10
204.2014472795
 20
179.6408243651
 30
0.0
 40
0.9405004628
100
AcDbArc
 50
0.0
 51
90.0
  0
ARC
  5
3E5
330
1B
100
AcDbEntity
 67
     1
  8
7_ALL_FEATURES
  6
Continuous
 62
     9
100
AcDbCircle
 10
204.2014472795
 20
179.6408243651
 30
0.0
 40
0.9965699136
100
AcDbArc
 50
0.0
 51
90.0
  0
LINE
  5
3E6
330
1B
100
AcDbEntity
 67
     1
  8
7_ALL_FEATURES
  6
Continuous
 62
     9
100
AcDbLine
 10
112.7238169029
 20
180.0814009804
 30
0.0
 11
119.1321370022
 21
180.0814009804
 31
0.0
  0
LINE
  5
3E7
330
1B
100
AcDbEntity
 67
     1
  8
7_ALL_FEATURES
  6
Continuous
 62
     9
100
AcDbLine
 10
119.1321370022
 20
180.0814009804
 30
0.0
 11
112.2832402877
 21
173.2325042659
 31
0.0
  0
LINE
  5
3E8
330
1B
100
AcDbEntity
 67
     1
  8
7_ALL_FEATURES
  6
Continuous
 62
     9
100
AcDbLine
 10
112.2832402877
 20
173.2325042659
 30
0.0
 11
112.2832402877
 21
179.6408243651
 31
0.0
  0
ARC
  5
3E9
330
1B
100
AcDbEntity
 67
     1
  8
7_ALL_FEATURES
  6
Continuous
 62
     9
100
AcDbCircle
 10
112.7238169029
 20
179.6408243651
 30
0.0
 40
0.4405766152
100
AcDbArc
 50
90.0
 51
180.0
  0
ARC
  5
3EA
330
1B
100
AcDbEntity
 67
     1
  8
7_ALL_FEATURES
  6
Continuous
 62
     9
100
AcDbCircle
 10
112.7238169029
 20
179.6408243651
 30
0.0
 40
0.9965699136
100
AcDbArc
 50
90.0
 51
180.0
  0
ARC
  5
3EB
330
1B
100
AcDbEntity
 67
     1
  8
7_ALL_FEATURES
  6
Continuous
 62
     9
100
AcDbCircle
 10
112.7238169029
 20
179.6408243651
 30
0.0
 40
0.9405004628
100
AcDbArc
 50
90.0
 51
180.0
  0
LINE
  5
3EC
330
1B
100
AcDbEntity
 67
     1
  8
7_ALL_FEATURES
  6
Continuous
 62
     9
100
AcDbLine
 10
112.2832402877
 20
88.1631939886
 30
0.0
 11
112.2832402877
 21
94.5715140878
 31
0.0
  0
LINE
  5
3ED
330
1B
100
AcDbEntity
 67
     1
  8
7_ALL_FEATURES
  6
Continuous
 62
     9
100
AcDbLine
 10
112.2832402877
 20
94.5715140878
 30
0.0
 11
119.1321370022
 21
87.7226173734
 31
0.0
  0
LINE
  5
3EE
330
1B
100
AcDbEntity
 67
     1
  8
7_ALL_FEATURES
  6
Continuous
 62
     9
100
AcDbLine
 10
119.1321370022
 20
87.7226173734
 30
0.0
 11
112.7238169029
 21
87.7226173734
 31
0.0
  0
ARC
  5
3EF
330
1B
100
AcDbEntity
 67
     1
  8
7_ALL_FEATURES
  6
Continuous
 62
     9
100
AcDbCircle
 10
112.7238169029
 20
88.1631939886
 30
0.0
 40
0.4405766152
100
AcDbArc
 50
180.0
 51
270.0
  0
ARC
  5
3F0
330
1B
100
AcDbEntity
 67
     1
  8
7_ALL_FEATURES
  6
Continuous
 62
     9
100
AcDbCircle
 10
112.7238169029
 20
88.1631939886
 30
0.0
 40
0.9965699136
100
AcDbArc
 50
180.0
 51
270.0
  0
ARC
  5
3F1
330
1B
100
AcDbEntity
 67
     1
  8
7_ALL_FEATURES
  6
Continuous
 62
     9
100
AcDbCircle
 10
112.7238169029
 20
88.1631939886
 30
0.0
 40
0.9405004628
100
AcDbArc
 50
180.0
 51
270.0
  0
LINE
  5
3F2
330
1B
100
AcDbEntity
 67
     1
  8
7_ALL_FEATURES
  6
Continuous
 62
     9
100
AcDbLine
 10
204.2014472795
 20
87.7226173734
 30
0.0
 11
197.7931271803
 21
87.7226173734
 31
0.0
  0
LINE
  5
3F3
330
1B
100
AcDbEntity
 67
     1
  8
7_ALL_FEATURES
  6
Continuous
 62
     9
100
AcDbLine
 10
197.7931271803
 20
87.7226173734
 30
0.0
 11
204.6420238947
 21
94.5715140878
 31
0.0
  0
LINE
  5
3F4
330
1B
100
AcDbEntity
 67
     1
  8
7_ALL_FEATURES
  6
Continuous
 62
     9
100
AcDbLine
 10
204.6420238947
 20
94.5715140878
 30
0.0
 11
204.6420238947
 21
88.1631939886
 31
0.0
  0
ARC
  5
3F5
330
1B
100
AcDbEntity
 67
     1
  8
7_ALL_FEATURES
  6
Continuous
 62
     9
100
AcDbCircle
 10
204.2014472795
 20
88.1631939886
 30
0.0
 40
0.4405766152
100
AcDbArc
 50
270.0
 51
360.0
  0
ARC
  5
3F6
330
1B
100
AcDbEntity
 67
     1
  8
7_ALL_FEATURES
  6
Continuous
 62
     9
100
AcDbCircle
 10
204.2014472795
 20
88.1631939886
 30
0.0
 40
0.9965699136
100
AcDbArc
 50
270.0
 51
360.0
  0
ARC
  5
3F7
330
1B
100
AcDbEntity
 67
     1
  8
7_ALL_FEATURES
  6
Continuous
 62
     9
100
AcDbCircle
 10
204.2014472795
 20
88.1631939886
 30
0.0
 40
0.9405004628
100
AcDbArc
 50
270.0
 51
360.0
  0
LINE
  5
3F8
330
1B
100
AcDbEntity
 67
     1
  8
7_ALL_FEATURES
  6
Continuous
 62
     9
100
AcDbLine
 10
157.3342295787
 20
133.2735790905
 30
0.0
 11
112.2271708369
 21
133.2735790905
 31
0.0
  0
LINE
  5
3F9
330
1B
100
AcDbEntity
 67
     1
  8
7_ALL_FEATURES
  6
Continuous
 62
     9
100
AcDbLine
 10
157.3342295787
 20
133.2735790905
 30
0.0
 11
157.1760965766
 21
133.1153975098
 31
0.0
  0
LINE
  5
3FA
330
1B
100
AcDbEntity
 67
     1
  8
7_ALL_FEATURES
  6
Continuous
 62
     9
100
AcDbLine
 10
112.8767010491
 20
133.1153975098
 30
0.0
 11
157.1760965766
 21
133.1153975098
 31
0.0
  0
SPLINE
  5
3FB
330
1B
100
AcDbEntity
 67
     1
  8
7_ALL_FEATURES
  6
Continuous
 62
     9
100
AcDbSpline
 70
     0
 71
     3
 72
    14
 73
    10
 74
     0
 42
0.000000001
 43
0.0000001
 40
0.0
 40
0.0
 40
0.0
 40
0.0
 40
0.0224026681
 40
0.0813906914
 40
0.1748369814
 40
0.2993013727
 40
0.4500154564
 40
0.6214050804
 40
1.0
 40
1.0
 40
1.0
 40
1.0
 10
112.3767772015
 20
133.1239727259
 30
0.0
 10
112.3793852545
 20
133.1212993049
 30
0.0
 10
112.3952151082
 20
133.1237340222
 30
0.0
 10
112.4222915737
 20
133.119148866
 30
0.0
 10
112.4695217311
 20
133.1194973229
 30
0.0
 10
112.5305171566
 20
133.1175651516
 30
0.0
 10
112.6051198171
 20
133.1167963919
 30
0.0
 10
112.7218651026
 20
133.1156422466
 30
0.0
 10
112.8135837441
 20
133.1153969002
 30
0.0
 10
112.8767010491
 20
133.1153975098
 30
0.0
  0
LINE
  5
3FC
330
1B
100
AcDbEntity
 67
     1
  8
7_ALL_FEATURES
  6
Continuous
 62
     9
100
AcDbLine
 10
112.2271708369
 20
133.2735790905
 30
0.0
 11
112.3767772015
 21
133.1239727259
 31
0.0
  0
LINE
  5
3FD
330
1B
100
AcDbEntity
 67
     1
  8
7_ALL_FEATURES
  6
Continuous
 62
     9
100
AcDbLine
 10
159.5906874838
 20
133.2735790905
 30
0.0
 11
204.698137273
 21
133.2735790905
 31
0.0
  0
LINE
  5
3FE
330
1B
100
AcDbEntity
 67
     1
  8
7_ALL_FEATURES
  6
Continuous
 62
     9
100
AcDbLine
 10
204.5484869809
 20
133.1239727259
 30
0.0
 11
204.698137273
 21
133.2735790905
 31
0.0
  0
SPLINE
  5
3FF
330
1B
100
AcDbEntity
 67
     1
  8
7_ALL_FEATURES
  6
Continuous
 62
     9
100
AcDbSpline
 70
     0
 71
     3
 72
    14
 73
    10
 74
     0
 42
0.000000001
 43
0.0000001
 40
0.0
 40
0.0
 40
0.0
 40
0.0
 40
0.3785949196
 40
0.5499845436
 40
0.7006986273
 40
0.8251630186
 40
0.9186093086
 40
0.9775973319
 40
1.0
 40
1.0
 40
1.0
 40
1.0
 10
204.0485631333
 20
133.1153975098
 30
0.0
 10
204.1116804383
 20
133.1153969002
 30
0.0
 10
204.2033990799
 20
133.1156422466
 30
0.0
 10
204.3201443653
 20
133.1167963919
 30
0.0
 10
204.3947470258
 20
133.1175651516
 30
0.0
 10
204.4557424513
 20
133.1194973229
 30
0.0
 10
204.5029726087
 20
133.119148866
 30
0.0
 10
204.5300490742
 20
133.1237340222
 30
0.0
 10
204.5458789279
 20
133.1212993049
 30
0.0
 10
204.5484869809
 20
133.1239727259
 30
0.0
  0
LINE
  5
400
330
1B
100
AcDbEntity
 67
     1
  8
7_ALL_FEATURES
  6
Continuous
 62
     9
100
AcDbLine
 10
159.7491676058
 20
133.1153975098
 30
0.0
 11
204.0485631333
 21
133.1153975098
 31
0.0
  0
LINE
  5
401
330
1B
100
AcDbEntity
 67
     1
  8
7_ALL_FEATURES
  6
Continuous
 62
     9
100
AcDbLine
 10
159.7491676058
 20
133.1153975098
 30
0.0
 11
159.5906874838
 21
133.2735790905
 31
0.0
  0
LINE
  5
402
330
1B
100
AcDbEntity
 67
     1
  8
7_ALL_FEATURES
  6
Continuous
 62
     9
100
AcDbLine
 10
112.227223003
 20
134.5304392633
 30
0.0
 11
157.3342311761
 21
134.5304392633
 31
0.0
  0
LINE
  5
403
330
1B
100
AcDbEntity
 67
     1
  8
7_ALL_FEATURES
  6
Continuous
 62
     9
100
AcDbLine
 10
112.3767772015
 20
134.6800456279
 30
0.0
 11
112.227223003
 21
134.5304392633
 31
0.0
  0
SPLINE
  5
404
330
1B
100
AcDbEntity
 67
     1
  8
7_ALL_FEATURES
  6
Continuous
 62
     9
100
AcDbSpline
 70
     0
 71
     3
 72
    14
 73
    10
 74
     0
 42
0.000000001
 43
0.0000001
 40
0.0
 40
0.0
 40
0.0
 40
0.0
 40
0.3785949196
 40
0.5499845436
 40
0.7006986273
 40
0.8251630186
 40
0.9186093086
 40
0.9775973319
 40
1.0
 40
1.0
 40
1.0
 40
1.0
 10
112.8767010491
 20
134.6886208439
 30
0.0
 10
112.8135837441
 20
134.6886214536
 30
0.0
 10
112.7218651026
 20
134.6883761071
 30
0.0
 10
112.6051198171
 20
134.6872219618
 30
0.0
 10
112.5305171566
 20
134.6864532021
 30
0.0
 10
112.4695217311
 20
134.6845210308
 30
0.0
 10
112.4222915737
 20
134.6848694877
 30
0.0
 10
112.3952151082
 20
134.6802843315
 30
0.0
 10
112.3793852545
 20
134.6827190489
 30
0.0
 10
112.3767772015
 20
134.6800456279
 30
0.0
  0
LINE
  5
405
330
1B
100
AcDbEntity
 67
     1
  8
7_ALL_FEATURES
  6
Continuous
 62
     9
100
AcDbLine
 10
157.1760965766
 20
134.6886208439
 30
0.0
 11
112.8767010491
 21
134.6886208439
 31
0.0
  0
LINE
  5
406
330
1B
100
AcDbEntity
 67
     1
  8
7_ALL_FEATURES
  6
Continuous
 62
     9
100
AcDbLine
 10
157.1760965766
 20
134.6886208439
 30
0.0
 11
157.3342311761
 21
134.5304392633
 31
0.0
  0
LINE
  5
407
330
1B
100
AcDbEntity
 67
     1
  8
7_ALL_FEATURES
  6
Continuous
 62
     9
100
AcDbLine
 10
159.5910346037
 20
134.5304392633
 30
0.0
 11
204.6980933455
 21
134.5304392633
 31
0.0
  0
LINE
  5
408
330
1B
100
AcDbEntity
 67
     1
  8
7_ALL_FEATURES
  6
Continuous
 62
     9
100
AcDbLine
 10
159.5910346037
 20
134.5304392633
 30
0.0
 11
159.7491676058
 21
134.6886208439
 31
0.0
  0
LINE
  5
409
330
1B
100
AcDbEntity
 67
     1
  8
7_ALL_FEATURES
  6
Continuous
 62
     9
100
AcDbLine
 10
204.0485631333
 20
134.6886208439
 30
0.0
 11
159.7491676058
 21
134.6886208439
 31
0.0
  0
SPLINE
  5
40A
330
1B
100
AcDbEntity
 67
     1
  8
7_ALL_FEATURES
  6
Continuous
 62
     9
100
AcDbSpline
 70
     0
 71
     3
 72
    14
 73
    10
 74
     0
 42
0.000000001
 43
0.0000001
 40
0.0
 40
0.0
 40
0.0
 40
0.0
 40
0.0224026681
 40
0.0813906914
 40
0.1748369814
 40
0.2993013727
 40
0.4500154564
 40
0.6214050804
 40
1.0
 40
1.0
 40
1.0
 40
1.0
 10
204.5484869809
 20
134.6800456279
 30
0.0
 10
204.5458789279
 20
134.6827190489
 30
0.0
 10
204.5300490742
 20
134.6802843315
 30
0.0
 10
204.5029726087
 20
134.6848694877
 30
0.0
 10
204.4557424513
 20
134.6845210308
 30
0.0
 10
204.3947470258
 20
134.6864532021
 30
0.0
 10
204.3201443653
 20
134.6872219618
 30
0.0
 10
204.2033990799
 20
134.6883761071
 30
0.0
 10
204.1116804383
 20
134.6886214536
 30
0.0
 10
204.0485631333
 20
134.6886208439
 30
0.0
  0
LINE
  5
40B
330
1B
100
AcDbEntity
 67
     1
  8
7_ALL_FEATURES
  6
Continuous
 62
     9
100
AcDbLine
 10
204.6980933455
 20
134.5304392633
 30
0.0
 11
204.5484869809
 21
134.6800456279
 31
0.0
  0
LINE
  5
40C
330
1B
100
AcDbEntity
 67
     1
  8
7_ALL_FEATURES
  6
Continuous
 62
     9
100
AcDbLine
 10
159.0910621776
 20
87.6664898382
 30
0.0
 11
159.0910621776
 21
132.7736991704
 31
0.0
  0
LINE
  5
40D
330
1B
100
AcDbEntity
 67
     1
  8
7_ALL_FEATURES
  6
Continuous
 62
     9
100
AcDbLine
 10
159.2492437582
 20
132.6154736623
 30
0.0
 11
159.2073426041
 21
132.6573864524
 31
0.0
  0
LINE
  5
40E
330
1B
100
AcDbEntity
 67
     1
  8
7_ALL_FEATURES
  6
Continuous
 62
     9
100
AcDbLine
 10
159.2073426041
 20
132.6573864524
 30
0.0
 11
159.0910621776
 21
132.7736991704
 31
0.0
  0
LINE
  5
40F
330
1B
100
AcDbEntity
 67
     1
  8
7_ALL_FEATURES
  6
Continuous
 62
     9
100
AcDbLine
 10
159.2492437582
 20
88.3160781348
 30
0.0
 11
159.2492437582
 21
132.6154736623
 31
0.0
  0
SPLINE
  5
410
330
1B
100
AcDbEntity
 67
     1
  8
7_ALL_FEATURES
  6
Continuous
 62
     9
100
AcDbSpline
 70
     0
 71
     3
 72
    14
 73
    10
 74
     0
 42
0.000000001
 43
0.0000001
 40
0.0
 40
0.0
 40
0.0
 40
0.0
 40
0.0224026681
 40
0.0813906914
 40
0.1748369814
 40
0.2993013727
 40
0.4500154564
 40
0.6214050804
 40
1.0
 40
1.0
 40
1.0
 40
1.0
 10
159.2406685422
 20
87.8161542872
 30
0.0
 10
159.2433419632
 20
87.8187623402
 30
0.0
 10
159.2409072458
 20
87.8345921939
 30
0.0
 10
159.2454924021
 20
87.8616686594
 30
0.0
 10
159.2451439452
 20
87.9088988168
 30
0.0
 10
159.2470761165
 20
87.9698942423
 30
0.0
 10
159.2478448761
 20
88.0444969028
 30
0.0
 10
159.2489990215
 20
88.1612421882
 30
0.0
 10
159.2492443679
 20
88.2529608298
 30
0.0
 10
159.2492437582
 20
88.3160781348
 30
0.0
  0
LINE
  5
411
330
1B
100
AcDbEntity
 67
     1
  8
7_ALL_FEATURES
  6
Continuous
 62
     9
100
AcDbLine
 10
159.0910621776
 20
87.6664898382
 30
0.0
 11
159.2406685422
 21
87.8161542872
 31
0.0
  0
LINE
  5
412
330
1B
100
AcDbEntity
 67
     1
  8
7_ALL_FEATURES
  6
Continuous
 62
     9
100
AcDbLine
 10
159.0910621776
 20
180.1374182651
 30
0.0
 11
159.0910621776
 21
135.0303631108
 31
0.0
  0
LINE
  5
413
330
1B
100
AcDbEntity
 67
     1
  8
7_ALL_FEATURES
  6
Continuous
 62
     9
100
AcDbLine
 10
159.2406685422
 20
179.9878640666
 30
0.0
 11
159.0910621776
 21
180.1374182651
 31
0.0
  0
SPLINE
  5
414
330
1B
100
AcDbEntity
 67
     1
  8
7_ALL_FEATURES
  6
Continuous
 62
     9
100
AcDbSpline
 70
     0
 71
     3
 72
    14
 73
    10
 74
     0
 42
0.000000001
 43
0.0000001
 40
0.0
 40
0.0
 40
0.0
 40
0.0
 40
0.3785949196
 40
0.5499845436
 40
0.7006986273
 40
0.8251630186
 40
0.9186093086
 40
0.9775973319
 40
1.0
 40
1.0
 40
1.0
 40
1.0
 10
159.2492437582
 20
179.487940219
 30
0.0
 10
159.2492443679
 20
179.551057524
 30
0.0
 10
159.2489990215
 20
179.6427761655
 30
0.0
 10
159.2478448761
 20
179.759521451
 30
0.0
 10
159.2470761165
 20
179.8341241115
 30
0.0
 10
159.2451439452
 20
179.895119537
 30
0.0
 10
159.2454924021
 20
179.9423496943
 30
0.0
 10
159.2409072458
 20
179.9694261598
 30
0.0
 10
159.2433419632
 20
179.9852560136
 30
0.0
 10
159.2406685422
 20
179.9878640666
 30
0.0
  0
LINE
  5
415
330
1B
100
AcDbEntity
 67
     1
  8
7_ALL_FEATURES
  6
Continuous
 62
     9
100
AcDbLine
 10
159.2492437582
 20
135.1885446915
 30
0.0
 11
159.2492437582
 21
179.487940219
 31
0.0
  0
LINE
  5
416
330
1B
100
AcDbEntity
 67
     1
  8
7_ALL_FEATURES
  6
Continuous
 62
     9
100
AcDbLine
 10
159.0910621776
 20
135.0303631108
 30
0.0
 11
159.2492437582
 21
135.1885446915
 31
0.0
  0
LINE
  5
417
330
1B
100
AcDbEntity
 67
     1
  8
7_ALL_FEATURES
  6
Continuous
 62
     9
100
AcDbLine
 10
157.8342020048
 20
87.6666000886
 30
0.0
 11
157.8342020048
 21
132.7736552429
 31
0.0
  0
LINE
  5
418
330
1B
100
AcDbEntity
 67
     1
  8
7_ALL_FEATURES
  6
Continuous
 62
     9
100
AcDbLine
 10
157.6845956402
 20
87.8161542872
 30
0.0
 11
157.8342020048
 21
87.6666000886
 31
0.0
  0
SPLINE
  5
419
330
1B
100
AcDbEntity
 67
     1
  8
7_ALL_FEATURES
  6
Continuous
 62
     9
100
AcDbSpline
 70
     0
 71
     3
 72
    14
 73
    10
 74
     0
 42
0.000000001
 43
0.0000001
 40
0.0
 40
0.0
 40
0.0
 40
0.0
 40
0.3785949196
 40
0.5499845436
 40
0.7006986273
 40
0.8251630186
 40
0.9186093086
 40
0.9775973319
 40
1.0
 40
1.0
 40
1.0
 40
1.0
 10
157.6760204242
 20
88.3160781348
 30
0.0
 10
157.6760198145
 20
88.2529608298
 30
0.0
 10
157.6762651609
 20
88.1612421882
 30
0.0
 10
157.6774193063
 20
88.0444969028
 30
0.0
 10
157.678188066
 20
87.9698942423
 30
0.0
 10
157.6801202373
 20
87.9088988168
 30
0.0
 10
157.6797717804
 20
87.8616686594
 30
0.0
 10
157.6843569366
 20
87.8345921939
 30
0.0
 10
157.6819222192
 20
87.8187623402
 30
0.0
 10
157.6845956402
 20
87.8161542872
 30
0.0
  0
LINE
  5
41A
330
1B
100
AcDbEntity
 67
     1
  8
7_ALL_FEATURES
  6
Continuous
 62
     9
100
AcDbLine
 10
157.6760204242
 20
132.6154736623
 30
0.0
 11
157.6760204242
 21
88.3160781348
 31
0.0
  0
LINE
  5
41B
330
1B
100
AcDbEntity
 67
     1
  8
7_ALL_FEATURES
  6
Continuous
 62
     9
100
AcDbLine
 10
157.8342020048
 20
132.7736552429
 30
0.0
 11
157.6760204242
 21
132.6154736623
 31
0.0
  0
LINE
  5
41C
330
1B
100
AcDbEntity
 67
     1
  8
7_ALL_FEATURES
  6
Continuous
 62
     9
100
AcDbLine
 10
157.8342020048
 20
135.0304152769
 30
0.0
 11
157.8342020048
 21
180.1374704312
 31
0.0
  0
LINE
  5
41D
330
1B
100
AcDbEntity
 67
     1
  8
7_ALL_FEATURES
  6
Continuous
 62
     9
100
AcDbLine
 10
157.6760204242
 20
135.1885446915
 30
0.0
 11
157.7179189498
 21
135.1466599834
 31
0.0
  0
LINE
  5
41E
330
1B
100
AcDbEntity
 67
     1
  8
7_ALL_FEATURES
  6
Continuous
 62
     9
100
AcDbLine
 10
157.7179189498
 20
135.1466599834
 30
0.0
 11
157.8342020048
 21
135.0304152769
 31
0.0
  0
LINE
  5
41F
330
1B
100
AcDbEntity
 67
     1
  8
7_ALL_FEATURES
  6
Continuous
 62
     9
100
AcDbLine
 10
157.6760204242
 20
179.487940219
 30
0.0
 11
157.6760204242
 21
135.1885446915
 31
0.0
  0
SPLINE
  5
420
330
1B
100
AcDbEntity
 67
     1
  8
7_ALL_FEATURES
  6
Continuous
 62
     9
100
AcDbSpline
 70
     0
 71
     3
 72
    14
 73
    10
 74
     0
 42
0.000000001
 43
0.0000001
 40
0.0
 40
0.0
 40
0.0
 40
0.0
 40
0.0224026681
 40
0.0813906914
 40
0.1748369814
 40
0.2993013727
 40
0.4500154564
 40
0.6214050804
 40
1.0
 40
1.0
 40
1.0
 40
1.0
 10
157.6845956402
 20
179.9878640666
 30
0.0
 10
157.6819222192
 20
179.9852560135
 30
0.0
 10
157.6843569366
 20
179.9694261598
 30
0.0
 10
157.6797717804
 20
179.9423496943
 30
0.0
 10
157.6801202373
 20
179.895119537
 30
0.0
 10
157.678188066
 20
179.8341241115
 30
0.0
 10
157.6774193063
 20
179.759521451
 30
0.0
 10
157.6762651609
 20
179.6427761655
 30
0.0
 10
157.6760198145
 20
179.551057524
 30
0.0
 10
157.6760204242
 20
179.487940219
 30
0.0
  0
LINE
  5
421
330
1B
100
AcDbEntity
 67
     1
  8
7_ALL_FEATURES
  6
Continuous
 62
     9
100
AcDbLine
 10
157.8342020048
 20
180.1374704312
 30
0.0
 11
157.6845956402
 21
179.9878640666
 31
0.0
  0
ARC
  5
422
330
1B
100
AcDbEntity
 67
     1
  8
7_ALL_FEATURES
  6
Continuous
 62
     9
100
AcDbCircle
 10
159.5909250645
 20
87.6664869543
 30
0.0
 40
0.4998628863
100
AcDbArc
 50
179.9996697585
 51
270.0120579204
  0
ARC
  5
423
330
1B
100
AcDbEntity
 67
     1
  8
7_ALL_FEATURES
  6
Continuous
 62
     9
100
AcDbCircle
 10
159.7407762242
 20
87.8163381216
 30
0.0
 40
0.5001077158
100
AcDbArc
 50
180.0210613326
 51
269.9789386674
  0
LINE
  5
424
330
1B
100
AcDbEntity
 67
     1
  8
7_ALL_FEATURES
  6
Continuous
 62
     9
100
AcDbLine
 10
159.7491676058
 20
88.3160781348
 30
0.0
 11
159.2492437582
 21
88.3160781348
 31
0.0
  0
ARC
  5
425
330
1B
100
AcDbEntity
 67
     1
  8
7_ALL_FEATURES
  6
Continuous
 62
     9
100
AcDbCircle
 10
159.5909241253
 20
132.7737171235
 30
0.0
 40
0.4998619482
100
AcDbArc
 50
90.0271262596
 51
180.0020575957
  0
ARC
  5
426
330
1B
100
AcDbEntity
 67
     1
  8
7_ALL_FEATURES
  6
Continuous
 62
     9
100
AcDbCircle
 10
204.6981552261
 20
132.7737171427
 30
0.0
 40
0.4998619482
100
AcDbArc
 50
0.0271262588
 51
90.00205759570001
  0
ARC
  5
427
330
1B
100
AcDbEntity
 67
     1
  8
7_ALL_FEATURES
  6
Continuous
 62
     9
100
AcDbCircle
 10
204.5483031342
 20
132.6238650316
 30
0.0
 40
0.5001077281
100
AcDbArc
 50
0.0210627424
 51
89.97893725759998
  0
LINE
  5
428
330
1B
100
AcDbEntity
 67
     1
  8
7_ALL_FEATURES
  6
Continuous
 62
     9
100
AcDbLine
 10
204.0485631333
 20
132.6154736623
 30
0.0
 11
204.0485631333
 21
133.1153975098
 31
0.0
  0
LINE
  5
429
330
1B
100
AcDbEntity
 67
     1
  8
7_ALL_FEATURES
  6
Continuous
 62
     9
100
AcDbLine
 10
159.7491676058
 20
132.6154736623
 30
0.0
 11
159.7491676058
 21
133.1153975098
 31
0.0
  0
LINE
  5
42A
330
1B
100
AcDbEntity
 67
     1
  8
7_ALL_FEATURES
  6
Continuous
 62
     9
100
AcDbLine
 10
159.2492437582
 20
132.6154736623
 30
0.0
 11
159.5598432971
 21
132.6154736623
 31
0.0
  0
LINE
  5
42B
330
1B
100
AcDbEntity
 67
     1
  8
7_ALL_FEATURES
  6
Continuous
 62
     9
100
AcDbLine
 10
159.5598432971
 20
132.6154736623
 30
0.0
 11
159.7491676058
 21
132.6154736623
 31
0.0
  0
LINE
  5
42C
330
1B
100
AcDbEntity
 67
     1
  8
7_ALL_FEATURES
  6
Continuous
 62
     9
100
AcDbLine
 10
159.7491676058
 20
133.1153975098
 30
0.0
 11
159.7404413558
 21
133.1153186871
 31
0.0
  0
ARC
  5
42D
330
1B
100
AcDbEntity
 67
     1
  8
7_ALL_FEATURES
  6
Continuous
 62
     9
100
AcDbCircle
 10
112.2271108424
 20
132.7737152339
 30
0.0
 40
0.4998638601
100
AcDbArc
 50
89.9931232606
 51
180.0124448066
  0
ARC
  5
42E
330
1B
100
AcDbEntity
 67
     1
  8
7_ALL_FEATURES
  6
Continuous
 62
     9
100
AcDbCircle
 10
112.3769610359
 20
132.6238650439
 30
0.0
 40
0.5001077158
100
AcDbArc
 50
90.0210613326
 51
179.9789386674
  0
LINE
  5
42F
330
1B
100
AcDbEntity
 67
     1
  8
7_ALL_FEATURES
  6
Continuous
 62
     9
100
AcDbLine
 10
112.8767010491
 20
132.6154736623
 30
0.0
 11
112.8767010491
 21
133.1153975098
 31
0.0
  0
ARC
  5
430
330
1B
100
AcDbEntity
 67
     1
  8
7_ALL_FEATURES
  6
Continuous
 62
     9
100
AcDbCircle
 10
157.3343381483
 20
132.7737152374
 30
0.0
 40
0.4998638601
100
AcDbArc
 50
359.9931232606
 51
90.01244480659999
  0
ARC
  5
431
330
1B
100
AcDbEntity
 67
     1
  8
7_ALL_FEATURES
  6
Continuous
 62
     9
100
AcDbCircle
 10
157.3343379345
 20
87.6664881456
 30
0.0
 40
0.4998640776
100
AcDbArc
 50
269.9877628007
 51
0.0128314954
  0
ARC
  5
432
330
1B
100
AcDbEntity
 67
     1
  8
7_ALL_FEATURES
  6
Continuous
 62
     9
100
AcDbCircle
 10
157.1844879459
 20
87.8163381339
 30
0.0
 40
0.5001077281
100
AcDbArc
 50
270.0210627424
 51
359.9789372577
  0
LINE
  5
433
330
1B
100
AcDbEntity
 67
     1
  8
7_ALL_FEATURES
  6
Continuous
 62
     9
100
AcDbLine
 10
157.1760965766
 20
88.3160781348
 30
0.0
 11
157.6760204242
 21
88.3160781348
 31
0.0
  0
LINE
  5
434
330
1B
100
AcDbEntity
 67
     1
  8
7_ALL_FEATURES
  6
Continuous
 62
     9
100
AcDbLine
 10
157.1760965766
 20
132.6154736623
 30
0.0
 11
157.6760204242
 21
132.6154736623
 31
0.0
  0
LINE
  5
435
330
1B
100
AcDbEntity
 67
     1
  8
7_ALL_FEATURES
  6
Continuous
 62
     9
100
AcDbLine
 10
157.1760965766
 20
133.1153975098
 30
0.0
 11
157.1760965766
 21
132.6154736623
 31
0.0
  0
ARC
  5
436
330
1B
100
AcDbEntity
 67
     1
  8
7_ALL_FEATURES
  6
Continuous
 62
     9
100
AcDbCircle
 10
157.1759127308
 20
132.6152898164
 30
0.0
 40
0.5001077272
100
AcDbArc
 50
0.0210626408
 51
89.97893735919999
  0
ARC
  5
437
330
1B
100
AcDbEntity
 67
     1
  8
7_ALL_FEATURES
  6
Continuous
 62
     9
100
AcDbCircle
 10
204.69815334
 20
135.0303031198
 30
0.0
 40
0.4998638601
100
AcDbArc
 50
269.9931232606
 51
0.0124448066
  0
ARC
  5
438
330
1B
100
AcDbEntity
 67
     1
  8
7_ALL_FEATURES
  6
Continuous
 62
     9
100
AcDbCircle
 10
204.5483031465
 20
135.1801533098
 30
0.0
 40
0.5001077158
100
AcDbArc
 50
270.0210613326
 51
359.9789386674
  0
LINE
  5
439
330
1B
100
AcDbEntity
 67
     1
  8
7_ALL_FEATURES
  6
Continuous
 62
     9
100
AcDbLine
 10
204.0485631333
 20
135.1885446915
 30
0.0
 11
204.0485631333
 21
134.6886208439
 31
0.0
  0
ARC
  5
43A
330
1B
100
AcDbEntity
 67
     1
  8
7_ALL_FEATURES
  6
Continuous
 62
     9
100
AcDbCircle
 10
159.5909260342
 20
135.0303031163
 30
0.0
 40
0.4998638601
100
AcDbArc
 50
179.9931232606
 51
270.0124448066
  0
ARC
  5
43B
330
1B
100
AcDbEntity
 67
     1
  8
7_ALL_FEATURES
  6
Continuous
 62
     9
100
AcDbCircle
 10
159.5909262479
 20
180.1375302081
 30
0.0
 40
0.4998640776
100
AcDbArc
 50
89.98776280069998
 51
180.0128314954
  0
ARC
  5
43C
330
1B
100
AcDbEntity
 67
     1
  8
7_ALL_FEATURES
  6
Continuous
 62
     9
100
AcDbCircle
 10
159.7407762365
 20
179.9876802199
 30
0.0
 40
0.5001077281
100
AcDbArc
 50
90.02106274239999
 51
179.9789372576
  0
LINE
  5
43D
330
1B
100
AcDbEntity
 67
     1
  8
7_ALL_FEATURES
  6
Continuous
 62
     9
100
AcDbLine
 10
159.7491676058
 20
179.487940219
 30
0.0
 11
159.2492437582
 21
179.487940219
 31
0.0
  0
LINE
  5
43E
330
1B
100
AcDbEntity
 67
     1
  8
7_ALL_FEATURES
  6
Continuous
 62
     9
100
AcDbLine
 10
159.7491676058
 20
135.1885446915
 30
0.0
 11
159.2492437582
 21
135.1885446915
 31
0.0
  0
LINE
  5
43F
330
1B
100
AcDbEntity
 67
     1
  8
7_ALL_FEATURES
  6
Continuous
 62
     9
100
AcDbLine
 10
159.7491676058
 20
134.6886208439
 30
0.0
 11
159.7491676058
 21
135.1885446915
 31
0.0
  0
ARC
  5
440
330
1B
100
AcDbEntity
 67
     1
  8
7_ALL_FEATURES
  6
Continuous
 62
     9
100
AcDbCircle
 10
159.7493514516
 20
135.1887285373
 30
0.0
 40
0.5001077272
100
AcDbArc
 50
180.0210626408
 51
269.9789373592
  0
ARC
  5
441
330
1B
100
AcDbEntity
 67
     1
  8
7_ALL_FEATURES
  6
Continuous
 62
     9
100
AcDbCircle
 10
157.3343379345
 20
135.0303033339
 30
0.0
 40
0.4998640776
100
AcDbArc
 50
269.9877628007
 51
0.0128314954
  0
ARC
  5
442
330
1B
100
AcDbEntity
 67
     1
  8
7_ALL_FEATURES
  6
Continuous
 62
     9
100
AcDbCircle
 10
112.22711106
 20
135.0303033335
 30
0.0
 40
0.4998640776
100
AcDbArc
 50
179.9877628007
 51
270.0128314954
  0
ARC
  5
443
330
1B
100
AcDbEntity
 67
     1
  8
7_ALL_FEATURES
  6
Continuous
 62
     9
100
AcDbCircle
 10
112.3769610482
 20
135.1801533222
 30
0.0
 40
0.5001077281
100
AcDbArc
 50
180.0210627424
 51
269.9789372576
  0
LINE
  5
444
330
1B
100
AcDbEntity
 67
     1
  8
7_ALL_FEATURES
  6
Continuous
 62
     9
100
AcDbLine
 10
112.8767010491
 20
135.1885446915
 30
0.0
 11
112.8767010491
 21
134.6886208439
 31
0.0
  0
ARC
  5
445
330
1B
100
AcDbEntity
 67
     1
  8
7_ALL_FEATURES
  6
Continuous
 62
     9
100
AcDbCircle
 10
157.3343381483
 20
180.1375304257
 30
0.0
 40
0.4998638601
100
AcDbArc
 50
359.9931232606
 51
90.01244480659999
  0
ARC
  5
446
330
1B
100
AcDbEntity
 67
     1
  8
7_ALL_FEATURES
  6
Continuous
 62
     9
100
AcDbCircle
 10
157.1844879582
 20
179.9876802322
 30
0.0
 40
0.5001077158
100
AcDbArc
 50
0.0210613326
 51
89.9789386674
  0
LINE
  5
447
330
1B
100
AcDbEntity
 67
     1
  8
7_ALL_FEATURES
  6
Continuous
 62
     9
100
AcDbLine
 10
157.1760965766
 20
179.487940219
 30
0.0
 11
157.6760204242
 21
179.487940219
 31
0.0
  0
LINE
  5
448
330
1B
100
AcDbEntity
 67
     1
  8
7_ALL_FEATURES
  6
Continuous
 62
     9
100
AcDbLine
 10
157.6760204242
 20
135.1885446915
 30
0.0
 11
157.3654208853
 21
135.1885446915
 31
0.0
  0
LINE
  5
449
330
1B
100
AcDbEntity
 67
     1
  8
7_ALL_FEATURES
  6
Continuous
 62
     9
100
AcDbLine
 10
157.3654208853
 20
135.1885446915
 30
0.0
 11
157.1760965766
 21
135.1885446915
 31
0.0
  0
LINE
  5
44A
330
1B
100
AcDbEntity
 67
     1
  8
7_ALL_FEATURES
  6
Continuous
 62
     9
100
AcDbLine
 10
157.1760965766
 20
134.6886208439
 30
0.0
 11
157.1848228266
 21
134.6886996666
 31
0.0
  0
LINE
  5
44B
330
1B
100
AcDbEntity
 67
     1
  8
7_ALL_FEATURES
  6
Continuous
 62
     9
100
AcDbLine
 10
157.1760965766
 20
135.1885446915
 30
0.0
 11
157.1760965766
 21
134.6886208439
 31
0.0
  0
SPLINE
  5
44C
330
1B
100
AcDbEntity
 67
     1
  8
7_ALL_FEATURES
  6
Continuous
 62
     9
100
AcDbSpline
 70
     0
 71
     3
 72
    10
 73
     6
 74
     0
 42
0.000000001
 43
0.0000001
 40
0.0
 40
0.0
 40
0.0
 40
0.0
 40
0.2439679387
 40
0.4902524318
 40
1.0
 40
1.0
 40
1.0
 40
1.0
 10
194.3915642793
 20
180.5555991799
 30
0.0
 10
194.6560272409
 20
180.557432758
 30
0.0
 10
195.1879187648
 20
180.5361843907
 30
0.0
 10
196.264477306
 20
180.4013176801
 30
0.0
 10
197.066489176
 20
180.2289458943
 30
0.0
 10
197.6078883534
 20
180.1183332509
 30
0.0
  0
LINE
  5
44D
330
1B
100
AcDbEntity
 67
     1
  8
7_ALL_FEATURES
  6
Continuous
 62
     9
100
AcDbLine
 10
196.9750425462
 20
179.4854874437
 30
0.0
 11
197.6078883534
 21
180.1183332509
 31
0.0
  0
LINE
  5
44E
330
1B
100
AcDbEntity
 67
     1
  8
7_ALL_FEATURES
  6
Continuous
 62
     9
100
AcDbLine
 10
204.6420238947
 20
173.2325042659
 30
0.0
 11
204.6789561653
 21
173.0472654391
 31
0.0
  0
LINE
  5
44F
330
1B
100
AcDbEntity
 67
     1
  8
7_ALL_FEATURES
  6
Continuous
 62
     9
100
AcDbLine
 10
204.046110358
 20
172.4144196318
 30
0.0
 11
204.6789561653
 21
173.0472654391
 31
0.0
  0
LINE
  5
450
330
1B
100
AcDbEntity
 67
     1
  8
7_ALL_FEATURES
  6
Continuous
 62
     9
100
AcDbLine
 10
197.6078883534
 20
180.1183332509
 30
0.0
 11
197.7931271803
 21
180.0814009804
 31
0.0
  0
SPLINE
  5
451
330
1B
100
AcDbEntity
 67
     1
  8
7_ALL_FEATURES
  6
Continuous
 62
     9
100
AcDbSpline
 70
     0
 71
     3
 72
    10
 73
     6
 74
     0
 42
0.000000001
 43
0.0000001
 40
0.0
 40
0.0
 40
0.0
 40
0.0
 40
0.5097475106
 40
0.7560320396
 40
1.0
 40
1.0
 40
1.0
 40
1.0
 10
204.6789561653
 20
173.0472654391
 30
0.0
 10
204.7895688694
 20
172.5058663376
 30
0.0
 10
204.961940559
 20
171.7038544717
 30
0.0
 10
205.096807316
 20
170.6272959389
 30
0.0
 10
205.1180557014
 20
170.09540435
 30
0.0
 10
205.1162220942
 20
169.830941365
 30
0.0
  0
SPLINE
  5
452
330
1B
100
AcDbEntity
 67
     1
  8
7_ALL_FEATURES
  6
Continuous
 62
     9
100
AcDbSpline
 70
     0
 71
     3
 72
    10
 73
     6
 74
     0
 42
0.000000001
 43
0.0000001
 40
0.0
 40
0.0
 40
0.0
 40
0.0
 40
0.2439679387
 40
0.4902524318
 40
1.0
 40
1.0
 40
1.0
 40
1.0
 10
111.8090420882
 20
169.830941365
 30
0.0
 10
111.80720851
 20
170.0954043266
 30
0.0
 10
111.8284568774
 20
170.6272958504
 30
0.0
 10
111.963323588
 20
171.7038543916
 30
0.0
 10
112.1356953738
 20
172.5058662617
 30
0.0
 10
112.2463080171
 20
173.0472654391
 30
0.0
  0
LINE
  5
453
330
1B
100
AcDbEntity
 67
     1
  8
7_ALL_FEATURES
  6
Continuous
 62
     9
100
AcDbLine
 10
112.8791538244
 20
172.4144196318
 30
0.0
 11
112.2463080171
 21
173.0472654391
 31
0.0
  0
LINE
  5
454
330
1B
100
AcDbEntity
 67
     1
  8
7_ALL_FEATURES
  6
Continuous
 62
     9
100
AcDbLine
 10
119.1321370022
 20
180.0814009804
 30
0.0
 11
119.317375829
 21
180.1183332509
 31
0.0
  0
LINE
  5
455
330
1B
100
AcDbEntity
 67
     1
  8
7_ALL_FEATURES
  6
Continuous
 62
     9
100
AcDbLine
 10
119.9502216363
 20
179.4854874437
 30
0.0
 11
119.317375829
 21
180.1183332509
 31
0.0
  0
LINE
  5
456
330
1B
100
AcDbEntity
 67
     1
  8
7_ALL_FEATURES
  6
Continuous
 62
     9
100
AcDbLine
 10
112.2463080171
 20
173.0472654391
 30
0.0
 11
112.2832402877
 21
173.2325042659
 31
0.0
  0
SPLINE
  5
457
330
1B
100
AcDbEntity
 67
     1
  8
7_ALL_FEATURES
  6
Continuous
 62
     9
100
AcDbSpline
 70
     0
 71
     3
 72
    10
 73
     6
 74
     0
 42
0.000000001
 43
0.0000001
 40
0.0
 40
0.0
 40
0.0
 40
0.0
 40
0.5097475106
 40
0.7560320396
 40
1.0
 40
1.0
 40
1.0
 40
1.0
 10
119.317375829
 20
180.1183332509
 30
0.0
 10
119.8587749305
 20
180.228945955
 30
0.0
 10
120.6607867964
 20
180.4013176447
 30
0.0
 10
121.7373453292
 20
180.5361844016
 30
0.0
 10
122.2692369181
 20
180.557432787
 30
0.0
 10
122.5336999031
 20
180.5555991799
 30
0.0
  0
SPLINE
  5
458
330
1B
100
AcDbEntity
 67
     1
  8
7_ALL_FEATURES
  6
Continuous
 62
     9
100
AcDbSpline
 70
     0
 71
     3
 72
    10
 73
     6
 74
     0
 42
0.000000001
 43
0.0000001
 40
0.0
 40
0.0
 40
0.0
 40
0.0
 40
0.2439679387
 40
0.4902524318
 40
1.0
 40
1.0
 40
1.0
 40
1.0
 10
205.1162220942
 20
97.9730769887
 30
0.0
 10
205.1180556724
 20
97.7086140272
 30
0.0
 10
205.096807305
 20
97.1767225033
 30
0.0
 10
204.9619405944
 20
96.1001639621
 30
0.0
 10
204.7895688086
 20
95.2981520921
 30
0.0
 10
204.6789561653
 20
94.7567529147
 30
0.0
  0
LINE
  5
459
330
1B
100
AcDbEntity
 67
     1
  8
7_ALL_FEATURES
  6
Continuous
 62
     9
100
AcDbLine
 10
204.046110358
 20
95.3895987219
 30
0.0
 11
204.6789561653
 21
94.7567529147
 31
0.0
  0
LINE
  5
45A
330
1B
100
AcDbEntity
 67
     1
  8
7_ALL_FEATURES
  6
Continuous
 62
     9
100
AcDbLine
 10
197.7931271803
 20
87.7226173734
 30
0.0
 11
197.6078883534
 21
87.6856851028
 31
0.0
  0
LINE
  5
45B
330
1B
100
AcDbEntity
 67
     1
  8
7_ALL_FEATURES
  6
Continuous
 62
     9
100
AcDbLine
 10
196.9750425462
 20
88.3185309101
 30
0.0
 11
197.6078883534
 21
87.6856851028
 31
0.0
  0
LINE
  5
45C
330
1B
100
AcDbEntity
 67
     1
  8
7_ALL_FEATURES
  6
Continuous
 62
     9
100
AcDbLine
 10
204.6789561653
 20
94.7567529147
 30
0.0
 11
204.6420238947
 21
94.5715140878
 31
0.0
  0
SPLINE
  5
45D
330
1B
100
AcDbEntity
 67
     1
  8
7_ALL_FEATURES
  6
Continuous
 62
     9
100
AcDbSpline
 70
     0
 71
     3
 72
    10
 73
     6
 74
     0
 42
0.000000001
 43
0.0000001
 40
0.0
 40
0.0
 40
0.0
 40
0.0
 40
0.5097475106
 40
0.7560320396
 40
1.0
 40
1.0
 40
1.0
 40
1.0
 10
197.6078883534
 20
87.6856851028
 30
0.0
 10
197.0664892519
 20
87.5750723987
 30
0.0
 10
196.264477386
 20
87.4027007091
 30
0.0
 10
195.1879188532
 20
87.2678339521
 30
0.0
 10
194.6560272643
 20
87.2465855667
 30
0.0
 10
194.3915642793
 20
87.2484191738
 30
0.0
  0
SPLINE
  5
45E
330
1B
100
AcDbEntity
 67
     1
  8
7_ALL_FEATURES
  6
Continuous
 62
     9
100
AcDbSpline
 70
     0
 71
     3
 72
    10
 73
     6
 74
     0
 42
0.000000001
 43
0.0000001
 40
0.0
 40
0.0
 40
0.0
 40
0.0
 40
0.2439679387
 40
0.4902524318
 40
1.0
 40
1.0
 40
1.0
 40
1.0
 10
122.5336999031
 20
87.2484191738
 30
0.0
 10
122.2692369415
 20
87.2465855957
 30
0.0
 10
121.7373454177
 20
87.267833963
 30
0.0
 10
120.6607868765
 20
87.4027006737
 30
0.0
 10
119.8587750064
 20
87.5750724594
 30
0.0
 10
119.317375829
 20
87.6856851028
 30
0.0
  0
LINE
  5
45F
330
1B
100
AcDbEntity
 67
     1
  8
7_ALL_FEATURES
  6
Continuous
 62
     9
100
AcDbLine
 10
119.9502216363
 20
88.3185309101
 30
0.0
 11
119.317375829
 21
87.6856851028
 31
0.0
  0
LINE
  5
460
330
1B
100
AcDbEntity
 67
     1
  8
7_ALL_FEATURES
  6
Continuous
 62
     9
100
AcDbLine
 10
112.2832402877
 20
94.5715140878
 30
0.0
 11
112.2463080171
 21
94.7567529147
 31
0.0
  0
LINE
  5
461
330
1B
100
AcDbEntity
 67
     1
  8
7_ALL_FEATURES
  6
Continuous
 62
     9
100
AcDbLine
 10
112.8791538244
 20
95.3895987219
 30
0.0
 11
112.2463080171
 21
94.7567529147
 31
0.0
  0
LINE
  5
462
330
1B
100
AcDbEntity
 67
     1
  8
7_ALL_FEATURES
  6
Continuous
 62
     9
100
AcDbLine
 10
119.317375829
 20
87.6856851028
 30
0.0
 11
119.1321370022
 21
87.7226173734
 31
0.0
  0
SPLINE
  5
463
330
1B
100
AcDbEntity
 67
     1
  8
7_ALL_FEATURES
  6
Continuous
 62
     9
100
AcDbSpline
 70
     0
 71
     3
 72
    10
 73
     6
 74
     0
 42
0.000000001
 43
0.0000001
 40
0.0
 40
0.0
 40
0.0
 40
0.0
 40
0.5097475106
 40
0.7560320396
 40
1.0
 40
1.0
 40
1.0
 40
1.0
 10
112.2463080171
 20
94.7567529147
 30
0.0
 10
112.1356953131
 20
95.2981520161
 30
0.0
 10
111.9633236234
 20
96.100163882
 30
0.0
 10
111.8284568664
 20
97.1767224148
 30
0.0
 10
111.8072084811
 20
97.7086140038
 30
0.0
 10
111.8090420882
 20
97.9730769887
 30
0.0
  0
SPLINE
  5
464
330
1B
100
AcDbEntity
 67
     1
  8
7_ALL_FEATURES
  6
Continuous
 62
     9
100
AcDbSpline
 70
     0
 71
     3
 72
    14
 73
    10
 74
     0
 42
0.000000001
 43
0.0000001
 40
0.0
 40
0.0
 40
0.0
 40
0.0
 40
0.3804016707
 40
0.5511454138
 40
0.6999924768
 40
0.8224915096
 40
0.9145527758
 40
0.97372402
 40
1.0
 40
1.0
 40
1.0
 40
1.0
 10
204.6789561641
 20
173.0472654379
 30
0.0
 10
204.7381333729
 20
173.0468611189
 30
0.0
 10
204.8239089675
 20
173.0451656105
 30
0.0
 10
204.932620999
 20
173.0403553998
 30
0.0
 10
205.0014546694
 20
173.0359022562
 30
0.0
 10
205.0572107274
 20
173.0306787764
 30
0.0
 10
205.1007663321
 20
173.0250246726
 30
0.0
 10
205.1252070766
 20
173.0190930748
 30
0.0
 10
205.1408731609
 20
173.01416925
 30
0.0
 10
205.1418034677
 20
173.0101888
 30
0.0
  0
LINE
  5
465
330
1B
100
AcDbEntity
 67
     1
  8
7_ALL_FEATURES
  6
Continuous
 62
     9
100
AcDbLine
 10
204.6420238947
 20
173.2325042659
 30
0.0
 11
205.1419477423
 21
173.2325042659
 31
0.0
  0
LINE
  5
466
330
1B
100
AcDbEntity
 67
     1
  8
7_ALL_FEATURES
  6
Continuous
 62
     9
100
AcDbLine
 10
204.6420238947
 20
179.6408243651
 30
0.0
 11
205.1419477423
 21
179.6408243651
 31
0.0
  0
LINE
  5
467
330
1B
100
AcDbEntity
 67
     1
  8
7_ALL_FEATURES
  6
Continuous
 62
     9
100
AcDbLine
 10
204.2014472795
 20
180.0814009804
 30
0.0
 11
204.2014472795
 21
180.5813248279
 31
0.0
  0
LINE
  5
468
330
1B
100
AcDbEntity
 67
     1
  8
7_ALL_FEATURES
  6
Continuous
 62
     9
100
AcDbLine
 10
197.7931271803
 20
180.0814009804
 30
0.0
 11
197.7931271803
 21
180.5813248279
 31
0.0
  0
SPLINE
  5
469
330
1B
100
AcDbEntity
 67
     1
  8
7_ALL_FEATURES
  6
Continuous
 62
     9
100
AcDbSpline
 70
     0
 71
     3
 72
    14
 73
    10
 74
     0
 42
0.000000001
 43
0.0000001
 40
0.0
 40
0.0
 40
0.0
 40
0.0
 40
0.3804017355
 40
0.5511454962
 40
0.6999925625
 40
0.8224915855
 40
0.9145528307
 40
0.9737240463
 40
1.0
 40
1.0
 40
1.0
 40
1.0
 10
197.6078883565
 20
180.1183332541
 30
0.0
 10
197.607484041
 20
180.1775104604
 30
0.0
 10
197.6057885357
 20
180.2632860498
 30
0.0
 10
197.6009783257
 20
180.3719980714
 30
0.0
 10
197.5965251805
 20
180.4408317294
 30
0.0
 10
197.5913017005
 20
180.4965877693
 30
0.0
 10
197.5856475905
 20
180.5401433589
 30
0.0
 10
197.5797159985
 20
180.5645840789
 30
0.0
 10
197.574792162
 20
180.5802501567
 30
0.0
 10
197.5708117144
 20
180.5811804519
 30
0.0
  0
SPLINE
  5
46A
330
1B
100
AcDbEntity
 67
     1
  8
7_ALL_FEATURES
  6
Continuous
 62
     9
100
AcDbSpline
 70
     0
 71
     3
 72
    14
 73
    10
 74
     0
 42
0.000000001
 43
0.0000001
 40
0.0
 40
0.0
 40
0.0
 40
0.0
 40
0.3804016707
 40
0.5511454138
 40
0.6999924768
 40
0.8224915096
 40
0.9145527758
 40
0.97372402
 40
1.0
 40
1.0
 40
1.0
 40
1.0
 10
197.6078883522
 20
87.685685104
 30
0.0
 10
197.6074840332
 20
87.6265078952
 30
0.0
 10
197.6057885249
 20
87.5407323006
 30
0.0
 10
197.6009783141
 20
87.432020269
 30
0.0
 10
197.5965251705
 20
87.3631865987
 30
0.0
 10
197.5913016908
 20
87.3074305407
 30
0.0
 10
197.5856475869
 20
87.263874936
 30
0.0
 10
197.5797159892
 20
87.2394341914
 30
0.0
 10
197.5747921644
 20
87.2237681072
 30
0.0
 10
197.5708117144
 20
87.2228378004
 30
0.0
  0
LINE
  5
46B
330
1B
100
AcDbEntity
 67
     1
  8
7_ALL_FEATURES
  6
Continuous
 62
     9
100
AcDbLine
 10
197.7931271803
 20
87.7226173734
 30
0.0
 11
197.7931271803
 21
87.2226935258
 31
0.0
  0
LINE
  5
46C
330
1B
100
AcDbEntity
 67
     1
  8
7_ALL_FEATURES
  6
Continuous
 62
     9
100
AcDbLine
 10
204.2014472795
 20
87.7226173734
 30
0.0
 11
204.2014472795
 21
87.2226935258
 31
0.0
  0
LINE
  5
46D
330
1B
100
AcDbEntity
 67
     1
  8
7_ALL_FEATURES
  6
Continuous
 62
     9
100
AcDbLine
 10
204.6420238947
 20
88.1631939886
 30
0.0
 11
205.1419477423
 21
88.1631939886
 31
0.0
  0
LINE
  5
46E
330
1B
100
AcDbEntity
 67
     1
  8
7_ALL_FEATURES
  6
Continuous
 62
     9
100
AcDbLine
 10
204.6420238947
 20
94.5715140878
 30
0.0
 11
205.1419477423
 21
94.5715140878
 31
0.0
  0
SPLINE
  5
46F
330
1B
100
AcDbEntity
 67
     1
  8
7_ALL_FEATURES
  6
Continuous
 62
     9
100
AcDbSpline
 70
     0
 71
     3
 72
    14
 73
    10
 74
     0
 42
0.000000001
 43
0.0000001
 40
0.0
 40
0.0
 40
0.0
 40
0.0
 40
0.3804017355
 40
0.5511454962
 40
0.6999925625
 40
0.8224915855
 40
0.9145528307
 40
0.9737240463
 40
1.0
 40
1.0
 40
1.0
 40
1.0
 10
204.6789561684
 20
94.7567529115
 30
0.0
 10
204.7381333747
 20
94.757157227
 30
0.0
 10
204.8239089642
 20
94.7588527323
 30
0.0
 10
204.9326209857
 20
94.7636629424
 30
0.0
 10
205.0014546438
 20
94.7681160876
 30
0.0
 10
205.0572106837
 20
94.7733395676
 30
0.0
 10
205.1007662732
 20
94.7789936776
 30
0.0
 10
205.1252069933
 20
94.7849252696
 30
0.0
 10
205.1408730711
 20
94.7898491061
 30
0.0
 10
205.1418033663
 20
94.7938295537
 30
0.0
  0
SPLINE
  5
470
330
1B
100
AcDbEntity
 67
     1
  8
7_ALL_FEATURES
  6
Continuous
 62
     9
100
AcDbSpline
 70
     0
 71
     3
 72
    14
 73
    10
 74
     0
 42
0.000000001
 43
0.0000001
 40
0.0
 40
0.0
 40
0.0
 40
0.0
 40
0.3804016707
 40
0.5511454138
 40
0.6999924768
 40
0.8224915096
 40
0.9145527758
 40
0.97372402
 40
1.0
 40
1.0
 40
1.0
 40
1.0
 10
112.2463080183
 20
94.7567529158
 30
0.0
 10
112.1871308095
 20
94.7571572349
 30
0.0
 10
112.1013552149
 20
94.7588527432
 30
0.0
 10
111.9926431834
 20
94.763662954
 30
0.0
 10
111.923809513
 20
94.7681160976
 30
0.0
 10
111.868053455
 20
94.7733395773
 30
0.0
 10
111.8244978503
 20
94.7789936812
 30
0.0
 10
111.8000571058
 20
94.7849252789
 30
0.0
 10
111.7843910215
 20
94.7898491037
 30
0.0
 10
111.7834607147
 20
94.7938295537
 30
0.0
  0
LINE
  5
471
330
1B
100
AcDbEntity
 67
     1
  8
7_ALL_FEATURES
  6
Continuous
 62
     9
100
AcDbLine
 10
112.2832402877
 20
94.5715140878
 30
0.0
 11
111.7833164401
 21
94.5715140878
 31
0.0
  0
LINE
  5
472
330
1B
100
AcDbEntity
 67
     1
  8
7_ALL_FEATURES
  6
Continuous
 62
     9
100
AcDbLine
 10
112.2832402877
 20
88.1631939886
 30
0.0
 11
111.7833164401
 21
88.1631939886
 31
0.0
  0
LINE
  5
473
330
1B
100
AcDbEntity
 67
     1
  8
7_ALL_FEATURES
  6
Continuous
 62
     9
100
AcDbLine
 10
112.7238169029
 20
87.7226173734
 30
0.0
 11
112.7238169029
 21
87.2226935258
 31
0.0
  0
LINE
  5
474
330
1B
100
AcDbEntity
 67
     1
  8
7_ALL_FEATURES
  6
Continuous
 62
     9
100
AcDbLine
 10
119.1321370022
 20
87.7226173734
 30
0.0
 11
119.1321370022
 21
87.2226935258
 31
0.0
  0
SPLINE
  5
475
330
1B
100
AcDbEntity
 67
     1
  8
7_ALL_FEATURES
  6
Continuous
 62
     9
100
AcDbSpline
 70
     0
 71
     3
 72
    14
 73
    10
 74
     0
 42
0.000000001
 43
0.0000001
 40
0.0
 40
0.0
 40
0.0
 40
0.0
 40
0.3804017355
 40
0.5511454962
 40
0.6999925625
 40
0.8224915855
 40
0.9145528307
 40
0.9737240463
 40
1.0
 40
1.0
 40
1.0
 40
1.0
 10
119.3173758259
 20
87.6856850997
 30
0.0
 10
119.3177801414
 20
87.6265078933
 30
0.0
 10
119.3194756467
 20
87.5407323039
 30
0.0
 10
119.3242858567
 20
87.4320202824
 30
0.0
 10
119.3287390019
 20
87.3631866243
 30
0.0
 10
119.3339624819
 20
87.3074305844
 30
0.0
 10
119.3396165919
 20
87.2638749948
 30
0.0
 10
119.3455481839
 20
87.2394342748
 30
0.0
 10
119.3504720204
 20
87.223768197
 30
0.0
 10
119.3544524681
 20
87.2228379018
 30
0.0
  0
SPLINE
  5
476
330
1B
100
AcDbEntity
 67
     1
  8
7_ALL_FEATURES
  6
Continuous
 62
     9
100
AcDbSpline
 70
     0
 71
     3
 72
    14
 73
    10
 74
     0
 42
0.000000001
 43
0.0000001
 40
0.0
 40
0.0
 40
0.0
 40
0.0
 40
0.3804016707
 40
0.5511454138
 40
0.6999924768
 40
0.8224915096
 40
0.9145527758
 40
0.97372402
 40
1.0
 40
1.0
 40
1.0
 40
1.0
 10
119.3173758302
 20
180.1183332498
 30
0.0
 10
119.3177801492
 20
180.1775104585
 30
0.0
 10
119.3194756575
 20
180.2632860531
 30
0.0
 10
119.3242858683
 20
180.3719980847
 30
0.0
 10
119.3287390119
 20
180.4408317551
 30
0.0
 10
119.3339624916
 20
180.4965878131
 30
0.0
 10
119.3396165955
 20
180.5401434178
 30
0.0
 10
119.3455481932
 20
180.5645841623
 30
0.0
 10
119.350472018
 20
180.5802502465
 30
0.0
 10
119.3544524681
 20
180.5811805534
 30
0.0
  0
LINE
  5
477
330
1B
100
AcDbEntity
 67
     1
  8
7_ALL_FEATURES
  6
Continuous
 62
     9
100
AcDbLine
 10
119.1321370022
 20
180.0814009804
 30
0.0
 11
119.1321370022
 21
180.5813248279
 31
0.0
  0
LINE
  5
478
330
1B
100
AcDbEntity
 67
     1
  8
7_ALL_FEATURES
  6
Continuous
 62
     9
100
AcDbLine
 10
112.7238169029
 20
180.0814009804
 30
0.0
 11
112.7238169029
 21
180.5813248279
 31
0.0
  0
LINE
  5
479
330
1B
100
AcDbEntity
 67
     1
  8
7_ALL_FEATURES
  6
Continuous
 62
     9
100
AcDbLine
 10
112.2832402877
 20
179.6408243651
 30
0.0
 11
111.7833164401
 21
179.6408243651
 31
0.0
  0
LINE
  5
47A
330
1B
100
AcDbEntity
 67
     1
  8
7_ALL_FEATURES
  6
Continuous
 62
     9
100
AcDbLine
 10
112.2832402877
 20
173.2325042659
 30
0.0
 11
111.7833164401
 21
173.2325042659
 31
0.0
  0
SPLINE
  5
47B
330
1B
100
AcDbEntity
 67
     1
  8
7_ALL_FEATURES
  6
Continuous
 62
     9
100
AcDbSpline
 70
     0
 71
     3
 72
    14
 73
    10
 74
     0
 42
0.000000001
 43
0.0000001
 40
0.0
 40
0.0
 40
0.0
 40
0.0
 40
0.3804017355
 40
0.5511454962
 40
0.6999925625
 40
0.8224915855
 40
0.9145528307
 40
0.9737240463
 40
1.0
 40
1.0
 40
1.0
 40
1.0
 10
112.246308014
 20
173.0472654422
 30
0.0
 10
112.1871308077
 20
173.0468611267
 30
0.0
 10
112.1013552182
 20
173.0451656214
 30
0.0
 10
111.9926431967
 20
173.0403554114
 30
0.0
 10
111.9238095387
 20
173.0359022662
 30
0.0
 10
111.8680534987
 20
173.0306787862
 30
0.0
 10
111.8244979092
 20
173.0250246761
 30
0.0
 10
111.8000571892
 20
173.0190930841
 30
0.0
 10
111.7843911113
 20
173.0141692477
 30
0.0
 10
111.7834608161
 20
173.0101888
 30
0.0
  0
LINE
  5
47C
330
1B
100
AcDbEntity
 67
     1
  8
7_ALL_FEATURES
  6
Continuous
 62
     9
100
AcDbLine
 10
111.7272469893
 20
88.1631939886
 30
0.0
 11
111.5272774607
 21
88.1631939851
 31
0.0
  0
LINE
  5
47D
330
1B
100
AcDbEntity
 67
     1
  8
7_ALL_FEATURES
  6
Continuous
 62
     9
100
AcDbLine
 10
112.7238169029
 20
87.166624075
 30
0.0
 11
112.7238169029
 21
86.966654536
 31
0.0
  0
LINE
  5
47E
330
1B
100
AcDbEntity
 67
     1
  8
7_ALL_FEATURES
  6
Continuous
 62
     9
100
AcDbLine
 10
157.3342781572
 20
87.166624075
 30
0.0
 11
157.3342781569
 21
86.966654536
 31
0.0
  0
LINE
  5
47F
330
1B
100
AcDbEntity
 67
     1
  8
7_ALL_FEATURES
  6
Continuous
 62
     9
100
AcDbLine
 10
157.8342020048
 20
87.6665479226
 30
0.0
 11
158.0341715438
 21
87.6665479226
 31
0.0
  0
LINE
  5
480
330
1B
100
AcDbEntity
 67
     1
  8
7_ALL_FEATURES
  6
Continuous
 62
     9
100
AcDbLine
 10
157.8342020048
 20
132.7736552429
 30
0.0
 11
158.0341715438
 21
132.7736552429
 31
0.0
  0
LINE
  5
481
330
1B
100
AcDbEntity
 67
     1
  8
7_ALL_FEATURES
  6
Continuous
 62
     9
100
AcDbLine
 10
157.3342781572
 20
133.2735790905
 30
0.0
 11
157.3342781572
 21
133.4735486295
 31
0.0
  0
LINE
  5
482
330
1B
100
AcDbEntity
 67
     1
  8
7_ALL_FEATURES
  6
Continuous
 62
     9
100
AcDbLine
 10
112.2271708369
 20
133.2735790905
 30
0.0
 11
112.2271708369
 21
133.4735486295
 31
0.0
  0
LINE
  5
483
330
1B
100
AcDbEntity
 67
     1
  8
7_ALL_FEATURES
  6
Continuous
 62
     9
100
AcDbLine
 10
111.7272469893
 20
132.7736552429
 30
0.0
 11
111.5272774503
 21
132.7736552429
 31
0.0
  0
LINE
  5
484
330
1B
100
AcDbEntity
 67
     1
  8
7_ALL_FEATURES
  6
Continuous
 62
     9
100
AcDbLine
 10
112.7238169029
 20
180.6373942787
 30
0.0
 11
112.7238168995
 21
180.8373638074
 31
0.0
  0
LINE
  5
485
330
1B
100
AcDbEntity
 67
     1
  8
7_ALL_FEATURES
  6
Continuous
 62
     9
100
AcDbLine
 10
111.7272469893
 20
179.6408243651
 30
0.0
 11
111.5272774503
 21
179.6408243651
 31
0.0
  0
LINE
  5
486
330
1B
100
AcDbEntity
 67
     1
  8
7_ALL_FEATURES
  6
Continuous
 62
     9
100
AcDbLine
 10
111.0481466835
 20
181.6164488931
 30
0.0
 11
205.8771174989
 21
181.6164488931
 31
0.0
  0
LINE
  5
487
330
1B
100
AcDbEntity
 67
     1
  8
7_ALL_FEATURES
  6
Continuous
 62
     7
100
AcDbLine
 10
130.2807223459
 20
114.7201037339
 30
0.0
 11
130.2807223459
 21
105.7200994315
 31
0.0
  0
LINE
  5
488
330
1B
100
AcDbEntity
 67
     1
  8
7_ALL_FEATURES
  6
Continuous
 62
     7
100
AcDbLine
 10
134.2672559433
 20
106.9045580253
 30
0.0
 11
134.2672559433
 21
106.3808174733
 31
0.0
  0
LINE
  5
489
330
1B
100
AcDbEntity
 67
     1
  8
7_ALL_FEATURES
  6
Continuous
 62
     7
100
AcDbLine
 10
134.2672559433
 20
112.9020388685
 30
0.0
 11
134.2672559433
 21
112.3785084852
 31
0.0
  0
LINE
  5
48A
330
1B
100
AcDbEntity
 67
     1
  8
7_ALL_FEATURES
  6
Continuous
 62
     7
100
AcDbLine
 10
137.9879786005
 20
108.1801247769
 30
0.0
 11
137.9879786005
 21
106.9045580253
 31
0.0
  0
LINE
  5
48B
330
1B
100
AcDbEntity
 67
     1
  8
7_ALL_FEATURES
  6
Continuous
 62
     7
100
AcDbLine
 10
137.9879786005
 20
114.177868331
 30
0.0
 11
137.9879786005
 21
112.9020388685
 31
0.0
  0
LINE
  5
48C
330
1B
100
AcDbEntity
 67
     1
  8
7_ALL_FEATURES
  6
Continuous
 62
     7
100
AcDbLine
 10
138.4669532064
 20
112.3785084852
 30
0.0
 11
138.4669532064
 21
114.177868331
 31
0.0
  0
LINE
  5
48D
330
1B
100
AcDbEntity
 67
     1
  8
7_ALL_FEATURES
  6
Continuous
 62
     7
100
AcDbLine
 10
138.4669532064
 20
106.3808174733
 30
0.0
 11
138.4669532064
 21
108.1801247769
 31
0.0
  0
LINE
  5
48E
330
1B
100
AcDbEntity
 67
     1
  8
7_ALL_FEATURES
  6
Continuous
 62
     7
100
AcDbLine
 10
139.2807266483
 20
105.7200994315
 30
0.0
 11
139.2807266483
 21
114.7201037339
 31
0.0
  0
LINE
  5
48F
330
1B
100
AcDbEntity
 67
     1
  8
7_ALL_FEATURES
  6
Continuous
 62
     7
100
AcDbLine
 10
139.2807266483
 20
114.7201037339
 30
0.0
 11
130.2807223459
 21
114.7201037339
 31
0.0
  0
LINE
  5
490
330
1B
100
AcDbEntity
 67
     1
  8
7_ALL_FEATURES
  6
Continuous
 62
     7
100
AcDbLine
 10
138.4669532064
 20
114.177868331
 30
0.0
 11
137.9879786005
 21
114.177868331
 31
0.0
  0
LINE
  5
491
330
1B
100
AcDbEntity
 67
     1
  8
7_ALL_FEATURES
  6
Continuous
 62
     7
100
AcDbLine
 10
137.9879786005
 20
112.9020388685
 30
0.0
 11
134.2672559433
 21
112.9020388685
 31
0.0
  0
LINE
  5
492
330
1B
100
AcDbEntity
 67
     1
  8
7_ALL_FEATURES
  6
Continuous
 62
     7
100
AcDbLine
 10
134.2672559433
 20
112.3785084852
 30
0.0
 11
138.4669532064
 21
112.3785084852
 31
0.0
  0
LINE
  5
493
330
1B
100
AcDbEntity
 67
     1
  8
7_ALL_FEATURES
  6
Continuous
 62
     7
100
AcDbLine
 10
138.4669532064
 20
108.1801247769
 30
0.0
 11
137.9879786005
 21
108.1801247769
 31
0.0
  0
LINE
  5
494
330
1B
100
AcDbEntity
 67
     1
  8
7_ALL_FEATURES
  6
Continuous
 62
     7
100
AcDbLine
 10
137.9879786005
 20
106.9045580253
 30
0.0
 11
134.2672559433
 21
106.9045580253
 31
0.0
  0
LINE
  5
495
330
1B
100
AcDbEntity
 67
     1
  8
7_ALL_FEATURES
  6
Continuous
 62
     7
100
AcDbLine
 10
134.2672559433
 20
106.3808174733
 30
0.0
 11
138.4669532064
 21
106.3808174733
 31
0.0
  0
LINE
  5
496
330
1B
100
AcDbEntity
 67
     1
  8
7_ALL_FEATURES
  6
Continuous
 62
     7
100
AcDbLine
 10
130.2807223459
 20
105.7200994315
 30
0.0
 11
139.2807266483
 21
105.7200994315
 31
0.0
  0
LINE
  5
497
330
1B
100
AcDbEntity
 67
     1
  8
7_ALL_FEATURES
  6
Continuous
 62
     7
100
AcDbLine
 10
137.8990772147
 20
110.9639676406
 30
0.0
 11
138.4671633752
 21
111.4207694422
 31
0.0
  0
SPLINE
  5
498
330
1B
100
AcDbEntity
 67
     1
  8
7_ALL_FEATURES
  6
Continuous
 62
     7
100
AcDbSpline
 70
     0
 71
     3
 72
    27
 73
    23
 74
     0
 42
0.000000001
 43
0.0000001
 40
0.0
 40
0.0
 40
0.0
 40
0.0
 40
0.0826592268
 40
0.1603008642
 40
0.1981468307
 40
0.2364637193
 40
0.2766202277
 40
0.2979198529
 40
0.3203149066
 40
0.3509540815
 40
0.3806626124
 40
0.4379687079
 40
0.493649494
 40
0.548741396
 40
0.6040186376
 40
0.6600763819
 40
0.7174352054
 40
0.7766463716
 40
0.8188766607
 40
0.8605980543
 40
0.9438647411
 40
1.0
 40
1.0
 40
1.0
 40
1.0
 10
136.20553734
 20
109.1537315614
 30
0.0
 10
136.2757872157
 20
109.0564752476
 30
0.0
 10
136.415245687
 20
108.8701209321
 30
0.0
 10
136.6200076652
 20
108.6648264499
 30
0.0
 10
136.8068106115
 20
108.5410977913
 30
0.0
 10
136.9613876332
 20
108.4712404286
 30
0.0
 10
137.1025404016
 20
108.435453865
 30
0.0
 10
137.2234727103
 20
108.4207620324
 30
0.0
 10
137.3313973048
 20
108.4166926783
 30
0.0
 10
137.4515659371
 20
108.4227242186
 30
0.0
 10
137.6205902562
 20
108.4487022227
 30
0.0
 10
137.8195545932
 20
108.511892341
 30
0.0
 10
138.0331346831
 20
108.6332694589
 30
0.0
 10
138.2154450216
 20
108.7933815575
 30
0.0
 10
138.363082419
 20
108.9864740481
 30
0.0
 10
138.4727906304
 20
109.2070155423
 30
0.0
 10
138.5409470446
 20
109.4495760961
 30
0.0
 10
138.5621141031
 20
109.6804757208
 30
0.0
 10
138.5476335588
 20
109.8884018496
 30
0.0
 10
138.4972348481
 20
110.1265055521
 30
0.0
 10
138.3940302353
 20
110.3711726449
 30
0.0
 10
138.2835438415
 20
110.5414568348
 30
0.0
 10
138.2349372411
 20
110.6069985921
 30
0.0
  0
LINE
  5
499
330
1B
100
AcDbEntity
 67
     1
  8
7_ALL_FEATURES
  6
Continuous
 62
     7
100
AcDbLine
 10
136.0161752864
 20
109.415496753
 30
0.0
 11
136.20553734
 21
109.1537315614
 31
0.0
  0
SPLINE
  5
49A
330
1B
100
AcDbEntity
 67
     1
  8
7_ALL_FEATURES
  6
Continuous
 62
     7
100
AcDbSpline
 70
     0
 71
     3
 72
     9
 73
     5
 74
     0
 42
0.000000001
 43
0.0000001
 40
0.0
 40
0.0
 40
0.0
 40
0.0
 40
0.4953598734
 40
1.0
 40
1.0
 40
1.0
 40
1.0
 10
135.0971072954
 20
108.9531254792
 30
0.0
 10
135.2700417528
 20
108.9531254792
 30
0.0
 10
135.618878254
 20
109.0687600387
 30
0.0
 10
135.8887507731
 20
109.2938399879
 30
0.0
 10
136.0161752864
 20
109.415496753
 30
0.0
  0
SPLINE
  5
49B
330
1B
100
AcDbEntity
 67
     1
  8
7_ALL_FEATURES
  6
Continuous
 62
     7
100
AcDbSpline
 70
     0
 71
     3
 72
    17
 73
    13
 74
     0
 42
0.000000001
 43
0.0000001
 40
0.0
 40
0.0
 40
0.0
 40
0.0
 40
0.1281677449
 40
0.2461327339
 40
0.3660286349
 40
0.4284999773
 40
0.4927031576
 40
0.5607602658
 40
0.6251843142
 40
0.7460608357
 40
0.8660071045
 40
1.0
 40
1.0
 40
1.0
 40
1.0
 10
135.0526566025
 20
110.8915645024
 30
0.0
 10
134.9267244703
 20
110.8915645024
 30
0.0
 10
134.6797153834
 20
110.8428934467
 30
0.0
 10
134.3881786244
 20
110.613088666
 30
0.0
 10
134.2454067927
 20
110.346503094
 30
0.0
 10
134.187697501
 20
110.1103906422
 30
0.0
 10
134.1730541425
 20
109.9188002544
 30
0.0
 10
134.1878955138
 20
109.7252218697
 30
0.0
 10
134.2476051967
 20
109.4826991091
 30
0.0
 10
134.3997024386
 20
109.2138066341
 30
0.0
 10
134.7111205036
 20
108.9952026566
 30
0.0
 10
134.96545162
 20
108.9531254792
 30
0.0
 10
135.0971072954
 20
108.9531254792
 30
0.0
  0
SPLINE
  5
49C
330
1B
100
AcDbEntity
 67
     1
  8
7_ALL_FEATURES
  6
Continuous
 62
     7
100
AcDbSpline
 70
     0
 71
     3
 72
    11
 73
     7
 74
     0
 42
0.000000001
 43
0.0000001
 40
0.0
 40
0.0
 40
0.0
 40
0.0
 40
0.2506404223
 40
0.5047200834
 40
0.7509952871
 40
1.0
 40
1.0
 40
1.0
 40
1.0
 10
136.0998224533
 20
110.1285468163
 30
0.0
 10
136.0335934059
 20
110.2192246506
 30
0.0
 10
135.8985178258
 20
110.4007184985
 30
0.0
 10
135.6688556778
 20
110.6482554671
 30
0.0
 10
135.3886084433
 20
110.8416284957
 30
0.0
 10
135.1642125115
 20
110.8915645024
 30
0.0
 10
135.0526566025
 20
110.8915645024
 30
0.0
  0
LINE
  5
49D
330
1B
100
AcDbEntity
 67
     1
  8
7_ALL_FEATURES
  6
Continuous
 62
     7
100
AcDbLine
 10
137.158022164
 20
111.0030590301
 30
0.0
 11
136.0998224533
 21
110.1285468163
 31
0.0
  0
LINE
  5
49E
330
1B
100
AcDbEntity
 67
     1
  8
7_ALL_FEATURES
  6
Continuous
 62
     7
100
AcDbLine
 10
136.5897258347
 20
111.4931725803
 30
0.0
 11
137.158022164
 21
111.0030590301
 31
0.0
  0
LINE
  5
49F
330
1B
100
AcDbEntity
 67
     1
  8
7_ALL_FEATURES
  6
Continuous
 62
     7
100
AcDbLine
 10
136.9354534463
 20
111.82734091
 30
0.0
 11
136.5897258347
 21
111.4931725803
 31
0.0
  0
LINE
  5
4A0
330
1B
100
AcDbEntity
 67
     1
  8
7_ALL_FEATURES
  6
Continuous
 62
     7
100
AcDbLine
 10
137.536746271
 20
111.3148443867
 30
0.0
 11
136.9354534463
 21
111.82734091
 31
0.0
  0
LINE
  5
4A1
330
1B
100
AcDbEntity
 67
     1
  8
7_ALL_FEATURES
  6
Continuous
 62
     7
100
AcDbLine
 10
138.4671633752
 20
112.0669332974
 30
0.0
 11
137.536746271
 21
111.3148443867
 31
0.0
  0
LINE
  5
4A2
330
1B
100
AcDbEntity
 67
     1
  8
7_ALL_FEATURES
  6
Continuous
 62
     7
100
AcDbLine
 10
138.4671633752
 20
111.4207694422
 30
0.0
 11
138.4671633752
 21
112.0669332974
 31
0.0
  0
LINE
  5
4A3
330
1B
100
AcDbEntity
 67
     1
  8
7_ALL_FEATURES
  6
Continuous
 62
     7
100
AcDbLine
 10
135.6929357323
 20
109.9001984577
 30
0.0
 11
135.7372813408
 21
109.8332597074
 31
0.0
  0
SPLINE
  5
4A4
330
1B
100
AcDbEntity
 67
     1
  8
7_ALL_FEATURES
  6
Continuous
 62
     7
100
AcDbSpline
 70
     0
 71
     3
 72
    11
 73
     7
 74
     0
 42
0.000000001
 43
0.0000001
 40
0.0
 40
0.0
 40
0.0
 40
0.0
 40
0.2504725281
 40
0.496381803
 40
0.7511071037
 40
1.0
 40
1.0
 40
1.0
 40
1.0
 10
135.0468244194
 20
110.4014509522
 30
0.0
 10
135.1176249873
 20
110.4014509522
 30
0.0
 10
135.2600218006
 20
110.3668540233
 30
0.0
 10
135.4295534121
 20
110.2334192907
 30
0.0
 10
135.5655214015
 20
110.0705062095
 30
0.0
 10
135.6493665926
 20
109.9554381476
 30
0.0
 10
135.6929357323
 20
109.9001984577
 30
0.0
  0
SPLINE
  5
4A5
330
1B
100
AcDbEntity
 67
     1
  8
7_ALL_FEATURES
  6
Continuous
 62
     7
100
AcDbSpline
 70
     0
 71
     3
 72
    10
 73
     6
 74
     0
 42
0.000000001
 43
0.0000001
 40
0.0
 40
0.0
 40
0.0
 40
0.0
 40
0.4952875374
 40
0.7322567619
 40
1.0
 40
1.0
 40
1.0
 40
1.0
 10
134.5901802443
 20
109.9111797754
 30
0.0
 10
134.5901802443
 20
110.034135573
 30
0.0
 10
134.6433240289
 20
110.2315027525
 30
0.0
 10
134.8524859723
 20
110.3806026344
 30
0.0
 10
134.9803568002
 20
110.4014509522
 30
0.0
 10
135.0468244194
 20
110.4014509522
 30
0.0
  0
SPLINE
  5
4A6
330
1B
100
AcDbEntity
 67
     1
  8
7_ALL_FEATURES
  6
Continuous
 62
     7
100
AcDbSpline
 70
     0
 71
     3
 72
    21
 73
    17
 74
     0
 42
0.000000001
 43
0.0000001
 40
0.0
 40
0.0
 40
0.0
 40
0.0
 40
0.113532822
 40
0.225675151
 40
0.2811462738
 40
0.3366967504
 40
0.3932028375
 40
0.4222309888
 40
0.45202846
 40
0.4895210857
 40
0.5257031608
 40
0.5950939447
 40
0.6621762677
 40
0.7283962835
 40
0.8614412499
 40
1.0
 40
1.0
 40
1.0
 40
1.0
 10
135.5592684004
 20
109.6941279877
 30
0.0
 10
135.5203002637
 20
109.6634238287
 30
0.0
 10
135.4431780407
 20
109.6020067089
 30
0.0
 10
135.3411419047
 20
109.5328965124
 30
0.0
 10
135.2538635089
 20
109.4890363488
 30
0.0
 10
135.1850540352
 20
109.4635411771
 30
0.0
 10
135.1246986397
 20
109.4499120925
 30
0.0
 10
135.0745791364
 20
109.4442568934
 30
0.0
 10
135.0324827186
 20
109.4426603395
 30
0.0
 10
134.987237475
 20
109.4448949516
 30
0.0
 10
134.9253714934
 20
109.4545127308
 30
0.0
 10
134.8529656704
 20
109.4778241705
 30
0.0
 10
134.7757897396
 20
109.5226196271
 30
0.0
 10
134.6887435957
 20
109.6009607904
 30
0.0
 10
134.6108688236
 20
109.7307941687
 30
0.0
 10
134.5901802443
 20
109.8506329518
 30
0.0
 10
134.5901802443
 20
109.9111797754
 30
0.0
  0
LINE
  5
4A7
330
1B
100
AcDbEntity
 67
     1
  8
7_ALL_FEATURES
  6
Continuous
 62
     7
100
AcDbLine
 10
135.7372813408
 20
109.8332597074
 30
0.0
 11
135.5592684004
 21
109.6941279877
 31
0.0
  0
LINE
  5
4A8
330
1B
100
AcDbEntity
 67
     1
  8
7_ALL_FEATURES
  6
Continuous
 62
     7
100
AcDbLine
 10
136.4283162265
 20
109.6717450146
 30
0.0
 11
136.3948993935
 21
109.7218702641
 31
0.0
  0
SPLINE
  5
4A9
330
1B
100
AcDbEntity
 67
     1
  8
7_ALL_FEATURES
  6
Continuous
 62
     7
100
AcDbSpline
 70
     0
 71
     3
 72
    11
 73
     7
 74
     0
 42
0.000000001
 43
0.0000001
 40
0.0
 40
0.0
 40
0.0
 40
0.0
 40
0.2395309727
 40
0.4285764247
 40
0.6263623505
 40
1.0
 40
1.0
 40
1.0
 40
1.0
 10
137.3139673845
 20
108.9086747863
 30
0.0
 10
137.2172228312
 20
108.9086747863
 30
0.0
 10
137.043030981
 20
108.9638502502
 30
0.0
 10
136.8447663965
 20
109.123153567
 30
0.0
 10
136.6404248142
 20
109.3539003732
 30
0.0
 10
136.5142549719
 20
109.54769626
 30
0.0
 10
136.4283162265
 20
109.6717450146
 30
0.0
  0
SPLINE
  5
4AA
330
1B
100
AcDbEntity
 67
     1
  8
7_ALL_FEATURES
  6
Continuous
 62
     7
100
AcDbSpline
 70
     0
 71
     3
 72
     9
 73
     5
 74
     0
 42
0.000000001
 43
0.0000001
 40
0.0
 40
0.0
 40
0.0
 40
0.0
 40
0.5005139184
 40
1.0
 40
1.0
 40
1.0
 40
1.0
 10
138.0884392681
 20
109.6884008889
 30
0.0
 10
138.0884392681
 20
109.4917901359
 30
0.0
 10
137.9046034225
 20
109.0967303621
 30
0.0
 10
137.5101743851
 20
108.9086747863
 30
0.0
 10
137.3139673845
 20
108.9086747863
 30
0.0
  0
SPLINE
  5
4AB
330
1B
100
AcDbEntity
 67
     1
  8
7_ALL_FEATURES
  6
Continuous
 62
     7
100
AcDbSpline
 70
     0
 71
     3
 72
    10
 73
     6
 74
     0
 42
0.000000001
 43
0.0000001
 40
0.0
 40
0.0
 40
0.0
 40
0.0
 40
0.5037044435
 40
0.7520878066
 40
1.0
 40
1.0
 40
1.0
 40
1.0
 10
137.5310717145
 20
110.6519721151
 30
0.0
 10
137.6665497166
 20
110.5166028434
 30
0.0
 10
137.8678875583
 20
110.3092994888
 30
0.0
 10
138.0517589307
 20
109.9725347459
 30
0.0
 10
138.0884392681
 20
109.7826617954
 30
0.0
 10
138.0884392681
 20
109.6884008889
 30
0.0
  0
LINE
  5
4AC
330
1B
100
AcDbEntity
 67
     1
  8
7_ALL_FEATURES
  6
Continuous
 62
     7
100
AcDbLine
 10
136.3948993935
 20
109.7218702641
 30
0.0
 11
137.5310717145
 21
110.6519721151
 31
0.0
  0
SPLINE
  5
4AD
330
1B
100
AcDbEntity
 67
     1
  8
7_ALL_FEATURES
  6
Continuous
 62
     7
100
AcDbSpline
 70
     0
 71
     3
 72
     9
 73
     5
 74
     0
 42
0.000000001
 43
0.0000001
 40
0.0
 40
0.0
 40
0.0
 40
0.0
 40
0.2491323432
 40
1.0
 40
1.0
 40
1.0
 40
1.0
 10
138.2349372411
 20
110.6069985921
 30
0.0
 10
138.2106339409
 20
110.6397694708
 30
0.0
 10
138.1089526031
 20
110.7682696022
 30
0.0
 10
137.9925492658
 20
110.8843530581
 30
0.0
 10
137.8990772147
 20
110.9639676406
 30
0.0
  0
LINE
  5
4AE
330
1B
100
AcDbEntity
 67
     1
  8
7_ALL_FEATURES
  6
Continuous
 62
     7
100
AcDbLine
 10
206.5126320912
 20
181.9520091769
 30
0.0
 11
207.3126320912
 21
181.9520091769
 31
0.0
  0
LINE
  5
4AF
330
1B
100
AcDbEntity
 67
     1
  8
7_ALL_FEATURES
  6
Continuous
 62
     7
100
AcDbLine
 10
207.3126320912
 20
181.9520091769
 30
0.0
 11
207.3126320912
 21
85.0520091769
 31
0.0
  0
LINE
  5
4B0
330
1B
100
AcDbEntity
 67
     1
  8
7_ALL_FEATURES
  6
Continuous
 62
     7
100
AcDbLine
 10
206.5126320912
 20
85.0520091769
 30
0.0
 11
207.3126320912
 21
85.0520091769
 31
0.0
  0
LINE
  5
4B1
330
1B
100
AcDbEntity
 67
     1
  8
7_ALL_FEATURES
  6
Continuous
 62
     7
100
AcDbLine
 10
110.4126320912
 20
181.9520091769
 30
0.0
 11
110.4126320912
 21
182.7520091769
 31
0.0
  0
LINE
  5
4B2
330
1B
100
AcDbEntity
 67
     1
  8
7_ALL_FEATURES
  6
Continuous
 62
     7
100
AcDbLine
 10
110.4126320912
 20
182.7520091769
 30
0.0
 11
207.3126320912
 21
182.7520091769
 31
0.0
  0
LINE
  5
4B3
330
1B
100
AcDbEntity
 67
     1
  8
7_ALL_FEATURES
  6
Continuous
 62
     7
100
AcDbLine
 10
207.3126320912
 20
181.9520091769
 30
0.0
 11
207.3126320912
 21
182.7520091769
 31
0.0
  0
LINE
  5
4B4
330
1B
100
AcDbEntity
 67
     1
  8
7_ALL_FEATURES
  6
Continuous
 62
     7
100
AcDbLine
 10
206.5126320912
 20
85.8520091769
 30
0.0
 11
206.5126320912
 21
85.0520091769
 31
0.0
  0
LINE
  5
4B5
330
1B
100
AcDbEntity
 67
     1
  8
7_ALL_FEATURES
  6
Continuous
 62
     7
100
AcDbLine
 10
206.5126320912
 20
85.0520091769
 30
0.0
 11
109.6126320912
 21
85.0520091769
 31
0.0
  0
LINE
  5
4B6
330
1B
100
AcDbEntity
 67
     1
  8
7_ALL_FEATURES
  6
Continuous
 62
     7
100
AcDbLine
 10
110.4126320912
 20
85.8520091769
 30
0.0
 11
109.6126320912
 21
85.8520091769
 31
0.0
  0
LINE
  5
4B7
330
1B
100
AcDbEntity
 67
     1
  8
7_ALL_FEATURES
  6
Continuous
 62
     7
100
AcDbLine
 10
109.6126320912
 20
85.8520091769
 30
0.0
 11
109.6126320912
 21
182.7520091769
 31
0.0
  0
LINE
  5
4B8
330
1B
100
AcDbEntity
 67
     1
  8
7_ALL_FEATURES
  6
Continuous
 62
     7
100
AcDbLine
 10
110.4126320912
 20
182.7520091769
 30
0.0
 11
109.6126320912
 21
182.7520091769
 31
0.0
  0
LINE
  5
4B9
330
1B
100
AcDbEntity
 67
     1
  8
7_ALL_FEATURES
  6
Continuous
 62
     7
100
AcDbLine
 10
109.6126320912
 20
85.8520091769
 30
0.0
 11
109.6126320912
 21
85.0520091769
 31
0.0
  0
LINE
  5
4BA
330
1B
100
AcDbEntity
 67
     1
  8
7_ALL_FEATURES
  6
Continuous
 62
     7
100
AcDbLine
 10
213.4626320912
 20
85.4020091769
 30
0.0
 11
228.4626320912
 21
95.90512225
 31
0.0
  0
LINE
  5
4BB
330
1B
100
AcDbEntity
 67
     1
  8
7_ALL_FEATURES
  6
Continuous
 62
     7
100
AcDbLine
 10
213.4626320912
 20
85.4020091769
 30
0.0
 11
207.3126320912
 21
85.4020091769
 31
0.0
  0
ARC
  5
4BC
330
1B
100
AcDbEntity
 67
     1
  8
02___PRT_ALL_AXES
  6
Continuous
 62
     7
100
AcDbCircle
 10
158.4626320912
 20
90.9020091769
 30
0.0
 40
7.0
100
AcDbArc
 50
237.5042922387
 51
302.4957077613
  0
LINE
  5
4BD
330
1B
100
AcDbEntity
 67
     1
  8
7_ALL_FEATURES
  6
Continuous
 62
     7
100
AcDbLine
 10
109.6126320912
 20
85.4020091769
 30
0.0
 11
103.4626320912
 21
85.4020091769
 31
0.0
  0
LINE
  5
4BE
330
1B
100
AcDbEntity
 67
     1
  8
7_ALL_FEATURES
  6
Continuous
 62
     7
100
AcDbLine
 10
88.4626320912
 20
95.90512225
 30
0.0
 11
103.4626320912
 21
85.4020091769
 31
0.0
  0
LINE
  5
4BF
330
1B
100
AcDbEntity
 67
     1
  8
7_ALL_FEATURES
  6
Continuous
 62
     7
100
AcDbLine
 10
88.4626320912
 20
95.90512225
 30
0.0
 11
88.4626320912
 21
171.8988961037
 31
0.0
  0
LINE
  5
4C0
330
1B
100
AcDbEntity
 67
     1
  8
7_ALL_FEATURES
  6
Continuous
 62
     7
100
AcDbLine
 10
103.4626320912
 20
182.4020091769
 30
0.0
 11
88.4626320912
 21
171.8988961037
 31
0.0
  0
LINE
  5
4C1
330
1B
100
AcDbEntity
 67
     1
  8
7_ALL_FEATURES
  6
Continuous
 62
     7
100
AcDbLine
 10
103.4626320912
 20
182.4020091769
 30
0.0
 11
109.6126320912
 21
182.4020091769
 31
0.0
  0
ARC
  5
4C2
330
1B
100
AcDbEntity
 67
     1
  8
02___PRT_ALL_AXES
  6
Continuous
 62
     7
100
AcDbCircle
 10
158.4626320912
 20
176.9020091769
 30
0.0
 40
7.0
100
AcDbArc
 50
57.5042922387
 51
122.4957077613
  0
LINE
  5
4C3
330
1B
100
AcDbEntity
 67
     1
  8
7_ALL_FEATURES
  6
Continuous
 62
     7
100
AcDbLine
 10
207.3126320912
 20
182.4020091769
 30
0.0
 11
213.4626320912
 21
182.4020091769
 31
0.0
  0
LINE
  5
4C4
330
1B
100
AcDbEntity
 67
     1
  8
7_ALL_FEATURES
  6
Continuous
 62
     7
100
AcDbLine
 10
228.4626320912
 20
171.8988961037
 30
0.0
 11
213.4626320912
 21
182.4020091769
 31
0.0
  0
LINE
  5
4C5
330
1B
100
AcDbEntity
 67
     1
  8
7_ALL_FEATURES
  6
Continuous
 62
     7
100
AcDbLine
 10
228.4626320912
 20
171.8988961037
 30
0.0
 11
228.4626320912
 21
95.90512225
 31
0.0
  0
ARC
  5
4C6
330
1B
100
AcDbEntity
 67
     1
  8
02___PRT_ALL_AXES
  6
Continuous
 62
     7
100
AcDbCircle
 10
220.4626320912
 20
133.9020091769
 30
0.0
 40
1.0
100
AcDbArc
 50
0.0
 51
180.0
  0
ARC
  5
4C7
330
1B
100
AcDbEntity
 67
     1
  8
02___PRT_ALL_AXES
  6
Continuous
 62
     7
100
AcDbCircle
 10
220.4626320912
 20
133.9020091769
 30
0.0
 40
1.0
100
AcDbArc
 50
180.0
 51
360.0
  0
ARC
  5
4C8
330
1B
100
AcDbEntity
 67
     1
  8
02___PRT_ALL_AXES
  6
Continuous
 62
     7
100
AcDbCircle
 10
220.4626320912
 20
129.9020091769
 30
0.0
 40
1.0
100
AcDbArc
 50
0.0
 51
180.0
  0
ARC
  5
4C9
330
1B
100
AcDbEntity
 67
     1
  8
02___PRT_ALL_AXES
  6
Continuous
 62
     7
100
AcDbCircle
 10
220.4626320912
 20
129.9020091769
 30
0.0
 40
1.0
100
AcDbArc
 50
180.0
 51
360.0
  0
ARC
  5
4CA
330
1B
100
AcDbEntity
 67
     1
  8
02___PRT_ALL_AXES
  6
Continuous
 62
     7
100
AcDbCircle
 10
223.9267337064
 20
131.9020091769
 30
0.0
 40
1.0
100
AcDbArc
 50
0.0
 51
180.0
  0
ARC
  5
4CB
330
1B
100
AcDbEntity
 67
     1
  8
02___PRT_ALL_AXES
  6
Continuous
 62
     7
100
AcDbCircle
 10
223.9267337064
 20
131.9020091769
 30
0.0
 40
1.0
100
AcDbArc
 50
180.0
 51
360.0
  0
ARC
  5
4CC
330
1B
100
AcDbEntity
 67
     1
  8
02___PRT_ALL_AXES
  6
Continuous
 62
     7
100
AcDbCircle
 10
223.9267337064
 20
135.9020091769
 30
0.0
 40
1.0
100
AcDbArc
 50
0.0
 51
180.0
  0
ARC
  5
4CD
330
1B
100
AcDbEntity
 67
     1
  8
02___PRT_ALL_AXES
  6
Continuous
 62
     7
100
AcDbCircle
 10
223.9267337064
 20
135.9020091769
 30
0.0
 40
1.0
100
AcDbArc
 50
180.0
 51
360.0
  0
ARC
  5
4CE
330
1B
100
AcDbEntity
 67
     1
  8
02___PRT_ALL_AXES
  6
Continuous
 62
     7
100
AcDbCircle
 10
220.4626320912
 20
137.9020091769
 30
0.0
 40
1.0
100
AcDbArc
 50
0.0
 51
180.0
  0
ARC
  5
4CF
330
1B
100
AcDbEntity
 67
     1
  8
02___PRT_ALL_AXES
  6
Continuous
 62
     7
100
AcDbCircle
 10
220.4626320912
 20
137.9020091769
 30
0.0
 40
1.0
100
AcDbArc
 50
180.0
 51
360.0
  0
ARC
  5
4D0
330
1B
100
AcDbEntity
 67
     1
  8
02___PRT_ALL_AXES
  6
Continuous
 62
     7
100
AcDbCircle
 10
216.9985304761
 20
135.9020091769
 30
0.0
 40
1.0
100
AcDbArc
 50
0.0
 51
180.0
  0
ARC
  5
4D1
330
1B
100
AcDbEntity
 67
     1
  8
02___PRT_ALL_AXES
  6
Continuous
 62
     7
100
AcDbCircle
 10
216.9985304761
 20
135.9020091769
 30
0.0
 40
1.0
100
AcDbArc
 50
180.0
 51
360.0
  0
ARC
  5
4D2
330
1B
100
AcDbEntity
 67
     1
  8
02___PRT_ALL_AXES
  6
Continuous
 62
     7
100
AcDbCircle
 10
216.9985304761
 20
131.9020091769
 30
0.0
 40
1.0
100
AcDbArc
 50
0.0
 51
180.0
  0
ARC
  5
4D3
330
1B
100
AcDbEntity
 67
     1
  8
02___PRT_ALL_AXES
  6
Continuous
 62
     7
100
AcDbCircle
 10
216.9985304761
 20
131.9020091769
 30
0.0
 40
1.0
100
AcDbArc
 50
180.0
 51
360.0
  0
ARC
  5
4D4
330
1B
100
AcDbEntity
 67
     1
  8
02___PRT_ALL_AXES
  6
Continuous
 62
     7
100
AcDbCircle
 10
220.4626320912
 20
125.9020091769
 30
0.0
 40
1.0
100
AcDbArc
 50
0.0
 51
180.0
  0
ARC
  5
4D5
330
1B
100
AcDbEntity
 67
     1
  8
02___PRT_ALL_AXES
  6
Continuous
 62
     7
100
AcDbCircle
 10
220.4626320912
 20
125.9020091769
 30
0.0
 40
1.0
100
AcDbArc
 50
180.0
 51
360.0
  0
ARC
  5
4D6
330
1B
100
AcDbEntity
 67
     1
  8
02___PRT_ALL_AXES
  6
Continuous
 62
     7
100
AcDbCircle
 10
223.9267337064
 20
127.9020091769
 30
0.0
 40
1.0
100
AcDbArc
 50
0.0
 51
180.0
  0
ARC
  5
4D7
330
1B
100
AcDbEntity
 67
     1
  8
02___PRT_ALL_AXES
  6
Continuous
 62
     7
100
AcDbCircle
 10
223.9267337064
 20
127.9020091769
 30
0.0
 40
1.0
100
AcDbArc
 50
180.0
 51
360.0
  0
ARC
  5
4D8
330
1B
100
AcDbEntity
 67
     1
  8
02___PRT_ALL_AXES
  6
Continuous
 62
     7
100
AcDbCircle
 10
223.9267337064
 20
139.9020091769
 30
0.0
 40
1.0
100
AcDbArc
 50
0.0
 51
180.0
  0
ARC
  5
4D9
330
1B
100
AcDbEntity
 67
     1
  8
02___PRT_ALL_AXES
  6
Continuous
 62
     7
100
AcDbCircle
 10
223.9267337064
 20
139.9020091769
 30
0.0
 40
1.0
100
AcDbArc
 50
180.0
 51
360.0
  0
ARC
  5
4DA
330
1B
100
AcDbEntity
 67
     1
  8
02___PRT_ALL_AXES
  6
Continuous
 62
     7
100
AcDbCircle
 10
220.4626320912
 20
141.9020091769
 30
0.0
 40
1.0
100
AcDbArc
 50
0.0
 51
180.0
  0
ARC
  5
4DB
330
1B
100
AcDbEntity
 67
     1
  8
02___PRT_ALL_AXES
  6
Continuous
 62
     7
100
AcDbCircle
 10
220.4626320912
 20
141.9020091769
 30
0.0
 40
1.0
100
AcDbArc
 50
180.0
 51
360.0
  0
ARC
  5
4DC
330
1B
100
AcDbEntity
 67
     1
  8
02___PRT_ALL_AXES
  6
Continuous
 62
     7
100
AcDbCircle
 10
216.9985304761
 20
139.9020091769
 30
0.0
 40
1.0
100
AcDbArc
 50
0.0
 51
180.0
  0
ARC
  5
4DD
330
1B
100
AcDbEntity
 67
     1
  8
02___PRT_ALL_AXES
  6
Continuous
 62
     7
100
AcDbCircle
 10
216.9985304761
 20
139.9020091769
 30
0.0
 40
1.0
100
AcDbArc
 50
180.0
 51
360.0
  0
ARC
  5
4DE
330
1B
100
AcDbEntity
 67
     1
  8
02___PRT_ALL_AXES
  6
Continuous
 62
     7
100
AcDbCircle
 10
213.5344288609
 20
137.9020091769
 30
0.0
 40
1.0
100
AcDbArc
 50
0.0
 51
180.0
  0
ARC
  5
4DF
330
1B
100
AcDbEntity
 67
     1
  8
02___PRT_ALL_AXES
  6
Continuous
 62
     7
100
AcDbCircle
 10
213.5344288609
 20
137.9020091769
 30
0.0
 40
1.0
100
AcDbArc
 50
180.0
 51
360.0
  0
ARC
  5
4E0
330
1B
100
AcDbEntity
 67
     1
  8
02___PRT_ALL_AXES
  6
Continuous
 62
     7
100
AcDbCircle
 10
213.5344288609
 20
133.9020091769
 30
0.0
 40
1.0
100
AcDbArc
 50
0.0
 51
180.0
  0
ARC
  5
4E1
330
1B
100
AcDbEntity
 67
     1
  8
02___PRT_ALL_AXES
  6
Continuous
 62
     7
100
AcDbCircle
 10
213.5344288609
 20
133.9020091769
 30
0.0
 40
1.0
100
AcDbArc
 50
180.0
 51
360.0
  0
ARC
  5
4E2
330
1B
100
AcDbEntity
 67
     1
  8
02___PRT_ALL_AXES
  6
Continuous
 62
     7
100
AcDbCircle
 10
213.5344288609
 20
129.9020091769
 30
0.0
 40
1.0
100
AcDbArc
 50
0.0
 51
180.0
  0
ARC
  5
4E3
330
1B
100
AcDbEntity
 67
     1
  8
02___PRT_ALL_AXES
  6
Continuous
 62
     7
100
AcDbCircle
 10
213.5344288609
 20
129.9020091769
 30
0.0
 40
1.0
100
AcDbArc
 50
180.0
 51
360.0
  0
ARC
  5
4E4
330
1B
100
AcDbEntity
 67
     1
  8
02___PRT_ALL_AXES
  6
Continuous
 62
     7
100
AcDbCircle
 10
216.9985304761
 20
127.9020091769
 30
0.0
 40
1.0
100
AcDbArc
 50
0.0
 51
180.0
  0
ARC
  5
4E5
330
1B
100
AcDbEntity
 67
     1
  8
02___PRT_ALL_AXES
  6
Continuous
 62
     7
100
AcDbCircle
 10
216.9985304761
 20
127.9020091769
 30
0.0
 40
1.0
100
AcDbArc
 50
180.0
 51
360.0
  0
ARC
  5
4E6
330
1B
100
AcDbEntity
 67
     1
  8
02___PRT_ALL_AXES
  6
Continuous
 62
     7
100
AcDbCircle
 10
213.5344288609
 20
141.9020091769
 30
0.0
 40
1.0
100
AcDbArc
 50
0.0
 51
180.0
  0
ARC
  5
4E7
330
1B
100
AcDbEntity
 67
     1
  8
02___PRT_ALL_AXES
  6
Continuous
 62
     7
100
AcDbCircle
 10
213.5344288609
 20
141.9020091769
 30
0.0
 40
1.0
100
AcDbArc
 50
180.0
 51
360.0
  0
ARC
  5
4E8
330
1B
100
AcDbEntity
 67
     1
  8
02___PRT_ALL_AXES
  6
Continuous
 62
     7
100
AcDbCircle
 10
213.5344288609
 20
125.9020091769
 30
0.0
 40
1.0
100
AcDbArc
 50
0.0
 51
180.0
  0
ARC
  5
4E9
330
1B
100
AcDbEntity
 67
     1
  8
02___PRT_ALL_AXES
  6
Continuous
 62
     7
100
AcDbCircle
 10
213.5344288609
 20
125.9020091769
 30
0.0
 40
1.0
100
AcDbArc
 50
180.0
 51
360.0
  0
ARC
  5
4EA
330
1B
100
AcDbEntity
 67
     1
  8
02___PRT_ALL_AXES
  6
Continuous
 62
     7
100
AcDbCircle
 10
220.4626320912
 20
105.9020091769
 30
0.0
 40
1.0
100
AcDbArc
 50
0.0
 51
180.0
  0
ARC
  5
4EB
330
1B
100
AcDbEntity
 67
     1
  8
02___PRT_ALL_AXES
  6
Continuous
 62
     7
100
AcDbCircle
 10
220.4626320912
 20
105.9020091769
 30
0.0
 40
1.0
100
AcDbArc
 50
180.0
 51
360.0
  0
ARC
  5
4EC
330
1B
100
AcDbEntity
 67
     1
  8
02___PRT_ALL_AXES
  6
Continuous
 62
     7
100
AcDbCircle
 10
223.9267337064
 20
107.9020091769
 30
0.0
 40
1.0
100
AcDbArc
 50
0.0
 51
180.0
  0
ARC
  5
4ED
330
1B
100
AcDbEntity
 67
     1
  8
02___PRT_ALL_AXES
  6
Continuous
 62
     7
100
AcDbCircle
 10
223.9267337064
 20
107.9020091769
 30
0.0
 40
1.0
100
AcDbArc
 50
180.0
 51
360.0
  0
ARC
  5
4EE
330
1B
100
AcDbEntity
 67
     1
  8
02___PRT_ALL_AXES
  6
Continuous
 62
     7
100
AcDbCircle
 10
223.9267337064
 20
159.9020091769
 30
0.0
 40
1.0
100
AcDbArc
 50
0.0
 51
180.0
  0
ARC
  5
4EF
330
1B
100
AcDbEntity
 67
     1
  8
02___PRT_ALL_AXES
  6
Continuous
 62
     7
100
AcDbCircle
 10
223.9267337064
 20
159.9020091769
 30
0.0
 40
1.0
100
AcDbArc
 50
180.0
 51
360.0
  0
ARC
  5
4F0
330
1B
100
AcDbEntity
 67
     1
  8
02___PRT_ALL_AXES
  6
Continuous
 62
     7
100
AcDbCircle
 10
220.4626320912
 20
161.9020091769
 30
0.0
 40
1.0
100
AcDbArc
 50
0.0
 51
180.0
  0
ARC
  5
4F1
330
1B
100
AcDbEntity
 67
     1
  8
02___PRT_ALL_AXES
  6
Continuous
 62
     7
100
AcDbCircle
 10
220.4626320912
 20
161.9020091769
 30
0.0
 40
1.0
100
AcDbArc
 50
180.0
 51
360.0
  0
ARC
  5
4F2
330
1B
100
AcDbEntity
 67
     1
  8
02___PRT_ALL_AXES
  6
Continuous
 62
     7
100
AcDbCircle
 10
216.9985304761
 20
159.9020091769
 30
0.0
 40
1.0
100
AcDbArc
 50
0.0
 51
180.0
  0
ARC
  5
4F3
330
1B
100
AcDbEntity
 67
     1
  8
02___PRT_ALL_AXES
  6
Continuous
 62
     7
100
AcDbCircle
 10
216.9985304761
 20
159.9020091769
 30
0.0
 40
1.0
100
AcDbArc
 50
180.0
 51
360.0
  0
ARC
  5
4F4
330
1B
100
AcDbEntity
 67
     1
  8
02___PRT_ALL_AXES
  6
Continuous
 62
     7
100
AcDbCircle
 10
216.9985304761
 20
107.9020091769
 30
0.0
 40
1.0
100
AcDbArc
 50
0.0
 51
180.0
  0
ARC
  5
4F5
330
1B
100
AcDbEntity
 67
     1
  8
02___PRT_ALL_AXES
  6
Continuous
 62
     7
100
AcDbCircle
 10
216.9985304761
 20
107.9020091769
 30
0.0
 40
1.0
100
AcDbArc
 50
180.0
 51
360.0
  0
ARC
  5
4F6
330
1B
100
AcDbEntity
 67
     1
  8
02___PRT_ALL_AXES
  6
Continuous
 62
     7
100
AcDbCircle
 10
220.4626320912
 20
101.9020091769
 30
0.0
 40
1.0
100
AcDbArc
 50
0.0
 51
180.0
  0
ARC
  5
4F7
330
1B
100
AcDbEntity
 67
     1
  8
02___PRT_ALL_AXES
  6
Continuous
 62
     7
100
AcDbCircle
 10
220.4626320912
 20
101.9020091769
 30
0.0
 40
1.0
100
AcDbArc
 50
180.0
 51
360.0
  0
ARC
  5
4F8
330
1B
100
AcDbEntity
 67
     1
  8
02___PRT_ALL_AXES
  6
Continuous
 62
     7
100
AcDbCircle
 10
223.9267337064
 20
103.9020091769
 30
0.0
 40
1.0
100
AcDbArc
 50
0.0
 51
180.0
  0
ARC
  5
4F9
330
1B
100
AcDbEntity
 67
     1
  8
02___PRT_ALL_AXES
  6
Continuous
 62
     7
100
AcDbCircle
 10
223.9267337064
 20
103.9020091769
 30
0.0
 40
1.0
100
AcDbArc
 50
180.0
 51
360.0
  0
ARC
  5
4FA
330
1B
100
AcDbEntity
 67
     1
  8
02___PRT_ALL_AXES
  6
Continuous
 62
     7
100
AcDbCircle
 10
223.9267337064
 20
163.9020091769
 30
0.0
 40
1.0
100
AcDbArc
 50
0.0
 51
180.0
  0
ARC
  5
4FB
330
1B
100
AcDbEntity
 67
     1
  8
02___PRT_ALL_AXES
  6
Continuous
 62
     7
100
AcDbCircle
 10
223.9267337064
 20
163.9020091769
 30
0.0
 40
1.0
100
AcDbArc
 50
180.0
 51
360.0
  0
ARC
  5
4FC
330
1B
100
AcDbEntity
 67
     1
  8
02___PRT_ALL_AXES
  6
Continuous
 62
     7
100
AcDbCircle
 10
220.4626320912
 20
165.9020091769
 30
0.0
 40
1.0
100
AcDbArc
 50
0.0
 51
180.0
  0
ARC
  5
4FD
330
1B
100
AcDbEntity
 67
     1
  8
02___PRT_ALL_AXES
  6
Continuous
 62
     7
100
AcDbCircle
 10
220.4626320912
 20
165.9020091769
 30
0.0
 40
1.0
100
AcDbArc
 50
180.0
 51
360.0
  0
ARC
  5
4FE
330
1B
100
AcDbEntity
 67
     1
  8
02___PRT_ALL_AXES
  6
Continuous
 62
     7
100
AcDbCircle
 10
216.9985304761
 20
163.9020091769
 30
0.0
 40
1.0
100
AcDbArc
 50
0.0
 51
180.0
  0
ARC
  5
4FF
330
1B
100
AcDbEntity
 67
     1
  8
02___PRT_ALL_AXES
  6
Continuous
 62
     7
100
AcDbCircle
 10
216.9985304761
 20
163.9020091769
 30
0.0
 40
1.0
100
AcDbArc
 50
180.0
 51
360.0
  0
ARC
  5
500
330
1B
100
AcDbEntity
 67
     1
  8
02___PRT_ALL_AXES
  6
Continuous
 62
     7
100
AcDbCircle
 10
213.5344288609
 20
161.9020091769
 30
0.0
 40
1.0
100
AcDbArc
 50
0.0
 51
180.0
  0
ARC
  5
501
330
1B
100
AcDbEntity
 67
     1
  8
02___PRT_ALL_AXES
  6
Continuous
 62
     7
100
AcDbCircle
 10
213.5344288609
 20
161.9020091769
 30
0.0
 40
1.0
100
AcDbArc
 50
180.0
 51
360.0
  0
ARC
  5
502
330
1B
100
AcDbEntity
 67
     1
  8
02___PRT_ALL_AXES
  6
Continuous
 62
     7
100
AcDbCircle
 10
213.5344288609
 20
105.9020091769
 30
0.0
 40
1.0
100
AcDbArc
 50
0.0
 51
180.0
  0
ARC
  5
503
330
1B
100
AcDbEntity
 67
     1
  8
02___PRT_ALL_AXES
  6
Continuous
 62
     7
100
AcDbCircle
 10
213.5344288609
 20
105.9020091769
 30
0.0
 40
1.0
100
AcDbArc
 50
180.0
 51
360.0
  0
ARC
  5
504
330
1B
100
AcDbEntity
 67
     1
  8
02___PRT_ALL_AXES
  6
Continuous
 62
     7
100
AcDbCircle
 10
216.9985304761
 20
103.9020091769
 30
0.0
 40
1.0
100
AcDbArc
 50
0.0
 51
180.0
  0
ARC
  5
505
330
1B
100
AcDbEntity
 67
     1
  8
02___PRT_ALL_AXES
  6
Continuous
 62
     7
100
AcDbCircle
 10
216.9985304761
 20
103.9020091769
 30
0.0
 40
1.0
100
AcDbArc
 50
180.0
 51
360.0
  0
ARC
  5
506
330
1B
100
AcDbEntity
 67
     1
  8
02___PRT_ALL_AXES
  6
Continuous
 62
     7
100
AcDbCircle
 10
220.4626320912
 20
97.9020091769
 30
0.0
 40
1.0
100
AcDbArc
 50
0.0
 51
180.0
  0
ARC
  5
507
330
1B
100
AcDbEntity
 67
     1
  8
02___PRT_ALL_AXES
  6
Continuous
 62
     7
100
AcDbCircle
 10
220.4626320912
 20
97.9020091769
 30
0.0
 40
1.0
100
AcDbArc
 50
180.0
 51
360.0
  0
ARC
  5
508
330
1B
100
AcDbEntity
 67
     1
  8
02___PRT_ALL_AXES
  6
Continuous
 62
     7
100
AcDbCircle
 10
223.9267337064
 20
99.9020091769
 30
0.0
 40
1.0
100
AcDbArc
 50
0.0
 51
180.0
  0
ARC
  5
509
330
1B
100
AcDbEntity
 67
     1
  8
02___PRT_ALL_AXES
  6
Continuous
 62
     7
100
AcDbCircle
 10
223.9267337064
 20
99.9020091769
 30
0.0
 40
1.0
100
AcDbArc
 50
180.0
 51
360.0
  0
ARC
  5
50A
330
1B
100
AcDbEntity
 67
     1
  8
02___PRT_ALL_AXES
  6
Continuous
 62
     7
100
AcDbCircle
 10
223.9267337064
 20
167.9020091769
 30
0.0
 40
1.0
100
AcDbArc
 50
0.0
 51
180.0
  0
ARC
  5
50B
330
1B
100
AcDbEntity
 67
     1
  8
02___PRT_ALL_AXES
  6
Continuous
 62
     7
100
AcDbCircle
 10
223.9267337064
 20
167.9020091769
 30
0.0
 40
1.0
100
AcDbArc
 50
180.0
 51
360.0
  0
ARC
  5
50C
330
1B
100
AcDbEntity
 67
     1
  8
02___PRT_ALL_AXES
  6
Continuous
 62
     7
100
AcDbCircle
 10
220.4626320912
 20
169.9020091769
 30
0.0
 40
1.0
100
AcDbArc
 50
0.0
 51
180.0
  0
ARC
  5
50D
330
1B
100
AcDbEntity
 67
     1
  8
02___PRT_ALL_AXES
  6
Continuous
 62
     7
100
AcDbCircle
 10
220.4626320912
 20
169.9020091769
 30
0.0
 40
1.0
100
AcDbArc
 50
180.0
 51
360.0
  0
ARC
  5
50E
330
1B
100
AcDbEntity
 67
     1
  8
02___PRT_ALL_AXES
  6
Continuous
 62
     7
100
AcDbCircle
 10
216.9985304761
 20
167.9020091769
 30
0.0
 40
1.0
100
AcDbArc
 50
0.0
 51
180.0
  0
ARC
  5
50F
330
1B
100
AcDbEntity
 67
     1
  8
02___PRT_ALL_AXES
  6
Continuous
 62
     7
100
AcDbCircle
 10
216.9985304761
 20
167.9020091769
 30
0.0
 40
1.0
100
AcDbArc
 50
180.0
 51
360.0
  0
ARC
  5
510
330
1B
100
AcDbEntity
 67
     1
  8
02___PRT_ALL_AXES
  6
Continuous
 62
     7
100
AcDbCircle
 10
213.5344288609
 20
165.9020091769
 30
0.0
 40
1.0
100
AcDbArc
 50
0.0
 51
180.0
  0
ARC
  5
511
330
1B
100
AcDbEntity
 67
     1
  8
02___PRT_ALL_AXES
  6
Continuous
 62
     7
100
AcDbCircle
 10
213.5344288609
 20
165.9020091769
 30
0.0
 40
1.0
100
AcDbArc
 50
180.0
 51
360.0
  0
ARC
  5
512
330
1B
100
AcDbEntity
 67
     1
  8
02___PRT_ALL_AXES
  6
Continuous
 62
     7
100
AcDbCircle
 10
213.5344288609
 20
101.9020091769
 30
0.0
 40
1.0
100
AcDbArc
 50
0.0
 51
180.0
  0
ARC
  5
513
330
1B
100
AcDbEntity
 67
     1
  8
02___PRT_ALL_AXES
  6
Continuous
 62
     7
100
AcDbCircle
 10
213.5344288609
 20
101.9020091769
 30
0.0
 40
1.0
100
AcDbArc
 50
180.0
 51
360.0
  0
ARC
  5
514
330
1B
100
AcDbEntity
 67
     1
  8
02___PRT_ALL_AXES
  6
Continuous
 62
     7
100
AcDbCircle
 10
216.9985304761
 20
99.9020091769
 30
0.0
 40
1.0
100
AcDbArc
 50
0.0
 51
180.0
  0
ARC
  5
515
330
1B
100
AcDbEntity
 67
     1
  8
02___PRT_ALL_AXES
  6
Continuous
 62
     7
100
AcDbCircle
 10
216.9985304761
 20
99.9020091769
 30
0.0
 40
1.0
100
AcDbArc
 50
180.0
 51
360.0
  0
ARC
  5
516
330
1B
100
AcDbEntity
 67
     1
  8
02___PRT_ALL_AXES
  6
Continuous
 62
     7
100
AcDbCircle
 10
216.9985304761
 20
171.9020091769
 30
0.0
 40
1.0
100
AcDbArc
 50
0.0
 51
180.0
  0
ARC
  5
517
330
1B
100
AcDbEntity
 67
     1
  8
02___PRT_ALL_AXES
  6
Continuous
 62
     7
100
AcDbCircle
 10
216.9985304761
 20
171.9020091769
 30
0.0
 40
1.0
100
AcDbArc
 50
180.0
 51
360.0
  0
ARC
  5
518
330
1B
100
AcDbEntity
 67
     1
  8
02___PRT_ALL_AXES
  6
Continuous
 62
     7
100
AcDbCircle
 10
213.5344288609
 20
169.9020091769
 30
0.0
 40
1.0
100
AcDbArc
 50
0.0
 51
180.0
  0
ARC
  5
519
330
1B
100
AcDbEntity
 67
     1
  8
02___PRT_ALL_AXES
  6
Continuous
 62
     7
100
AcDbCircle
 10
213.5344288609
 20
169.9020091769
 30
0.0
 40
1.0
100
AcDbArc
 50
180.0
 51
360.0
  0
ARC
  5
51A
330
1B
100
AcDbEntity
 67
     1
  8
02___PRT_ALL_AXES
  6
Continuous
 62
     7
100
AcDbCircle
 10
213.5344288609
 20
97.9020091769
 30
0.0
 40
1.0
100
AcDbArc
 50
0.0
 51
180.0
  0
ARC
  5
51B
330
1B
100
AcDbEntity
 67
     1
  8
02___PRT_ALL_AXES
  6
Continuous
 62
     7
100
AcDbCircle
 10
213.5344288609
 20
97.9020091769
 30
0.0
 40
1.0
100
AcDbArc
 50
180.0
 51
360.0
  0
ARC
  5
51C
330
1B
100
AcDbEntity
 67
     1
  8
02___PRT_ALL_AXES
  6
Continuous
 62
     7
100
AcDbCircle
 10
216.9985304761
 20
95.9020091769
 30
0.0
 40
1.0
100
AcDbArc
 50
0.0
 51
180.0
  0
ARC
  5
51D
330
1B
100
AcDbEntity
 67
     1
  8
02___PRT_ALL_AXES
  6
Continuous
 62
     7
100
AcDbCircle
 10
216.9985304761
 20
95.9020091769
 30
0.0
 40
1.0
100
AcDbArc
 50
180.0
 51
360.0
  0
ARC
  5
51E
330
1B
100
AcDbEntity
 67
     1
  8
02___PRT_ALL_AXES
  6
Continuous
 62
     7
100
AcDbCircle
 10
213.5344288609
 20
173.9020091769
 30
0.0
 40
1.0
100
AcDbArc
 50
0.0
 51
180.0
  0
ARC
  5
51F
330
1B
100
AcDbEntity
 67
     1
  8
02___PRT_ALL_AXES
  6
Continuous
 62
     7
100
AcDbCircle
 10
213.5344288609
 20
173.9020091769
 30
0.0
 40
1.0
100
AcDbArc
 50
180.0
 51
360.0
  0
ARC
  5
520
330
1B
100
AcDbEntity
 67
     1
  8
02___PRT_ALL_AXES
  6
Continuous
 62
     7
100
AcDbCircle
 10
213.5344288609
 20
93.9020091769
 30
0.0
 40
1.0
100
AcDbArc
 50
0.0
 51
180.0
  0
ARC
  5
521
330
1B
100
AcDbEntity
 67
     1
  8
02___PRT_ALL_AXES
  6
Continuous
 62
     7
100
AcDbCircle
 10
213.5344288609
 20
93.9020091769
 30
0.0
 40
1.0
100
AcDbArc
 50
180.0
 51
360.0
  0
ARC
  5
522
330
1B
100
AcDbEntity
 67
     1
  8
02___PRT_ALL_AXES
  6
Continuous
 62
     7
100
AcDbCircle
 10
102.6831771765
 20
173.9020091769
 30
0.0
 40
1.0
100
AcDbArc
 50
0.0
 51
180.0
  0
ARC
  5
523
330
1B
100
AcDbEntity
 67
     1
  8
02___PRT_ALL_AXES
  6
Continuous
 62
     7
100
AcDbCircle
 10
102.6831771765
 20
173.9020091769
 30
0.0
 40
1.0
100
AcDbArc
 50
180.0
 51
360.0
  0
ARC
  5
524
330
1B
100
AcDbEntity
 67
     1
  8
02___PRT_ALL_AXES
  6
Continuous
 62
     7
100
AcDbCircle
 10
102.6831771765
 20
169.9020091769
 30
0.0
 40
1.0
100
AcDbArc
 50
0.0
 51
180.0
  0
ARC
  5
525
330
1B
100
AcDbEntity
 67
     1
  8
02___PRT_ALL_AXES
  6
Continuous
 62
     7
100
AcDbCircle
 10
102.6831771765
 20
169.9020091769
 30
0.0
 40
1.0
100
AcDbArc
 50
180.0
 51
360.0
  0
ARC
  5
526
330
1B
100
AcDbEntity
 67
     1
  8
02___PRT_ALL_AXES
  6
Continuous
 62
     7
100
AcDbCircle
 10
102.6831771765
 20
165.9020091769
 30
0.0
 40
1.0
100
AcDbArc
 50
0.0
 51
180.0
  0
ARC
  5
527
330
1B
100
AcDbEntity
 67
     1
  8
02___PRT_ALL_AXES
  6
Continuous
 62
     7
100
AcDbCircle
 10
102.6831771765
 20
165.9020091769
 30
0.0
 40
1.0
100
AcDbArc
 50
180.0
 51
360.0
  0
ARC
  5
528
330
1B
100
AcDbEntity
 67
     1
  8
02___PRT_ALL_AXES
  6
Continuous
 62
     7
100
AcDbCircle
 10
102.6831771765
 20
161.9020091769
 30
0.0
 40
1.0
100
AcDbArc
 50
0.0
 51
180.0
  0
ARC
  5
529
330
1B
100
AcDbEntity
 67
     1
  8
02___PRT_ALL_AXES
  6
Continuous
 62
     7
100
AcDbCircle
 10
102.6831771765
 20
161.9020091769
 30
0.0
 40
1.0
100
AcDbArc
 50
180.0
 51
360.0
  0
ARC
  5
52A
330
1B
100
AcDbEntity
 67
     1
  8
02___PRT_ALL_AXES
  6
Continuous
 62
     7
100
AcDbCircle
 10
102.6831771765
 20
141.9020091769
 30
0.0
 40
1.0
100
AcDbArc
 50
0.0
 51
180.0
  0
ARC
  5
52B
330
1B
100
AcDbEntity
 67
     1
  8
02___PRT_ALL_AXES
  6
Continuous
 62
     7
100
AcDbCircle
 10
102.6831771765
 20
141.9020091769
 30
0.0
 40
1.0
100
AcDbArc
 50
180.0
 51
360.0
  0
ARC
  5
52C
330
1B
100
AcDbEntity
 67
     1
  8
02___PRT_ALL_AXES
  6
Continuous
 62
     7
100
AcDbCircle
 10
102.6831771765
 20
137.9020091769
 30
0.0
 40
1.0
100
AcDbArc
 50
0.0
 51
180.0
  0
ARC
  5
52D
330
1B
100
AcDbEntity
 67
     1
  8
02___PRT_ALL_AXES
  6
Continuous
 62
     7
100
AcDbCircle
 10
102.6831771765
 20
137.9020091769
 30
0.0
 40
1.0
100
AcDbArc
 50
180.0
 51
360.0
  0
ARC
  5
52E
330
1B
100
AcDbEntity
 67
     1
  8
02___PRT_ALL_AXES
  6
Continuous
 62
     7
100
AcDbCircle
 10
102.6831771765
 20
133.9020091769
 30
0.0
 40
1.0
100
AcDbArc
 50
0.0
 51
180.0
  0
ARC
  5
52F
330
1B
100
AcDbEntity
 67
     1
  8
02___PRT_ALL_AXES
  6
Continuous
 62
     7
100
AcDbCircle
 10
102.6831771765
 20
133.9020091769
 30
0.0
 40
1.0
100
AcDbArc
 50
180.0
 51
360.0
  0
ARC
  5
530
330
1B
100
AcDbEntity
 67
     1
  8
02___PRT_ALL_AXES
  6
Continuous
 62
     7
100
AcDbCircle
 10
102.6831771765
 20
129.9020091769
 30
0.0
 40
1.0
100
AcDbArc
 50
0.0
 51
180.0
  0
ARC
  5
531
330
1B
100
AcDbEntity
 67
     1
  8
02___PRT_ALL_AXES
  6
Continuous
 62
     7
100
AcDbCircle
 10
102.6831771765
 20
129.9020091769
 30
0.0
 40
1.0
100
AcDbArc
 50
180.0
 51
360.0
  0
ARC
  5
532
330
1B
100
AcDbEntity
 67
     1
  8
02___PRT_ALL_AXES
  6
Continuous
 62
     7
100
AcDbCircle
 10
102.6831771765
 20
125.9020091769
 30
0.0
 40
1.0
100
AcDbArc
 50
0.0
 51
180.0
  0
ARC
  5
533
330
1B
100
AcDbEntity
 67
     1
  8
02___PRT_ALL_AXES
  6
Continuous
 62
     7
100
AcDbCircle
 10
102.6831771765
 20
125.9020091769
 30
0.0
 40
1.0
100
AcDbArc
 50
180.0
 51
360.0
  0
ARC
  5
534
330
1B
100
AcDbEntity
 67
     1
  8
02___PRT_ALL_AXES
  6
Continuous
 62
     7
100
AcDbCircle
 10
102.6831771765
 20
105.9020091769
 30
0.0
 40
1.0
100
AcDbArc
 50
0.0
 51
180.0
  0
ARC
  5
535
330
1B
100
AcDbEntity
 67
     1
  8
02___PRT_ALL_AXES
  6
Continuous
 62
     7
100
AcDbCircle
 10
102.6831771765
 20
105.9020091769
 30
0.0
 40
1.0
100
AcDbArc
 50
180.0
 51
360.0
  0
ARC
  5
536
330
1B
100
AcDbEntity
 67
     1
  8
02___PRT_ALL_AXES
  6
Continuous
 62
     7
100
AcDbCircle
 10
102.6831771765
 20
101.9020091769
 30
0.0
 40
1.0
100
AcDbArc
 50
0.0
 51
180.0
  0
ARC
  5
537
330
1B
100
AcDbEntity
 67
     1
  8
02___PRT_ALL_AXES
  6
Continuous
 62
     7
100
AcDbCircle
 10
102.6831771765
 20
101.9020091769
 30
0.0
 40
1.0
100
AcDbArc
 50
180.0
 51
360.0
  0
ARC
  5
538
330
1B
100
AcDbEntity
 67
     1
  8
02___PRT_ALL_AXES
  6
Continuous
 62
     7
100
AcDbCircle
 10
102.6831771765
 20
97.9020091769
 30
0.0
 40
1.0
100
AcDbArc
 50
0.0
 51
180.0
  0
ARC
  5
539
330
1B
100
AcDbEntity
 67
     1
  8
02___PRT_ALL_AXES
  6
Continuous
 62
     7
100
AcDbCircle
 10
102.6831771765
 20
97.9020091769
 30
0.0
 40
1.0
100
AcDbArc
 50
180.0
 51
360.0
  0
ARC
  5
53A
330
1B
100
AcDbEntity
 67
     1
  8
02___PRT_ALL_AXES
  6
Continuous
 62
     7
100
AcDbCircle
 10
102.6831771765
 20
93.9020091769
 30
0.0
 40
1.0
100
AcDbArc
 50
0.0
 51
180.0
  0
ARC
  5
53B
330
1B
100
AcDbEntity
 67
     1
  8
02___PRT_ALL_AXES
  6
Continuous
 62
     7
100
AcDbCircle
 10
102.6831771765
 20
93.9020091769
 30
0.0
 40
1.0
100
AcDbArc
 50
180.0
 51
360.0
  0
ARC
  5
53C
330
1B
100
AcDbEntity
 67
     1
  8
02___PRT_ALL_AXES
  6
Continuous
 62
     7
100
AcDbCircle
 10
99.2190755614
 20
171.9020091769
 30
0.0
 40
1.0
100
AcDbArc
 50
0.0
 51
180.0
  0
ARC
  5
53D
330
1B
100
AcDbEntity
 67
     1
  8
02___PRT_ALL_AXES
  6
Continuous
 62
     7
100
AcDbCircle
 10
99.2190755614
 20
171.9020091769
 30
0.0
 40
1.0
100
AcDbArc
 50
180.0
 51
360.0
  0
ARC
  5
53E
330
1B
100
AcDbEntity
 67
     1
  8
02___PRT_ALL_AXES
  6
Continuous
 62
     7
100
AcDbCircle
 10
99.2190755614
 20
167.9020091769
 30
0.0
 40
1.0
100
AcDbArc
 50
0.0
 51
180.0
  0
ARC
  5
53F
330
1B
100
AcDbEntity
 67
     1
  8
02___PRT_ALL_AXES
  6
Continuous
 62
     7
100
AcDbCircle
 10
99.2190755614
 20
167.9020091769
 30
0.0
 40
1.0
100
AcDbArc
 50
180.0
 51
360.0
  0
ARC
  5
540
330
1B
100
AcDbEntity
 67
     1
  8
02___PRT_ALL_AXES
  6
Continuous
 62
     7
100
AcDbCircle
 10
99.2190755614
 20
163.9020091769
 30
0.0
 40
1.0
100
AcDbArc
 50
0.0
 51
180.0
  0
ARC
  5
541
330
1B
100
AcDbEntity
 67
     1
  8
02___PRT_ALL_AXES
  6
Continuous
 62
     7
100
AcDbCircle
 10
99.2190755614
 20
163.9020091769
 30
0.0
 40
1.0
100
AcDbArc
 50
180.0
 51
360.0
  0
ARC
  5
542
330
1B
100
AcDbEntity
 67
     1
  8
02___PRT_ALL_AXES
  6
Continuous
 62
     7
100
AcDbCircle
 10
99.2190755614
 20
159.9020091769
 30
0.0
 40
1.0
100
AcDbArc
 50
0.0
 51
180.0
  0
ARC
  5
543
330
1B
100
AcDbEntity
 67
     1
  8
02___PRT_ALL_AXES
  6
Continuous
 62
     7
100
AcDbCircle
 10
99.2190755614
 20
159.9020091769
 30
0.0
 40
1.0
100
AcDbArc
 50
180.0
 51
360.0
  0
ARC
  5
544
330
1B
100
AcDbEntity
 67
     1
  8
02___PRT_ALL_AXES
  6
Continuous
 62
     7
100
AcDbCircle
 10
99.2190755614
 20
139.9020091769
 30
0.0
 40
1.0
100
AcDbArc
 50
0.0
 51
180.0
  0
ARC
  5
545
330
1B
100
AcDbEntity
 67
     1
  8
02___PRT_ALL_AXES
  6
Continuous
 62
     7
100
AcDbCircle
 10
99.2190755614
 20
139.9020091769
 30
0.0
 40
1.0
100
AcDbArc
 50
180.0
 51
360.0
  0
ARC
  5
546
330
1B
100
AcDbEntity
 67
     1
  8
02___PRT_ALL_AXES
  6
Continuous
 62
     7
100
AcDbCircle
 10
99.2190755614
 20
135.9020091769
 30
0.0
 40
1.0
100
AcDbArc
 50
0.0
 51
180.0
  0
ARC
  5
547
330
1B
100
AcDbEntity
 67
     1
  8
02___PRT_ALL_AXES
  6
Continuous
 62
     7
100
AcDbCircle
 10
99.2190755614
 20
135.9020091769
 30
0.0
 40
1.0
100
AcDbArc
 50
180.0
 51
360.0
  0
ARC
  5
548
330
1B
100
AcDbEntity
 67
     1
  8
02___PRT_ALL_AXES
  6
Continuous
 62
     7
100
AcDbCircle
 10
99.2190755614
 20
131.9020091769
 30
0.0
 40
1.0
100
AcDbArc
 50
0.0
 51
180.0
  0
ARC
  5
549
330
1B
100
AcDbEntity
 67
     1
  8
02___PRT_ALL_AXES
  6
Continuous
 62
     7
100
AcDbCircle
 10
99.2190755614
 20
131.9020091769
 30
0.0
 40
1.0
100
AcDbArc
 50
180.0
 51
360.0
  0
ARC
  5
54A
330
1B
100
AcDbEntity
 67
     1
  8
02___PRT_ALL_AXES
  6
Continuous
 62
     7
100
AcDbCircle
 10
99.2190755614
 20
127.9020091769
 30
0.0
 40
1.0
100
AcDbArc
 50
0.0
 51
180.0
  0
ARC
  5
54B
330
1B
100
AcDbEntity
 67
     1
  8
02___PRT_ALL_AXES
  6
Continuous
 62
     7
100
AcDbCircle
 10
99.2190755614
 20
127.9020091769
 30
0.0
 40
1.0
100
AcDbArc
 50
180.0
 51
360.0
  0
ARC
  5
54C
330
1B
100
AcDbEntity
 67
     1
  8
02___PRT_ALL_AXES
  6
Continuous
 62
     7
100
AcDbCircle
 10
99.2190755614
 20
107.9020091769
 30
0.0
 40
1.0
100
AcDbArc
 50
0.0
 51
180.0
  0
ARC
  5
54D
330
1B
100
AcDbEntity
 67
     1
  8
02___PRT_ALL_AXES
  6
Continuous
 62
     7
100
AcDbCircle
 10
99.2190755614
 20
107.9020091769
 30
0.0
 40
1.0
100
AcDbArc
 50
180.0
 51
360.0
  0
ARC
  5
54E
330
1B
100
AcDbEntity
 67
     1
  8
02___PRT_ALL_AXES
  6
Continuous
 62
     7
100
AcDbCircle
 10
99.2190755614
 20
103.9020091769
 30
0.0
 40
1.0
100
AcDbArc
 50
0.0
 51
180.0
  0
ARC
  5
54F
330
1B
100
AcDbEntity
 67
     1
  8
02___PRT_ALL_AXES
  6
Continuous
 62
     7
100
AcDbCircle
 10
99.2190755614
 20
103.9020091769
 30
0.0
 40
1.0
100
AcDbArc
 50
180.0
 51
360.0
  0
ARC
  5
550
330
1B
100
AcDbEntity
 67
     1
  8
02___PRT_ALL_AXES
  6
Continuous
 62
     7
100
AcDbCircle
 10
99.2190755614
 20
99.9020091769
 30
0.0
 40
1.0
100
AcDbArc
 50
0.0
 51
180.0
  0
ARC
  5
551
330
1B
100
AcDbEntity
 67
     1
  8
02___PRT_ALL_AXES
  6
Continuous
 62
     7
100
AcDbCircle
 10
99.2190755614
 20
99.9020091769
 30
0.0
 40
1.0
100
AcDbArc
 50
180.0
 51
360.0
  0
ARC
  5
552
330
1B
100
AcDbEntity
 67
     1
  8
02___PRT_ALL_AXES
  6
Continuous
 62
     7
100
AcDbCircle
 10
99.2190755614
 20
95.9020091769
 30
0.0
 40
1.0
100
AcDbArc
 50
0.0
 51
180.0
  0
ARC
  5
553
330
1B
100
AcDbEntity
 67
     1
  8
02___PRT_ALL_AXES
  6
Continuous
 62
     7
100
AcDbCircle
 10
99.2190755614
 20
95.9020091769
 30
0.0
 40
1.0
100
AcDbArc
 50
180.0
 51
360.0
  0
ARC
  5
554
330
1B
100
AcDbEntity
 67
     1
  8
02___PRT_ALL_AXES
  6
Continuous
 62
     7
100
AcDbCircle
 10
95.7549739463
 20
169.9020091769
 30
0.0
 40
1.0
100
AcDbArc
 50
0.0
 51
180.0
  0
ARC
  5
555
330
1B
100
AcDbEntity
 67
     1
  8
02___PRT_ALL_AXES
  6
Continuous
 62
     7
100
AcDbCircle
 10
95.7549739463
 20
169.9020091769
 30
0.0
 40
1.0
100
AcDbArc
 50
180.0
 51
360.0
  0
ARC
  5
556
330
1B
100
AcDbEntity
 67
     1
  8
02___PRT_ALL_AXES
  6
Continuous
 62
     7
100
AcDbCircle
 10
95.7549739463
 20
165.9020091769
 30
0.0
 40
1.0
100
AcDbArc
 50
0.0
 51
180.0
  0
ARC
  5
557
330
1B
100
AcDbEntity
 67
     1
  8
02___PRT_ALL_AXES
  6
Continuous
 62
     7
100
AcDbCircle
 10
95.7549739463
 20
165.9020091769
 30
0.0
 40
1.0
100
AcDbArc
 50
180.0
 51
360.0
  0
ARC
  5
558
330
1B
100
AcDbEntity
 67
     1
  8
02___PRT_ALL_AXES
  6
Continuous
 62
     7
100
AcDbCircle
 10
95.7549739463
 20
161.9020091769
 30
0.0
 40
1.0
100
AcDbArc
 50
0.0
 51
180.0
  0
ARC
  5
559
330
1B
100
AcDbEntity
 67
     1
  8
02___PRT_ALL_AXES
  6
Continuous
 62
     7
100
AcDbCircle
 10
95.7549739463
 20
161.9020091769
 30
0.0
 40
1.0
100
AcDbArc
 50
180.0
 51
360.0
  0
ARC
  5
55A
330
1B
100
AcDbEntity
 67
     1
  8
02___PRT_ALL_AXES
  6
Continuous
 62
     7
100
AcDbCircle
 10
95.7549739463
 20
141.9020091769
 30
0.0
 40
1.0
100
AcDbArc
 50
0.0
 51
180.0
  0
ARC
  5
55B
330
1B
100
AcDbEntity
 67
     1
  8
02___PRT_ALL_AXES
  6
Continuous
 62
     7
100
AcDbCircle
 10
95.7549739463
 20
141.9020091769
 30
0.0
 40
1.0
100
AcDbArc
 50
180.0
 51
360.0
  0
ARC
  5
55C
330
1B
100
AcDbEntity
 67
     1
  8
02___PRT_ALL_AXES
  6
Continuous
 62
     7
100
AcDbCircle
 10
95.7549739463
 20
137.9020091769
 30
0.0
 40
1.0
100
AcDbArc
 50
0.0
 51
180.0
  0
ARC
  5
55D
330
1B
100
AcDbEntity
 67
     1
  8
02___PRT_ALL_AXES
  6
Continuous
 62
     7
100
AcDbCircle
 10
95.7549739463
 20
137.9020091769
 30
0.0
 40
1.0
100
AcDbArc
 50
180.0
 51
360.0
  0
ARC
  5
55E
330
1B
100
AcDbEntity
 67
     1
  8
02___PRT_ALL_AXES
  6
Continuous
 62
     7
100
AcDbCircle
 10
95.7549739463
 20
133.9020091769
 30
0.0
 40
1.0
100
AcDbArc
 50
0.0
 51
180.0
  0
ARC
  5
55F
330
1B
100
AcDbEntity
 67
     1
  8
02___PRT_ALL_AXES
  6
Continuous
 62
     7
100
AcDbCircle
 10
95.7549739463
 20
133.9020091769
 30
0.0
 40
1.0
100
AcDbArc
 50
180.0
 51
360.0
  0
ARC
  5
560
330
1B
100
AcDbEntity
 67
     1
  8
02___PRT_ALL_AXES
  6
Continuous
 62
     7
100
AcDbCircle
 10
95.7549739463
 20
129.9020091769
 30
0.0
 40
1.0
100
AcDbArc
 50
0.0
 51
180.0
  0
ARC
  5
561
330
1B
100
AcDbEntity
 67
     1
  8
02___PRT_ALL_AXES
  6
Continuous
 62
     7
100
AcDbCircle
 10
95.7549739463
 20
129.9020091769
 30
0.0
 40
1.0
100
AcDbArc
 50
180.0
 51
360.0
  0
ARC
  5
562
330
1B
100
AcDbEntity
 67
     1
  8
02___PRT_ALL_AXES
  6
Continuous
 62
     7
100
AcDbCircle
 10
95.7549739463
 20
125.9020091769
 30
0.0
 40
1.0
100
AcDbArc
 50
0.0
 51
180.0
  0
ARC
  5
563
330
1B
100
AcDbEntity
 67
     1
  8
02___PRT_ALL_AXES
  6
Continuous
 62
     7
100
AcDbCircle
 10
95.7549739463
 20
125.9020091769
 30
0.0
 40
1.0
100
AcDbArc
 50
180.0
 51
360.0
  0
ARC
  5
564
330
1B
100
AcDbEntity
 67
     1
  8
02___PRT_ALL_AXES
  6
Continuous
 62
     7
100
AcDbCircle
 10
95.7549739463
 20
105.9020091769
 30
0.0
 40
1.0
100
AcDbArc
 50
0.0
 51
180.0
  0
ARC
  5
565
330
1B
100
AcDbEntity
 67
     1
  8
02___PRT_ALL_AXES
  6
Continuous
 62
     7
100
AcDbCircle
 10
95.7549739463
 20
105.9020091769
 30
0.0
 40
1.0
100
AcDbArc
 50
180.0
 51
360.0
  0
ARC
  5
566
330
1B
100
AcDbEntity
 67
     1
  8
02___PRT_ALL_AXES
  6
Continuous
 62
     7
100
AcDbCircle
 10
95.7549739463
 20
101.9020091769
 30
0.0
 40
1.0
100
AcDbArc
 50
0.0
 51
180.0
  0
ARC
  5
567
330
1B
100
AcDbEntity
 67
     1
  8
02___PRT_ALL_AXES
  6
Continuous
 62
     7
100
AcDbCircle
 10
95.7549739463
 20
101.9020091769
 30
0.0
 40
1.0
100
AcDbArc
 50
180.0
 51
360.0
  0
ARC
  5
568
330
1B
100
AcDbEntity
 67
     1
  8
02___PRT_ALL_AXES
  6
Continuous
 62
     7
100
AcDbCircle
 10
95.7549739463
 20
97.9020091769
 30
0.0
 40
1.0
100
AcDbArc
 50
0.0
 51
180.0
  0
ARC
  5
569
330
1B
100
AcDbEntity
 67
     1
  8
02___PRT_ALL_AXES
  6
Continuous
 62
     7
100
AcDbCircle
 10
95.7549739463
 20
97.9020091769
 30
0.0
 40
1.0
100
AcDbArc
 50
180.0
 51
360.0
  0
ARC
  5
56A
330
1B
100
AcDbEntity
 67
     1
  8
02___PRT_ALL_AXES
  6
Continuous
 62
     7
100
AcDbCircle
 10
92.2908723311
 20
167.9020091769
 30
0.0
 40
1.0
100
AcDbArc
 50
0.0
 51
180.0
  0
ARC
  5
56B
330
1B
100
AcDbEntity
 67
     1
  8
02___PRT_ALL_AXES
  6
Continuous
 62
     7
100
AcDbCircle
 10
92.2908723311
 20
167.9020091769
 30
0.0
 40
1.0
100
AcDbArc
 50
180.0
 51
360.0
  0
ARC
  5
56C
330
1B
100
AcDbEntity
 67
     1
  8
02___PRT_ALL_AXES
  6
Continuous
 62
     7
100
AcDbCircle
 10
92.2908723311
 20
163.9020091769
 30
0.0
 40
1.0
100
AcDbArc
 50
0.0
 51
180.0
  0
ARC
  5
56D
330
1B
100
AcDbEntity
 67
     1
  8
02___PRT_ALL_AXES
  6
Continuous
 62
     7
100
AcDbCircle
 10
92.2908723311
 20
163.9020091769
 30
0.0
 40
1.0
100
AcDbArc
 50
180.0
 51
360.0
  0
ARC
  5
56E
330
1B
100
AcDbEntity
 67
     1
  8
02___PRT_ALL_AXES
  6
Continuous
 62
     7
100
AcDbCircle
 10
92.2908723311
 20
159.9020091769
 30
0.0
 40
1.0
100
AcDbArc
 50
0.0
 51
180.0
  0
ARC
  5
56F
330
1B
100
AcDbEntity
 67
     1
  8
02___PRT_ALL_AXES
  6
Continuous
 62
     7
100
AcDbCircle
 10
92.2908723311
 20
159.9020091769
 30
0.0
 40
1.0
100
AcDbArc
 50
180.0
 51
360.0
  0
ARC
  5
570
330
1B
100
AcDbEntity
 67
     1
  8
02___PRT_ALL_AXES
  6
Continuous
 62
     7
100
AcDbCircle
 10
92.2908723311
 20
139.9020091769
 30
0.0
 40
1.0
100
AcDbArc
 50
0.0
 51
180.0
  0
ARC
  5
571
330
1B
100
AcDbEntity
 67
     1
  8
02___PRT_ALL_AXES
  6
Continuous
 62
     7
100
AcDbCircle
 10
92.2908723311
 20
139.9020091769
 30
0.0
 40
1.0
100
AcDbArc
 50
180.0
 51
360.0
  0
ARC
  5
572
330
1B
100
AcDbEntity
 67
     1
  8
02___PRT_ALL_AXES
  6
Continuous
 62
     7
100
AcDbCircle
 10
92.2908723311
 20
135.9020091769
 30
0.0
 40
1.0
100
AcDbArc
 50
0.0
 51
180.0
  0
ARC
  5
573
330
1B
100
AcDbEntity
 67
     1
  8
02___PRT_ALL_AXES
  6
Continuous
 62
     7
100
AcDbCircle
 10
92.2908723311
 20
135.9020091769
 30
0.0
 40
1.0
100
AcDbArc
 50
180.0
 51
360.0
  0
ARC
  5
574
330
1B
100
AcDbEntity
 67
     1
  8
02___PRT_ALL_AXES
  6
Continuous
 62
     7
100
AcDbCircle
 10
92.2908723311
 20
131.9020091769
 30
0.0
 40
1.0
100
AcDbArc
 50
0.0
 51
180.0
  0
ARC
  5
575
330
1B
100
AcDbEntity
 67
     1
  8
02___PRT_ALL_AXES
  6
Continuous
 62
     7
100
AcDbCircle
 10
92.2908723311
 20
131.9020091769
 30
0.0
 40
1.0
100
AcDbArc
 50
180.0
 51
360.0
  0
ARC
  5
576
330
1B
100
AcDbEntity
 67
     1
  8
02___PRT_ALL_AXES
  6
Continuous
 62
     7
100
AcDbCircle
 10
92.2908723311
 20
127.9020091769
 30
0.0
 40
1.0
100
AcDbArc
 50
0.0
 51
180.0
  0
ARC
  5
577
330
1B
100
AcDbEntity
 67
     1
  8
02___PRT_ALL_AXES
  6
Continuous
 62
     7
100
AcDbCircle
 10
92.2908723311
 20
127.9020091769
 30
0.0
 40
1.0
100
AcDbArc
 50
180.0
 51
360.0
  0
ARC
  5
578
330
1B
100
AcDbEntity
 67
     1
  8
02___PRT_ALL_AXES
  6
Continuous
 62
     7
100
AcDbCircle
 10
92.2908723311
 20
107.9020091769
 30
0.0
 40
1.0
100
AcDbArc
 50
0.0
 51
180.0
  0
ARC
  5
579
330
1B
100
AcDbEntity
 67
     1
  8
02___PRT_ALL_AXES
  6
Continuous
 62
     7
100
AcDbCircle
 10
92.2908723311
 20
107.9020091769
 30
0.0
 40
1.0
100
AcDbArc
 50
180.0
 51
360.0
  0
ARC
  5
57A
330
1B
100
AcDbEntity
 67
     1
  8
02___PRT_ALL_AXES
  6
Continuous
 62
     7
100
AcDbCircle
 10
92.2908723311
 20
103.9020091769
 30
0.0
 40
1.0
100
AcDbArc
 50
0.0
 51
180.0
  0
ARC
  5
57B
330
1B
100
AcDbEntity
 67
     1
  8
02___PRT_ALL_AXES
  6
Continuous
 62
     7
100
AcDbCircle
 10
92.2908723311
 20
103.9020091769
 30
0.0
 40
1.0
100
AcDbArc
 50
180.0
 51
360.0
  0
ARC
  5
57C
330
1B
100
AcDbEntity
 67
     1
  8
02___PRT_ALL_AXES
  6
Continuous
 62
     7
100
AcDbCircle
 10
92.2908723311
 20
99.9020091769
 30
0.0
 40
1.0
100
AcDbArc
 50
0.0
 51
180.0
  0
ARC
  5
57D
330
1B
100
AcDbEntity
 67
     1
  8
02___PRT_ALL_AXES
  6
Continuous
 62
     7
100
AcDbCircle
 10
92.2908723311
 20
99.9020091769
 30
0.0
 40
1.0
100
AcDbArc
 50
180.0
 51
360.0
  0
LINE
  5
57E
330
1B
100
AcDbEntity
 67
     1
  8
7_ALL_FEATURES
  6
Continuous
 62
     3
100
AcDbLine
 10
206.5126320912
 20
85.0520091769
 30
0.0
 11
206.5126320912
 21
85.8520091769
 31
0.0
  0
LINE
  5
57F
330
1B
100
AcDbEntity
 67
     1
  8
7_ALL_FEATURES
  6
Continuous
 62
     3
100
AcDbLine
 10
206.5126320912
 20
85.8520091769
 30
0.0
 11
206.5126320912
 21
181.9520091769
 31
0.0
  0
SPLINE
  5
580
330
1B
100
AcDbEntity
 67
     1
  8
7_ALL_FEATURES
  6
Continuous
 62
     3
100
AcDbSpline
 70
     0
 71
     3
 72
     9
 73
     5
 74
     0
 42
0.000000001
 43
0.0000001
 40
0.0
 40
0.0
 40
0.0
 40
0.0
 40
0.2381070811
 40
1.0
 40
1.0
 40
1.0
 40
1.0
 10
206.5126320912
 20
181.9520091769
 30
0.0
 10
206.5126320912
 20
181.931113199
 30
0.0
 10
206.5057758021
 20
181.843290882
 30
0.0
 10
206.4709557538
 20
181.7593173885
 30
0.0
 10
206.4365116237
 20
181.7020091769
 30
0.0
  0
SPLINE
  5
581
330
1B
100
AcDbEntity
 67
     1
  8
7_ALL_FEATURES
  6
Continuous
 62
     3
100
AcDbSpline
 70
     0
 71
     3
 72
     8
 73
     4
 74
     0
 42
0.000000001
 43
0.0000001
 40
0.0
 40
0.0
 40
0.0
 40
0.0
 40
1.0
 40
1.0
 40
1.0
 40
1.0
 10
206.4365116237
 20
181.7020091769
 30
0.0
 10
206.425262515
 20
181.6832928875
 30
0.0
 10
206.4131165556
 20
181.6650977085
 30
0.0
 10
206.4003121706
 20
181.6474090212
 30
0.0
  0
SPLINE
  5
582
330
1B
100
AcDbEntity
 67
     1
  8
7_ALL_FEATURES
  6
Continuous
 62
     3
100
AcDbSpline
 70
     0
 71
     3
 72
     9
 73
     5
 74
     0
 42
0.000000001
 43
0.0000001
 40
0.0
 40
0.0
 40
0.0
 40
0.0
 40
0.2381070811
 40
1.0
 40
1.0
 40
1.0
 40
1.0
 10
110.4126320912
 20
181.9520091769
 30
0.0
 10
110.4335280691
 20
181.9520091769
 30
0.0
 10
110.5213503861
 20
181.9451528877
 30
0.0
 10
110.6053238795
 20
181.9103328395
 30
0.0
 10
110.6626320912
 20
181.8758887094
 30
0.0
  0
SPLINE
  5
583
330
1B
100
AcDbEntity
 67
     1
  8
7_ALL_FEATURES
  6
Continuous
 62
     3
100
AcDbSpline
 70
     0
 71
     3
 72
     8
 73
     4
 74
     0
 42
0.000000001
 43
0.0000001
 40
0.0
 40
0.0
 40
0.0
 40
0.0
 40
1.0
 40
1.0
 40
1.0
 40
1.0
 10
110.6626320912
 20
181.8758887094
 30
0.0
 10
110.6813483806
 20
181.8646396006
 30
0.0
 10
110.6995435596
 20
181.8524936413
 30
0.0
 10
110.7172322469
 20
181.8396892562
 30
0.0
  0
LINE
  5
584
330
1B
100
AcDbEntity
 67
     1
  8
7_ALL_FEATURES
  6
Continuous
 62
     3
100
AcDbLine
 10
207.3126320912
 20
181.9520091769
 30
0.0
 11
206.5126320912
 21
181.9520091769
 31
0.0
  0
LINE
  5
585
330
1B
100
AcDbEntity
 67
     1
  8
7_ALL_FEATURES
  6
Continuous
 62
     3
100
AcDbLine
 10
206.5126320912
 20
181.9520091769
 30
0.0
 11
110.4126320912
 21
181.9520091769
 31
0.0
  0
SPLINE
  5
586
330
1B
100
AcDbEntity
 67
     1
  8
7_ALL_FEATURES
  6
Continuous
 62
     3
100
AcDbSpline
 70
     0
 71
     3
 72
     9
 73
     5
 74
     0
 42
0.000000001
 43
0.0000001
 40
0.0
 40
0.0
 40
0.0
 40
0.0
 40
0.2381070811
 40
1.0
 40
1.0
 40
1.0
 40
1.0
 10
206.5126320912
 20
85.8520091769
 30
0.0
 10
206.4917361133
 20
85.8520091769
 30
0.0
 10
206.4039137964
 20
85.858865466
 30
0.0
 10
206.3199403029
 20
85.8936855143
 30
0.0
 10
206.2626320912
 20
85.9281296444
 30
0.0
  0
SPLINE
  5
587
330
1B
100
AcDbEntity
 67
     1
  8
7_ALL_FEATURES
  6
Continuous
 62
     3
100
AcDbSpline
 70
     0
 71
     3
 72
     8
 73
     4
 74
     0
 42
0.000000001
 43
0.0000001
 40
0.0
 40
0.0
 40
0.0
 40
0.0
 40
1.0
 40
1.0
 40
1.0
 40
1.0
 10
206.2626320912
 20
85.9281296444
 30
0.0
 10
206.2439158019
 20
85.9393787531
 30
0.0
 10
206.2257206228
 20
85.9515247124
 30
0.0
 10
206.2080319355
 20
85.9643290975
 30
0.0
  0
SPLINE
  5
588
330
1B
100
AcDbEntity
 67
     1
  8
7_ALL_FEATURES
  6
Continuous
 62
     3
100
AcDbSpline
 70
     0
 71
     3
 72
     9
 73
     5
 74
     0
 42
0.000000001
 43
0.0000001
 40
0.0
 40
0.0
 40
0.0
 40
0.0
 40
0.2381070811
 40
1.0
 40
1.0
 40
1.0
 40
1.0
 10
110.4126320912
 20
85.8520091769
 30
0.0
 10
110.4126320912
 20
85.8729051548
 30
0.0
 10
110.4194883804
 20
85.9607274717
 30
0.0
 10
110.4543084286
 20
86.0447009652
 30
0.0
 10
110.4887525587
 20
86.1020091769
 30
0.0
  0
SPLINE
  5
589
330
1B
100
AcDbEntity
 67
     1
  8
7_ALL_FEATURES
  6
Continuous
 62
     3
100
AcDbSpline
 70
     0
 71
     3
 72
     8
 73
     4
 74
     0
 42
0.000000001
 43
0.0000001
 40
0.0
 40
0.0
 40
0.0
 40
0.0
 40
1.0
 40
1.0
 40
1.0
 40
1.0
 10
110.4887525587
 20
86.1020091769
 30
0.0
 10
110.5000016674
 20
86.1207254662
 30
0.0
 10
110.5121476268
 20
86.1389206453
 30
0.0
 10
110.5249520119
 20
86.1566093325
 30
0.0
  0
LINE
  5
58A
330
1B
100
AcDbEntity
 67
     1
  8
7_ALL_FEATURES
  6
Continuous
 62
     3
100
AcDbLine
 10
109.6126320912
 20
85.8520091769
 30
0.0
 11
110.4126320912
 21
85.8520091769
 31
0.0
  0
LINE
  5
58B
330
1B
100
AcDbEntity
 67
     1
  8
7_ALL_FEATURES
  6
Continuous
 62
     3
100
AcDbLine
 10
110.4126320912
 20
85.8520091769
 30
0.0
 11
206.5126320912
 21
85.8520091769
 31
0.0
  0
LINE
  5
58C
330
1B
100
AcDbEntity
 67
     1
  8
7_ALL_FEATURES
  6
Continuous
 62
     3
100
AcDbLine
 10
110.4126320912
 20
182.7520091769
 30
0.0
 11
110.4126320912
 21
181.9520091769
 31
0.0
  0
LINE
  5
58D
330
1B
100
AcDbEntity
 67
     1
  8
7_ALL_FEATURES
  6
Continuous
 62
     3
100
AcDbLine
 10
110.4126320912
 20
181.9520091769
 30
0.0
 11
110.4126320912
 21
85.8520091769
 31
0.0
  0
LINE
  5
58E
330
1B
100
AcDbEntity
 67
     1
  8
7_ALL_FEATURES
  6
Continuous
 62
     7
100
AcDbLine
 10
213.4626320912
 20
329.9000458843
 30
0.0
 11
214.5344288609
 21
329.9000458843
 31
0.0
  0
LINE
  5
58F
330
1B
100
AcDbEntity
 67
     1
  8
7_ALL_FEATURES
  6
Continuous
 62
     7
100
AcDbLine
 10
214.5344288609
 20
329.9000458843
 30
0.0
 11
215.9985304761
 21
329.9000458843
 31
0.0
  0
LINE
  5
590
330
1B
100
AcDbEntity
 67
     1
  8
7_ALL_FEATURES
  6
Continuous
 62
     7
100
AcDbLine
 10
215.9985304761
 20
329.9000458843
 30
0.0
 11
217.9985304761
 21
329.9000458843
 31
0.0
  0
LINE
  5
591
330
1B
100
AcDbEntity
 67
     1
  8
7_ALL_FEATURES
  6
Continuous
 62
     7
100
AcDbLine
 10
217.9985304761
 20
329.9000458843
 30
0.0
 11
228.4626320912
 21
329.9000458843
 31
0.0
  0
LINE
  5
592
330
1B
100
AcDbEntity
 67
     1
  8
7_ALL_FEATURES
  6
Continuous
 62
     7
100
AcDbLine
 10
213.4626320912
 20
329.9000458843
 30
0.0
 11
205.5126320912
 21
329.9000458843
 31
0.0
  0
LINE
  5
593
330
1B
100
AcDbEntity
 67
     1
  8
7_ALL_FEATURES
  6
Continuous
 62
     7
100
AcDbLine
 10
205.5126320912
 20
329.9000458843
 30
0.0
 11
162.7927591101
 21
329.9000458843
 31
0.0
  0
LINE
  5
594
330
1B
100
AcDbEntity
 67
     1
  8
02___PRT_ALL_AXES
  6
Continuous
 62
     7
100
AcDbLine
 10
162.7927591101
 20
329.9000458843
 30
0.0
 11
154.1325050723
 21
329.9000458843
 31
0.0
  0
LINE
  5
595
330
1B
100
AcDbEntity
 67
     1
  8
7_ALL_FEATURES
  6
Continuous
 62
     7
100
AcDbLine
 10
154.1325050723
 20
329.9000458843
 30
0.0
 11
111.4126320912
 21
329.9000458843
 31
0.0
  0
LINE
  5
596
330
1B
100
AcDbEntity
 67
     1
  8
7_ALL_FEATURES
  6
Continuous
 62
     7
100
AcDbLine
 10
111.4126320912
 20
329.9000458843
 30
0.0
 11
103.4626320912
 21
329.9000458843
 31
0.0
  0
LINE
  5
597
330
1B
100
AcDbEntity
 67
     1
  8
7_ALL_FEATURES
  6
Continuous
 62
     7
100
AcDbLine
 10
88.4626320912
 20
329.9000458843
 30
0.0
 11
98.2190755614
 21
329.9000458843
 31
0.0
  0
LINE
  5
598
330
1B
100
AcDbEntity
 67
     1
  8
7_ALL_FEATURES
  6
Continuous
 62
     7
100
AcDbLine
 10
98.2190755614
 20
329.9000458843
 30
0.0
 11
100.2190755614
 21
329.9000458843
 31
0.0
  0
LINE
  5
599
330
1B
100
AcDbEntity
 67
     1
  8
7_ALL_FEATURES
  6
Continuous
 62
     7
100
AcDbLine
 10
100.2190755614
 20
329.9000458843
 30
0.0
 11
101.6831771765
 21
329.9000458843
 31
0.0
  0
LINE
  5
59A
330
1B
100
AcDbEntity
 67
     1
  8
7_ALL_FEATURES
  6
Continuous
 62
     7
100
AcDbLine
 10
101.6831771765
 20
329.9000458843
 30
0.0
 11
103.4626320912
 21
329.9000458843
 31
0.0
  0
LINE
  5
59B
330
1B
100
AcDbEntity
 67
     1
  8
7_ALL_FEATURES
  6
Continuous
 62
     7
100
AcDbLine
 10
228.4626320912
 20
328.9000458843
 30
0.0
 11
228.4626320912
 21
329.9000458843
 31
0.0
  0
LINE
  5
59C
330
1B
100
AcDbEntity
 67
     1
  8
7_ALL_FEATURES
  6
Continuous
 62
     7
100
AcDbLine
 10
88.4626320912
 20
328.9000458843
 30
0.0
 11
88.4626320912
 21
329.9000458843
 31
0.0
  0
LINE
  5
59D
330
1B
100
AcDbEntity
 67
     1
  8
7_ALL_FEATURES
  6
Continuous
 62
     7
100
AcDbLine
 10
228.4626320912
 20
328.9000458843
 30
0.0
 11
217.9985304761
 21
328.9000458843
 31
0.0
  0
LINE
  5
59E
330
1B
100
AcDbEntity
 67
     1
  8
7_ALL_FEATURES
  6
Continuous
 62
     7
100
AcDbLine
 10
217.9985304761
 20
328.9000458843
 30
0.0
 11
215.9985304761
 21
328.9000458843
 31
0.0
  0
LINE
  5
59F
330
1B
100
AcDbEntity
 67
     1
  8
7_ALL_FEATURES
  6
Continuous
 62
     7
100
AcDbLine
 10
215.9985304761
 20
328.9000458843
 30
0.0
 11
214.5344288609
 21
328.9000458843
 31
0.0
  0
LINE
  5
5A0
330
1B
100
AcDbEntity
 67
     1
  8
7_ALL_FEATURES
  6
Continuous
 62
     7
100
AcDbLine
 10
214.5344288609
 20
328.9000458843
 30
0.0
 11
213.4626320912
 21
328.9000458843
 31
0.0
  0
LINE
  5
5A1
330
1B
100
AcDbEntity
 67
     1
  8
7_ALL_FEATURES
  6
Continuous
 62
     7
100
AcDbLine
 10
103.4626320912
 20
328.9000458843
 30
0.0
 11
101.6831771765
 21
328.9000458843
 31
0.0
  0
LINE
  5
5A2
330
1B
100
AcDbEntity
 67
     1
  8
7_ALL_FEATURES
  6
Continuous
 62
     7
100
AcDbLine
 10
101.6831771765
 20
328.9000458843
 30
0.0
 11
100.2190755614
 21
328.9000458843
 31
0.0
  0
LINE
  5
5A3
330
1B
100
AcDbEntity
 67
     1
  8
7_ALL_FEATURES
  6
Continuous
 62
     7
100
AcDbLine
 10
100.2190755614
 20
328.9000458843
 30
0.0
 11
98.2190755614
 21
328.9000458843
 31
0.0
  0
LINE
  5
5A4
330
1B
100
AcDbEntity
 67
     1
  8
7_ALL_FEATURES
  6
Continuous
 62
     7
100
AcDbLine
 10
98.2190755614
 20
328.9000458843
 30
0.0
 11
88.4626320912
 21
328.9000458843
 31
0.0
  0
LINE
  5
5A5
330
1B
100
AcDbEntity
 67
     1
  8
7_ALL_FEATURES
  6
Continuous
 62
     7
100
AcDbLine
 10
154.1325050723
 20
328.9000458843
 30
0.0
 11
110.2082876965
 21
328.9000458843
 31
0.0
  0
LINE
  5
5A6
330
1B
100
AcDbEntity
 67
     1
  8
7_ALL_FEATURES
  6
Continuous
 62
     7
100
AcDbLine
 10
110.2082876965
 20
328.9000458843
 30
0.0
 11
103.4626320912
 21
328.9000458843
 31
0.0
  0
LINE
  5
5A7
330
1B
100
AcDbEntity
 67
     1
  8
02___PRT_ALL_AXES
  6
Continuous
 62
     7
100
AcDbLine
 10
162.7927591101
 20
328.9000458843
 30
0.0
 11
158.4626320912
 21
328.9000458843
 31
0.0
  0
LINE
  5
5A8
330
1B
100
AcDbEntity
 67
     1
  8
02___PRT_ALL_AXES
  6
Continuous
 62
     7
100
AcDbLine
 10
158.4626320912
 20
328.9000458843
 30
0.0
 11
154.1325050723
 21
328.9000458843
 31
0.0
  0
LINE
  5
5A9
330
1B
100
AcDbEntity
 67
     1
  8
7_ALL_FEATURES
  6
Continuous
 62
     7
100
AcDbLine
 10
213.4626320912
 20
328.9000458843
 30
0.0
 11
206.7169764859
 21
328.9000458843
 31
0.0
  0
LINE
  5
5AA
330
1B
100
AcDbEntity
 67
     1
  8
7_ALL_FEATURES
  6
Continuous
 62
     7
100
AcDbLine
 10
206.7169764859
 20
328.9000458843
 30
0.0
 11
162.7927591101
 21
328.9000458843
 31
0.0
  0
LINE
  5
5AB
330
1B
100
AcDbEntity
 67
     1
  8
02___PRT_ALL_AXES
  6
Continuous
 62
     7
100
AcDbLine
 10
154.1325050723
 20
329.9000458843
 30
0.0
 11
154.1325050723
 21
328.9000458843
 31
0.0
  0
LINE
  5
5AC
330
1B
100
AcDbEntity
 67
     1
  8
7_ALL_FEATURES
  6
Continuous
 62
     7
100
AcDbLine
 10
103.4626320912
 20
328.9000458843
 30
0.0
 11
103.4626320912
 21
329.9000458843
 31
0.0
  0
LINE
  5
5AD
330
1B
100
AcDbEntity
 67
     1
  8
02___PRT_ALL_AXES
  6
Continuous
 62
     7
100
AcDbLine
 10
162.7927591101
 20
329.9000458843
 30
0.0
 11
162.7927591101
 21
328.9000458843
 31
0.0
  0
LINE
  5
5AE
330
1B
100
AcDbEntity
 67
     1
  8
7_ALL_FEATURES
  6
Continuous
 62
     7
100
AcDbLine
 10
213.4626320912
 20
328.9000458843
 30
0.0
 11
213.4626320912
 21
329.9000458843
 31
0.0
  0
LINE
  5
5AF
330
1B
100
AcDbEntity
 67
     1
  8
7_ALL_FEATURES
  6
Continuous
 62
     7
100
AcDbLine
 10
206.5126320912
 20
342.4000458843
 30
0.0
 11
207.3126320912
 21
342.4000458843
 31
0.0
  0
ARC
  5
5B0
330
1B
100
AcDbEntity
 67
     1
  8
7_ALL_FEATURES
  6
Continuous
 62
     7
100
AcDbCircle
 10
205.5126320912
 20
331.7000458843
 30
0.0
 40
1.8
100
AcDbArc
 50
270.0
 51
360.0
  0
LINE
  5
5B1
330
1B
100
AcDbEntity
 67
     1
  8
7_ALL_FEATURES
  6
Continuous
 62
     7
100
AcDbLine
 10
207.3126320912
 20
331.7000458843
 30
0.0
 11
207.3126320912
 21
342.4000458843
 31
0.0
  0
LINE
  5
5B2
330
1B
100
AcDbEntity
 67
     1
  8
7_ALL_FEATURES
  6
Continuous
 62
     7
100
AcDbLine
 10
206.5126320912
 20
342.4000458843
 30
0.0
 11
109.6126320912
 21
342.4000458843
 31
0.0
  0
SPLINE
  5
5B3
330
1B
100
AcDbEntity
 67
     1
  8
7_ALL_FEATURES
  6
Continuous
 62
     7
100
AcDbSpline
 70
     0
 71
     3
 72
    14
 73
    10
 74
     0
 42
0.000000001
 43
0.0000001
 40
0.0
 40
0.0
 40
0.0
 40
0.0
 40
0.3450206262
 40
0.5028891921
 40
0.6441876891
 40
0.7648638014
 40
0.8628652153
 40
0.9389207407
 40
1.0
 40
1.0
 40
1.0
 40
1.0
 10
206.5126320912
 20
331.7000458843
 30
0.0
 10
206.4311851026
 20
331.4697599493
 30
0.0
 10
206.3128736589
 20
331.1338857801
 30
0.0
 10
206.1444157018
 20
330.7099718971
 30
0.0
 10
206.0222750973
 20
330.4388308534
 30
0.0
 10
205.9003409566
 20
330.21457675
 30
0.0
 10
205.7782522985
 20
330.0444423342
 30
0.0
 10
205.6530264839
 20
329.9312468368
 30
0.0
 10
205.5558744464
 20
329.9000458843
 30
0.0
 10
205.5126320912
 20
329.9000458843
 30
0.0
  0
SPLINE
  5
5B4
330
1B
100
AcDbEntity
 67
     1
  8
7_ALL_FEATURES
  6
Continuous
 62
     7
100
AcDbSpline
 70
     0
 71
     3
 72
    13
 73
     9
 74
     0
 42
0.000000001
 43
0.0000001
 40
0.0
 40
0.0
 40
0.0
 40
0.0
 40
0.3126059149
 40
0.5927048455
 40
0.7132655414
 40
0.8195958715
 40
0.9135044222
 40
1.0
 40
1.0
 40
1.0
 40
1.0
 10
109.6126320912
 20
331.7000458843
 30
0.0
 10
109.7599199244
 20
331.4686866969
 30
0.0
 10
110.0390423678
 20
331.0302941492
 30
0.0
 10
110.4107657007
 20
330.52420936
 30
0.0
 10
110.7234603544
 20
330.2065357117
 30
0.0
 10
110.948335143
 20
330.0349554391
 30
0.0
 10
111.1777157731
 20
329.9260352203
 30
0.0
 10
111.3367453982
 20
329.9000458843
 30
0.0
 10
111.4126320912
 20
329.9000458843
 30
0.0
  0
LINE
  5
5B5
330
1B
100
AcDbEntity
 67
     1
  8
7_ALL_FEATURES
  6
Continuous
 62
     7
100
AcDbLine
 10
206.5126320912
 20
331.7000458843
 30
0.0
 11
206.5126320912
 21
342.4000458843
 31
0.0
  0
LINE
  5
5B6
330
1B
100
AcDbEntity
 67
     1
  8
7_ALL_FEATURES
  6
Continuous
 62
     7
100
AcDbLine
 10
109.6126320912
 20
331.7000458843
 30
0.0
 11
109.6126320912
 21
342.4000458843
 31
0.0
  0
ARC
  5
5B7
330
1B
100
AcDbEntity
 67
     1
  8
7_ALL_FEATURES
  6
Continuous
 62
     7
100
AcDbCircle
 10
111.4126320912
 20
331.7000458843
 30
0.0
 40
1.8
100
AcDbArc
 50
180.0
 51
270.0
  0
LINE
  5
5B8
330
1B
100
AcDbEntity
 67
     1
  8
7_ALL_FEATURES
  6
Continuous
 62
     7
100
AcDbLine
 10
206.5126320912
 20
331.7000458843
 30
0.0
 11
207.3126320912
 21
331.7000458843
 31
0.0
  0
LINE
  5
5B9
330
1B
100
AcDbEntity
 67
     1
  8
7_ALL_FEATURES
  6
Continuous
 62
     9
100
AcDbLine
 10
206.5126320912
 20
331.7000458843
 30
0.0
 11
109.6126320912
 21
331.7000458843
 31
0.0
  0
ARC
  5
5BA
330
1B
100
AcDbEntity
 67
     1
  8
06___PRT_ALL_SURFS
  6
Continuous
 62
     7
100
AcDbCircle
 10
206.7169764859
 20
328.4000458843
 30
0.0
 40
0.5
100
AcDbArc
 50
0.5
 51
90.0
  0
ARC
  5
5BB
330
1B
100
AcDbEntity
 67
     1
  8
06___PRT_ALL_SURFS
  6
Continuous
 62
     7
100
AcDbCircle
 10
110.2082876965
 20
328.4000458843
 30
0.0
 40
0.5
100
AcDbArc
 50
90.0
 51
179.5
  0
LINE
  5
5BC
330
1B
100
AcDbEntity
 67
     1
  8
06___PRT_ALL_SURFS
  6
Continuous
 62
     7
100
AcDbLine
 10
109.708306735
 20
328.4044091521
 30
0.0
 11
109.2762887017
 21
278.9000458843
 31
0.0
  0
LINE
  5
5BD
330
1B
100
AcDbEntity
 67
     1
  8
7_ALL_FEATURES
  6
Continuous
 62
     7
100
AcDbLine
 10
207.6489426267
 20
278.9000458843
 30
0.0
 11
206.1358851791
 21
278.9000458843
 31
0.0
  0
LINE
  5
5BE
330
1B
100
AcDbEntity
 67
     1
  8
7_ALL_FEATURES
  6
Continuous
 62
     7
100
AcDbLine
 10
206.1358851791
 20
278.9000458843
 30
0.0
 11
158.4626320912
 21
278.9000458843
 31
0.0
  0
LINE
  5
5BF
330
1B
100
AcDbEntity
 67
     1
  8
7_ALL_FEATURES
  6
Continuous
 62
     7
100
AcDbLine
 10
158.4626320912
 20
278.9000458843
 30
0.0
 11
110.7893790034
 21
278.9000458843
 31
0.0
  0
LINE
  5
5C0
330
1B
100
AcDbEntity
 67
     1
  8
7_ALL_FEATURES
  6
Continuous
 62
     7
100
AcDbLine
 10
110.7893790034
 20
278.9000458843
 30
0.0
 11
109.2763215557
 21
278.9000458843
 31
0.0
  0
LINE
  5
5C1
330
1B
100
AcDbEntity
 67
     1
  8
06___PRT_ALL_SURFS
  6
Continuous
 62
     7
100
AcDbLine
 10
207.2169574474
 20
328.4044091521
 30
0.0
 11
207.6489754808
 21
278.9000458843
 31
0.0
  0
LINE
  5
5C2
330
1B
100
AcDbEntity
 67
     1
  8
06___PRT_ALL_SURFS
  6
Continuous
 62
     9
100
AcDbLine
 10
109.708306735
 20
328.4044091521
 30
0.0
 11
123.9248631877
 21
328.4044091521
 31
0.0
  0
LINE
  5
5C3
330
1B
100
AcDbEntity
 67
     1
  8
06___PRT_ALL_SURFS
  6
Continuous
 62
     9
100
AcDbLine
 10
123.9248631877
 20
328.4044091521
 30
0.0
 11
125.633466953
 21
328.4044091521
 31
0.0
  0
LINE
  5
5C4
330
1B
100
AcDbEntity
 67
     1
  8
06___PRT_ALL_SURFS
  6
Continuous
 62
     9
100
AcDbLine
 10
125.633466953
 20
328.4044091521
 30
0.0
 11
126.2874733004
 21
328.4044091521
 31
0.0
  0
LINE
  5
5C5
330
1B
100
AcDbEntity
 67
     1
  8
06___PRT_ALL_SURFS
  6
Continuous
 62
     9
100
AcDbLine
 10
126.2874733004
 20
328.4044091521
 30
0.0
 11
126.3952054636
 21
328.4044091521
 31
0.0
  0
LINE
  5
5C6
330
1B
100
AcDbEntity
 67
     1
  8
06___PRT_ALL_SURFS
  6
Continuous
 62
     9
100
AcDbLine
 10
126.3952054636
 20
328.4044091521
 30
0.0
 11
127.5435615945
 21
328.4044091521
 31
0.0
  0
LINE
  5
5C7
330
1B
100
AcDbEntity
 67
     1
  8
06___PRT_ALL_SURFS
  6
Continuous
 62
     9
100
AcDbLine
 10
127.5435615945
 20
328.4044091521
 30
0.0
 11
129.1690294318
 21
328.4044091521
 31
0.0
  0
LINE
  5
5C8
330
1B
100
AcDbEntity
 67
     1
  8
06___PRT_ALL_SURFS
  6
Continuous
 62
     9
100
AcDbLine
 10
129.1690294318
 20
328.4044091521
 30
0.0
 11
158.4626320912
 21
328.4044091521
 31
0.0
  0
LINE
  5
5C9
330
1B
100
AcDbEntity
 67
     1
  8
06___PRT_ALL_SURFS
  6
Continuous
 62
     9
100
AcDbLine
 10
158.4626320912
 20
328.4044091521
 30
0.0
 11
187.7562347506
 21
328.4044091521
 31
0.0
  0
LINE
  5
5CA
330
1B
100
AcDbEntity
 67
     1
  8
06___PRT_ALL_SURFS
  6
Continuous
 62
     9
100
AcDbLine
 10
187.7562347506
 20
328.4044091521
 30
0.0
 11
189.3707876791
 21
328.4044091521
 31
0.0
  0
LINE
  5
5CB
330
1B
100
AcDbEntity
 67
     1
  8
06___PRT_ALL_SURFS
  6
Continuous
 62
     9
100
AcDbLine
 10
189.3707876791
 20
328.4044091521
 30
0.0
 11
190.5300618771
 21
328.4044091521
 31
0.0
  0
LINE
  5
5CC
330
1B
100
AcDbEntity
 67
     1
  8
06___PRT_ALL_SURFS
  6
Continuous
 62
     9
100
AcDbLine
 10
190.5300618771
 20
328.4044091521
 30
0.0
 11
190.6453871529
 21
328.4044091521
 31
0.0
  0
LINE
  5
5CD
330
1B
100
AcDbEntity
 67
     1
  8
06___PRT_ALL_SURFS
  6
Continuous
 62
     9
100
AcDbLine
 10
190.6453871529
 20
328.4044091521
 30
0.0
 11
191.2917972294
 21
328.4044091521
 31
0.0
  0
LINE
  5
5CE
330
1B
100
AcDbEntity
 67
     1
  8
06___PRT_ALL_SURFS
  6
Continuous
 62
     9
100
AcDbLine
 10
191.2917972294
 20
328.4044091521
 30
0.0
 11
192.9898869859
 21
328.4044091521
 31
0.0
  0
LINE
  5
5CF
330
1B
100
AcDbEntity
 67
     1
  8
06___PRT_ALL_SURFS
  6
Continuous
 62
     9
100
AcDbLine
 10
192.9898869859
 20
328.4044091521
 30
0.0
 11
207.2169574474
 21
328.4044091521
 31
0.0
  0
LINE
  5
5D0
330
1B
100
AcDbEntity
 67
     1
  8
7_ALL_FEATURES
  6
Continuous
 62
     3
100
AcDbLine
 10
206.5126320912
 20
331.7000458843
 30
0.0
 11
206.5126320912
 21
342.4000458843
 31
0.0
  0
ARC
  5
5D1
330
1B
100
AcDbEntity
 67
     1
  8
7_ALL_FEATURES
  6
Continuous
 62
     3
100
AcDbCircle
 10
205.5126320912
 20
331.7000458843
 30
0.0
 40
1.0
100
AcDbArc
 50
323.2385461387
 51
360.0
  0
LINE
  5
5D2
330
1B
100
AcDbEntity
 67
     1
  8
7_ALL_FEATURES
  6
Continuous
 62
     7
100
AcDbLine
 10
441.5006244129
 20
329.9000458843
 30
0.0
 11
442.5040819394
 21
329.9000458843
 31
0.0
  0
LINE
  5
5D3
330
1B
100
AcDbEntity
 67
     1
  8
7_ALL_FEATURES
  6
Continuous
 62
     7
100
AcDbLine
 10
442.5040819394
 20
329.9000458843
 30
0.0
 11
443.5037374861
 21
329.9000458843
 31
0.0
  0
LINE
  5
5D4
330
1B
100
AcDbEntity
 67
     1
  8
7_ALL_FEATURES
  6
Continuous
 62
     7
100
AcDbLine
 10
443.5037374861
 20
329.9000458843
 30
0.0
 11
444.5033930328
 21
329.9000458843
 31
0.0
  0
LINE
  5
5D5
330
1B
100
AcDbEntity
 67
     1
  8
7_ALL_FEATURES
  6
Continuous
 62
     7
100
AcDbLine
 10
444.5033930328
 20
329.9000458843
 30
0.0
 11
452.0037374861
 21
329.9000458843
 31
0.0
  0
LINE
  5
5D6
330
1B
100
AcDbEntity
 67
     1
  8
7_ALL_FEATURES
  6
Continuous
 62
     7
100
AcDbLine
 10
441.5006244129
 20
329.9000458843
 30
0.0
 11
365.5068505592
 21
329.9000458843
 31
0.0
  0
LINE
  5
5D7
330
1B
100
AcDbEntity
 67
     1
  8
7_ALL_FEATURES
  6
Continuous
 62
     7
100
AcDbLine
 10
355.0037374861
 20
329.9000458843
 30
0.0
 11
362.5040819394
 21
329.9000458843
 31
0.0
  0
LINE
  5
5D8
330
1B
100
AcDbEntity
 67
     1
  8
7_ALL_FEATURES
  6
Continuous
 62
     7
100
AcDbLine
 10
362.5040819394
 20
329.9000458843
 30
0.0
 11
363.5037374861
 21
329.9000458843
 31
0.0
  0
LINE
  5
5D9
330
1B
100
AcDbEntity
 67
     1
  8
7_ALL_FEATURES
  6
Continuous
 62
     7
100
AcDbLine
 10
363.5037374861
 20
329.9000458843
 30
0.0
 11
364.5033930328
 21
329.9000458843
 31
0.0
  0
LINE
  5
5DA
330
1B
100
AcDbEntity
 67
     1
  8
7_ALL_FEATURES
  6
Continuous
 62
     7
100
AcDbLine
 10
364.5033930328
 20
329.9000458843
 30
0.0
 11
365.5068505592
 21
329.9000458843
 31
0.0
  0
LINE
  5
5DB
330
1B
100
AcDbEntity
 67
     1
  8
02___PRT_ALL_AXES
  6
Continuous
 62
     7
100
AcDbLine
 10
355.0037374861
 20
329.9000458843
 30
0.0
 11
353.5045635943
 21
329.9000458843
 31
0.0
  0
LINE
  5
5DC
330
1B
100
AcDbEntity
 67
     1
  8
02___PRT_ALL_AXES
  6
Continuous
 62
     7
100
AcDbLine
 10
355.0037374861
 20
328.9000458843
 30
0.0
 11
353.5045635943
 21
328.9000458843
 31
0.0
  0
LINE
  5
5DD
330
1B
100
AcDbEntity
 67
     1
  8
7_ALL_FEATURES
  6
Continuous
 62
     7
100
AcDbLine
 10
365.5068505592
 20
328.9000458843
 30
0.0
 11
364.5040819394
 21
328.9000458843
 31
0.0
  0
LINE
  5
5DE
330
1B
100
AcDbEntity
 67
     1
  8
7_ALL_FEATURES
  6
Continuous
 62
     7
100
AcDbLine
 10
364.5040819394
 20
328.9000458843
 30
0.0
 11
363.5037374861
 21
328.9000458843
 31
0.0
  0
LINE
  5
5DF
330
1B
100
AcDbEntity
 67
     1
  8
7_ALL_FEATURES
  6
Continuous
 62
     7
100
AcDbLine
 10
363.5037374861
 20
328.9000458843
 30
0.0
 11
362.5040819394
 21
328.9000458843
 31
0.0
  0
LINE
  5
5E0
330
1B
100
AcDbEntity
 67
     1
  8
7_ALL_FEATURES
  6
Continuous
 62
     7
100
AcDbLine
 10
362.5040819394
 20
328.9000458843
 30
0.0
 11
355.0037374861
 21
328.9000458843
 31
0.0
  0
LINE
  5
5E1
330
1B
100
AcDbEntity
 67
     1
  8
7_ALL_FEATURES
  6
Continuous
 62
     7
100
AcDbLine
 10
441.5006244129
 20
328.9000458843
 30
0.0
 11
365.5068505592
 21
328.9000458843
 31
0.0
  0
LINE
  5
5E2
330
1B
100
AcDbEntity
 67
     1
  8
7_ALL_FEATURES
  6
Continuous
 62
     7
100
AcDbLine
 10
452.0037374861
 20
328.9000458843
 30
0.0
 11
444.5033930328
 21
328.9000458843
 31
0.0
  0
LINE
  5
5E3
330
1B
100
AcDbEntity
 67
     1
  8
7_ALL_FEATURES
  6
Continuous
 62
     7
100
AcDbLine
 10
444.5033930328
 20
328.9000458843
 30
0.0
 11
443.5037374861
 21
328.9000458843
 31
0.0
  0
LINE
  5
5E4
330
1B
100
AcDbEntity
 67
     1
  8
7_ALL_FEATURES
  6
Continuous
 62
     7
100
AcDbLine
 10
443.5037374861
 20
328.9000458843
 30
0.0
 11
442.5040819394
 21
328.9000458843
 31
0.0
  0
LINE
  5
5E5
330
1B
100
AcDbEntity
 67
     1
  8
7_ALL_FEATURES
  6
Continuous
 62
     7
100
AcDbLine
 10
442.5040819394
 20
328.9000458843
 30
0.0
 11
441.5006244129
 21
328.9000458843
 31
0.0
  0
LINE
  5
5E6
330
1B
100
AcDbEntity
 67
     1
  8
02___PRT_ALL_AXES
  6
Continuous
 62
     7
100
AcDbLine
 10
353.5037374861
 20
329.9000458843
 30
0.0
 11
353.5037374861
 21
328.9000458843
 31
0.0
  0
LINE
  5
5E7
330
1B
100
AcDbEntity
 67
     1
  8
02___PRT_ALL_AXES
  6
Continuous
 62
     7
100
AcDbLine
 10
453.5029113779
 20
328.9000458843
 30
0.0
 11
452.0037374861
 21
328.9000458843
 31
0.0
  0
LINE
  5
5E8
330
1B
100
AcDbEntity
 67
     1
  8
02___PRT_ALL_AXES
  6
Continuous
 62
     7
100
AcDbLine
 10
453.5029113779
 20
329.9000458843
 30
0.0
 11
452.0037374861
 21
329.9000458843
 31
0.0
  0
LINE
  5
5E9
330
1B
100
AcDbEntity
 67
     1
  8
02___PRT_ALL_AXES
  6
Continuous
 62
     7
100
AcDbLine
 10
453.5037374861
 20
329.9000458843
 30
0.0
 11
453.5037374861
 21
328.9000458843
 31
0.0
  0
LINE
  5
5EA
330
1B
100
AcDbEntity
 67
     1
  8
7_ALL_FEATURES
  6
Continuous
 62
     7
100
AcDbLine
 10
452.0037374861
 20
328.9000458843
 30
0.0
 11
452.0037374861
 21
329.9000458843
 31
0.0
  0
LINE
  5
5EB
330
1B
100
AcDbEntity
 67
     1
  8
7_ALL_FEATURES
  6
Continuous
 62
     7
100
AcDbLine
 10
355.0037374861
 20
328.9000458843
 30
0.0
 11
355.0037374861
 21
329.9000458843
 31
0.0
  0
LINE
  5
5EC
330
1B
100
AcDbEntity
 67
     1
  8
7_ALL_FEATURES
  6
Continuous
 62
     7
100
AcDbLine
 10
365.5068505592
 20
328.9000458843
 30
0.0
 11
365.5068505592
 21
329.9000458843
 31
0.0
  0
LINE
  5
5ED
330
1B
100
AcDbEntity
 67
     1
  8
7_ALL_FEATURES
  6
Continuous
 62
     7
100
AcDbLine
 10
441.5006244129
 20
328.9000458843
 30
0.0
 11
441.5006244129
 21
329.9000458843
 31
0.0
  0
ARC
  5
5EE
330
1B
100
AcDbEntity
 67
     1
  8
7_ALL_FEATURES
  6
Continuous
 62
     7
100
AcDbCircle
 10
356.4537374861
 20
331.7000458843
 30
0.0
 40
1.8
100
AcDbArc
 50
180.0
 51
270.0
  0
LINE
  5
5EF
330
1B
100
AcDbEntity
 67
     1
  8
7_ALL_FEATURES
  6
Continuous
 62
     7
100
AcDbLine
 10
451.5537374861
 20
342.4000458843
 30
0.0
 11
354.6537374861
 21
342.4000458843
 31
0.0
  0
ARC
  5
5F0
330
1B
100
AcDbEntity
 67
     1
  8
7_ALL_FEATURES
  6
Continuous
 62
     7
100
AcDbCircle
 10
450.5537374861
 20
331.7000458843
 30
0.0
 40
1.8
100
AcDbArc
 50
270.0
 51
360.0
  0
LINE
  5
5F1
330
1B
100
AcDbEntity
 67
     1
  8
7_ALL_FEATURES
  6
Continuous
 62
     7
100
AcDbLine
 10
452.3537374861
 20
331.7000458843
 30
0.0
 11
452.3537374861
 21
342.4000458843
 31
0.0
  0
SPLINE
  5
5F2
330
1B
100
AcDbEntity
 67
     1
  8
7_ALL_FEATURES
  6
Continuous
 62
     7
100
AcDbSpline
 70
     0
 71
     3
 72
    14
 73
    10
 74
     0
 42
0.000000001
 43
0.0000001
 40
0.0
 40
0.0
 40
0.0
 40
0.0
 40
0.3450206262
 40
0.5028891921
 40
0.6441876891
 40
0.7648638014
 40
0.8628652153
 40
0.9389207407
 40
1.0
 40
1.0
 40
1.0
 40
1.0
 10
451.5537374861
 20
331.7000458843
 30
0.0
 10
451.4722904975
 20
331.4697599493
 30
0.0
 10
451.3539790537
 20
331.1338857801
 30
0.0
 10
451.1855210967
 20
330.7099718971
 30
0.0
 10
451.0633804922
 20
330.4388308534
 30
0.0
 10
450.9414463515
 20
330.21457675
 30
0.0
 10
450.8193576934
 20
330.0444423341
 30
0.0
 10
450.6941318788
 20
329.9312468368
 30
0.0
 10
450.5969798413
 20
329.9000458843
 30
0.0
 10
450.5537374861
 20
329.9000458843
 30
0.0
  0
SPLINE
  5
5F3
330
1B
100
AcDbEntity
 67
     1
  8
7_ALL_FEATURES
  6
Continuous
 62
     7
100
AcDbSpline
 70
     0
 71
     3
 72
    13
 73
     9
 74
     0
 42
0.000000001
 43
0.0000001
 40
0.0
 40
0.0
 40
0.0
 40
0.0
 40
0.3126059149
 40
0.5927048455
 40
0.7132655414
 40
0.8195958715
 40
0.9135044222
 40
1.0
 40
1.0
 40
1.0
 40
1.0
 10
354.6537374861
 20
331.7000458843
 30
0.0
 10
354.8010253193
 20
331.4686866969
 30
0.0
 10
355.0801477626
 20
331.0302941492
 30
0.0
 10
355.4518710956
 20
330.52420936
 30
0.0
 10
355.7645657493
 20
330.2065357117
 30
0.0
 10
355.9894405379
 20
330.0349554391
 30
0.0
 10
356.218821168
 20
329.9260352203
 30
0.0
 10
356.3778507931
 20
329.9000458843
 30
0.0
 10
356.4537374861
 20
329.9000458843
 30
0.0
  0
LINE
  5
5F4
330
1B
100
AcDbEntity
 67
     1
  8
7_ALL_FEATURES
  6
Continuous
 62
     7
100
AcDbLine
 10
451.5537374861
 20
331.7000458843
 30
0.0
 11
451.5537374861
 21
342.4000458843
 31
0.0
  0
LINE
  5
5F5
330
1B
100
AcDbEntity
 67
     1
  8
7_ALL_FEATURES
  6
Continuous
 62
     7
100
AcDbLine
 10
354.6537374861
 20
331.7000458843
 30
0.0
 11
354.6537374861
 21
342.4000458843
 31
0.0
  0
LINE
  5
5F6
330
1B
100
AcDbEntity
 67
     1
  8
7_ALL_FEATURES
  6
Continuous
 62
     7
100
AcDbLine
 10
451.5537374861
 20
342.4000458843
 30
0.0
 11
452.3537374861
 21
342.4000458843
 31
0.0
  0
LINE
  5
5F7
330
1B
100
AcDbEntity
 67
     1
  8
7_ALL_FEATURES
  6
Continuous
 62
     9
100
AcDbLine
 10
451.5537374861
 20
331.7000458843
 30
0.0
 11
354.6537374861
 21
331.7000458843
 31
0.0
  0
LINE
  5
5F8
330
1B
100
AcDbEntity
 67
     1
  8
7_ALL_FEATURES
  6
Continuous
 62
     7
100
AcDbLine
 10
451.5537374861
 20
331.7000458843
 30
0.0
 11
452.3537374861
 21
331.7000458843
 31
0.0
  0
LINE
  5
5F9
330
1B
100
AcDbEntity
 67
     1
  8
7_ALL_FEATURES
  6
Continuous
 62
     7
100
AcDbLine
 10
452.6900808756
 20
278.9000458843
 30
0.0
 11
451.1769905739
 21
278.9000458843
 31
0.0
  0
LINE
  5
5FA
330
1B
100
AcDbEntity
 67
     1
  8
7_ALL_FEATURES
  6
Continuous
 62
     7
100
AcDbLine
 10
451.1769905739
 20
278.9000458843
 30
0.0
 11
355.8304843982
 21
278.9000458843
 31
0.0
  0
LINE
  5
5FB
330
1B
100
AcDbEntity
 67
     1
  8
7_ALL_FEATURES
  6
Continuous
 62
     7
100
AcDbLine
 10
355.8304843982
 20
278.9000458843
 30
0.0
 11
354.3275584697
 21
278.9000458843
 31
0.0
  0
LINE
  5
5FC
330
1B
100
AcDbEntity
 67
     1
  8
06___PRT_ALL_SURFS
  6
Continuous
 62
     7
100
AcDbLine
 10
452.2580628423
 20
328.4044091521
 30
0.0
 11
452.6900808756
 21
278.9000458843
 31
0.0
  0
ARC
  5
5FD
330
1B
100
AcDbEntity
 67
     1
  8
06___PRT_ALL_SURFS
  6
Continuous
 62
     7
100
AcDbCircle
 10
355.2493930914
 20
328.4000458843
 30
0.0
 40
0.5
100
AcDbArc
 50
90.0
 51
119.8332553093
  0
ARC
  5
5FE
330
1B
100
AcDbEntity
 67
     1
  8
06___PRT_ALL_SURFS
  6
Continuous
 62
     7
100
AcDbCircle
 10
355.2493930914
 20
328.4000458843
 30
0.0
 40
0.5
100
AcDbArc
 50
119.8332553093
 51
179.9999986892
  0
ARC
  5
5FF
330
1B
100
AcDbEntity
 67
     1
  8
06___PRT_ALL_SURFS
  6
Continuous
 62
     7
100
AcDbCircle
 10
451.7580818808
 20
328.4000458843
 30
0.0
 40
0.5
100
AcDbArc
 50
60.1667446907
 51
90.0
  0
ARC
  5
600
330
1B
100
AcDbEntity
 67
     1
  8
06___PRT_ALL_SURFS
  6
Continuous
 62
     7
100
AcDbCircle
 10
451.7580818808
 20
328.4000458843
 30
0.0
 40
0.5
100
AcDbArc
 50
0.5
 51
60.1667446907
  0
ARC
  5
601
330
1B
100
AcDbEntity
 67
     1
  8
06___PRT_ALL_SURFS
  6
Continuous
 62
     7
100
AcDbCircle
 10
354.7450106183
 20
327.9000458843
 30
0.0
 40
0.5
100
AcDbArc
 50
89.9997316296
 51
110.7773166865
  0
ARC
  5
602
330
1B
100
AcDbEntity
 67
     1
  8
06___PRT_ALL_SURFS
  6
Continuous
 62
     7
100
AcDbCircle
 10
354.7450106183
 20
327.9000458843
 30
0.0
 40
0.5
100
AcDbArc
 50
110.7773166865
 51
131.9458075656
  0
ARC
  5
603
330
1B
100
AcDbEntity
 67
     1
  8
06___PRT_ALL_SURFS
  6
Continuous
 62
     7
100
AcDbCircle
 10
354.7450106183
 20
327.9000458843
 30
0.0
 40
0.5
100
AcDbArc
 50
131.9458075656
 51
137.3223245034
  0
ARC
  5
604
330
1B
100
AcDbEntity
 67
     1
  8
06___PRT_ALL_SURFS
  6
Continuous
 62
     7
100
AcDbCircle
 10
354.7450106183
 20
327.9000458843
 30
0.0
 40
0.5
100
AcDbArc
 50
137.3223245034
 51
153.6632124533
  0
ARC
  5
605
330
1B
100
AcDbEntity
 67
     1
  8
06___PRT_ALL_SURFS
  6
Continuous
 62
     7
100
AcDbCircle
 10
354.7450106183
 20
327.9000458843
 30
0.0
 40
0.5
100
AcDbArc
 50
153.6632124533
 51
158.444972327
  0
ARC
  5
606
330
1B
100
AcDbEntity
 67
     1
  8
06___PRT_ALL_SURFS
  6
Continuous
 62
     7
100
AcDbCircle
 10
354.7450106183
 20
327.9000458843
 30
0.0
 40
0.5
100
AcDbArc
 50
158.444972327
 51
179.5
  0
ARC
  5
607
330
1B
100
AcDbEntity
 67
     1
  8
06___PRT_ALL_SURFS
  6
Continuous
 62
     7
100
AcDbCircle
 10
354.7450106183
 20
327.9000458843
 30
0.0
 40
0.5
100
AcDbArc
 50
89.9997316296
 51
179.5
  0
LINE
  5
608
330
1B
100
AcDbEntity
 67
     1
  8
7_ALL_FEATURES
  6
Continuous
 62
     7
100
AcDbLine
 10
354.3275584697
 20
278.9000458843
 30
0.0
 11
353.8173750574
 21
278.9000458843
 31
0.0
  0
LINE
  5
609
330
1B
100
AcDbEntity
 67
     1
  8
7_ALL_FEATURES
  6
Continuous
 62
     7
100
AcDbLine
 10
354.2450296568
 20
327.9044091521
 30
0.0
 11
353.8173750574
 21
278.9000458843
 31
0.0
  0
SPLINE
  5
60A
330
1B
100
AcDbEntity
 67
     1
  8
06___PRT_ALL_SURFS
  6
Continuous
 62
     7
100
AcDbSpline
 70
     0
 71
     3
 72
    16
 73
    12
 74
     0
 42
0.000000001
 43
0.0000001
 40
0.0
 40
0.0
 40
0.0
 40
0.0
 40
0.0049477607
 40
0.0193956624
 40
0.0432185226
 40
0.0762452461
 40
0.1686923263
 40
0.2929231271
 40
0.4443690915
 40
0.6173261913
 40
1.0
 40
1.0
 40
1.0
 40
1.0
 10
354.7519355206
 20
328.4000450063
 30
0.0
 10
354.7527604657
 20
328.4000450063
 30
0.0
 10
354.7519389176
 20
328.3949574202
 30
0.0
 10
354.753493882
 20
328.3895384952
 30
0.0
 10
354.7533368189
 20
328.3766689343
 30
0.0
 10
354.7544169665
 20
328.3523766573
 30
0.0
 10
354.7548878074
 20
328.3103219306
 30
0.0
 10
354.7556991439
 20
328.2491438169
 30
0.0
 10
354.756093968
 20
328.1742730166
 30
0.0
 10
354.7562832076
 20
328.0564110321
 30
0.0
 10
354.7558202351
 20
327.9637575685
 30
0.0
 10
354.7552633338
 20
327.8999564102
 30
0.0
  0
LINE
  5
60B
330
1B
100
AcDbEntity
 67
     1
  8
06___PRT_ALL_SURFS
  6
Continuous
 62
     9
100
AcDbLine
 10
354.2450296568
 20
327.9044091521
 30
0.0
 11
354.7552633338
 21
327.8999564102
 31
0.0
  0
LINE
  5
60C
330
1B
100
AcDbEntity
 67
     1
  8
7_ALL_FEATURES
  6
Continuous
 62
     7
100
AcDbLine
 10
354.7552633338
 20
327.8999564102
 30
0.0
 11
354.3275584697
 21
278.9000458843
 31
0.0
  0
LINE
  5
60D
330
1B
100
AcDbEntity
 67
     1
  8
06___PRT_ALL_SURFS
  6
Continuous
 62
     9
100
AcDbLine
 10
354.7519355206
 20
328.4000450063
 30
0.0
 11
368.9659685826
 21
328.4044091521
 31
0.0
  0
LINE
  5
60E
330
1B
100
AcDbEntity
 67
     1
  8
06___PRT_ALL_SURFS
  6
Continuous
 62
     9
100
AcDbLine
 10
368.9659685826
 20
328.4044091521
 30
0.0
 11
370.6745723479
 21
328.4044091521
 31
0.0
  0
LINE
  5
60F
330
1B
100
AcDbEntity
 67
     1
  8
06___PRT_ALL_SURFS
  6
Continuous
 62
     9
100
AcDbLine
 10
370.6745723479
 20
328.4044091521
 30
0.0
 11
371.4363108585
 21
328.4044091521
 31
0.0
  0
LINE
  5
610
330
1B
100
AcDbEntity
 67
     1
  8
06___PRT_ALL_SURFS
  6
Continuous
 62
     9
100
AcDbLine
 10
371.4363108585
 20
328.4044091521
 30
0.0
 11
372.5846669894
 21
328.4044091521
 31
0.0
  0
LINE
  5
611
330
1B
100
AcDbEntity
 67
     1
  8
06___PRT_ALL_SURFS
  6
Continuous
 62
     9
100
AcDbLine
 10
372.5846669894
 20
328.4044091521
 30
0.0
 11
374.2101348267
 21
328.4044091521
 31
0.0
  0
LINE
  5
612
330
1B
100
AcDbEntity
 67
     1
  8
06___PRT_ALL_SURFS
  6
Continuous
 62
     9
100
AcDbLine
 10
374.2101348267
 20
328.4044091521
 30
0.0
 11
432.7973401455
 21
328.4044091521
 31
0.0
  0
LINE
  5
613
330
1B
100
AcDbEntity
 67
     1
  8
06___PRT_ALL_SURFS
  6
Continuous
 62
     9
100
AcDbLine
 10
432.7973401455
 20
328.4044091521
 30
0.0
 11
435.571167272
 21
328.4044091521
 31
0.0
  0
LINE
  5
614
330
1B
100
AcDbEntity
 67
     1
  8
06___PRT_ALL_SURFS
  6
Continuous
 62
     9
100
AcDbLine
 10
435.571167272
 20
328.4044091521
 30
0.0
 11
436.3329026243
 21
328.4044091521
 31
0.0
  0
LINE
  5
615
330
1B
100
AcDbEntity
 67
     1
  8
06___PRT_ALL_SURFS
  6
Continuous
 62
     9
100
AcDbLine
 10
436.3329026243
 20
328.4044091521
 30
0.0
 11
452.2580628423
 21
328.4044091521
 31
0.0
  0
LINE
  5
616
330
1B
100
AcDbEntity
 67
     1
  8
7_ALL_FEATURES
  6
Continuous
 62
     3
100
AcDbLine
 10
451.5537374861
 20
331.7000458843
 30
0.0
 11
451.5537374861
 21
342.4000458843
 31
0.0
  0
ARC
  5
617
330
1B
100
AcDbEntity
 67
     1
  8
7_ALL_FEATURES
  6
Continuous
 62
     3
100
AcDbCircle
 10
450.5537374861
 20
331.7000458843
 30
0.0
 40
1.0
100
AcDbArc
 50
323.2385461387
 51
360.0
  0
DIMENSION
  5
618
330
1B
100
AcDbEntity
 67
     1
  8
0
  6
Continuous
 62
     2
100
AcDbDimension
280
     0
  2
*D1
 10
228.4626320912
 20
207.4138042069
 30
0.0
 11
158.5915194397
 21
207.4138042069
 31
0.0
 70
   160
 71
     5
 42
-1.0
 73
     0
 74
     0
 75
     0
  3
DIMSTYLE_1
100
AcDbAlignedDimension
 13
88.4626320912
 23
171.8988961037
 33
0.0
 14
228.4626320912
 24
171.8988961037
 34
0.0
100
AcDbRotatedDimension
  0
DIMENSION
  5
619
330
1B
100
AcDbEntity
 67
     1
  8
0
  6
Continuous
 62
     2
100
AcDbDimension
280
     0
  2
*D2
 10
207.3126320912
 20
194.9060875373
 30
0.0
 11
158.4626320912
 21
194.9060875373
 31
0.0
 70
   160
  1
{\Fgdt;o}<>
 71
     5
 42
-1.0
 73
     0
 74
     0
 75
     0
  3
DIMSTYLE_2
100
AcDbAlignedDimension
 13
109.6126320912
 23
182.7520091769
 33
0.0
 14
207.3126320912
 24
181.9520091769
 34
0.0
100
AcDbRotatedDimension
  0
DIMENSION
  5
61A
330
1B
100
AcDbEntity
 67
     1
  8
0
  6
Continuous
 62
     2
100
AcDbDimension
280
     0
  2
*D3
 10
238.1125446683
 20
329.9000458843
 30
0.0
 11
238.1125446683
 21
336.2911274797
 31
0.0
 70
   160
 71
     5
 42
-1.0
 73
     0
 74
     0
 75
     0
  3
DIMSTYLE_3
100
AcDbAlignedDimension
 13
211.2827664421
 23
342.4000458843
 33
0.0
 14
229.6785486904
 24
329.9000458843
 34
0.0
 50
270.0
100
AcDbRotatedDimension
  0
DIMENSION
  5
61B
330
1B
100
AcDbEntity
 67
     1
  8
0
  6
Continuous
 62
     2
100
AcDbDimension
280
     0
  2
*D4
 10
471.3659535864
 20
342.4000458843
 30
0.0
 11
471.3659535864
 21
310.6405631966
 31
0.0
 70
   160
 71
     5
 42
-1.0
 73
     0
 74
     0
 75
     0
  3
DIMSTYLE_2
100
AcDbAlignedDimension
 13
455.8298895519
 23
278.9000458843
 33
0.0
 14
454.9789833148
 24
342.4000458843
 34
0.0
 50
90.0
100
AcDbRotatedDimension
  0
LINE
  5
61C
330
1B
100
AcDbEntity
 67
     1
  8
0
  6
Continuous
 62
     2
100
AcDbLine
 10
454.0099950196
 20
76.025479964
 30
0.0
 11
584.0099950196
 21
76.025479964
 31
0.0
  0
LINE
  5
61D
330
1B
100
AcDbEntity
 67
     1
  8
0
  6
Continuous
 62
     2
100
AcDbLine
 10
454.0099950196
 20
76.025479964
 30
0.0
 11
454.0099950196
 21
10.025479964
 31
0.0
  0
LINE
  5
61E
330
1B
100
AcDbEntity
 67
     1
  8
0
  6
Continuous
 62
     2
100
AcDbLine
 10
484.0099950196
 20
68.025479964
 30
0.0
 11
584.0099950196
 21
68.025479964
 31
0.0
  0
LINE
  5
61F
330
1B
100
AcDbEntity
 67
     1
  8
0
  6
Continuous
 62
     2
100
AcDbLine
 10
454.0099950196
 20
60.025479964
 30
0.0
 11
584.0099950196
 21
60.025479964
 31
0.0
  0
LINE
  5
620
330
1B
100
AcDbEntity
 67
     1
  8
0
  6
Continuous
 62
     2
100
AcDbLine
 10
484.0099950196
 20
54.025479964
 30
0.0
 11
584.0099950196
 21
54.025479964
 31
0.0
  0
LINE
  5
621
330
1B
100
AcDbEntity
 67
     1
  8
0
  6
Continuous
 62
     2
100
AcDbLine
 10
484.0099950196
 20
48.025479964
 30
0.0
 11
584.0099950196
 21
48.025479964
 31
0.0
  0
LINE
  5
622
330
1B
100
AcDbEntity
 67
     1
  8
0
  6
Continuous
 62
     2
100
AcDbLine
 10
484.0099950196
 20
42.025479964
 30
0.0
 11
584.0099950196
 21
42.025479964
 31
0.0
  0
LINE
  5
623
330
1B
100
AcDbEntity
 67
     1
  8
0
  6
Continuous
 62
     2
100
AcDbLine
 10
484.0099950196
 20
36.025479964
 30
0.0
 11
584.0099950196
 21
36.025479964
 31
0.0
  0
LINE
  5
624
330
1B
100
AcDbEntity
 67
     1
  8
0
  6
Continuous
 62
     2
100
AcDbLine
 10
484.0099950196
 20
30.025479964
 30
0.0
 11
584.0099950196
 21
30.025479964
 31
0.0
  0
LINE
  5
625
330
1B
100
AcDbEntity
 67
     1
  8
0
  6
Continuous
 62
     2
100
AcDbLine
 10
454.0099950196
 20
24.025479964
 30
0.0
 11
584.0099950196
 21
24.025479964
 31
0.0
  0
LINE
  5
626
330
1B
100
AcDbEntity
 67
     1
  8
0
  6
Continuous
 62
     2
100
AcDbLine
 10
454.0099950196
 20
18.025479964
 30
0.0
 11
584.0099950196
 21
18.025479964
 31
0.0
  0
LINE
  5
627
330
1B
100
AcDbEntity
 67
     1
  8
0
  6
Continuous
 62
     2
100
AcDbLine
 10
454.0099950196
 20
14.025479964
 30
0.0
 11
584.0099950196
 21
14.025479964
 31
0.0
  0
LINE
  5
628
330
1B
100
AcDbEntity
 67
     1
  8
0
  6
Continuous
 62
     2
100
AcDbLine
 10
454.0099950196
 20
10.025479964
 30
0.0
 11
584.0099950196
 21
10.025479964
 31
0.0
  0
LINE
  5
629
330
1B
100
AcDbEntity
 67
     1
  8
0
  6
Continuous
 62
     2
100
AcDbLine
 10
484.0099950196
 20
76.025479964
 30
0.0
 11
484.0099950196
 21
18.025479964
 31
0.0
  0
LINE
  5
62A
330
1B
100
AcDbEntity
 67
     1
  8
0
  6
Continuous
 62
     2
100
AcDbLine
 10
504.0099950196
 20
60.025479964
 30
0.0
 11
504.0099950196
 21
54.025479964
 31
0.0
  0
LINE
  5
62B
330
1B
100
AcDbEntity
 67
     1
  8
0
  6
Continuous
 62
     2
100
AcDbLine
 10
534.0099950196
 20
30.025479964
 30
0.0
 11
534.0099950196
 21
18.025479964
 31
0.0
  0
LINE
  5
62C
330
1B
100
AcDbEntity
 67
     1
  8
0
  6
Continuous
 62
     2
100
AcDbLine
 10
544.0099950196
 20
60.025479964
 30
0.0
 11
544.0099950196
 21
54.025479964
 31
0.0
  0
LINE
  5
62D
330
1B
100
AcDbEntity
 67
     1
  8
0
  6
Continuous
 62
     2
100
AcDbLine
 10
544.0099950196
 20
48.025479964
 30
0.0
 11
544.0099950196
 21
42.025479964
 31
0.0
  0
LINE
  5
62E
330
1B
100
AcDbEntity
 67
     1
  8
0
  6
Continuous
 62
     2
100
AcDbLine
 10
564.0099950196
 20
60.025479964
 30
0.0
 11
564.0099950196
 21
54.025479964
 31
0.0
  0
LINE
  5
62F
330
1B
100
AcDbEntity
 67
     1
  8
0
  6
Continuous
 62
     2
100
AcDbLine
 10
574.0099950196
 20
48.025479964
 30
0.0
 11
574.0099950196
 21
42.025479964
 31
0.0
  0
LINE
  5
630
330
1B
100
AcDbEntity
 67
     1
  8
0
  6
Continuous
 62
     2
100
AcDbLine
 10
584.0099950196
 20
76.025479964
 30
0.0
 11
584.0099950196
 21
10.025479964
 31
0.0
  0
INSERT
  5
631
330
1B
100
AcDbEntity
 67
     1
  8
0
  6
Continuous
 62
     2
100
AcDbBlockReference
  2
PROIEZIONE_EU_BL0
 10
469.0099950196
 20
67.650479964
 30
0.0
  0
MTEXT
  5
632
330
1B
100
AcDbEntity
 67
     1
  8
9_SOLID
  6
Continuous
 62
     2
100
AcDbMText
 10
485.4974950196
 20
74.400479964
 30
0.0
 40
1.9
 41
142.3642857143
 46
0.0
 71
     1
 72
     1
  1
EN: Chamfer/radii unlisted 0.3x45°. Remove sharp edges.\PGen. tol.: hole H11, shaft h11, lenght Js12. UNI EN 22768 Medium Grande.
  7
TEXTSTYLE_6
 73
     1
 44
1.0
  0
MTEXT
  5
633
330
1B
100
AcDbEntity
 67
     1
  8
9_SOLID
  6
Continuous
 62
     2
100
AcDbMText
 10
485.4974950196
 20
66.400479964
 30
0.0
 40
1.9
 41
148.2678571429
 46
0.0
 71
     1
 72
     1
  1
IT: Sm./rac. non quotati 0.3x45°. Eliminare spigoli taglienti.\PToll. gen.: foro H11, albero h11, lunghezza Js12. UNI EN 22768 Grado Medio.
  7
TEXTSTYLE_6
 73
     1
 44
1.0
  0
INSERT
  5
634
330
1B
100
AcDbEntity
 67
     1
  8
0
  6
Continuous
 62
     2
100
AcDbBlockReference
  2
LOGO2_BL1
 10
467.8360420644
 20
42.025479964
 30
0.0
  0
MTEXT
  5
635
330
1B
100
AcDbEntity
 67
     1
  8
9_SOLID
  6
Continuous
 62
     2
100
AcDbMText
 10
485.4974950196
 20
58.275479964
 30
0.0
 40
3.0
 41
22.0714285714
 46
0.0
 71
     1
 72
     1
  1
Pj: 2E7
  7
TEXTSTYLE_6
 73
     1
 44
1.0
  0
MTEXT
  5
636
330
1B
100
AcDbEntity
 67
     1
  8
9_SOLID
  6
Continuous
 62
     2
100
AcDbMText
 10
505.4974950196
 20
58.275479964
 30
0.0
 40
3.0
 41
38.0357142857
 46
0.0
 71
     1
 72
     1
  1
% Check: %
  7
TEXTSTYLE_6
 73
     1
 44
1.0
  0
MTEXT
  5
637
330
1B
100
AcDbEntity
 67
     1
  8
9_SOLID
  6
Continuous
 62
     2
100
AcDbMText
 10
545.4974950196
 20
58.275479964
 30
0.0
 40
3.0
 41
19.5
 46
0.0
 71
     1
 72
     1
  1
Rev:00
  7
TEXTSTYLE_6
 73
     1
 44
1.0
  0
MTEXT
  5
638
330
1B
100
AcDbEntity
 67
     1
  8
9_SOLID
  6
Continuous
 62
     2
100
AcDbMText
 10
565.4974950196
 20
58.525479964
 30
0.0
 40
3.0
 41
19.7142857143
 46
0.0
 71
     1
 72
     1
  1
Ver: A
  7
TEXTSTYLE_6
 73
     1
 44
1.0
  0
MTEXT
  5
639
330
1B
100
AcDbEntity
 67
     1
  8
9_SOLID
  6
Continuous
 62
     2
100
AcDbMText
 10
485.4974950196
 20
52.275479964
 30
0.0
 40
3.0
 41
74.6785714286
 46
0.0
 71
     1
 72
     1
  1
Neutral code: 2E7_C_047
  7
TEXTSTYLE_6
 73
     1
 44
1.0
  0
MTEXT
  5
63A
330
1B
100
AcDbEntity
 67
     1
  8
9_SOLID
  6
Continuous
 62
     2
100
AcDbMText
 10
485.4974950196
 20
46.275479964
 30
0.0
 40
3.0
 41
19.3928571429
 46
0.0
 71
     1
 72
     1
  1
Code: 
  7
TEXTSTYLE_6
 73
     1
 44
1.0
  0
MTEXT
  5
63B
330
1B
100
AcDbEntity
 67
     1
  8
9_SOLID
  6
Continuous
 62
     2
100
AcDbMText
 10
545.4974950196
 20
46.525479964
 30
0.0
 40
3.0
 41
27.0
 46
0.0
 71
     1
 72
     1
  1
Scale: 1:1
  7
TEXTSTYLE_6
 73
     1
 44
1.0
  0
MTEXT
  5
63C
330
1B
100
AcDbEntity
 67
     1
  8
9_SOLID
  6
Continuous
 62
     2
100
AcDbMText
 10
579.0099950196
 20
46.525479964
 30
0.0
 40
3.0
 41
7.3928571429
 46
0.0
 71
     2
 72
     1
  1
A2
  7
TEXTSTYLE_6
 73
     1
 44
1.0
  0
MTEXT
  5
63D
330
1B
100
AcDbEntity
 67
     1
  8
9_SOLID
  6
Continuous
 62
     2
100
AcDbMText
 10
485.4974950196
 20
40.525479964
 30
0.0
 40
3.0
 41
55.3928571429
 46
0.0
 71
     1
 72
     1
  1
It descr.: WC4551
  7
TEXTSTYLE_6
 73
     1
 44
1.0
  0
MTEXT
  5
63E
330
1B
100
AcDbEntity
 67
     1
  8
9_SOLID
  6
Continuous
 62
     2
100
AcDbMText
 10
485.4974950196
 20
34.525479964
 30
0.0
 40
3.0
 41
33.9642857143
 46
0.0
 71
     1
 72
     1
  1
En descr.: 
  7
TEXTSTYLE_6
 73
     1
 44
1.0
  0
MTEXT
  5
63F
330
1B
100
AcDbEntity
 67
     1
  8
9_SOLID
  6
Continuous
 62
     2
100
AcDbMText
 10
485.4974950196
 20
28.525479964
 30
0.0
 40
3.0
 41
28.7142857143
 46
0.0
 71
     1
 72
     1
  1
Des.: A.F
  7
TEXTSTYLE_6
 73
     1
 44
1.0
  0
MTEXT
  5
640
330
1B
100
AcDbEntity
 67
     1
  8
9_SOLID
  6
Continuous
 62
     2
100
AcDbMText
 10
535.4974950196
 20
28.525479964
 30
0.0
 40
3.0
 41
34.8214285714
 46
0.0
 71
     1
 72
     1
  1
Check: A.P.
  7
TEXTSTYLE_6
 73
     1
 44
1.0
  0
MTEXT
  5
641
330
1B
100
AcDbEntity
 67
     1
  8
9_SOLID
  6
Continuous
 62
     2
100
AcDbMText
 10
455.4974950196
 20
22.525479964
 30
0.0
 40
3.0
 41
43.5
 46
0.0
 71
     1
 72
     1
  1
Date: 04.12.18
  7
TEXTSTYLE_6
 73
     1
 44
1.0
  0
MTEXT
  5
642
330
1B
100
AcDbEntity
 67
     1
  8
9_SOLID
  6
Continuous
 62
     2
100
AcDbMText
 10
485.4974950196
 20
22.525479964
 30
0.0
 40
3.0
 41
18.2142857143
 46
0.0
 71
     1
 72
     1
  1
Mat.: 
  7
TEXTSTYLE_6
 73
     1
 44
1.0
  0
MTEXT
  5
643
330
1B
100
AcDbEntity
 67
     1
  8
9_SOLID
  6
Continuous
 62
     2
100
AcDbMText
 10
535.4974950196
 20
22.025479964
 30
0.0
 40
2.0
 41
42.3571428571
 46
0.0
 71
     1
 72
     1
  1
Disegno per catalogo
  7
TEXTSTYLE_6
 73
     1
 44
1.0
  0
MTEXT
  5
644
330
1B
100
AcDbEntity
 67
     1
  8
9_SOLID
  6
Continuous
 62
     2
100
AcDbMText
 10
455.4974950196
 20
16.925479964
 30
0.0
 40
1.8
 41
175.6928571429
 46
0.0
 71
     1
 72
     1
  1
It: A norma di legge si diffida da qualsiasi riproduzione senza nostra autorizzazione esplicita.
  7
TEXTSTYLE_6
 73
     1
 44
1.0
  0
MTEXT
  5
645
330
1B
100
AcDbEntity
 67
     1
  8
9_SOLID
  6
Continuous
 62
     2
100
AcDbMText
 10
455.4974950196
 20
12.925479964
 30
0.0
 40
1.8
 41
157.6285714286
 46
0.0
 71
     1
 72
     1
  1
En: According to the law, beware of any reproduction made without our authorization.
  7
TEXTSTYLE_6
 73
     1
 44
1.0
  0
ENDSEC
  0
SECTION
  2
OBJECTS
  0
DICTIONARY
  5
646
330
0
100
AcDbDictionary
281
     1
  3
ACAD_DETAILVIEWSTYLE
350
69C
  3
ACAD_GROUP
350
647
  3
ACAD_LAYOUT
350
66F
  3
ACAD_MATERIAL
350
68B
  3
ACAD_MLEADERSTYLE
350
691
  3
ACAD_MLINESTYLE
350
648
  3
ACAD_PLOTSETTINGS
350
64A
  3
ACAD_PLOTSTYLENAME
350
64B
  3
ACAD_SCALELIST
350
64D
  3
ACAD_SECTIONVIEWSTYLE
350
69D
  3
ACAD_TABLESTYLE
350
68F
  3
ACAD_VISUALSTYLE
350
672
  3
ACDB_RECOMPOSE_DATA
350
698
  3
AcDbVariableDictionary
350
694
  3
APPDATA
350
693
  0
DICTIONARY
  5
69C
102
{ACAD_REACTORS
330
646
102
}
330
646
100
AcDbDictionary
281
     1
  0
DICTIONARY
  5
647
102
{ACAD_REACTORS
330
646
102
}
330
646
100
AcDbDictionary
281
     1
  0
DICTIONARY
  5
66F
102
{ACAD_REACTORS
330
646
102
}
330
646
100
AcDbDictionary
281
     1
  3
Foglio 1
350
671
  3
Model
350
670
  0
DICTIONARY
  5
68B
102
{ACAD_REACTORS
330
646
102
}
330
646
100
AcDbDictionary
281
     1
  3
ByBlock
350
68D
  3
ByLayer
350
68C
  3
Global
350
68E
  0
DICTIONARY
  5
691
102
{ACAD_REACTORS
330
646
102
}
330
646
100
AcDbDictionary
281
     1
  3
Standard
350
692
  0
DICTIONARY
  5
648
102
{ACAD_REACTORS
330
646
102
}
330
646
100
AcDbDictionary
281
     1
  3
STANDARD
350
649
  0
DICTIONARY
  5
64A
102
{ACAD_REACTORS
330
646
102
}
330
646
100
AcDbDictionary
281
     1
  0
ACDBDICTIONARYWDFLT
  5
64B
102
{ACAD_REACTORS
330
646
102
}
330
646
100
AcDbDictionary
281
     1
  3
Normal
350
64C
100
AcDbDictionaryWithDefault
340
64C
  0
DICTIONARY
  5
64D
102
{ACAD_REACTORS
330
646
102
}
330
646
100
AcDbDictionary
281
     1
  3
A0
350
64E
  3
A1
350
64F
  3
A2
350
650
  3
A3
350
651
  3
A4
350
652
  3
A5
350
653
  3
A6
350
654
  3
A7
350
655
  3
A8
350
656
  3
A9
350
657
  3
B0
350
658
  3
B1
350
659
  3
B2
350
65A
  3
B3
350
65B
  3
B4
350
65C
  3
B5
350
65D
  3
B6
350
65E
  3
B7
350
65F
  3
B8
350
660
  3
B9
350
661
  3
C0
350
662
  3
C1
350
663
  3
C2
350
664
  3
C3
350
665
  3
C4
350
666
  3
C5
350
667
  3
C6
350
668
  3
C7
350
669
  3
C8
350
66A
  3
C9
350
66B
  3
D0
350
66C
  3
D1
350
66D
  3
D2
350
66E
  0
DICTIONARY
  5
69D
102
{ACAD_REACTORS
330
646
102
}
330
646
100
AcDbDictionary
281
     1
  0
DICTIONARY
  5
68F
102
{ACAD_REACTORS
330
646
102
}
330
646
100
AcDbDictionary
281
     1
  3
Standard
350
690
  0
DICTIONARY
  5
672
102
{ACAD_REACTORS
330
646
102
}
330
646
100
AcDbDictionary
281
     1
  3
2dWireframe
350
677
  3
Basic
350
67A
  3
Brighten
350
67E
  3
ColorChange
350
682
  3
Conceptual
350
67C
  3
Dim
350
67D
  3
EdgeColorOff
350
685
  3
Facepattern
350
681
  3
Flat
350
673
  3
FlatWithEdges
350
674
  3
Gouraud
350
675
  3
GouraudWithEdges
350
676
  3
Hidden
350
679
  3
JitterOff
350
683
  3
Linepattern
350
680
  3
OverhangOff
350
684
  3
Realistic
350
67B
  3
Shaded
350
68A
  3
Shaded with edges
350
689
  3
Shades of Gray
350
686
  3
Sketchy
350
687
  3
Thicken
350
67F
  3
Wireframe
350
678
  3
X-Ray
350
688
  0
XRECORD
  5
698
102
{ACAD_REACTORS
330
646
102
}
330
646
100
AcDbXrecord
280
     1
 90
        1
330
690
  0
DICTIONARY
  5
694
102
{ACAD_REACTORS
330
646
102
}
330
646
100
AcDbDictionary
281
     1
  3
CANNOSCALE
350
695
  3
CMLEADERSTYLE
350
69A
  3
CTABLESTYLE
350
699
  3
MSLTSCALE
350
69B
  0
DICTIONARY
  5
693
102
{ACAD_REACTORS
330
646
102
}
330
646
100
AcDbDictionary
281
     1
  0
LAYOUT
  5
671
102
{ACAD_REACTORS
330
66F
102
}
330
66F
100
AcDbPlotSettings
  1

  2
none_device
  4
ISO_A3_(420.00_x_297.00_MM)
  6

 40
7.5
 41
20.0
 42
7.5
 43
20.0
 44
420.0
 45
297.0
 46
0.0
 47
0.0
 48
0.0
 49
0.0
140
0.0
141
0.0
142
1.0
143
1.634241245136187
 70
   688
 72
     1
 73
     0
 74
     1
  7

 75
     0
 76
     0
 77
     2
 78
   300
147
0.611904761904762
148
0.0
149
0.0
100
AcDbLayout
  1
Foglio 1
 70
     1
 71
     1
 10
0.0
 20
0.0
 11
412.5
 21
277.0
 12
0.0
 22
0.0
 32
0.0
 14
0.0
 24
0.0
 34
0.0
 15
594.0
 25
420.0
 35
0.0
146
0.0
 13
0.0
 23
0.0
 33
0.0
 16
1.0
 26
0.0
 36
0.0
 17
0.0
 27
1.0
 37
0.0
 76
     0
330
1B
331
2D4
  0
LAYOUT
  5
670
102
{ACAD_REACTORS
330
66F
102
}
330
66F
100
AcDbPlotSettings
  1

  2
none_device
  4
Letter_(8.50_x_11.00_Inches)
  6

 40
6.35
 41
6.35
 42
6.35
 43
6.35
 44
215.9
 45
279.4
 46
0.0
 47
0.0
 48
0.0
 49
0.0
140
0.0
141
0.0
142
1.0
143
74.25000000075
 70
  1712
 72
     0
 73
     0
 74
     0
  7

 75
     0
 76
     0
 77
     2
 78
   300
147
0.0134680134678774
148
0.000000076200638
149
0.0
100
AcDbLayout
  1
Model
 70
     1
 71
     0
 10
0.0
 20
0.0
 11
594.0
 21
420.0
 12
0.0
 22
0.0
 32
0.0
 14
0.0
 24
0.0
 34
0.0
 15
594.0
 25
420.0
 35
0.0
146
0.0
 13
0.0
 23
0.0
 33
0.0
 16
1.0
 26
0.0
 36
0.0
 17
0.0
 27
1.0
 37
0.0
 76
     0
330
1F
331
1F4
  0
MATERIAL
  5
68D
102
{ACAD_REACTORS
330
68B
102
}
330
68B
100
AcDbMaterial
  1
ByBlock
 72
     1
 94
      127
  0
MATERIAL
  5
68C
102
{ACAD_REACTORS
330
68B
102
}
330
68B
100
AcDbMaterial
  1
ByLayer
 72
     1
 94
      127
  0
MATERIAL
  5
68E
102
{ACAD_REACTORS
330
68B
102
}
330
68B
100
AcDbMaterial
  1
Global
 72
     1
 94
      127
  0
MLEADERSTYLE
  5
692
102
{ACAD_REACTORS
330
691
102
}
330
691
100
AcDbMLeaderStyle
179
     2
170
     2
171
     1
172
     0
 90
        2
 40
0.0
 41
0.0
173
     1
 91
-1056964608
340
14
 92
       -2
290
     1
 42
2.0
291
     1
 43
8.0
  3
Standard
341
0
 44
4.0
300

342
11
174
     1
178
     1
175
     1
176
     0
 93
-1056964608
 45
4.0
292
     0
297
     0
 46
4.0
343
0
 94
-1056964608
 47
1.0
 49
1.0
140
1.0
293
     1
141
0.0
294
     1
177
     0
142
1.0
295
     0
296
     0
143
3.75
271
     0
272
     9
273
     9
298
     0
  0
MLINESTYLE
  5
649
102
{ACAD_REACTORS
330
648
102
}
330
648
100
AcDbMlineStyle
  2
STANDARD
 70
     0
  3

 62
   256
 51
90.0
 52
90.0
 71
     2
 49
0.5
 62
   256
  6
BYLAYER
 49
-0.5
 62
   256
  6
BYLAYER
  0
ACDBPLACEHOLDER
  5
64C
102
{ACAD_REACTORS
330
64B
102
}
330
64B
  0
SCALE
  5
64E
102
{ACAD_REACTORS
330
64D
102
}
330
64D
100
AcDbScale
 70
     0
300
1:1
140
1.0
141
1.0
290
     1
  0
SCALE
  5
64F
102
{ACAD_REACTORS
330
64D
102
}
330
64D
100
AcDbScale
 70
     0
300
1:2
140
1.0
141
2.0
290
     0
  0
SCALE
  5
650
102
{ACAD_REACTORS
330
64D
102
}
330
64D
100
AcDbScale
 70
     0
300
1:4
140
1.0
141
4.0
290
     0
  0
SCALE
  5
651
102
{ACAD_REACTORS
330
64D
102
}
330
64D
100
AcDbScale
 70
     0
300
1:5
140
1.0
141
5.0
290
     0
  0
SCALE
  5
652
102
{ACAD_REACTORS
330
64D
102
}
330
64D
100
AcDbScale
 70
     0
300
1:8
140
1.0
141
8.0
290
     0
  0
SCALE
  5
653
102
{ACAD_REACTORS
330
64D
102
}
330
64D
100
AcDbScale
 70
     0
300
1:10
140
1.0
141
10.0
290
     0
  0
SCALE
  5
654
102
{ACAD_REACTORS
330
64D
102
}
330
64D
100
AcDbScale
 70
     0
300
1:16
140
1.0
141
16.0
290
     0
  0
SCALE
  5
655
102
{ACAD_REACTORS
330
64D
102
}
330
64D
100
AcDbScale
 70
     0
300
1:20
140
1.0
141
20.0
290
     0
  0
SCALE
  5
656
102
{ACAD_REACTORS
330
64D
102
}
330
64D
100
AcDbScale
 70
     0
300
1:30
140
1.0
141
30.0
290
     0
  0
SCALE
  5
657
102
{ACAD_REACTORS
330
64D
102
}
330
64D
100
AcDbScale
 70
     0
300
1:40
140
1.0
141
40.0
290
     0
  0
SCALE
  5
658
102
{ACAD_REACTORS
330
64D
102
}
330
64D
100
AcDbScale
 70
     0
300
1:50
140
1.0
141
50.0
290
     0
  0
SCALE
  5
659
102
{ACAD_REACTORS
330
64D
102
}
330
64D
100
AcDbScale
 70
     0
300
1:100
140
1.0
141
100.0
290
     0
  0
SCALE
  5
65A
102
{ACAD_REACTORS
330
64D
102
}
330
64D
100
AcDbScale
 70
     0
300
2:1
140
2.0
141
1.0
290
     0
  0
SCALE
  5
65B
102
{ACAD_REACTORS
330
64D
102
}
330
64D
100
AcDbScale
 70
     0
300
4:1
140
4.0
141
1.0
290
     0
  0
SCALE
  5
65C
102
{ACAD_REACTORS
330
64D
102
}
330
64D
100
AcDbScale
 70
     0
300
8:1
140
8.0
141
1.0
290
     0
  0
SCALE
  5
65D
102
{ACAD_REACTORS
330
64D
102
}
330
64D
100
AcDbScale
 70
     0
300
10:1
140
10.0
141
1.0
290
     0
  0
SCALE
  5
65E
102
{ACAD_REACTORS
330
64D
102
}
330
64D
100
AcDbScale
 70
     0
300
100:1
140
100.0
141
1.0
290
     0
  0
SCALE
  5
65F
102
{ACAD_REACTORS
330
64D
102
}
330
64D
100
AcDbScale
 70
     0
300
1/128" = 1'-0"
140
0.0078125
141
12.0
290
     0
  0
SCALE
  5
660
102
{ACAD_REACTORS
330
64D
102
}
330
64D
100
AcDbScale
 70
     0
300
1/64" = 1'-0"
140
0.015625
141
12.0
290
     0
  0
SCALE
  5
661
102
{ACAD_REACTORS
330
64D
102
}
330
64D
100
AcDbScale
 70
     0
300
1/32" = 1'-0"
140
0.03125
141
12.0
290
     0
  0
SCALE
  5
662
102
{ACAD_REACTORS
330
64D
102
}
330
64D
100
AcDbScale
 70
     0
300
1/16" = 1'-0"
140
0.0625
141
12.0
290
     0
  0
SCALE
  5
663
102
{ACAD_REACTORS
330
64D
102
}
330
64D
100
AcDbScale
 70
     0
300
3/32" = 1'-0"
140
0.09375
141
12.0
290
     0
  0
SCALE
  5
664
102
{ACAD_REACTORS
330
64D
102
}
330
64D
100
AcDbScale
 70
     0
300
1/8" = 1'-0"
140
0.125
141
12.0
290
     0
  0
SCALE
  5
665
102
{ACAD_REACTORS
330
64D
102
}
330
64D
100
AcDbScale
 70
     0
300
3/16" = 1'-0"
140
0.1875
141
12.0
290
     0
  0
SCALE
  5
666
102
{ACAD_REACTORS
330
64D
102
}
330
64D
100
AcDbScale
 70
     0
300
1/4" = 1'-0"
140
0.25
141
12.0
290
     0
  0
SCALE
  5
667
102
{ACAD_REACTORS
330
64D
102
}
330
64D
100
AcDbScale
 70
     0
300
3/8" = 1'-0"
140
0.375
141
12.0
290
     0
  0
SCALE
  5
668
102
{ACAD_REACTORS
330
64D
102
}
330
64D
100
AcDbScale
 70
     0
300
1/2" = 1'-0"
140
0.5
141
12.0
290
     0
  0
SCALE
  5
669
102
{ACAD_REACTORS
330
64D
102
}
330
64D
100
AcDbScale
 70
     0
300
3/4" = 1'-0"
140
0.75
141
12.0
290
     0
  0
SCALE
  5
66A
102
{ACAD_REACTORS
330
64D
102
}
330
64D
100
AcDbScale
 70
     0
300
1" = 1'-0"
140
1.0
141
12.0
290
     0
  0
SCALE
  5
66B
102
{ACAD_REACTORS
330
64D
102
}
330
64D
100
AcDbScale
 70
     0
300
1-1/2" = 1'-0"
140
1.5
141
12.0
290
     0
  0
SCALE
  5
66C
102
{ACAD_REACTORS
330
64D
102
}
330
64D
100
AcDbScale
 70
     0
300
3" = 1'-0"
140
3.0
141
12.0
290
     0
  0
SCALE
  5
66D
102
{ACAD_REACTORS
330
64D
102
}
330
64D
100
AcDbScale
 70
     0
300
6" = 1'-0"
140
6.0
141
12.0
290
     0
  0
SCALE
  5
66E
102
{ACAD_REACTORS
330
64D
102
}
330
64D
100
AcDbScale
 70
     0
300
1'-0" = 1'-0"
140
12.0
141
12.0
290
     0
  0
TABLESTYLE
  5
690
102
{ACAD_REACTORS
330
68F
102
}
102
{ACAD_XDICTIONARY
360
696
102
}
330
68F
100
AcDbTableStyle
  3
Standard
 70
     0
 71
     0
 40
0.06
 41
0.06
280
     0
281
     0
  7
STANDARD
140
4.5
170
     2
 62
     0
 63
   257
283
     0
 90
        4
 91
        0
  1

274
    -2
284
     1
 64
     0
275
    -2
285
     1
 65
     0
276
    -2
286
     1
 66
     0
277
    -2
287
     1
 67
     0
278
    -2
288
     1
 68
     0
279
    -2
289
     1
 69
     0
  7
STANDARD
140
6.0
170
     5
 62
     0
 63
   257
283
     0
 90
        4
 91
        0
  1

274
    -2
284
     1
 64
     0
275
    -2
285
     1
 65
     0
276
    -2
286
     1
 66
     0
277
    -2
287
     1
 67
     0
278
    -2
288
     1
 68
     0
279
    -2
289
     1
 69
     0
  7
STANDARD
140
4.5
170
     5
 62
     0
 63
   257
283
     0
 90
        4
 91
        0
  1

274
    -2
284
     1
 64
     0
275
    -2
285
     1
 65
     0
276
    -2
286
     1
 66
     0
277
    -2
287
     1
 67
     0
278
    -2
288
     1
 68
     0
279
    -2
289
     1
 69
     0
  0
VISUALSTYLE
  5
677
102
{ACAD_REACTORS
330
672
102
}
330
672
100
AcDbVisualStyle
  2
2dWireframe
 70
     4
177
     3
291
     0
 70
    58
 90
        0
176
     1
 90
        2
176
     1
 90
        0
176
     1
 90
        0
176
     1
 40
0.6
176
     1
 40
30.0
176
     1
 62
     7
420
 16777215
176
     1
 90
        1
176
     1
 90
        4
176
     1
 62
     7
176
     1
 62
   257
176
     1
 90
        1
176
     1
 90
        1
176
     1
 40
1.0
176
     1
 90
        0
176
     1
 62
   257
176
     1
 40
1.0
176
     1
 90
        1
176
     1
 90
        6
176
     1
 90
        2
176
     1
 62
     7
176
     1
 90
        5
176
     1
 90
        0
176
     1
 90
        0
176
     1
290
     0
176
     1
 90
        1
176
     1
 40
0.0
176
     1
 90
        0
176
     1
290
     1
176
     1
290
     1
176
     1
290
     0
176
     1
290
     0
176
     1
290
     0
176
     1
290
     0
176
     1
290
     0
176
     1
290
     0
176
     1
290
     0
176
     1
 90
       50
176
     1
 40
0.0
176
     1
 40
1.0
176
     1
 90
        0
176
     1
 62
    18
420
        0
176
     1
 90
       50
176
     1
 90
        3
176
     1
 62
     5
420
      255
176
     1
290
     0
176
     1
 90
       50
176
     1
 90
       50
176
     1
 90
       50
176
     1
290
     0
176
     1
 90
       50
176
     1
 62
   256
176
     0
 40
1.0
176
     0
 90
        2
176
     1
  1
strokes_ogs.tif
176
     1
290
     0
176
     1
 40
1.0
176
     1
 40
1.0
176
     1
  0
VISUALSTYLE
  5
67A
102
{ACAD_REACTORS
330
672
102
}
330
672
100
AcDbVisualStyle
  2
Basic
 70
     7
177
     3
291
     1
 70
    58
 90
        1
176
     1
 90
        0
176
     1
 90
        1
176
     1
 90
        0
176
     1
 40
0.6
176
     1
 40
30.0
176
     1
 62
     7
420
 16777215
176
     1
 90
        0
176
     1
 90
        4
176
     1
 62
     7
176
     1
 62
   257
176
     1
 90
        1
176
     1
 90
        1
176
     1
 40
1.0
176
     1
 90
        8
176
     1
 62
     7
176
     1
 40
1.0
176
     1
 90
        1
176
     1
 90
        6
176
     1
 90
        2
176
     1
 62
     7
176
     1
 90
        5
176
     1
 90
        0
176
     1
 90
        0
176
     1
290
     0
176
     1
 90
        1
176
     1
 40
0.0
176
     1
 90
        0
176
     1
290
     0
176
     1
290
     1
176
     1
290
     1
176
     1
290
     0
176
     1
290
     0
176
     1
290
     0
176
     1
290
     0
176
     1
290
     0
176
     1
290
     0
176
     1
 90
       50
176
     1
 40
0.0
176
     1
 40
1.0
176
     1
 90
        0
176
     1
 62
    18
420
        0
176
     1
 90
       50
176
     1
 90
        3
176
     1
 62
     5
420
      255
176
     1
290
     0
176
     1
 90
       50
176
     1
 90
       50
176
     1
 90
       50
176
     1
290
     0
176
     1
 90
       50
176
     1
 62
   256
176
     0
 40
1.0
176
     0
 90
        2
176
     1
  1
strokes_ogs.tif
176
     1
290
     0
176
     1
 40
1.0
176
     1
 40
1.0
176
     1
  0
VISUALSTYLE
  5
67E
102
{ACAD_REACTORS
330
672
102
}
330
672
100
AcDbVisualStyle
  2
Brighten
 70
    12
177
     3
291
     1
 70
    58
 90
        2
176
     1
 90
        2
176
     1
 90
        0
176
     1
 90
        0
176
     1
 40
0.6
176
     1
 40
30.0
176
     1
 62
     7
420
 16777215
176
     1
 90
        1
176
     1
 90
        4
176
     1
 62
     7
176
     1
 62
   257
176
     1
 90
        1
176
     1
 90
        1
176
     1
 40
1.0
176
     1
 90
        8
176
     1
 62
     7
176
     1
 40
1.0
176
     1
 90
        1
176
     1
 90
        6
176
     1
 90
        2
176
     1
 62
     7
176
     1
 90
        5
176
     1
 90
        0
176
     1
 90
        0
176
     1
290
     0
176
     1
 90
        1
176
     1
 40
50.0
176
     1
 90
        0
176
     1
290
     0
176
     1
290
     1
176
     1
290
     1
176
     1
290
     0
176
     1
290
     0
176
     1
290
     0
176
     1
290
     0
176
     1
290
     0
176
     1
290
     0
176
     1
 90
       50
176
     1
 40
0.0
176
     1
 40
1.0
176
     1
 90
        0
176
     1
 62
    18
420
        0
176
     1
 90
       50
176
     1
 90
        3
176
     1
 62
     5
420
      255
176
     1
290
     0
176
     1
 90
       50
176
     1
 90
       50
176
     1
 90
       50
176
     1
290
     0
176
     1
 90
       50
176
     1
 62
   256
176
     0
 40
1.0
176
     0
 90
        2
176
     1
  1
strokes_ogs.tif
176
     1
290
     0
176
     1
 40
1.0
176
     1
 40
1.0
176
     1
  0
VISUALSTYLE
  5
682
102
{ACAD_REACTORS
330
672
102
}
330
672
100
AcDbVisualStyle
  2
ColorChange
 70
    16
177
     3
291
     1
 70
    58
 90
        2
176
     1
 90
        2
176
     1
 90
        3
176
     1
 90
        0
176
     1
 40
0.6
176
     1
 40
30.0
176
     1
 62
     8
420
  8421504
176
     1
 90
        1
176
     1
 90
        4
176
     1
 62
     7
176
     1
 62
   257
176
     1
 90
        1
176
     1
 90
        1
176
     1
 40
1.0
176
     1
 90
        8
176
     1
 62
     8
420
  8421504
176
     1
 40
1.0
176
     1
 90
        1
176
     1
 90
        6
176
     1
 90
        2
176
     1
 62
     7
176
     1
 90
        5
176
     1
 90
        0
176
     1
 90
        0
176
     1
290
     0
176
     1
 90
        1
176
     1
 40
0.0
176
     1
 90
        0
176
     1
290
     0
176
     1
290
     1
176
     1
290
     1
176
     1
290
     0
176
     1
290
     0
176
     1
290
     0
176
     1
290
     0
176
     1
290
     0
176
     1
290
     0
176
     1
 90
       50
176
     1
 40
0.0
176
     1
 40
1.0
176
     1
 90
        0
176
     1
 62
    18
420
        0
176
     1
 90
       50
176
     1
 90
        3
176
     1
 62
     5
420
      255
176
     1
290
     0
176
     1
 90
       50
176
     1
 90
       50
176
     1
 90
       50
176
     1
290
     0
176
     1
 90
       50
176
     1
 62
   256
176
     0
 40
1.0
176
     0
 90
        2
176
     1
  1
strokes_ogs.tif
176
     1
290
     0
176
     1
 40
1.0
176
     1
 40
1.0
176
     1
  0
VISUALSTYLE
  5
67C
102
{ACAD_REACTORS
330
672
102
}
330
672
100
AcDbVisualStyle
  2
Conceptual
 70
     9
177
     3
291
     0
 70
    58
 90
        3
176
     1
 90
        2
176
     1
 90
        0
176
     1
 90
        0
176
     1
 40
0.6
176
     1
 40
30.0
176
     1
 62
     7
420
 16777215
176
     1
 90
        2
176
     1
 90
        2
176
     1
 62
     7
176
     1
 62
   257
176
     1
 90
        1
176
     1
 90
        1
176
     1
 40
179.0
176
     1
 90
        8
176
     1
 62
     7
176
     1
 40
1.0
176
     1
 90
        1
176
     1
 90
        6
176
     1
 90
        2
176
     1
 62
     7
176
     1
 90
        3
176
     1
 90
        0
176
     1
 90
        0
176
     1
290
     0
176
     1
 90
        1
176
     1
 40
0.0
176
     1
 90
        0
176
     1
290
     0
176
     1
290
     1
176
     1
290
     1
176
     1
290
     0
176
     1
290
     0
176
     1
290
     0
176
     1
290
     0
176
     1
290
     0
176
     1
290
     0
176
     1
 90
       50
176
     1
 40
0.0
176
     1
 40
1.0
176
     1
 90
        0
176
     1
 62
    18
420
        0
176
     1
 90
       50
176
     1
 90
        3
176
     1
 62
     5
420
      255
176
     1
290
     0
176
     1
 90
       50
176
     1
 90
       50
176
     1
 90
       50
176
     1
290
     0
176
     1
 90
       50
176
     1
 62
   256
176
     0
 40
1.0
176
     0
 90
        2
176
     1
  1
strokes_ogs.tif
176
     1
290
     0
176
     1
 40
1.0
176
     1
 40
1.0
176
     1
  0
VISUALSTYLE
  5
67D
102
{ACAD_REACTORS
330
672
102
}
330
672
100
AcDbVisualStyle
  2
Dim
 70
    11
177
     3
291
     1
 70
    58
 90
        2
176
     1
 90
        2
176
     1
 90
        0
176
     1
 90
        0
176
     1
 40
0.6
176
     1
 40
30.0
176
     1
 62
     7
420
 16777215
176
     1
 90
        1
176
     1
 90
        4
176
     1
 62
     7
176
     1
 62
   257
176
     1
 90
        1
176
     1
 90
        1
176
     1
 40
1.0
176
     1
 90
        8
176
     1
 62
     7
176
     1
 40
1.0
176
     1
 90
        1
176
     1
 90
        6
176
     1
 90
        2
176
     1
 62
     7
176
     1
 90
        5
176
     1
 90
        0
176
     1
 90
        0
176
     1
290
     0
176
     1
 90
        1
176
     1
 40
-50.0
176
     1
 90
        0
176
     1
290
     0
176
     1
290
     1
176
     1
290
     1
176
     1
290
     0
176
     1
290
     0
176
     1
290
     0
176
     1
290
     0
176
     1
290
     0
176
     1
290
     0
176
     1
 90
       50
176
     1
 40
0.0
176
     1
 40
1.0
176
     1
 90
        0
176
     1
 62
    18
420
        0
176
     1
 90
       50
176
     1
 90
        3
176
     1
 62
     5
420
      255
176
     1
290
     0
176
     1
 90
       50
176
     1
 90
       50
176
     1
 90
       50
176
     1
290
     0
176
     1
 90
       50
176
     1
 62
   256
176
     0
 40
1.0
176
     0
 90
        2
176
     1
  1
strokes_ogs.tif
176
     1
290
     0
176
     1
 40
1.0
176
     1
 40
1.0
176
     1
  0
VISUALSTYLE
  5
685
102
{ACAD_REACTORS
330
672
102
}
330
672
100
AcDbVisualStyle
  2
EdgeColorOff
 70
    22
177
     3
291
     1
 70
    58
 90
        2
176
     0
 90
        2
176
     0
 90
        0
176
     0
 90
        0
176
     0
 40
0.6
176
     0
 40
30.0
176
     0
 62
     7
420
 16777215
176
     0
 90
        1
176
     0
 90
        4
176
     0
 62
     7
176
     0
 62
   257
176
     0
 90
        1
176
     0
 90
        1
176
     0
 40
1.0
176
     0
 90
        8
176
     2
 62
     7
176
     0
 40
1.0
176
     0
 90
        1
176
     0
 90
        6
176
     0
 90
        2
176
     0
 62
     7
176
     0
 90
        5
176
     0
 90
        0
176
     0
 90
        0
176
     0
290
     0
176
     0
 90
        1
176
     0
 40
0.0
176
     0
 90
        0
176
     0
290
     0
176
     0
290
     1
176
     0
290
     1
176
     0
290
     0
176
     0
290
     0
176
     0
290
     0
176
     0
290
     0
176
     0
290
     0
176
     0
290
     0
176
     0
 90
       50
176
     0
 40
0.0
176
     0
 40
1.0
176
     0
 90
        0
176
     0
 62
    18
420
        0
176
     0
 90
       50
176
     0
 90
        3
176
     0
 62
     5
420
      255
176
     0
290
     0
176
     0
 90
       50
176
     0
 90
       50
176
     0
 90
       50
176
     0
290
     0
176
     0
 90
       50
176
     0
 62
   256
176
     0
 40
1.0
176
     0
 90
        2
176
     0
  1
strokes_ogs.tif
176
     0
290
     0
176
     0
 40
1.0
176
     0
 40
1.0
176
     0
  0
VISUALSTYLE
  5
681
102
{ACAD_REACTORS
330
672
102
}
330
672
100
AcDbVisualStyle
  2
Facepattern
 70
    15
177
     3
291
     1
 70
    58
 90
        2
176
     1
 90
        2
176
     1
 90
        0
176
     1
 90
        0
176
     1
 40
0.6
176
     1
 40
30.0
176
     1
 62
     7
420
 16777215
176
     1
 90
        1
176
     1
 90
        4
176
     1
 62
     7
176
     1
 62
   257
176
     1
 90
        1
176
     1
 90
        1
176
     1
 40
1.0
176
     1
 90
        8
176
     1
 62
     7
176
     1
 40
1.0
176
     1
 90
        1
176
     1
 90
        6
176
     1
 90
        2
176
     1
 62
     7
176
     1
 90
        5
176
     1
 90
        0
176
     1
 90
        0
176
     1
290
     0
176
     1
 90
        1
176
     1
 40
0.0
176
     1
 90
        0
176
     1
290
     0
176
     1
290
     1
176
     1
290
     1
176
     1
290
     0
176
     1
290
     0
176
     1
290
     0
176
     1
290
     0
176
     1
290
     0
176
     1
290
     0
176
     1
 90
       50
176
     1
 40
0.0
176
     1
 40
1.0
176
     1
 90
        0
176
     1
 62
    18
420
        0
176
     1
 90
       50
176
     1
 90
        3
176
     1
 62
     5
420
      255
176
     1
290
     0
176
     1
 90
       50
176
     1
 90
       50
176
     1
 90
       50
176
     1
290
     0
176
     1
 90
       50
176
     1
 62
   256
176
     0
 40
1.0
176
     0
 90
        2
176
     1
  1
strokes_ogs.tif
176
     1
290
     0
176
     1
 40
1.0
176
     1
 40
1.0
176
     1
  0
VISUALSTYLE
  5
673
102
{ACAD_REACTORS
330
672
102
}
330
672
100
AcDbVisualStyle
  2
Flat
 70
     0
177
     3
291
     1
 70
    58
 90
        2
176
     1
 90
        1
176
     1
 90
        1
176
     1
 90
        2
176
     1
 40
0.6
176
     1
 40
30.0
176
     1
 62
     7
420
 16777215
176
     1
 90
        0
176
     1
 90
        0
176
     1
 62
     7
176
     1
 62
   257
176
     1
 90
        1
176
     1
 90
        1
176
     1
 40
1.0
176
     1
 90
        8
176
     1
 62
     7
176
     1
 40
1.0
176
     1
 90
        1
176
     1
 90
        6
176
     1
 90
        2
176
     1
 62
     7
176
     1
 90
        5
176
     1
 90
        0
176
     1
 90
        0
176
     1
290
     0
176
     1
 90
       13
176
     1
 40
0.0
176
     1
 90
        0
176
     1
290
     0
176
     1
290
     1
176
     1
290
     1
176
     1
290
     0
176
     1
290
     0
176
     1
290
     0
176
     1
290
     0
176
     1
290
     0
176
     1
290
     0
176
     1
 90
       50
176
     1
 40
0.0
176
     1
 40
1.0
176
     1
 90
        0
176
     1
 62
    18
420
        0
176
     1
 90
       50
176
     1
 90
        3
176
     1
 62
     5
420
      255
176
     1
290
     0
176
     1
 90
       50
176
     1
 90
       50
176
     1
 90
       50
176
     1
290
     0
176
     1
 90
       50
176
     1
 62
   256
176
     0
 40
1.0
176
     0
 90
        2
176
     1
  1
strokes_ogs.tif
176
     1
290
     0
176
     1
 40
1.0
176
     1
 40
1.0
176
     1
  0
VISUALSTYLE
  5
674
102
{ACAD_REACTORS
330
672
102
}
330
672
100
AcDbVisualStyle
  2
FlatWithEdges
 70
     1
177
     3
291
     1
 70
    58
 90
        2
176
     1
 90
        1
176
     1
 90
        1
176
     1
 90
        2
176
     1
 40
0.6
176
     1
 40
30.0
176
     1
 62
     7
420
 16777215
176
     1
 90
        1
176
     1
 90
        0
176
     1
 62
     7
176
     1
 62
   257
176
     1
 90
        1
176
     1
 90
        1
176
     1
 40
1.0
176
     1
 90
        0
176
     1
 62
   257
176
     1
 40
1.0
176
     1
 90
        1
176
     1
 90
        6
176
     1
 90
        2
176
     1
 62
     7
176
     1
 90
        5
176
     1
 90
        0
176
     1
 90
        0
176
     1
290
     0
176
     1
 90
       13
176
     1
 40
0.0
176
     1
 90
        0
176
     1
290
     0
176
     1
290
     1
176
     1
290
     1
176
     1
290
     0
176
     1
290
     0
176
     1
290
     0
176
     1
290
     0
176
     1
290
     0
176
     1
290
     0
176
     1
 90
       50
176
     1
 40
0.0
176
     1
 40
1.0
176
     1
 90
        0
176
     1
 62
    18
420
        0
176
     1
 90
       50
176
     1
 90
        3
176
     1
 62
     5
420
      255
176
     1
290
     0
176
     1
 90
       50
176
     1
 90
       50
176
     1
 90
       50
176
     1
290
     0
176
     1
 90
       50
176
     1
 62
   256
176
     0
 40
1.0
176
     0
 90
        2
176
     1
  1
strokes_ogs.tif
176
     1
290
     0
176
     1
 40
1.0
176
     1
 40
1.0
176
     1
  0
VISUALSTYLE
  5
675
102
{ACAD_REACTORS
330
672
102
}
330
672
100
AcDbVisualStyle
  2
Gouraud
 70
     2
177
     3
291
     1
 70
    58
 90
        2
176
     1
 90
        2
176
     1
 90
        1
176
     1
 90
        2
176
     1
 40
0.6
176
     1
 40
30.0
176
     1
 62
     7
420
 16777215
176
     1
 90
        0
176
     1
 90
        0
176
     1
 62
     7
176
     1
 62
   257
176
     1
 90
        1
176
     1
 90
        1
176
     1
 40
1.0
176
     1
 90
        0
176
     1
 62
     7
176
     1
 40
1.0
176
     1
 90
        1
176
     1
 90
        6
176
     1
 90
        2
176
     1
 62
     7
176
     1
 90
        5
176
     1
 90
        0
176
     1
 90
        0
176
     1
290
     0
176
     1
 90
       13
176
     1
 40
0.0
176
     1
 90
        0
176
     1
290
     0
176
     1
290
     1
176
     1
290
     1
176
     1
290
     0
176
     1
290
     0
176
     1
290
     0
176
     1
290
     0
176
     1
290
     0
176
     1
290
     0
176
     1
 90
       50
176
     1
 40
0.0
176
     1
 40
1.0
176
     1
 90
        0
176
     1
 62
    18
420
        0
176
     1
 90
       50
176
     1
 90
        3
176
     1
 62
     5
420
      255
176
     1
290
     0
176
     1
 90
       50
176
     1
 90
       50
176
     1
 90
       50
176
     1
290
     0
176
     1
 90
       50
176
     1
 62
   256
176
     0
 40
1.0
176
     0
 90
        2
176
     1
  1
strokes_ogs.tif
176
     1
290
     0
176
     1
 40
1.0
176
     1
 40
1.0
176
     1
  0
VISUALSTYLE
  5
676
102
{ACAD_REACTORS
330
672
102
}
330
672
100
AcDbVisualStyle
  2
GouraudWithEdges
 70
     3
177
     3
291
     1
 70
    58
 90
        2
176
     1
 90
        2
176
     1
 90
        1
176
     1
 90
        2
176
     1
 40
0.6
176
     1
 40
30.0
176
     1
 62
     7
420
 16777215
176
     1
 90
        1
176
     1
 90
        0
176
     1
 62
     7
176
     1
 62
   257
176
     1
 90
        1
176
     1
 90
        1
176
     1
 40
1.0
176
     1
 90
        0
176
     1
 62
   257
176
     1
 40
1.0
176
     1
 90
        1
176
     1
 90
        6
176
     1
 90
        2
176
     1
 62
     7
176
     1
 90
        5
176
     1
 90
        0
176
     1
 90
        0
176
     1
290
     0
176
     1
 90
       13
176
     1
 40
0.0
176
     1
 90
        0
176
     1
290
     0
176
     1
290
     1
176
     1
290
     1
176
     1
290
     0
176
     1
290
     0
176
     1
290
     0
176
     1
290
     0
176
     1
290
     0
176
     1
290
     0
176
     1
 90
       50
176
     1
 40
0.0
176
     1
 40
1.0
176
     1
 90
        0
176
     1
 62
    18
420
        0
176
     1
 90
       50
176
     1
 90
        3
176
     1
 62
     5
420
      255
176
     1
290
     0
176
     1
 90
       50
176
     1
 90
       50
176
     1
 90
       50
176
     1
290
     0
176
     1
 90
       50
176
     1
 62
   256
176
     0
 40
1.0
176
     0
 90
        2
176
     1
  1
strokes_ogs.tif
176
     1
290
     0
176
     1
 40
1.0
176
     1
 40
1.0
176
     1
  0
VISUALSTYLE
  5
679
102
{ACAD_REACTORS
330
672
102
}
330
672
100
AcDbVisualStyle
  2
Hidden
 70
     6
177
     3
291
     0
 70
    58
 90
        1
176
     1
 90
        2
176
     1
 90
        2
176
     1
 90
        0
176
     1
 40
0.6
176
     1
 40
30.0
176
     1
 62
     7
420
 16777215
176
     1
 90
        2
176
     1
 90
        2
176
     1
 62
     7
176
     1
 62
   257
176
     1
 90
        2
176
     1
 90
        1
176
     1
 40
40.0
176
     1
 90
        0
176
     1
 62
   257
176
     1
 40
1.0
176
     1
 90
        1
176
     1
 90
        6
176
     1
 90
        2
176
     1
 62
     7
176
     1
 90
        3
176
     1
 90
        0
176
     1
 90
        0
176
     1
290
     0
176
     1
 90
        1
176
     1
 40
0.0
176
     1
 90
        0
176
     1
290
     0
176
     1
290
     1
176
     1
290
     1
176
     1
290
     0
176
     1
290
     0
176
     1
290
     0
176
     1
290
     0
176
     1
290
     0
176
     1
290
     0
176
     1
 90
       50
176
     1
 40
0.0
176
     1
 40
1.0
176
     1
 90
        0
176
     1
 62
    18
420
        0
176
     1
 90
       50
176
     1
 90
        3
176
     1
 62
     5
420
      255
176
     1
290
     0
176
     1
 90
       50
176
     1
 90
       50
176
     1
 90
       50
176
     1
290
     0
176
     1
 90
       50
176
     1
 62
   256
176
     0
 40
1.0
176
     0
 90
        2
176
     1
  1
strokes_ogs.tif
176
     1
290
     0
176
     1
 40
1.0
176
     1
 40
1.0
176
     1
  0
VISUALSTYLE
  5
683
102
{ACAD_REACTORS
330
672
102
}
330
672
100
AcDbVisualStyle
  2
JitterOff
 70
    20
177
     3
291
     1
 70
    58
 90
        2
176
     0
 90
        2
176
     0
 90
        0
176
     0
 90
        0
176
     0
 40
0.6
176
     0
 40
30.0
176
     0
 62
     7
420
 16777215
176
     0
 90
        1
176
     0
 90
        4
176
     0
 62
     7
176
     0
 62
   257
176
     0
 90
        1
176
     0
 90
        1
176
     0
 40
1.0
176
     0
 90
       10
176
     2
 62
     7
176
     0
 40
1.0
176
     0
 90
        1
176
     0
 90
        6
176
     0
 90
        2
176
     0
 62
     7
176
     0
 90
        5
176
     0
 90
        0
176
     0
 90
        0
176
     0
290
     0
176
     0
 90
        1
176
     0
 40
0.0
176
     0
 90
        0
176
     0
290
     0
176
     0
290
     1
176
     0
290
     1
176
     0
290
     0
176
     0
290
     0
176
     0
290
     0
176
     0
290
     0
176
     0
290
     0
176
     0
290
     0
176
     0
 90
       50
176
     0
 40
0.0
176
     0
 40
1.0
176
     0
 90
        0
176
     0
 62
    18
420
        0
176
     0
 90
       50
176
     0
 90
        3
176
     0
 62
     5
420
      255
176
     0
290
     0
176
     0
 90
       50
176
     0
 90
       50
176
     0
 90
       50
176
     0
290
     0
176
     0
 90
       50
176
     0
 62
   256
176
     0
 40
1.0
176
     0
 90
        2
176
     0
  1
strokes_ogs.tif
176
     0
290
     0
176
     0
 40
1.0
176
     0
 40
1.0
176
     0
  0
VISUALSTYLE
  5
680
102
{ACAD_REACTORS
330
672
102
}
330
672
100
AcDbVisualStyle
  2
Linepattern
 70
    14
177
     3
291
     1
 70
    58
 90
        2
176
     1
 90
        2
176
     1
 90
        0
176
     1
 90
        0
176
     1
 40
0.6
176
     1
 40
30.0
176
     1
 62
     7
420
 16777215
176
     1
 90
        1
176
     1
 90
        4
176
     1
 62
     7
176
     1
 62
   257
176
     1
 90
        7
176
     1
 90
        7
176
     1
 40
1.0
176
     1
 90
        8
176
     1
 62
     7
176
     1
 40
1.0
176
     1
 90
        1
176
     1
 90
        6
176
     1
 90
        2
176
     1
 62
     7
176
     1
 90
        5
176
     1
 90
        0
176
     1
 90
        0
176
     1
290
     0
176
     1
 90
        1
176
     1
 40
0.0
176
     1
 90
        0
176
     1
290
     0
176
     1
290
     1
176
     1
290
     1
176
     1
290
     0
176
     1
290
     0
176
     1
290
     0
176
     1
290
     0
176
     1
290
     0
176
     1
290
     0
176
     1
 90
       50
176
     1
 40
0.0
176
     1
 40
1.0
176
     1
 90
        0
176
     1
 62
    18
420
        0
176
     1
 90
       50
176
     1
 90
        3
176
     1
 62
     5
420
      255
176
     1
290
     0
176
     1
 90
       50
176
     1
 90
       50
176
     1
 90
       50
176
     1
290
     0
176
     1
 90
       50
176
     1
 62
   256
176
     0
 40
1.0
176
     0
 90
        2
176
     1
  1
strokes_ogs.tif
176
     1
290
     0
176
     1
 40
1.0
176
     1
 40
1.0
176
     1
  0
VISUALSTYLE
  5
684
102
{ACAD_REACTORS
330
672
102
}
330
672
100
AcDbVisualStyle
  2
OverhangOff
 70
    21
177
     3
291
     1
 70
    58
 90
        2
176
     0
 90
        2
176
     0
 90
        0
176
     0
 90
        0
176
     0
 40
0.6
176
     0
 40
30.0
176
     0
 62
     7
420
 16777215
176
     0
 90
        1
176
     0
 90
        4
176
     0
 62
     7
176
     0
 62
   257
176
     0
 90
        1
176
     0
 90
        1
176
     0
 40
1.0
176
     0
 90
        9
176
     2
 62
     7
176
     0
 40
1.0
176
     0
 90
        1
176
     0
 90
        6
176
     0
 90
        2
176
     0
 62
     7
176
     0
 90
        5
176
     0
 90
        0
176
     0
 90
        0
176
     0
290
     0
176
     0
 90
        1
176
     0
 40
0.0
176
     0
 90
        0
176
     0
290
     0
176
     0
290
     1
176
     0
290
     1
176
     0
290
     0
176
     0
290
     0
176
     0
290
     0
176
     0
290
     0
176
     0
290
     0
176
     0
290
     0
176
     0
 90
       50
176
     0
 40
0.0
176
     0
 40
1.0
176
     0
 90
        0
176
     0
 62
    18
420
        0
176
     0
 90
       50
176
     0
 90
        3
176
     0
 62
     5
420
      255
176
     0
290
     0
176
     0
 90
       50
176
     0
 90
       50
176
     0
 90
       50
176
     0
290
     0
176
     0
 90
       50
176
     0
 62
   256
176
     0
 40
1.0
176
     0
 90
        2
176
     0
  1
strokes_ogs.tif
176
     0
290
     0
176
     0
 40
1.0
176
     0
 40
1.0
176
     0
  0
VISUALSTYLE
  5
67B
102
{ACAD_REACTORS
330
672
102
}
330
672
100
AcDbVisualStyle
  2
Realistic
 70
     8
177
     3
291
     0
 70
    58
 90
        2
176
     1
 90
        3
176
     1
 90
        0
176
     1
 90
        2
176
     1
 40
0.6
176
     1
 40
30.0
176
     1
 62
     7
420
 16777215
176
     1
 90
        0
176
     1
 90
        0
176
     1
 62
     7
176
     1
 62
   257
176
     1
 90
        1
176
     1
 90
        1
176
     1
 40
1.0
176
     1
 90
        8
176
     1
 62
   257
176
     1
 40
1.0
176
     1
 90
        1
176
     1
 90
        6
176
     1
 90
        2
176
     1
 62
     7
176
     1
 90
        3
176
     1
 90
        0
176
     1
 90
        0
176
     1
290
     0
176
     1
 90
       13
176
     1
 40
0.0
176
     1
 90
        0
176
     1
290
     0
176
     1
290
     1
176
     1
290
     1
176
     1
290
     0
176
     1
290
     0
176
     1
290
     0
176
     1
290
     0
176
     1
290
     0
176
     1
290
     0
176
     1
 90
       50
176
     1
 40
0.0
176
     1
 40
1.0
176
     1
 90
        0
176
     1
 62
    18
420
        0
176
     1
 90
       50
176
     1
 90
        3
176
     1
 62
     5
420
      255
176
     1
290
     0
176
     1
 90
       50
176
     1
 90
       50
176
     1
 90
       50
176
     1
290
     0
176
     1
 90
       50
176
     1
 62
   256
176
     0
 40
1.0
176
     0
 90
        2
176
     1
  1
strokes_ogs.tif
176
     1
290
     0
176
     1
 40
1.0
176
     1
 40
1.0
176
     1
  0
VISUALSTYLE
  5
68A
102
{ACAD_REACTORS
330
672
102
}
330
672
100
AcDbVisualStyle
  2
Shaded
 70
    27
177
     3
291
     0
 70
    58
 90
        2
176
     1
 90
        2
176
     1
 90
        1
176
     1
 90
        2
176
     1
 40
0.6
176
     1
 40
30.0
176
     1
 62
     7
420
 16777215
176
     1
 90
        0
176
     1
 90
        4
176
     1
 62
     7
176
     1
 62
   257
176
     1
 90
        1
176
     1
 90
        1
176
     1
 40
1.0
176
     1
 90
        8
176
     1
 62
   257
176
     1
 40
1.0
176
     1
 90
        1
176
     1
 90
        6
176
     1
 90
        2
176
     1
 62
     8
420
  7895160
176
     1
 90
        3
176
     1
 90
        0
176
     1
 90
        0
176
     1
290
     0
176
     1
 90
        5
176
     1
 40
0.0
176
     1
 90
        0
176
     1
290
     0
176
     1
290
     1
176
     1
290
     1
176
     1
290
     0
176
     1
290
     0
176
     1
290
     0
176
     1
290
     0
176
     1
290
     0
176
     1
290
     0
176
     1
 90
       50
176
     1
 40
0.0
176
     1
 40
1.0
176
     1
 90
        0
176
     1
 62
    18
420
        0
176
     1
 90
       50
176
     1
 90
        3
176
     1
 62
     5
420
      255
176
     1
290
     0
176
     1
 90
       50
176
     1
 90
       50
176
     1
 90
       50
176
     1
290
     0
176
     1
 90
       50
176
     1
 62
   256
176
     0
 40
1.0
176
     0
 90
        2
176
     1
  1
strokes_ogs.tif
176
     1
290
     0
176
     1
 40
1.0
176
     1
 40
1.0
176
     1
  0
VISUALSTYLE
  5
689
102
{ACAD_REACTORS
330
672
102
}
330
672
100
AcDbVisualStyle
  2
Shaded with edges
 70
    26
177
     3
291
     0
 70
    58
 90
        2
176
     1
 90
        2
176
     1
 90
        1
176
     1
 90
        2
176
     1
 40
0.6
176
     1
 40
30.0
176
     1
 62
     7
420
 16777215
176
     1
 90
        1
176
     1
 90
       10
176
     1
 62
     7
176
     1
 62
   257
176
     1
 90
        2
176
     1
 90
        1
176
     1
 40
1.0
176
     1
 90
        8
176
     1
 62
   257
176
     1
 40
1.0
176
     1
 90
        1
176
     1
 90
        6
176
     1
 90
        2
176
     1
 62
     7
176
     1
 90
        3
176
     1
 90
        0
176
     1
 90
        0
176
     1
290
     0
176
     1
 90
        5
176
     1
 40
0.0
176
     1
 90
        0
176
     1
290
     0
176
     1
290
     1
176
     1
290
     1
176
     1
290
     0
176
     1
290
     0
176
     1
290
     0
176
     1
290
     0
176
     1
290
     0
176
     1
290
     0
176
     1
 90
       50
176
     1
 40
0.0
176
     1
 40
1.0
176
     1
 90
        0
176
     1
 62
    18
420
        0
176
     1
 90
       50
176
     1
 90
        3
176
     1
 62
     5
420
      255
176
     1
290
     0
176
     1
 90
       50
176
     1
 90
       50
176
     1
 90
       50
176
     1
290
     0
176
     1
 90
       50
176
     1
 62
   256
176
     0
 40
1.0
176
     0
 90
        2
176
     1
  1
strokes_ogs.tif
176
     1
290
     0
176
     1
 40
1.0
176
     1
 40
1.0
176
     1
  0
VISUALSTYLE
  5
686
102
{ACAD_REACTORS
330
672
102
}
330
672
100
AcDbVisualStyle
  2
Shades of Gray
 70
    23
177
     3
291
     0
 70
    58
 90
        2
176
     1
 90
        2
176
     1
 90
        3
176
     1
 90
        0
176
     1
 40
0.6
176
     1
 40
30.0
176
     1
 62
     7
420
 16777215
176
     1
 90
        2
176
     1
 90
        2
176
     1
 62
     7
176
     1
 62
     7
176
     1
 90
        1
176
     1
 90
        1
176
     1
 40
40.0
176
     1
 90
        8
176
     1
 62
     7
176
     1
 40
1.0
176
     1
 90
        1
176
     1
 90
        6
176
     1
 90
        2
176
     1
 62
     7
176
     1
 90
        3
176
     1
 90
        0
176
     1
 90
        0
176
     1
290
     0
176
     1
 90
        1
176
     1
 40
0.0
176
     1
 90
        0
176
     1
290
     0
176
     1
290
     1
176
     1
290
     1
176
     1
290
     0
176
     1
290
     0
176
     1
290
     0
176
     1
290
     0
176
     1
290
     0
176
     1
290
     0
176
     1
 90
       50
176
     1
 40
0.0
176
     1
 40
1.0
176
     1
 90
        0
176
     1
 62
    18
420
        0
176
     1
 90
       50
176
     1
 90
        3
176
     1
 62
     5
420
      255
176
     1
290
     0
176
     1
 90
       50
176
     1
 90
       50
176
     1
 90
       50
176
     1
290
     0
176
     1
 90
       50
176
     1
 62
   256
176
     0
 40
1.0
176
     0
 90
        2
176
     1
  1
strokes_ogs.tif
176
     1
290
     0
176
     1
 40
1.0
176
     1
 40
1.0
176
     1
  0
VISUALSTYLE
  5
687
102
{ACAD_REACTORS
330
672
102
}
330
672
100
AcDbVisualStyle
  2
Sketchy
 70
    24
177
     3
291
     0
 70
    58
 90
        1
176
     1
 90
        2
176
     1
 90
        2
176
     1
 90
        0
176
     1
 40
0.6
176
     1
 40
30.0
176
     1
 62
     7
420
 16777215
176
     1
 90
        2
176
     1
 90
        2
176
     1
 62
     7
176
     1
 62
     7
176
     1
 90
        1
176
     1
 90
        1
176
     1
 40
40.0
176
     1
 90
       11
176
     1
 62
     7
176
     1
 40
1.0
176
     1
 90
        1
176
     1
 90
        6
176
     1
 90
        2
176
     1
 62
     7
176
     1
 90
        6
176
     1
 90
        0
176
     1
 90
        0
176
     1
290
     0
176
     1
 90
        1
176
     1
 40
0.0
176
     1
 90
        0
176
     1
290
     0
176
     1
290
     1
176
     1
290
     1
176
     1
290
     0
176
     1
290
     0
176
     1
290
     0
176
     1
290
     0
176
     1
290
     0
176
     1
290
     0
176
     1
 90
       50
176
     1
 40
0.0
176
     1
 40
1.0
176
     1
 90
        0
176
     1
 62
    18
420
        0
176
     1
 90
       50
176
     1
 90
        3
176
     1
 62
     5
420
      255
176
     1
290
     0
176
     1
 90
       50
176
     1
 90
       50
176
     1
 90
       50
176
     1
290
     0
176
     1
 90
       50
176
     1
 62
   256
176
     0
 40
1.0
176
     0
 90
        2
176
     1
  1
strokes_ogs.tif
176
     1
290
     0
176
     1
 40
1.0
176
     1
 40
1.0
176
     1
  0
VISUALSTYLE
  5
67F
102
{ACAD_REACTORS
330
672
102
}
330
672
100
AcDbVisualStyle
  2
Thicken
 70
    13
177
     3
291
     1
 70
    58
 90
        2
176
     1
 90
        2
176
     1
 90
        0
176
     1
 90
        0
176
     1
 40
0.6
176
     1
 40
30.0
176
     1
 62
     7
420
 16777215
176
     1
 90
        1
176
     1
 90
        4
176
     1
 62
     7
176
     1
 62
   257
176
     1
 90
        1
176
     1
 90
        1
176
     1
 40
1.0
176
     1
 90
       12
176
     1
 62
     7
176
     1
 40
1.0
176
     1
 90
        1
176
     1
 90
        6
176
     1
 90
        2
176
     1
 62
     7
176
     1
 90
        5
176
     1
 90
        0
176
     1
 90
        0
176
     1
290
     0
176
     1
 90
        1
176
     1
 40
0.0
176
     1
 90
        0
176
     1
290
     0
176
     1
290
     1
176
     1
290
     1
176
     1
290
     0
176
     1
290
     0
176
     1
290
     0
176
     1
290
     0
176
     1
290
     0
176
     1
290
     0
176
     1
 90
       50
176
     1
 40
0.0
176
     1
 40
1.0
176
     1
 90
        0
176
     1
 62
    18
420
        0
176
     1
 90
       50
176
     1
 90
        3
176
     1
 62
     5
420
      255
176
     1
290
     0
176
     1
 90
       50
176
     1
 90
       50
176
     1
 90
       50
176
     1
290
     0
176
     1
 90
       50
176
     1
 62
   256
176
     0
 40
1.0
176
     0
 90
        2
176
     1
  1
strokes_ogs.tif
176
     1
290
     0
176
     1
 40
1.0
176
     1
 40
1.0
176
     1
  0
VISUALSTYLE
  5
678
102
{ACAD_REACTORS
330
672
102
}
330
672
100
AcDbVisualStyle
  2
Wireframe
 70
     5
177
     3
291
     0
 70
    58
 90
        0
176
     1
 90
        2
176
     1
 90
        0
176
     1
 90
        0
176
     1
 40
0.6
176
     1
 40
30.0
176
     1
 62
     7
420
 16777215
176
     1
 90
        1
176
     1
 90
        4
176
     1
 62
     7
176
     1
 62
   257
176
     1
 90
        1
176
     1
 90
        1
176
     1
 40
1.0
176
     1
 90
        0
176
     1
 62
   257
176
     1
 40
1.0
176
     1
 90
        1
176
     1
 90
        6
176
     1
 90
        2
176
     1
 62
     7
176
     1
 90
        3
176
     1
 90
        0
176
     1
 90
        0
176
     1
290
     0
176
     1
 90
        1
176
     1
 40
0.0
176
     1
 90
        0
176
     1
290
     0
176
     1
290
     1
176
     1
290
     1
176
     1
290
     0
176
     1
290
     0
176
     1
290
     0
176
     1
290
     0
176
     1
290
     0
176
     1
290
     0
176
     1
 90
       50
176
     1
 40
0.0
176
     1
 40
1.0
176
     1
 90
        0
176
     1
 62
    18
420
        0
176
     1
 90
       50
176
     1
 90
        3
176
     1
 62
     5
420
      255
176
     1
290
     0
176
     1
 90
       50
176
     1
 90
       50
176
     1
 90
       50
176
     1
290
     0
176
     1
 90
       50
176
     1
 62
   256
176
     0
 40
1.0
176
     0
 90
        2
176
     1
  1
strokes_ogs.tif
176
     1
290
     0
176
     1
 40
1.0
176
     1
 40
1.0
176
     1
  0
VISUALSTYLE
  5
688
102
{ACAD_REACTORS
330
672
102
}
330
672
100
AcDbVisualStyle
  2
X-Ray
 70
    25
177
     3
291
     0
 70
    58
 90
        2
176
     1
 90
        2
176
     1
 90
        1
176
     1
 90
        1
176
     1
 40
0.5
176
     1
 40
30.0
176
     1
 62
     7
420
 16777215
176
     1
 90
        1
176
     1
 90
        0
176
     1
 62
     7
176
     1
 62
   257
176
     1
 90
        1
176
     1
 90
        1
176
     1
 40
1.0
176
     1
 90
        8
176
     1
 62
     7
176
     1
 40
1.0
176
     1
 90
        1
176
     1
 90
        6
176
     1
 90
        2
176
     1
 62
     7
176
     1
 90
        3
176
     1
 90
        0
176
     1
 90
        0
176
     1
290
     0
176
     1
 90
       13
176
     1
 40
0.0
176
     1
 90
        0
176
     1
290
     0
176
     1
290
     1
176
     1
290
     1
176
     1
290
     0
176
     1
290
     0
176
     1
290
     0
176
     1
290
     0
176
     1
290
     0
176
     1
290
     0
176
     1
 90
       50
176
     1
 40
0.0
176
     1
 40
1.0
176
     1
 90
        0
176
     1
 62
    18
420
        0
176
     1
 90
       50
176
     1
 90
        3
176
     1
 62
     5
420
      255
176
     1
290
     0
176
     1
 90
       50
176
     1
 90
       50
176
     1
 90
       50
176
     1
290
     0
176
     1
 90
       50
176
     1
 62
   256
176
     0
 40
1.0
176
     0
 90
        2
176
     1
  1
strokes_ogs.tif
176
     1
290
     0
176
     1
 40
1.0
176
     1
 40
1.0
176
     1
  0
DICTIONARYVAR
  5
695
102
{ACAD_REACTORS
330
694
102
}
330
694
100
DictionaryVariables
280
     0
  1
1:1
  0
DICTIONARYVAR
  5
69A
102
{ACAD_REACTORS
330
694
102
}
330
694
100
DictionaryVariables
280
     0
  1
Standard
  0
DICTIONARYVAR
  5
699
102
{ACAD_REACTORS
330
694
102
}
330
694
100
DictionaryVariables
280
     0
  1
Standard
  0
DICTIONARYVAR
  5
69B
102
{ACAD_REACTORS
330
694
102
}
330
694
100
DictionaryVariables
280
     0
  1
0
  0
DICTIONARY
  5
696
330
690
100
AcDbDictionary
280
     1
281
     1
  3
ACAD_ROUNDTRIP_2008_TABLESTYLE_CELLSTYLEMAP
360
697
  0
CELLSTYLEMAP
  5
697
102
{ACAD_REACTORS
330
696
102
}
330
696
100
AcDbCellStyleMap
 90
        3
300
CELLSTYLE
  1
TABLEFORMAT_BEGIN
 90
        5
170
     1
 91
        0
 92
    32768
 62
   257
 93
        1
300
CONTENTFORMAT
  1
CONTENTFORMAT_BEGIN
 90
        0
 91
        0
 92
        4
 93
        0
300

 40
0.0
140
1.0
 94
        5
 62
     0
340
11
144
6.0
309
CONTENTFORMAT_END
171
     1
301
MARGIN
  1
CELLMARGIN_BEGIN
 40
1.5
 40
1.5
 40
1.5
 40
1.5
 40
1.5
 40
1.5
309
CELLMARGIN_END
 94
        6
 95
        1
302
GRIDFORMAT
  1
GRIDFORMAT_BEGIN
 90
        0
 91
        1
 62
     0
 92
       -2
340
14
 93
        0
 40
0.045
309
GRIDFORMAT_END
 95
        2
302
GRIDFORMAT
  1
GRIDFORMAT_BEGIN
 90
        0
 91
        1
 62
     0
 92
       -2
340
14
 93
        0
 40
0.045
309
GRIDFORMAT_END
 95
        4
302
GRIDFORMAT
  1
GRIDFORMAT_BEGIN
 90
        0
 91
        1
 62
     0
 92
       -2
340
14
 93
        0
 40
0.045
309
GRIDFORMAT_END
 95
        8
302
GRIDFORMAT
  1
GRIDFORMAT_BEGIN
 90
        0
 91
        1
 62
     0
 92
       -2
340
14
 93
        0
 40
0.045
309
GRIDFORMAT_END
 95
       16
302
GRIDFORMAT
  1
GRIDFORMAT_BEGIN
 90
        0
 91
        1
 62
     0
 92
       -2
340
14
 93
        0
 40
0.045
309
GRIDFORMAT_END
 95
       32
302
GRIDFORMAT
  1
GRIDFORMAT_BEGIN
 90
        0
 91
        1
 62
     0
 92
       -2
340
14
 93
        0
 40
0.045
309
GRIDFORMAT_END
309
TABLEFORMAT_END
  1
CELLSTYLE_BEGIN
 90
        1
 91
        1
300
_TITLE
309
CELLSTYLE_END
300
CELLSTYLE
  1
TABLEFORMAT_BEGIN
 90
        5
170
     1
 91
        0
 92
        0
 62
   257
 93
        1
300
CONTENTFORMAT
  1
CONTENTFORMAT_BEGIN
 90
        0
 91
        0
 92
        4
 93
        0
300

 40
0.0
140
1.0
 94
        5
 62
     0
340
11
144
4.5
309
CONTENTFORMAT_END
171
     1
301
MARGIN
  1
CELLMARGIN_BEGIN
 40
1.5
 40
1.5
 40
1.5
 40
1.5
 40
1.5
 40
1.5
309
CELLMARGIN_END
 94
        6
 95
        1
302
GRIDFORMAT
  1
GRIDFORMAT_BEGIN
 90
        0
 91
        1
 62
     0
 92
       -2
340
14
 93
        0
 40
0.045
309
GRIDFORMAT_END
 95
        2
302
GRIDFORMAT
  1
GRIDFORMAT_BEGIN
 90
        0
 91
        1
 62
     0
 92
       -2
340
14
 93
        0
 40
0.045
309
GRIDFORMAT_END
 95
        4
302
GRIDFORMAT
  1
GRIDFORMAT_BEGIN
 90
        0
 91
        1
 62
     0
 92
       -2
340
14
 93
        0
 40
0.045
309
GRIDFORMAT_END
 95
        8
302
GRIDFORMAT
  1
GRIDFORMAT_BEGIN
 90
        0
 91
        1
 62
     0
 92
       -2
340
14
 93
        0
 40
0.045
309
GRIDFORMAT_END
 95
       16
302
GRIDFORMAT
  1
GRIDFORMAT_BEGIN
 90
        0
 91
        1
 62
     0
 92
       -2
340
14
 93
        0
 40
0.045
309
GRIDFORMAT_END
 95
       32
302
GRIDFORMAT
  1
GRIDFORMAT_BEGIN
 90
        0
 91
        1
 62
     0
 92
       -2
340
14
 93
        0
 40
0.045
309
GRIDFORMAT_END
309
TABLEFORMAT_END
  1
CELLSTYLE_BEGIN
 90
        2
 91
        1
300
_HEADER
309
CELLSTYLE_END
300
CELLSTYLE
  1
TABLEFORMAT_BEGIN
 90
        5
170
     1
 91
        0
 92
        0
 62
   257
 93
        1
300
CONTENTFORMAT
  1
CONTENTFORMAT_BEGIN
 90
        0
 91
        0
 92
        4
 93
        0
300

 40
0.0
140
1.0
 94
        2
 62
     0
340
11
144
4.5
309
CONTENTFORMAT_END
171
     1
301
MARGIN
  1
CELLMARGIN_BEGIN
 40
1.5
 40
1.5
 40
1.5
 40
1.5
 40
1.5
 40
1.5
309
CELLMARGIN_END
 94
        6
 95
        1
302
GRIDFORMAT
  1
GRIDFORMAT_BEGIN
 90
        0
 91
        1
 62
     0
 92
       -2
340
14
 93
        0
 40
0.045
309
GRIDFORMAT_END
 95
        2
302
GRIDFORMAT
  1
GRIDFORMAT_BEGIN
 90
        0
 91
        1
 62
     0
 92
       -2
340
14
 93
        0
 40
0.045
309
GRIDFORMAT_END
 95
        4
302
GRIDFORMAT
  1
GRIDFORMAT_BEGIN
 90
        0
 91
        1
 62
     0
 92
       -2
340
14
 93
        0
 40
0.045
309
GRIDFORMAT_END
 95
        8
302
GRIDFORMAT
  1
GRIDFORMAT_BEGIN
 90
        0
 91
        1
 62
     0
 92
       -2
340
14
 93
        0
 40
0.045
309
GRIDFORMAT_END
 95
       16
302
GRIDFORMAT
  1
GRIDFORMAT_BEGIN
 90
        0
 91
        1
 62
     0
 92
       -2
340
14
 93
        0
 40
0.045
309
GRIDFORMAT_END
 95
       32
302
GRIDFORMAT
  1
GRIDFORMAT_BEGIN
 90
        0
 91
        1
 62
     0
 92
       -2
340
14
 93
        0
 40
0.045
309
GRIDFORMAT_END
309
TABLEFORMAT_END
  1
CELLSTYLE_BEGIN
 90
        3
 91
        2
300
_DATA
309
CELLSTYLE_END
  0
ENDSEC
  0
EOF
