  0
SECTION
  2
HEADER
  9
$ACADVER
  1
AC1027
  9
$ACADMAINTVER
 70
   105
  9
$DWGCODEPAGE
  3
ANSI_1252
  9
$REQUIREDVERSIONS
160
                 0
  9
$LASTSAVEDBY
  1
andrea.zolin
  9
$INSBASE
 10
0.0
 20
0.0
 30
0.0
  9
$EXTMIN
 10
0.0
 20
0.0
 30
0.0
  9
$EXTMAX
 10
297.0
 20
210.0
 30
0.0
  9
$LIMMIN
 10
0.0
 20
0.0
  9
$LIMMAX
 10
297.0
 20
210.0
  9
$ORTHOMODE
 70
     0
  9
$REGENMODE
 70
     1
  9
$FILLMODE
 70
     1
  9
$QTEXTMODE
 70
     0
  9
$MIRRTEXT
 70
     1
  9
$LTSCALE
 40
16.335
  9
$ATTMODE
 70
     1
  9
$TEXTSIZE
 40
0.2
  9
$TRACEWID
 40
0.05
  9
$TEXTSTYLE
  7
STANDARD
  9
$CLAYER
  8
0
  9
$CELTYPE
  6
BYLAYER
  9
$CECOLOR
 62
   256
  9
$CELTSCALE
 40
1.0
  9
$DISPSILH
 70
     0
  9
$DIMSCALE
 40
1.0
  9
$DIMASZ
 40
2.5
  9
$DIMEXO
 40
0.75
  9
$DIMDLI
 40
11.286
  9
$DIMRND
 40
0.0
  9
$DIMDLE
 40
0.0
  9
$DIMEXE
 40
0.75
  9
$DIMTP
 40
0.01
  9
$DIMTM
 40
0.01
  9
$DIMTXT
 40
3.0
  9
$DIMCEN
 40
2.673
  9
$DIMTSZ
 40
0.0
  9
$DIMTOL
 70
     1
  9
$DIMLIM
 70
     0
  9
$DIMTIH
 70
     1
  9
$DIMTOH
 70
     1
  9
$DIMSE1
 70
     0
  9
$DIMSE2
 70
     0
  9
$DIMTAD
 70
     0
  9
$DIMZIN
 70
     0
  9
$DIMBLK
  1
CLOSED
  9
$DIMASO
 70
     1
  9
$DIMSHO
 70
     1
  9
$DIMPOST
  1

  9
$DIMAPOST
  1

  9
$DIMALT
 70
     0
  9
$DIMALTD
 70
     2
  9
$DIMALTF
 40
25.4
  9
$DIMLFAC
 40
1.0
  9
$DIMTOFL
 70
     0
  9
$DIMTVP
 40
0.0
  9
$DIMTIX
 70
     0
  9
$DIMSOXD
 70
     0
  9
$DIMSAH
 70
     0
  9
$DIMBLK1
  1

  9
$DIMBLK2
  1

  9
$DIMSTYLE
  2
STANDARD
  9
$DIMCLRD
 70
     0
  9
$DIMCLRE
 70
     0
  9
$DIMCLRT
 70
     0
  9
$DIMTFAC
 40
1.0
  9
$DIMGAP
 40
0.625
  9
$DIMJUST
 70
     0
  9
$DIMSD1
 70
     0
  9
$DIMSD2
 70
     0
  9
$DIMTOLJ
 70
     1
  9
$DIMTZIN
 70
     0
  9
$DIMALTZ
 70
     0
  9
$DIMALTTZ
 70
     0
  9
$DIMUPT
 70
     0
  9
$DIMDEC
 70
     4
  9
$DIMTDEC
 70
     4
  9
$DIMALTU
 70
     2
  9
$DIMALTTD
 70
     2
  9
$DIMTXSTY
  7
STANDARD
  9
$DIMAUNIT
 70
     0
  9
$DIMADEC
 70
     0
  9
$DIMALTRND
 40
0.0
  9
$DIMAZIN
 70
     0
  9
$DIMDSEP
 70
    46
  9
$DIMATFIT
 70
     3
  9
$DIMFRAC
 70
     0
  9
$DIMLDRBLK
  1

  9
$DIMLUNIT
 70
     2
  9
$DIMLWD
 70
    -2
  9
$DIMLWE
 70
    -2
  9
$DIMTMOVE
 70
     2
  9
$DIMFXL
 40
1.0
  9
$DIMFXLON
 70
     0
  9
$DIMJOGANG
 40
0.7853981633974483
  9
$DIMTFILL
 70
     0
  9
$DIMTFILLCLR
 70
     0
  9
$DIMARCSYM
 70
     0
  9
$DIMLTYPE
  6

  9
$DIMLTEX1
  6

  9
$DIMLTEX2
  6

  9
$DIMTXTDIRECTION
 70
     0
  9
$LUNITS
 70
     2
  9
$LUPREC
 70
     4
  9
$SKETCHINC
 40
0.1
  9
$FILLETRAD
 40
0.5
  9
$AUNITS
 70
     0
  9
$AUPREC
 70
     0
  9
$MENU
  1
.
  9
$ELEVATION
 40
0.0
  9
$PELEVATION
 40
0.0
  9
$THICKNESS
 40
0.0
  9
$LIMCHECK
 70
     0
  9
$CHAMFERA
 40
0.0
  9
$CHAMFERB
 40
0.0
  9
$CHAMFERC
 40
0.0
  9
$CHAMFERD
 40
0.0
  9
$SKPOLY
 70
     0
  9
$TDCREATE
 40
2447893.041666667
  9
$TDUCREATE
 40
0.0
  9
$TDUPDATE
 40
2458466.74337125
  9
$TDUUPDATE
 40
2458466.701704583
  9
$TDINDWG
 40
0.0001957292
  9
$TDUSRTIMER
 40
0.0001957292
  9
$USRTIMER
 70
     1
  9
$ANGBASE
 50
0.0
  9
$ANGDIR
 70
     0
  9
$PDMODE
 70
     3
  9
$PDSIZE
 40
0.3125
  9
$PLINEWID
 40
0.0
  9
$SPLFRAME
 70
     0
  9
$SPLINETYPE
 70
     6
  9
$SPLINESEGS
 70
     8
  9
$HANDSEED
  5
5B2
  9
$SURFTAB1
 70
     6
  9
$SURFTAB2
 70
     6
  9
$SURFTYPE
 70
     6
  9
$SURFU
 70
     6
  9
$SURFV
 70
     6
  9
$UCSBASE
  2

  9
$UCSNAME
  2

  9
$UCSORG
 10
0.0
 20
0.0
 30
0.0
  9
$UCSXDIR
 10
1.0
 20
0.0
 30
0.0
  9
$UCSYDIR
 10
0.0
 20
1.0
 30
0.0
  9
$UCSORTHOREF
  2

  9
$UCSORTHOVIEW
 70
     0
  9
$UCSORGTOP
 10
0.0
 20
0.0
 30
0.0
  9
$UCSORGBOTTOM
 10
0.0
 20
0.0
 30
0.0
  9
$UCSORGLEFT
 10
0.0
 20
0.0
 30
0.0
  9
$UCSORGRIGHT
 10
0.0
 20
0.0
 30
0.0
  9
$UCSORGFRONT
 10
0.0
 20
0.0
 30
0.0
  9
$UCSORGBACK
 10
0.0
 20
0.0
 30
0.0
  9
$PUCSBASE
  2

  9
$PUCSNAME
  2

  9
$PUCSORG
 10
0.0
 20
0.0
 30
0.0
  9
$PUCSXDIR
 10
1.0
 20
0.0
 30
0.0
  9
$PUCSYDIR
 10
0.0
 20
1.0
 30
0.0
  9
$PUCSORTHOREF
  2

  9
$PUCSORTHOVIEW
 70
     0
  9
$PUCSORGTOP
 10
0.0
 20
0.0
 30
0.0
  9
$PUCSORGBOTTOM
 10
0.0
 20
0.0
 30
0.0
  9
$PUCSORGLEFT
 10
0.0
 20
0.0
 30
0.0
  9
$PUCSORGRIGHT
 10
0.0
 20
0.0
 30
0.0
  9
$PUCSORGFRONT
 10
0.0
 20
0.0
 30
0.0
  9
$PUCSORGBACK
 10
0.0
 20
0.0
 30
0.0
  9
$USERI1
 70
     0
  9
$USERI2
 70
     0
  9
$USERI3
 70
     0
  9
$USERI4
 70
     0
  9
$USERI5
 70
     0
  9
$USERR1
 40
0.0
  9
$USERR2
 40
0.0
  9
$USERR3
 40
0.0
  9
$USERR4
 40
0.0
  9
$USERR5
 40
0.0
  9
$WORLDVIEW
 70
     1
  9
$SHADEDGE
 70
     3
  9
$SHADEDIF
 70
    70
  9
$TILEMODE
 70
     0
  9
$MAXACTVP
 70
    64
  9
$PINSBASE
 10
0.0
 20
0.0
 30
0.0
  9
$PLIMCHECK
 70
     0
  9
$PEXTMIN
 10
9.949999999999989
 20
9.950000000000003
 30
0.0
  9
$PEXTMAX
 10
291.5463968142667
 20
200.05
 30
0.0
  9
$PLIMMIN
 10
4.402334630350183
 20
-4.843774319066146
  9
$PLIMMAX
 10
315.0715953307393
 20
214.8437743190662
  9
$UNITMODE
 70
     0
  9
$VISRETAIN
 70
     1
  9
$PLINEGEN
 70
     0
  9
$PSLTSCALE
 70
     1
  9
$TREEDEPTH
 70
  3020
  9
$CMLSTYLE
  2
STANDARD
  9
$CMLJUST
 70
     0
  9
$CMLSCALE
 40
1.0
  9
$PROXYGRAPHICS
 70
     1
  9
$MEASUREMENT
 70
     1
  9
$CELWEIGHT
370
    -1
  9
$ENDCAPS
280
     0
  9
$JOINSTYLE
280
     0
  9
$LWDISPLAY
290
     0
  9
$INSUNITS
 70
     0
  9
$HYPERLINKBASE
  1

  9
$STYLESHEET
  1

  9
$XEDIT
290
     1
  9
$CEPSNTYPE
380
     0
  9
$PSTYLEMODE
290
     1
  9
$FINGERPRINTGUID
  2
{DE6C6CD1-226A-465D-A8B5-149E0E29D902}
  9
$VERSIONGUID
  2
{FAEB1C32-E019-11D5-929B-00C0DF256EC4}
  9
$EXTNAMES
290
     1
  9
$PSVPSCALE
 40
0.0
  9
$OLESTARTUP
290
     0
  9
$SORTENTS
280
   127
  9
$INDEXCTL
280
     0
  9
$HIDETEXT
280
     1
  9
$XCLIPFRAME
280
     2
  9
$HALOGAP
280
     0
  9
$OBSCOLOR
 70
   257
  9
$OBSLTYPE
280
     0
  9
$INTERSECTIONDISPLAY
280
     0
  9
$INTERSECTIONCOLOR
 70
   257
  9
$DIMASSOC
280
     2
  9
$PROJECTNAME
  1

  9
$CAMERADISPLAY
290
     0
  9
$LENSLENGTH
 40
50.0
  9
$CAMERAHEIGHT
 40
0.0
  9
$STEPSPERSEC
 40
2.0
  9
$STEPSIZE
 40
6.0
  9
$3DDWFPREC
 40
2.0
  9
$PSOLWIDTH
 40
0.25
  9
$PSOLHEIGHT
 40
4.0
  9
$LOFTANG1
 40
1.570796326794897
  9
$LOFTANG2
 40
1.570796326794897
  9
$LOFTMAG1
 40
0.0
  9
$LOFTMAG2
 40
0.0
  9
$LOFTPARAM
 70
     7
  9
$LOFTNORMALS
280
     1
  9
$LATITUDE
 40
37.795
  9
$LONGITUDE
 40
-122.394
  9
$NORTHDIRECTION
 40
0.0
  9
$TIMEZONE
 70
 -8000
  9
$LIGHTGLYPHDISPLAY
280
     1
  9
$TILEMODELIGHTSYNCH
280
     1
  9
$SOLIDHIST
280
     0
  9
$SHOWHIST
280
     1
  9
$DWFFRAME
280
     2
  9
$DGNFRAME
280
     2
  9
$REALWORLDSCALE
290
     1
  9
$INTERFERECOLOR
 62
   256
  9
$CSHADOW
280
     0
  9
$SHADOWPLANELOCATION
 40
0.0
  0
ENDSEC
  0
SECTION
  2
CLASSES
  0
CLASS
  1
ACDBDICTIONARYWDFLT
  2
AcDbDictionaryWithDefault
  3
ObjectDBX Classes
 90
        0
 91
        4
280
     0
281
     0
  0
CLASS
  1
SCALE
  2
AcDbScale
  3
ObjectDBX Classes
 90
     1153
 91
        4
280
     0
281
     0
  0
CLASS
  1
VISUALSTYLE
  2
AcDbVisualStyle
  3
ObjectDBX Classes
 90
     4095
 91
        4
280
     0
281
     0
  0
CLASS
  1
MATERIAL
  2
AcDbMaterial
  3
ObjectDBX Classes
 90
     1153
 91
        4
280
     0
281
     0
  0
CLASS
  1
TABLESTYLE
  2
AcDbTableStyle
  3
ObjectDBX Classes
 90
     4095
 91
        4
280
     0
281
     0
  0
CLASS
  1
MLEADERSTYLE
  2
AcDbMLeaderStyle
  3
ACDB_MLEADERSTYLE_CLASS
 90
     4095
 91
        4
280
     0
281
     0
  0
CLASS
  1
DICTIONARYVAR
  2
AcDbDictionaryVar
  3
ObjectDBX Classes
 90
        0
 91
        4
280
     0
281
     0
  0
CLASS
  1
CELLSTYLEMAP
  2
AcDbCellStyleMap
  3
ObjectDBX Classes
 90
     1152
 91
        4
280
     0
281
     0
  0
ENDSEC
  0
SECTION
  2
TABLES
  0
TABLE
  2
VPORT
  5
8
330
0
100
AcDbSymbolTable
 70
     1
  0
VPORT
  5
1F4
330
8
100
AcDbSymbolTableRecord
100
AcDbViewportTableRecord
  2
*ACTIVE
 70
     0
 10
0.0
 20
0.0
 11
1.0
 21
1.0
 12
148.5
 22
105.0
 13
0.0
 23
0.0
 14
1.0
 24
1.0
 15
0.0
 25
0.0
 16
0.0
 26
0.0
 36
1.0
 17
0.0
 27
0.0
 37
0.0
 40
210.0
 41
1.4142857143
 42
50.0
 43
0.0
 44
0.0
 50
0.0
 51
0.0
 71
     0
 72
   100
 73
     1
 74
     1
 75
     0
 76
     0
 77
     0
 78
     0
281
     0
 65
     1
110
0.0
120
0.0
130
0.0
111
1.0
121
0.0
131
0.0
112
0.0
122
1.0
132
0.0
 79
     0
146
0.0
348
58B
 60
     3
 61
     5
292
     1
282
     1
141
0.0
142
0.0
 63
   256
  0
ENDTAB
  0
TABLE
  2
LTYPE
  5
5
330
0
100
AcDbSymbolTable
 70
     6
  0
LTYPE
  5
14
330
5
100
AcDbSymbolTableRecord
100
AcDbLinetypeTableRecord
  2
BYBLOCK
 70
     0
  3

 72
    65
 73
     0
 40
0.0
  0
LTYPE
  5
15
330
5
100
AcDbSymbolTableRecord
100
AcDbLinetypeTableRecord
  2
BYLAYER
 70
     0
  3

 72
    65
 73
     0
 40
0.0
  0
LTYPE
  5
16
330
5
100
AcDbSymbolTableRecord
100
AcDbLinetypeTableRecord
  2
CONTINUOUS
 70
     0
  3
Solid line
 72
    65
 73
     0
 40
0.0
  0
LTYPE
  5
1F5
330
5
100
AcDbSymbolTableRecord
100
AcDbLinetypeTableRecord
  2
CENTER
 70
     0
  3
____ _ ____ _ ____ _ ____ _ ____ _ ____ _ ____
 72
    65
 73
     4
 40
0.6
 49
0.375
 74
     0
 49
-0.075
 74
     0
 49
0.075
 74
     0
 49
-0.075
 74
     0
  0
LTYPE
  5
1F6
330
5
100
AcDbSymbolTableRecord
100
AcDbLinetypeTableRecord
  2
HIDDEN
 70
     0
  3
- - - - - - - - - - - - - - - - - - - -
 72
    65
 73
     2
 40
0.2
 49
0.1
 74
     0
 49
-0.1
 74
     0
  0
LTYPE
  5
1F7
330
5
100
AcDbSymbolTableRecord
100
AcDbLinetypeTableRecord
  2
PHANTOM
 70
     0
  3
_____ _ _ _____ _ _ _____ _ _ _____
 72
    65
 73
     6
 40
0.8
 49
0.45
 74
     0
 49
-0.05
 74
     0
 49
0.1
 74
     0
 49
-0.05
 74
     0
 49
0.1
 74
     0
 49
-0.05
 74
     0
  0
LTYPE
  5
1F8
330
5
100
AcDbSymbolTableRecord
100
AcDbLinetypeTableRecord
  2
DOT
 70
     0
  3
. . . . . . . . . . . . . . . . . . . .
 72
    65
 73
     2
 40
0.2
 49
0.1
 74
     0
 49
-0.1
 74
     0
  0
LTYPE
  5
1F9
330
5
100
AcDbSymbolTableRecord
100
AcDbLinetypeTableRecord
  2
DASHED
 70
     0
  3
- - - - - - - - - - - - - - - - - - - -
 72
    65
 73
     2
 40
0.2
 49
0.1
 74
     0
 49
-0.1
 74
     0
  0
ENDTAB
  0
TABLE
  2
LAYER
  5
2
330
0
100
AcDbSymbolTable
 70
    39
  0
LAYER
  5
10
330
2
100
AcDbSymbolTableRecord
100
AcDbLayerTableRecord
  2
0
 70
     0
 62
     7
  6
CONTINUOUS
370
    -3
390
560
347
5A2
348
0
  0
LAYER
  5
1FA
330
2
100
AcDbSymbolTableRecord
100
AcDbLayerTableRecord
  2
DEFAULT_1
 70
     0
 62
     7
  6
CENTER
370
    -3
390
560
347
5A2
348
0
  0
LAYER
  5
1FB
330
2
100
AcDbSymbolTableRecord
100
AcDbLayerTableRecord
  2
DEFAULT_2
 70
     0
 62
     8
  6
HIDDEN
370
    -3
390
560
347
5A2
348
0
  0
LAYER
  5
1FC
330
2
100
AcDbSymbolTableRecord
100
AcDbLayerTableRecord
  2
DEFAULT_3
 70
     0
 62
     7
  6
PHANTOM
370
    -3
390
560
347
5A2
348
0
  0
LAYER
  5
1FD
330
2
100
AcDbSymbolTableRecord
100
AcDbLayerTableRecord
  2
01_ALL_DTM_PLN
 70
     0
 62
     7
  6
CONTINUOUS
370
    -3
390
560
347
5A2
348
0
  0
LAYER
  5
1FE
330
2
100
AcDbSymbolTableRecord
100
AcDbLayerTableRecord
  2
01__ASM_ALL_DTM_PLN
 70
     0
 62
     7
  6
CONTINUOUS
370
    -3
390
560
347
5A2
348
0
  0
LAYER
  5
1FF
330
2
100
AcDbSymbolTableRecord
100
AcDbLayerTableRecord
  2
01__ASM_DEF_DTM_PLN
 70
     0
 62
     7
  6
CONTINUOUS
370
    -3
390
560
347
5A2
348
0
  0
LAYER
  5
200
330
2
100
AcDbSymbolTableRecord
100
AcDbLayerTableRecord
  2
01___PRT_ALL_DTM_PLN
 70
     0
 62
     7
  6
CONTINUOUS
370
    -3
390
560
347
5A2
348
0
  0
LAYER
  5
201
330
2
100
AcDbSymbolTableRecord
100
AcDbLayerTableRecord
  2
01___PRT_DEF_DTM_PLN
 70
     0
 62
     7
  6
CONTINUOUS
370
    -3
390
560
347
5A2
348
0
  0
LAYER
  5
202
330
2
100
AcDbSymbolTableRecord
100
AcDbLayerTableRecord
  2
02_ALL_AXES
 70
     0
 62
     7
  6
CONTINUOUS
370
    -3
390
560
347
5A2
348
0
  0
LAYER
  5
203
330
2
100
AcDbSymbolTableRecord
100
AcDbLayerTableRecord
  2
02__ASM_ALL_AXES
 70
     0
 62
     7
  6
CONTINUOUS
370
    -3
390
560
347
5A2
348
0
  0
LAYER
  5
204
330
2
100
AcDbSymbolTableRecord
100
AcDbLayerTableRecord
  2
02___PRT_ALL_AXES
 70
     0
 62
     7
  6
CONTINUOUS
370
    -3
390
560
347
5A2
348
0
  0
LAYER
  5
205
330
2
100
AcDbSymbolTableRecord
100
AcDbLayerTableRecord
  2
03_ALL_CURVES
 70
     0
 62
     7
  6
CONTINUOUS
370
    -3
390
560
347
5A2
348
0
  0
LAYER
  5
206
330
2
100
AcDbSymbolTableRecord
100
AcDbLayerTableRecord
  2
03__ASM_ALL_CURVES
 70
     0
 62
     7
  6
CONTINUOUS
370
    -3
390
560
347
5A2
348
0
  0
LAYER
  5
207
330
2
100
AcDbSymbolTableRecord
100
AcDbLayerTableRecord
  2
03___PRT_ALL_CURVES
 70
     0
 62
     7
  6
CONTINUOUS
370
    -3
390
560
347
5A2
348
0
  0
LAYER
  5
208
330
2
100
AcDbSymbolTableRecord
100
AcDbLayerTableRecord
  2
04_ALL_DTM_PNT
 70
     0
 62
     7
  6
CONTINUOUS
370
    -3
390
560
347
5A2
348
0
  0
LAYER
  5
209
330
2
100
AcDbSymbolTableRecord
100
AcDbLayerTableRecord
  2
04__ASM_ALL_DTM_PNT
 70
     0
 62
     7
  6
CONTINUOUS
370
    -3
390
560
347
5A2
348
0
  0
LAYER
  5
20A
330
2
100
AcDbSymbolTableRecord
100
AcDbLayerTableRecord
  2
04___PRT_ALL_DTM_PNT
 70
     0
 62
     7
  6
CONTINUOUS
370
    -3
390
560
347
5A2
348
0
  0
LAYER
  5
20B
330
2
100
AcDbSymbolTableRecord
100
AcDbLayerTableRecord
  2
05_ALL_DTM_CSYS
 70
     0
 62
     7
  6
CONTINUOUS
370
    -3
390
560
347
5A2
348
0
  0
LAYER
  5
20C
330
2
100
AcDbSymbolTableRecord
100
AcDbLayerTableRecord
  2
05__ASM_ALL_DTM_CSYS
 70
     0
 62
     7
  6
CONTINUOUS
370
    -3
390
560
347
5A2
348
0
  0
LAYER
  5
20D
330
2
100
AcDbSymbolTableRecord
100
AcDbLayerTableRecord
  2
05__ASM_DEF_DTM_CSYS
 70
     0
 62
     7
  6
CONTINUOUS
370
    -3
390
560
347
5A2
348
0
  0
LAYER
  5
20E
330
2
100
AcDbSymbolTableRecord
100
AcDbLayerTableRecord
  2
05___PRT_ALL_DTM_CSYS
 70
     0
 62
     7
  6
CONTINUOUS
370
    -3
390
560
347
5A2
348
0
  0
LAYER
  5
20F
330
2
100
AcDbSymbolTableRecord
100
AcDbLayerTableRecord
  2
05___PRT_DEF_DTM_CSYS
 70
     0
 62
     7
  6
CONTINUOUS
370
    -3
390
560
347
5A2
348
0
  0
LAYER
  5
210
330
2
100
AcDbSymbolTableRecord
100
AcDbLayerTableRecord
  2
06_ALL_SURFS
 70
     0
 62
     7
  6
CONTINUOUS
370
    -3
390
560
347
5A2
348
0
  0
LAYER
  5
211
330
2
100
AcDbSymbolTableRecord
100
AcDbLayerTableRecord
  2
06__ASM_ALL_SURFS
 70
     0
 62
     7
  6
CONTINUOUS
370
    -3
390
560
347
5A2
348
0
  0
LAYER
  5
212
330
2
100
AcDbSymbolTableRecord
100
AcDbLayerTableRecord
  2
06___PRT_ALL_SURFS
 70
     0
 62
     7
  6
CONTINUOUS
370
    -3
390
560
347
5A2
348
0
  0
LAYER
  5
213
330
2
100
AcDbSymbolTableRecord
100
AcDbLayerTableRecord
  2
07__ASM_ALL_SKELETONS
 70
     0
 62
     7
  6
CONTINUOUS
370
    -3
390
560
347
5A2
348
0
  0
LAYER
  5
214
330
2
100
AcDbSymbolTableRecord
100
AcDbLayerTableRecord
  2
1_ALL_PLANES
 70
     0
 62
     7
  6
CONTINUOUS
370
    -3
390
560
347
5A2
348
0
  0
LAYER
  5
215
330
2
100
AcDbSymbolTableRecord
100
AcDbLayerTableRecord
  2
2_ALL_CSYS
 70
     0
 62
     7
  6
CONTINUOUS
370
    -3
390
560
347
5A2
348
0
  0
LAYER
  5
216
330
2
100
AcDbSymbolTableRecord
100
AcDbLayerTableRecord
  2
3_ALL_AXES
 70
     0
 62
     7
  6
CONTINUOUS
370
    -3
390
560
347
5A2
348
0
  0
LAYER
  5
217
330
2
100
AcDbSymbolTableRecord
100
AcDbLayerTableRecord
  2
4_ALL_POINTS
 70
     0
 62
     7
  6
CONTINUOUS
370
    -3
390
560
347
5A2
348
0
  0
LAYER
  5
218
330
2
100
AcDbSymbolTableRecord
100
AcDbLayerTableRecord
  2
5_ALL_CURVES
 70
     0
 62
     7
  6
CONTINUOUS
370
    -3
390
560
347
5A2
348
0
  0
LAYER
  5
219
330
2
100
AcDbSymbolTableRecord
100
AcDbLayerTableRecord
  2
6_ALL_SURFS
 70
     0
 62
     7
  6
CONTINUOUS
370
    -3
390
560
347
5A2
348
0
  0
LAYER
  5
21A
330
2
100
AcDbSymbolTableRecord
100
AcDbLayerTableRecord
  2
7_ALL_FEATURES
 70
     0
 62
     7
  6
CONTINUOUS
370
    -3
390
560
347
5A2
348
0
  0
LAYER
  5
21B
330
2
100
AcDbSymbolTableRecord
100
AcDbLayerTableRecord
  2
9_SOLID
 70
     0
 62
     7
  6
CONTINUOUS
370
    -3
390
560
347
5A2
348
0
  0
LAYER
  5
21C
330
2
100
AcDbSymbolTableRecord
100
AcDbLayerTableRecord
  2
INTFCLR_2
 70
     0
 62
     7
  6
CONTINUOUS
370
    -3
390
560
347
5A2
348
0
  0
LAYER
  5
21D
330
2
100
AcDbSymbolTableRecord
100
AcDbLayerTableRecord
  2
INTFCLR_3
 70
     0
 62
     7
  6
CONTINUOUS
370
    -3
390
560
347
5A2
348
0
  0
LAYER
  5
21E
330
2
100
AcDbSymbolTableRecord
100
AcDbLayerTableRecord
  2
INTF_CYAN
 70
     0
 62
     7
  6
CONTINUOUS
370
    -3
390
560
347
5A2
348
0
  0
LAYER
  5
21F
330
2
100
AcDbSymbolTableRecord
100
AcDbLayerTableRecord
  2
XXX_SOLIDO
 70
     0
 62
     7
  6
CONTINUOUS
370
    -3
390
560
347
5A2
348
0
  0
ENDTAB
  0
TABLE
  2
STYLE
  5
3
330
0
100
AcDbSymbolTable
 70
     5
  0
STYLE
  5
11
330
3
100
AcDbSymbolTableRecord
100
AcDbTextStyleTableRecord
  2
STANDARD
 70
     0
 40
0.0
 41
1.0
 50
0.0
 71
     0
 42
0.2
  3
arial.ttf
  4

  0
STYLE
  5
220
330
3
100
AcDbSymbolTableRecord
100
AcDbTextStyleTableRecord
  2
TEXTSTYLE_1
 70
     0
 40
0.0
 41
0.8
 50
0.0
 71
     0
 42
0.2
  3
gdt
  4

  0
STYLE
  5
221
330
3
100
AcDbSymbolTableRecord
100
AcDbTextStyleTableRecord
  2
TEXTSTYLE_2
 70
     0
 40
0.0
 41
0.85
 50
0.0
 71
     0
 42
0.2
  3
gdt
  4

  0
STYLE
  5
222
330
3
100
AcDbSymbolTableRecord
100
AcDbTextStyleTableRecord
  2
TEXTSTYLE_3
 70
     0
 40
0.0
 41
2.0
 50
0.0
 71
     0
 42
0.2
  3
txt
  4

  0
STYLE
  5
223
330
3
100
AcDbSymbolTableRecord
100
AcDbTextStyleTableRecord
  2
TEXTSTYLE_4
 70
     0
 40
0.0
 41
0.85
 50
0.0
 71
     0
 42
0.2
  3
txt
  4

  0
ENDTAB
  0
TABLE
  2
VIEW
  5
6
330
0
100
AcDbSymbolTable
 70
     0
  0
ENDTAB
  0
TABLE
  2
UCS
  5
7
330
0
100
AcDbSymbolTable
 70
     0
  0
ENDTAB
  0
TABLE
  2
APPID
  5
9
330
0
100
AcDbSymbolTable
 70
     1
  0
APPID
  5
224
330
9
100
AcDbSymbolTableRecord
100
AcDbRegAppTableRecord
  2
ACAD
 70
     0
  0
ENDTAB
  0
TABLE
  2
DIMSTYLE
  5
A
330
0
100
AcDbSymbolTable
 70
     3
100
AcDbDimStyleTable
  0
DIMSTYLE
105
22C
330
A
100
AcDbSymbolTableRecord
100
AcDbDimStyleTableRecord
  2
STANDARD
 70
     0
 41
2.5
 42
0.75
 44
0.75
 47
0.01
 48
0.01
 71
     1
 73
     0
 74
     0
 77
     1
 78
     8
 79
     2
140
3.0
147
0.625
171
     1
178
     0
179
     2
271
     2
272
     2
284
     8
340
11
341
225
342
225
343
225
344
225
  0
DIMSTYLE
105
22D
330
A
100
AcDbSymbolTableRecord
100
AcDbDimStyleTableRecord
  2
DIMSTYLE_1
 70
     0
 41
2.5
 42
0.75
 44
0.75
 47
0.3
 48
0.3
 73
     0
 74
     0
 77
     1
 78
     8
 79
     2
140
3.0
147
0.75
171
     1
178
     0
179
     2
271
     2
272
     2
284
     8
340
11
341
225
342
225
343
225
344
225
  0
DIMSTYLE
105
22E
330
A
100
AcDbSymbolTableRecord
100
AcDbDimStyleTableRecord
  2
DIMSTYLE_2
 70
     0
 41
2.5
 42
0.75
 44
0.75
 47
0.2
 48
0.2
 73
     0
 74
     0
 77
     1
 78
     8
 79
     2
140
3.0
147
0.75
171
     1
178
     0
179
     2
271
     2
272
     2
284
     8
340
11
341
225
342
225
343
225
344
225
  0
ENDTAB
  0
TABLE
  2
BLOCK_RECORD
  5
1
330
0
100
AcDbSymbolTable
 70
     7
  0
BLOCK_RECORD
  5
1F
330
1
100
AcDbSymbolTableRecord
100
AcDbBlockTableRecord
  2
*MODEL_SPACE
340
584
 70
     0
280
     1
281
     0
  0
BLOCK_RECORD
  5
1B
330
1
100
AcDbSymbolTableRecord
100
AcDbBlockTableRecord
  2
*PAPER_SPACE
340
585
 70
     0
280
     1
281
     0
  0
BLOCK_RECORD
  5
225
330
1
100
AcDbSymbolTableRecord
100
AcDbBlockTableRecord
  2
_CLOSED
340
0
102
{BLKREFS
331
281
331
282
331
28A
331
28B
331
293
331
294
331
29E
331
29F
102
}
 70
     0
280
     1
281
     0
  0
BLOCK_RECORD
  5
226
330
1
100
AcDbSymbolTableRecord
100
AcDbBlockTableRecord
  2
*D1
340
0
 70
     0
280
     1
281
     0
  0
BLOCK_RECORD
  5
227
330
1
100
AcDbSymbolTableRecord
100
AcDbBlockTableRecord
  2
*D2
340
0
 70
     0
280
     1
281
     0
  0
BLOCK_RECORD
  5
228
330
1
100
AcDbSymbolTableRecord
100
AcDbBlockTableRecord
  2
*D3
340
0
 70
     0
280
     1
281
     0
  0
BLOCK_RECORD
  5
229
330
1
100
AcDbSymbolTableRecord
100
AcDbBlockTableRecord
  2
*D4
340
0
 70
     0
280
     1
281
     0
  0
BLOCK_RECORD
  5
22A
330
1
100
AcDbSymbolTableRecord
100
AcDbBlockTableRecord
  2
LOGO2_BL1
340
0
102
{BLKREFS
331
548
102
}
 70
     0
280
     1
281
     0
  0
BLOCK_RECORD
  5
22B
330
1
100
AcDbSymbolTableRecord
100
AcDbBlockTableRecord
  2
PROIEZIONE_EU_BL0
340
0
102
{BLKREFS
331
545
102
}
 70
     0
280
     1
281
     0
  0
ENDTAB
  0
ENDSEC
  0
SECTION
  2
BLOCKS
  0
BLOCK
  5
20
330
1F
100
AcDbEntity
  8
0
100
AcDbBlockBegin
  2
*MODEL_SPACE
 70
     0
 10
0.0
 20
0.0
 30
0.0
  3
*MODEL_SPACE
  1

  0
ENDBLK
  5
21
330
1F
100
AcDbEntity
  8
0
100
AcDbBlockEnd
  0
BLOCK
  5
1C
330
1B
100
AcDbEntity
 67
     1
  8
0
100
AcDbBlockBegin
  2
*PAPER_SPACE
 70
     0
 10
0.0
 20
0.0
 30
0.0
  3
*PAPER_SPACE
  1

  0
ENDBLK
  5
1D
330
1B
100
AcDbEntity
 67
     1
  8
0
100
AcDbBlockEnd
  0
BLOCK
  5
275
330
225
100
AcDbEntity
  8
0
100
AcDbBlockBegin
  2
_CLOSED
 70
     0
 10
0.0
 20
0.0
 30
0.0
  3
_CLOSED
  1

  0
LINE
  5
276
330
225
100
AcDbEntity
  8
0
  6
ByBlock
 62
     0
100
AcDbLine
 10
0.0
 20
0.0
 30
0.0
 11
-1.0
 21
0.2
 31
0.0
  0
LINE
  5
277
330
225
100
AcDbEntity
  8
0
  6
ByBlock
 62
     0
100
AcDbLine
 10
-1.0
 20
0.2
 30
0.0
 11
-1.0
 21
-0.2
 31
0.0
  0
LINE
  5
278
330
225
100
AcDbEntity
  8
0
  6
ByBlock
 62
     0
100
AcDbLine
 10
-1.0
 20
-0.2
 30
0.0
 11
0.0
 21
0.0
 31
0.0
  0
LINE
  5
279
330
225
100
AcDbEntity
  8
0
  6
ByBlock
 62
     0
100
AcDbLine
 10
-1.0
 20
0.0
 30
0.0
 11
0.0
 21
0.0
 31
0.0
  0
ENDBLK
  5
27A
330
225
100
AcDbEntity
  8
0
  6
ByBlock
 62
     0
100
AcDbBlockEnd
  0
BLOCK
  5
27B
330
226
100
AcDbEntity
  8
0
100
AcDbBlockBegin
  2
*D1
 70
     1
 10
0.0
 20
0.0
 30
0.0
  3
*D1
  1

  0
MTEXT
  5
27C
330
226
100
AcDbEntity
  8
0
  6
Continuous
 62
     2
100
AcDbMText
 10
237.2648783891
 20
149.6520382071
 30
0.0
 40
3.0
 41
8.1524163569
 46
0.0
 71
     2
 72
     1
  1
45,5
 11
0.0
 21
1.0
 31
0.0
 73
     1
 44
1.0
  0
LINE
  5
27D
330
226
100
AcDbEntity
  8
0
  6
Continuous
 62
     2
100
AcDbLine
 10
229.496094103
 20
172.4020382071
 30
0.0
 11
241.7648783891
 21
172.4020382071
 31
0.0
  0
LINE
  5
27E
330
226
100
AcDbEntity
  8
0
  6
Continuous
 62
     2
100
AcDbLine
 10
230.4649970498
 20
126.9020382071
 30
0.0
 11
241.7648783891
 21
126.9020382071
 31
0.0
  0
LINE
  5
27F
330
226
100
AcDbEntity
  8
0
  6
Continuous
 62
     2
100
AcDbLine
 10
241.0148783891
 20
172.4020382071
 30
0.0
 11
241.0148783891
 21
149.6520382071
 31
0.0
  0
LINE
  5
280
330
226
100
AcDbEntity
  8
0
  6
Continuous
 62
     2
100
AcDbLine
 10
241.0148783891
 20
126.9020382071
 30
0.0
 11
241.0148783891
 21
149.6520382071
 31
0.0
  0
INSERT
  5
281
330
226
100
AcDbEntity
  8
0
  6
Continuous
 62
     2
100
AcDbBlockReference
  2
_CLOSED
 10
241.0148783891
 20
172.4020382071
 30
0.0
 41
2.5
 42
2.5
 43
2.5
 50
90.0
  0
INSERT
  5
282
330
226
100
AcDbEntity
  8
0
  6
Continuous
 62
     2
100
AcDbBlockReference
  2
_CLOSED
 10
241.0148783891
 20
126.9020382071
 30
0.0
 41
2.5
 42
2.5
 43
2.5
 50
270.0
  0
ENDBLK
  5
283
330
226
100
AcDbEntity
  8
0
  6
ByBlock
 62
     0
100
AcDbBlockEnd
  0
BLOCK
  5
284
330
227
100
AcDbEntity
  8
0
100
AcDbBlockBegin
  2
*D2
 70
     1
 10
0.0
 20
0.0
 30
0.0
  3
*D2
  1

  0
MTEXT
  5
285
330
227
100
AcDbEntity
  8
0
  6
Continuous
 62
     2
100
AcDbMText
 10
77.9595318583
 20
98.4773585647
 30
0.0
 40
3.0
 41
12.2774163569
 46
0.0
 71
     2
 72
     1
  1
{\Fgdt;o}\Farial.ttf;49,2
  7
TEXTSTYLE_2
 73
     1
 44
1.0
  0
LINE
  5
286
330
227
100
AcDbEntity
  8
0
  6
Continuous
 62
     2
100
AcDbLine
 10
53.3595318583
 20
87.9002828664
 30
0.0
 11
53.3595318583
 21
95.4773585647
 31
0.0
  0
LINE
  5
287
330
227
100
AcDbEntity
  8
0
  6
Continuous
 62
     2
100
AcDbLine
 10
102.5595318583
 20
87.546278417
 30
0.0
 11
102.5595318583
 21
95.4773585647
 31
0.0
  0
LINE
  5
288
330
227
100
AcDbEntity
  8
0
  6
Continuous
 62
     2
100
AcDbLine
 10
53.3595318583
 20
94.7273585647
 30
0.0
 11
77.9595318583
 21
94.7273585647
 31
0.0
  0
LINE
  5
289
330
227
100
AcDbEntity
  8
0
  6
Continuous
 62
     2
100
AcDbLine
 10
102.5595318583
 20
94.7273585647
 30
0.0
 11
77.9595318583
 21
94.7273585647
 31
0.0
  0
INSERT
  5
28A
330
227
100
AcDbEntity
  8
0
  6
Continuous
 62
     2
100
AcDbBlockReference
  2
_CLOSED
 10
53.3595318583
 20
94.7273585647
 30
0.0
 41
2.5
 42
2.5
 43
2.5
 50
180.0
  0
INSERT
  5
28B
330
227
100
AcDbEntity
  8
0
  6
Continuous
 62
     2
100
AcDbBlockReference
  2
_CLOSED
 10
102.5595318583
 20
94.7273585647
 30
0.0
 41
2.5
 42
2.5
 43
2.5
  0
ENDBLK
  5
28C
330
227
100
AcDbEntity
  8
0
  6
ByBlock
 62
     0
100
AcDbBlockEnd
  0
BLOCK
  5
28D
330
228
100
AcDbEntity
  8
0
100
AcDbBlockBegin
  2
*D3
 70
     1
 10
0.0
 20
0.0
 30
0.0
  3
*D3
  1

  0
MTEXT
  5
28E
330
228
100
AcDbEntity
  8
0
  6
Continuous
 62
     2
100
AcDbMText
 10
77.9595318583
 20
109.1567666237
 30
0.0
 40
3.0
 41
8.1524163569
 46
0.0
 71
     2
 72
     1
  1
92,5
 73
     1
 44
1.0
  0
LINE
  5
28F
330
228
100
AcDbEntity
  8
0
  6
Continuous
 62
     2
100
AcDbLine
 10
31.7095318583
 20
87.082069682
 30
0.0
 11
31.7095318583
 21
106.1567666237
 31
0.0
  0
LINE
  5
290
330
228
100
AcDbEntity
  8
0
  6
Continuous
 62
     2
100
AcDbLine
 10
124.2095318583
 20
86.4130763561
 30
0.0
 11
124.2095318583
 21
106.1567666237
 31
0.0
  0
LINE
  5
291
330
228
100
AcDbEntity
  8
0
  6
Continuous
 62
     2
100
AcDbLine
 10
31.7095318583
 20
105.4067666237
 30
0.0
 11
77.9595318583
 21
105.4067666237
 31
0.0
  0
LINE
  5
292
330
228
100
AcDbEntity
  8
0
  6
Continuous
 62
     2
100
AcDbLine
 10
124.2095318583
 20
105.4067666237
 30
0.0
 11
77.9595318583
 21
105.4067666237
 31
0.0
  0
INSERT
  5
293
330
228
100
AcDbEntity
  8
0
  6
Continuous
 62
     2
100
AcDbBlockReference
  2
_CLOSED
 10
31.7095318583
 20
105.4067666237
 30
0.0
 41
2.5
 42
2.5
 43
2.5
 50
180.0
  0
INSERT
  5
294
330
228
100
AcDbEntity
  8
0
  6
Continuous
 62
     2
100
AcDbBlockReference
  2
_CLOSED
 10
124.2095318583
 20
105.4067666237
 30
0.0
 41
2.5
 42
2.5
 43
2.5
  0
ENDBLK
  5
295
330
228
100
AcDbEntity
  8
0
  6
ByBlock
 62
     0
100
AcDbBlockEnd
  0
BLOCK
  5
296
330
229
100
AcDbEntity
  8
0
100
AcDbBlockBegin
  2
*D4
 70
     1
 10
0.0
 20
0.0
 30
0.0
  3
*D4
  1

  0
MTEXT
  5
297
330
229
100
AcDbEntity
  8
0
  6
Continuous
 62
     2
100
AcDbMText
 10
126.6263139233
 20
166.1520382071
 30
0.0
 40
3.0
 41
8.1524163569
 46
0.0
 71
     2
 72
     1
  1
12,5
 11
0.0
 21
1.0
 31
0.0
 73
     1
 44
1.0
  0
LINE
  5
298
330
229
100
AcDbEntity
  8
0
  6
Continuous
 62
     2
100
AcDbLine
 10
106.1631274089
 20
172.4020382071
 30
0.0
 11
131.1263139233
 21
172.4020382071
 31
0.0
  0
LINE
  5
299
330
229
100
AcDbEntity
  8
0
  6
Continuous
 62
     2
100
AcDbLine
 10
125.644581024
 20
159.9020382071
 30
0.0
 11
131.1263139233
 21
159.9020382071
 31
0.0
  0
LINE
  5
29A
330
229
100
AcDbEntity
  8
0
  6
Continuous
 62
     2
100
AcDbLine
 10
130.3763139233
 20
172.4020382071
 30
0.0
 11
130.3763139233
 21
173.4020382071
 31
0.0
  0
LINE
  5
29B
330
229
100
AcDbEntity
  8
0
  6
Continuous
 62
     2
100
AcDbLine
 10
130.3763139233
 20
173.4020382071
 30
0.0
 11
130.3763139233
 21
166.1520382071
 31
0.0
  0
LINE
  5
29C
330
229
100
AcDbEntity
  8
0
  6
Continuous
 62
     2
100
AcDbLine
 10
130.3763139233
 20
159.9020382071
 30
0.0
 11
130.3763139233
 21
158.9020382071
 31
0.0
  0
LINE
  5
29D
330
229
100
AcDbEntity
  8
0
  6
Continuous
 62
     2
100
AcDbLine
 10
130.3763139233
 20
158.9020382071
 30
0.0
 11
130.3763139233
 21
166.1520382071
 31
0.0
  0
INSERT
  5
29E
330
229
100
AcDbEntity
  8
0
  6
Continuous
 62
     2
100
AcDbBlockReference
  2
_CLOSED
 10
130.3763139233
 20
172.4020382071
 30
0.0
 41
2.5
 42
2.5
 43
2.5
 50
270.0
  0
INSERT
  5
29F
330
229
100
AcDbEntity
  8
0
  6
Continuous
 62
     2
100
AcDbBlockReference
  2
_CLOSED
 10
130.3763139233
 20
159.9020382071
 30
0.0
 41
2.5
 42
2.5
 43
2.5
 50
90.0
  0
ENDBLK
  5
2A0
330
229
100
AcDbEntity
  8
0
  6
ByBlock
 62
     0
100
AcDbBlockEnd
  0
BLOCK
  5
22F
330
22A
100
AcDbEntity
  8
0
100
AcDbBlockBegin
  2
LOGO2_BL1
 70
     0
 10
167.8332771924
 20
44.9839440915
 30
0.0
  3
LOGO2_BL1
  1

  0
LINE
  5
230
330
22A
100
AcDbEntity
  8
0
  6
Continuous
 62
     7
100
AcDbLine
 10
159.5762024206
 20
48.1794354304
 30
0.0
 11
158.2718614913
 21
48.1794354304
 31
0.0
  0
LINE
  5
231
330
22A
100
AcDbEntity
  8
0
  6
Continuous
 62
     7
100
AcDbLine
 10
158.2718614913
 20
48.1794354304
 30
0.0
 11
158.2718614913
 21
37.7203693705
 31
0.0
  0
LINE
  5
232
330
22A
100
AcDbEntity
  8
0
  6
Continuous
 62
     7
100
AcDbLine
 10
158.2718614913
 20
37.7203693705
 30
0.0
 11
162.7529163795
 21
37.7203693705
 31
0.0
  0
LINE
  5
233
330
22A
100
AcDbEntity
  8
0
  6
Continuous
 62
     7
100
AcDbLine
 10
162.7529163795
 20
37.7203693705
 30
0.0
 11
162.7529163795
 21
38.9132236956
 31
0.0
  0
LINE
  5
234
330
22A
100
AcDbEntity
  8
0
  6
Continuous
 62
     7
100
AcDbLine
 10
162.7529163795
 20
38.9132236956
 30
0.0
 11
159.5762024206
 21
38.9132236956
 31
0.0
  0
LINE
  5
235
330
22A
100
AcDbEntity
  8
0
  6
Continuous
 62
     7
100
AcDbLine
 10
159.5762024206
 20
38.9132236956
 30
0.0
 11
159.5762024206
 21
48.1794354304
 31
0.0
  0
LINE
  5
236
330
22A
100
AcDbEntity
  8
0
  6
Continuous
 62
     7
100
AcDbLine
 10
174.5125286369
 20
48.1794354304
 30
0.0
 11
173.2087111188
 21
48.1794354304
 31
0.0
  0
LINE
  5
237
330
22A
100
AcDbEntity
  8
0
  6
Continuous
 62
     7
100
AcDbLine
 10
173.2087111188
 20
48.1794354304
 30
0.0
 11
173.2087111188
 21
37.7203693705
 31
0.0
  0
LINE
  5
238
330
22A
100
AcDbEntity
  8
0
  6
Continuous
 62
     7
100
AcDbLine
 10
173.2087111188
 20
37.7203693705
 30
0.0
 11
177.6898968599
 21
37.7203693705
 31
0.0
  0
LINE
  5
239
330
22A
100
AcDbEntity
  8
0
  6
Continuous
 62
     7
100
AcDbLine
 10
177.6898968599
 20
37.7203693705
 30
0.0
 11
177.6898968599
 21
38.9132236956
 31
0.0
  0
LINE
  5
23A
330
22A
100
AcDbEntity
  8
0
  6
Continuous
 62
     7
100
AcDbLine
 10
177.6898968599
 20
38.9132236956
 30
0.0
 11
174.5125286369
 21
38.9132236956
 31
0.0
  0
LINE
  5
23B
330
22A
100
AcDbEntity
  8
0
  6
Continuous
 62
     7
100
AcDbLine
 10
174.5125286369
 20
38.9132236956
 30
0.0
 11
174.5125286369
 21
48.1794354304
 31
0.0
  0
LWPOLYLINE
  5
23C
330
22A
100
AcDbEntity
  8
0
  6
Continuous
 62
     7
100
AcDbPolyline
 90
        2
 70
     0
 43
0.2
 10
156.6262564022
 20
34.3768180636
 10
156.6262564022
 20
32.5197548143
  0
LWPOLYLINE
  5
23D
330
22A
100
AcDbEntity
  8
0
  6
Continuous
 62
     7
100
AcDbPolyline
 90
        2
 70
     0
 43
0.2
 10
156.6262564022
 20
32.5197548143
 10
157.4219724126
 20
32.5197548143
  0
LWPOLYLINE
  5
23E
330
22A
100
AcDbEntity
  8
0
  6
Continuous
 62
     7
100
AcDbPolyline
 90
        2
 70
     0
 43
0.2
 10
157.4219724126
 20
32.5197548143
 10
157.4219724126
 20
32.7317363858
  0
LWPOLYLINE
  5
23F
330
22A
100
AcDbEntity
  8
0
  6
Continuous
 62
     7
100
AcDbPolyline
 90
        2
 70
     0
 43
0.2
 10
157.4219724126
 20
32.7317363858
 10
156.8578658971
 20
32.7317363858
  0
LWPOLYLINE
  5
240
330
22A
100
AcDbEntity
  8
0
  6
Continuous
 62
     7
100
AcDbPolyline
 90
        2
 70
     0
 43
0.2
 10
156.8578658971
 20
32.7317363858
 10
156.8578658971
 20
34.3768180636
  0
LWPOLYLINE
  5
241
330
22A
100
AcDbEntity
  8
0
  6
Continuous
 62
     7
100
AcDbPolyline
 90
        2
 70
     0
 43
0.2
 10
156.8578658971
 20
34.3768180636
 10
156.6262564022
 20
34.3768180636
  0
SPLINE
  5
242
330
22A
100
AcDbEntity
  8
0
  6
Continuous
 62
     7
100
AcDbSpline
 70
     3
 71
     3
 72
    35
 73
    31
 74
     0
 42
0.000000001
 43
0.0000001
 40
0.0
 40
0.0
 40
0.0
 40
0.0
 40
1.0
 40
1.0
 40
1.0
 40
2.0
 40
2.0
 40
2.0
 40
3.0
 40
3.0
 40
3.0
 40
4.0
 40
4.0
 40
4.0
 40
5.0
 40
5.0
 40
5.0
 40
6.0
 40
6.0
 40
6.0
 40
7.0
 40
7.0
 40
7.0
 40
8.0
 40
8.0
 40
8.0
 40
9.0
 40
9.0
 40
9.0
 40
10.0
 40
10.0
 40
10.0
 40
10.0
 10
158.8202656681
 20
33.6723064701
 30
0.0
 10
158.8202656681
 20
33.6723064701
 30
0.0
 10
158.8202656681
 20
33.010191191
 30
0.0
 10
158.8202656681
 20
33.010191191
 30
0.0
 10
158.8202656681
 20
32.6950975957
 30
0.0
 10
158.9681293569
 20
32.4804989677
 30
0.0
 10
159.3082158412
 20
32.4804989677
 30
0.0
 10
159.6477789142
 20
32.4804989677
 30
0.0
 10
159.7959043087
 20
32.6950975957
 30
0.0
 10
159.7959043087
 20
33.010191191
 30
0.0
 10
159.7959043087
 20
33.010191191
 30
0.0
 10
159.7959043087
 20
33.6723064701
 30
0.0
 10
159.7959043087
 20
33.6723064701
 30
0.0
 10
159.7959043087
 20
33.6723064701
 30
0.0
 10
159.5738470698
 20
33.6723064701
 30
0.0
 10
159.5738470698
 20
33.6723064701
 30
0.0
 10
159.5738470698
 20
33.6723064701
 30
0.0
 10
159.5738470698
 20
33.0353149328
 30
0.0
 10
159.5738470698
 20
33.0353149328
 30
0.0
 10
159.5738470698
 20
32.8495039256
 30
0.0
 10
159.5271326124
 20
32.6867230151
 30
0.0
 10
159.3082158412
 20
32.6867230151
 30
0.0
 10
159.0887756588
 20
32.6867230151
 30
0.0
 10
159.0420612014
 20
32.8495039256
 30
0.0
 10
159.0420612014
 20
33.0353149328
 30
0.0
 10
159.0420612014
 20
33.0353149328
 30
0.0
 10
159.0420612014
 20
33.6723064701
 30
0.0
 10
159.0420612014
 20
33.6723064701
 30
0.0
 10
159.0420612014
 20
33.6723064701
 30
0.0
 10
158.8202656681
 20
33.6723064701
 30
0.0
 10
158.8202656681
 20
33.6723064701
 30
0.0
  0
SPLINE
  5
243
330
22A
100
AcDbEntity
  8
0
  6
Continuous
 62
     7
100
AcDbSpline
 70
     3
 71
     3
 72
    35
 73
    31
 74
     0
 42
0.000000001
 43
0.0000001
 40
0.0
 40
0.0
 40
0.0
 40
0.0
 40
1.0
 40
1.0
 40
1.0
 40
2.0
 40
2.0
 40
2.0
 40
3.0
 40
3.0
 40
3.0
 40
4.0
 40
4.0
 40
4.0
 40
5.0
 40
5.0
 40
5.0
 40
6.0
 40
6.0
 40
6.0
 40
7.0
 40
7.0
 40
7.0
 40
8.0
 40
8.0
 40
8.0
 40
9.0
 40
9.0
 40
9.0
 40
10.0
 40
10.0
 40
10.0
 40
10.0
 10
162.2190368659
 20
33.6309569784
 30
0.0
 10
162.1305803583
 20
33.6822512846
 30
0.0
 10
162.0171309616
 20
33.7073750264
 30
0.0
 10
161.9134955266
 20
33.7073750264
 30
0.0
 10
161.5586226734
 20
33.7073750264
 30
0.0
 10
161.2831774832
 20
33.4435757373
 30
0.0
 10
161.2831774832
 20
33.0860858277
 30
0.0
 10
161.2831774832
 20
32.741157789
 30
0.0
 10
161.5616322883
 20
32.481022379
 30
0.0
 10
161.9011953613
 20
32.481022379
 30
0.0
 10
162.0171309616
 20
32.481022379
 30
0.0
 10
162.1178876345
 20
32.503005653
 30
0.0
 10
162.2190368659
 20
32.5569170157
 30
0.0
 10
162.2190368659
 20
32.5569170157
 30
0.0
 10
162.2190368659
 20
32.8395591111
 30
0.0
 10
162.2190368659
 20
32.8395591111
 30
0.0
 10
162.135160207
 20
32.7463919019
 30
0.0
 10
162.0316556248
 20
32.6872464264
 30
0.0
 10
161.9035507121
 20
32.6872464264
 30
0.0
 10
161.6698475721
 20
32.6872464264
 30
0.0
 10
161.504580458
 20
32.8594487401
 30
0.0
 10
161.504580458
 20
33.0960306422
 30
0.0
 10
161.504580458
 20
33.3080122138
 30
0.0
 10
161.6723337757
 20
33.5001041564
 30
0.0
 10
161.8891569017
 20
33.5001041564
 30
0.0
 10
162.021972516
 20
33.5001041564
 30
0.0
 10
162.1305803583
 20
33.4461927938
 30
0.0
 10
162.2190368659
 20
33.3451744152
 30
0.0
 10
162.2190368659
 20
33.3451744152
 30
0.0
 10
162.2190368659
 20
33.6309569784
 30
0.0
 10
162.2190368659
 20
33.6309569784
 30
0.0
  0
SPLINE
  5
244
330
22A
100
AcDbEntity
  8
0
  6
Continuous
 62
     7
100
AcDbSpline
 70
     3
 71
     3
 72
    32
 73
    28
 74
     0
 42
0.000000001
 43
0.0000001
 40
0.0
 40
0.0
 40
0.0
 40
0.0
 40
1.0
 40
1.0
 40
1.0
 40
2.0
 40
2.0
 40
2.0
 40
3.0
 40
3.0
 40
3.0
 40
4.0
 40
4.0
 40
4.0
 40
5.0
 40
5.0
 40
5.0
 40
6.0
 40
6.0
 40
6.0
 40
7.0
 40
7.0
 40
7.0
 40
8.0
 40
8.0
 40
8.0
 40
9.0
 40
9.0
 40
9.0
 40
9.0
 10
164.7509081182
 20
33.0593918521
 30
0.0
 10
164.7509081182
 20
33.0593918521
 30
0.0
 10
164.7509081182
 20
33.0934135858
 30
0.0
 10
164.7509081182
 20
33.0934135858
 30
0.0
 10
164.7509081182
 20
33.435724568
 30
0.0
 10
164.5780515403
 20
33.7073750264
 30
0.0
 10
164.2114019332
 20
33.7073750264
 30
0.0
 10
163.8397799188
 20
33.7073750264
 30
0.0
 10
163.6500433269
 20
33.4409586809
 30
0.0
 10
163.6500433269
 20
33.0860858277
 30
0.0
 10
163.6500433269
 20
32.7463919019
 30
0.0
 10
163.8641185437
 20
32.4804989677
 30
0.0
 10
164.2162434876
 20
32.4804989677
 30
0.0
 10
164.4402635188
 20
32.4804989677
 30
0.0
 10
164.6424311287
 20
32.5961728623
 30
0.0
 10
164.7509081182
 20
32.795592563
 30
0.0
 10
164.7509081182
 20
32.795592563
 30
0.0
 10
164.5632651715
 20
32.9023684657
 30
0.0
 10
164.5632651715
 20
32.9023684657
 30
0.0
 10
164.479781071
 20
32.7636644744
 30
0.0
 10
164.3885766541
 20
32.6778250232
 30
0.0
 10
164.2189913969
 20
32.6778250232
 30
0.0
 10
164.0070098253
 20
32.6778250232
 30
0.0
 10
163.8740633582
 20
32.8625892078
 30
0.0
 10
163.8717080074
 20
33.0593918521
 30
0.0
 10
163.8717080074
 20
33.0593918521
 30
0.0
 10
164.7509081182
 20
33.0593918521
 30
0.0
 10
164.7509081182
 20
33.0593918521
 30
0.0
  0
SPLINE
  5
245
330
22A
100
AcDbEntity
  8
0
  6
Continuous
 62
     7
100
AcDbSpline
 70
     3
 71
     3
 72
    14
 73
    10
 74
     0
 42
0.000000001
 43
0.0000001
 40
0.0
 40
0.0
 40
0.0
 40
0.0
 40
1.0
 40
1.0
 40
1.0
 40
2.0
 40
2.0
 40
2.0
 40
3.0
 40
3.0
 40
3.0
 40
3.0
 10
163.883746467
 20
33.2268834642
 30
0.0
 10
163.9113564124
 20
33.3917580198
 30
0.0
 10
164.0391996195
 20
33.5147596725
 30
0.0
 10
164.2114019332
 20
33.5147596725
 30
0.0
 10
164.3885766541
 20
33.5147596725
 30
0.0
 10
164.5020260508
 20
33.3990857779
 30
0.0
 10
164.5292434377
 20
33.2268834642
 30
0.0
 10
164.5292434377
 20
33.2268834642
 30
0.0
 10
163.883746467
 20
33.2268834642
 30
0.0
 10
163.883746467
 20
33.2268834642
 30
0.0
  0
SPLINE
  5
246
330
22A
100
AcDbEntity
  8
0
  6
Continuous
 62
     7
100
AcDbSpline
 70
     3
 71
     3
 72
    20
 73
    16
 74
     0
 42
0.000000001
 43
0.0000001
 40
0.0
 40
0.0
 40
0.0
 40
0.0
 40
1.0
 40
1.0
 40
1.0
 40
2.0
 40
2.0
 40
2.0
 40
3.0
 40
3.0
 40
3.0
 40
4.0
 40
4.0
 40
4.0
 40
5.0
 40
5.0
 40
5.0
 40
5.0
 10
166.7749395683
 20
33.4362479793
 30
0.0
 10
166.7749395683
 20
33.4362479793
 30
0.0
 10
167.186079135
 20
32.933773143
 30
0.0
 10
167.186079135
 20
32.933773143
 30
0.0
 10
167.0700126819
 20
32.8180992483
 30
0.0
 10
166.9322246604
 20
32.6877698377
 30
0.0
 10
166.7602840523
 20
32.6877698377
 30
0.0
 10
166.5828476257
 20
32.6877698377
 30
0.0
 10
166.4153560136
 20
32.8521209821
 30
0.0
 10
166.4153560136
 20
33.0290339974
 30
0.0
 10
166.4153560136
 20
33.2069938352
 30
0.0
 10
166.6251130872
 20
33.3331359556
 30
0.0
 10
166.7526945886
 20
33.421069052
 30
0.0
 10
166.7526945886
 20
33.421069052
 30
0.0
 10
166.7749395683
 20
33.4362479793
 30
0.0
 10
166.7749395683
 20
33.4362479793
 30
0.0
  0
SPLINE
  5
247
330
22A
100
AcDbEntity
  8
0
  6
Continuous
 62
     7
100
AcDbSpline
 70
     3
 71
     3
 72
    23
 73
    19
 74
     0
 42
0.000000001
 43
0.0000001
 40
0.0
 40
0.0
 40
0.0
 40
0.0
 40
1.0
 40
1.0
 40
1.0
 40
2.0
 40
2.0
 40
2.0
 40
3.0
 40
3.0
 40
3.0
 40
4.0
 40
4.0
 40
4.0
 40
5.0
 40
5.0
 40
5.0
 40
6.0
 40
6.0
 40
6.0
 40
6.0
 10
166.8242710822
 20
33.7272646554
 30
0.0
 10
166.8242710822
 20
33.7272646554
 30
0.0
 10
166.7626394031
 20
33.8057763486
 30
0.0
 10
166.7626394031
 20
33.8057763486
 30
0.0
 10
166.7087280404
 20
33.8743432273
 30
0.0
 10
166.6519379157
 20
33.9434335173
 30
0.0
 10
166.6519379157
 20
34.0371241378
 30
0.0
 10
166.6519379157
 20
34.1559385001
 30
0.0
 10
166.7478530342
 20
34.2334033707
 30
0.0
 10
166.8588162272
 20
34.2334033707
 30
0.0
 10
166.9820795855
 20
34.2334033707
 30
0.0
 10
167.0753776476
 20
34.1622194356
 30
0.0
 10
167.0753776476
 20
34.0318900249
 30
0.0
 10
167.0753776476
 20
33.8968499126
 30
0.0
 10
166.9472727349
 20
33.8204318646
 30
0.0
 10
166.8537129672
 20
33.746630873
 30
0.0
 10
166.8537129672
 20
33.746630873
 30
0.0
 10
166.8242710822
 20
33.7272646554
 30
0.0
 10
166.8242710822
 20
33.7272646554
 30
0.0
  0
SPLINE
  5
248
330
22A
100
AcDbEntity
  8
0
  6
Continuous
 62
     7
100
AcDbSpline
 70
     3
 71
     3
 72
    50
 73
    46
 74
     0
 42
0.000000001
 43
0.0000001
 40
0.0
 40
0.0
 40
0.0
 40
0.0
 40
1.0
 40
1.0
 40
1.0
 40
2.0
 40
2.0
 40
2.0
 40
3.0
 40
3.0
 40
3.0
 40
4.0
 40
4.0
 40
4.0
 40
5.0
 40
5.0
 40
5.0
 40
6.0
 40
6.0
 40
6.0
 40
7.0
 40
7.0
 40
7.0
 40
8.0
 40
8.0
 40
8.0
 40
9.0
 40
9.0
 40
9.0
 40
10.0
 40
10.0
 40
10.0
 40
11.0
 40
11.0
 40
11.0
 40
12.0
 40
12.0
 40
12.0
 40
13.0
 40
13.0
 40
13.0
 40
14.0
 40
14.0
 40
14.0
 40
15.0
 40
15.0
 40
15.0
 40
15.0
 10
167.5264273249
 20
32.5202782255
 30
0.0
 10
167.5264273249
 20
32.5202782255
 30
0.0
 10
167.8118173296
 20
32.5202782255
 30
0.0
 10
167.8118173296
 20
32.5202782255
 30
0.0
 10
167.8118173296
 20
32.5202782255
 30
0.0
 10
167.4794511618
 20
32.9311560865
 30
0.0
 10
167.4794511618
 20
32.9311560865
 30
0.0
 10
167.4794511618
 20
32.9311560865
 30
0.0
 10
167.7059573966
 20
33.1970490208
 30
0.0
 10
167.7059573966
 20
33.1970490208
 30
0.0
 10
167.7059573966
 20
33.1970490208
 30
0.0
 10
167.5577011494
 20
33.3498851168
 30
0.0
 10
167.5577011494
 20
33.3498851168
 30
0.0
 10
167.5577011494
 20
33.3498851168
 30
0.0
 10
167.3417939931
 20
33.0986476986
 30
0.0
 10
167.3417939931
 20
33.0986476986
 30
0.0
 10
167.3417939931
 20
33.0986476986
 30
0.0
 10
166.9547313457
 20
33.56657739
 30
0.0
 10
166.9547313457
 20
33.56657739
 30
0.0
 10
167.1101844982
 20
33.6806810508
 30
0.0
 10
167.2924624792
 20
33.8204318646
 30
0.0
 10
167.2924624792
 20
34.0297963798
 30
0.0
 10
167.2924624792
 20
34.2737060399
 30
0.0
 10
167.0904257221
 20
34.4171207328
 30
0.0
 10
166.8639194873
 20
34.4171207328
 30
0.0
 10
166.6197481215
 20
34.4171207328
 30
0.0
 10
166.4353764953
 20
34.2663782819
 30
0.0
 10
166.4353764953
 20
34.0099067508
 30
0.0
 10
166.4353764953
 20
33.8523599532
 30
0.0
 10
166.5340395231
 20
33.7147027845
 30
0.0
 10
166.6393760448
 20
33.6037395914
 30
0.0
 10
166.6393760448
 20
33.6037395914
 30
0.0
 10
166.523833003
 20
33.5199937854
 30
0.0
 10
166.523833003
 20
33.5199937854
 30
0.0
 10
166.3461348708
 20
33.3917580198
 30
0.0
 10
166.1987945932
 20
33.2640456656
 30
0.0
 10
166.1987945932
 20
33.0269403522
 30
0.0
 10
166.1987945932
 20
32.706612644
 30
0.0
 10
166.4573597694
 20
32.4804989677
 30
0.0
 10
166.7677426631
 20
32.4804989677
 30
0.0
 10
166.9866594343
 20
32.4804989677
 30
0.0
 10
167.183854637
 20
32.6055942655
 30
0.0
 10
167.3241288621
 20
32.7715156437
 30
0.0
 10
167.3241288621
 20
32.7715156437
 30
0.0
 10
167.5264273249
 20
32.5202782255
 30
0.0
 10
167.5264273249
 20
32.5202782255
 30
0.0
  0
LWPOLYLINE
  5
249
330
22A
100
AcDbEntity
  8
0
  6
Continuous
 62
     7
100
AcDbPolyline
 90
        2
 70
     0
 43
0.2
 10
169.4618714146
 20
34.3768180636
 10
169.2305236254
 20
34.3768180636
  0
LWPOLYLINE
  5
24A
330
22A
100
AcDbEntity
  8
0
  6
Continuous
 62
     7
100
AcDbPolyline
 90
        2
 70
     0
 43
0.2
 10
169.2305236254
 20
34.3768180636
 10
169.2305236254
 20
32.5197548143
  0
LWPOLYLINE
  5
24B
330
22A
100
AcDbEntity
  8
0
  6
Continuous
 62
     7
100
AcDbPolyline
 90
        2
 70
     0
 43
0.2
 10
169.2305236254
 20
32.5197548143
 10
170.0258470773
 20
32.5197548143
  0
LWPOLYLINE
  5
24C
330
22A
100
AcDbEntity
  8
0
  6
Continuous
 62
     7
100
AcDbPolyline
 90
        2
 70
     0
 43
0.2
 10
170.0258470773
 20
32.5197548143
 10
170.0258470773
 20
32.7317363858
  0
LWPOLYLINE
  5
24D
330
22A
100
AcDbEntity
  8
0
  6
Continuous
 62
     7
100
AcDbPolyline
 90
        2
 70
     0
 43
0.2
 10
170.0258470773
 20
32.7317363858
 10
169.4618714146
 20
32.7317363858
  0
LWPOLYLINE
  5
24E
330
22A
100
AcDbEntity
  8
0
  6
Continuous
 62
     7
100
AcDbPolyline
 90
        2
 70
     0
 43
0.2
 10
169.4618714146
 20
32.7317363858
 10
169.4618714146
 20
34.3768180636
  0
LWPOLYLINE
  5
24F
330
22A
100
AcDbEntity
  8
0
  6
Continuous
 62
     7
100
AcDbPolyline
 90
        2
 70
     0
 43
0.2
 10
171.7049504888
 20
33.6723064701
 10
171.4838092197
 20
33.6723064701
  0
LWPOLYLINE
  5
250
330
22A
100
AcDbEntity
  8
0
  6
Continuous
 62
     7
100
AcDbPolyline
 90
        2
 70
     0
 43
0.2
 10
171.4838092197
 20
33.6723064701
 10
171.4838092197
 20
32.5202782255
  0
LWPOLYLINE
  5
251
330
22A
100
AcDbEntity
  8
0
  6
Continuous
 62
     7
100
AcDbPolyline
 90
        2
 70
     0
 43
0.2
 10
171.4838092197
 20
32.5202782255
 10
171.7049504888
 20
32.5202782255
  0
LWPOLYLINE
  5
252
330
22A
100
AcDbEntity
  8
0
  6
Continuous
 62
     7
100
AcDbPolyline
 90
        2
 70
     0
 43
0.2
 10
171.7049504888
 20
32.5202782255
 10
171.7049504888
 20
33.6723064701
  0
SPLINE
  5
253
330
22A
100
AcDbEntity
  8
0
  6
Continuous
 62
     7
100
AcDbSpline
 70
     3
 71
     3
 72
    17
 73
    13
 74
     0
 42
0.000000001
 43
0.0000001
 40
0.0
 40
0.0
 40
0.0
 40
0.0
 40
1.0
 40
1.0
 40
1.0
 40
2.0
 40
2.0
 40
2.0
 40
3.0
 40
3.0
 40
3.0
 40
4.0
 40
4.0
 40
4.0
 40
4.0
 10
171.5945107071
 20
34.3548347895
 30
0.0
 10
171.5105031954
 20
34.3548347895
 30
0.0
 10
171.4419363166
 20
34.2857444995
 30
0.0
 10
171.4419363166
 20
34.1999050483
 30
0.0
 10
171.4419363166
 20
34.115635831
 30
0.0
 10
171.5105031954
 20
34.0496860087
 30
0.0
 10
171.5945107071
 20
34.0496860087
 30
0.0
 10
171.6782565131
 20
34.0496860087
 30
0.0
 10
171.7470850975
 20
34.115635831
 30
0.0
 10
171.7470850975
 20
34.1999050483
 30
0.0
 10
171.7470850975
 20
34.2857444995
 30
0.0
 10
171.6782565131
 20
34.3548347895
 30
0.0
 10
171.5945107071
 20
34.3548347895
 30
0.0
  0
SPLINE
  5
254
330
22A
100
AcDbEntity
  8
0
  6
Continuous
 62
     7
100
AcDbSpline
 70
     3
 71
     3
 72
    17
 73
    13
 74
     0
 42
0.000000001
 43
0.0000001
 40
0.0
 40
0.0
 40
0.0
 40
0.0
 40
1.0
 40
1.0
 40
1.0
 40
2.0
 40
2.0
 40
2.0
 40
3.0
 40
3.0
 40
3.0
 40
4.0
 40
4.0
 40
4.0
 40
4.0
 10
173.8352344304
 20
32.6778250232
 30
0.0
 10
173.6012695848
 20
32.6778250232
 30
0.0
 10
173.4709401741
 20
32.8798617803
 30
0.0
 10
173.4709401741
 20
33.0960306422
 30
0.0
 10
173.4709401741
 20
33.3106292702
 30
0.0
 10
173.6067654033
 20
33.5095255596
 30
0.0
 10
173.8352344304
 20
33.5095255596
 30
0.0
 10
174.0746950946
 20
33.5095255596
 30
0.0
 10
174.2102586182
 20
33.3205740847
 30
0.0
 10
174.2102586182
 20
33.0960306422
 30
0.0
 10
174.2102586182
 20
32.8699169658
 30
0.0
 10
174.0770504454
 20
32.6778250232
 30
0.0
 10
173.8352344304
 20
32.6778250232
 30
0.0
  0
SPLINE
  5
255
330
22A
100
AcDbEntity
  8
0
  6
Continuous
 62
     7
100
AcDbSpline
 70
     3
 71
     3
 72
    50
 73
    46
 74
     0
 42
0.000000001
 43
0.0000001
 40
0.0
 40
0.0
 40
0.0
 40
0.0
 40
1.0
 40
1.0
 40
1.0
 40
2.0
 40
2.0
 40
2.0
 40
3.0
 40
3.0
 40
3.0
 40
4.0
 40
4.0
 40
4.0
 40
5.0
 40
5.0
 40
5.0
 40
6.0
 40
6.0
 40
6.0
 40
7.0
 40
7.0
 40
7.0
 40
8.0
 40
8.0
 40
8.0
 40
9.0
 40
9.0
 40
9.0
 40
10.0
 40
10.0
 40
10.0
 40
11.0
 40
11.0
 40
11.0
 40
12.0
 40
12.0
 40
12.0
 40
13.0
 40
13.0
 40
13.0
 40
14.0
 40
14.0
 40
14.0
 40
15.0
 40
15.0
 40
15.0
 40
15.0
 10
174.4193614277
 20
33.6728298814
 30
0.0
 10
174.4193614277
 20
33.6728298814
 30
0.0
 10
174.1976967473
 20
33.6728298814
 30
0.0
 10
174.1976967473
 20
33.6728298814
 30
0.0
 10
174.1976967473
 20
33.6728298814
 30
0.0
 10
174.1976967473
 20
33.4755038259
 30
0.0
 10
174.1976967473
 20
33.4755038259
 30
0.0
 10
174.1976967473
 20
33.4755038259
 30
0.0
 10
174.1929860457
 20
33.4755038259
 30
0.0
 10
174.1929860457
 20
33.4755038259
 30
0.0
 10
174.101650776
 20
33.6183951075
 30
0.0
 10
173.9637319016
 20
33.7068516151
 30
0.0
 10
173.7910061766
 20
33.7068516151
 30
0.0
 10
173.4586400088
 20
33.7068516151
 30
0.0
 10
173.2495371993
 20
33.4189754068
 30
0.0
 10
173.2495371993
 20
33.1033584002
 30
0.0
 10
173.2495371993
 20
32.7736092889
 30
0.0
 10
173.4466015492
 20
32.4804989677
 30
0.0
 10
173.8014744024
 20
32.4804989677
 30
0.0
 10
173.9637319016
 20
32.4804989677
 30
0.0
 10
174.1037444211
 20
32.5689554753
 30
0.0
 10
174.1929860457
 20
32.6998082973
 30
0.0
 10
174.1929860457
 20
32.6998082973
 30
0.0
 10
174.1976967473
 20
32.6998082973
 30
0.0
 10
174.1976967473
 20
32.6998082973
 30
0.0
 10
174.1976967473
 20
32.6998082973
 30
0.0
 10
174.1976967473
 20
32.4804989677
 30
0.0
 10
174.1976967473
 20
32.4804989677
 30
0.0
 10
174.1976967473
 20
32.2439170656
 30
0.0
 10
174.1411683282
 20
32.0570592358
 30
0.0
 10
173.8679476359
 20
32.0570592358
 30
0.0
 10
173.6656491732
 20
32.0570592358
 30
0.0
 10
173.5230195972
 20
32.1753501868
 30
0.0
 10
173.5230195972
 20
32.3815742343
 30
0.0
 10
173.5230195972
 20
32.3815742343
 30
0.0
 10
173.3013549168
 20
32.3815742343
 30
0.0
 10
173.3013549168
 20
32.3815742343
 30
0.0
 10
173.306327324
 20
32.0570592358
 30
0.0
 10
173.5374134076
 20
31.8602565915
 30
0.0
 10
173.8577411158
 20
31.8602565915
 30
0.0
 10
174.3057811782
 20
31.8602565915
 30
0.0
 10
174.4193614277
 20
32.1455157434
 30
0.0
 10
174.4193614277
 20
32.5422614996
 30
0.0
 10
174.4193614277
 20
32.5422614996
 30
0.0
 10
174.4193614277
 20
33.6728298814
 30
0.0
 10
174.4193614277
 20
33.6728298814
 30
0.0
  0
SPLINE
  5
256
330
22A
100
AcDbEntity
  8
0
  6
Continuous
 62
     7
100
AcDbSpline
 70
     3
 71
     3
 72
    44
 73
    40
 74
     0
 42
0.000000001
 43
0.0000001
 40
0.0
 40
0.0
 40
0.0
 40
0.0
 40
1.0
 40
1.0
 40
1.0
 40
2.0
 40
2.0
 40
2.0
 40
3.0
 40
3.0
 40
3.0
 40
4.0
 40
4.0
 40
4.0
 40
5.0
 40
5.0
 40
5.0
 40
6.0
 40
6.0
 40
6.0
 40
7.0
 40
7.0
 40
7.0
 40
8.0
 40
8.0
 40
8.0
 40
9.0
 40
9.0
 40
9.0
 40
10.0
 40
10.0
 40
10.0
 40
11.0
 40
11.0
 40
11.0
 40
12.0
 40
12.0
 40
12.0
 40
13.0
 40
13.0
 40
13.0
 40
13.0
 10
175.9882867631
 20
34.6578899252
 30
0.0
 10
175.9882867631
 20
34.6578899252
 30
0.0
 10
175.9882867631
 20
32.5197548143
 30
0.0
 10
175.9882867631
 20
32.5197548143
 30
0.0
 10
175.9882867631
 20
32.5197548143
 30
0.0
 10
176.2096897379
 20
32.5197548143
 30
0.0
 10
176.2096897379
 20
32.5197548143
 30
0.0
 10
176.2096897379
 20
32.5197548143
 30
0.0
 10
176.2096897379
 20
33.0494470376
 30
0.0
 10
176.2096897379
 20
33.0494470376
 30
0.0
 10
176.2096897379
 20
33.259334964
 30
0.0
 10
176.2096897379
 20
33.5100489709
 30
0.0
 10
176.4949488897
 20
33.5100489709
 30
0.0
 10
176.721847683
 20
33.5100489709
 30
0.0
 10
176.7488033644
 20
33.3771025038
 30
0.0
 10
176.7488033644
 20
33.1808232708
 30
0.0
 10
176.7488033644
 20
33.1808232708
 30
0.0
 10
176.7488033644
 20
32.5197548143
 30
0.0
 10
176.7488033644
 20
32.5197548143
 30
0.0
 10
176.7488033644
 20
32.5197548143
 30
0.0
 10
176.9707297504
 20
32.5197548143
 30
0.0
 10
176.9707297504
 20
32.5197548143
 30
0.0
 10
176.9707297504
 20
32.5197548143
 30
0.0
 10
176.9707297504
 20
33.2069938352
 30
0.0
 10
176.9707297504
 20
33.2069938352
 30
0.0
 10
176.9707297504
 20
33.4875422855
 30
0.0
 10
176.8867222387
 20
33.7073750264
 30
0.0
 10
176.5616838289
 20
33.7073750264
 30
0.0
 10
176.4219330151
 20
33.7073750264
 30
0.0
 10
176.2837524351
 20
33.6409017929
 30
0.0
 10
176.2144004394
 20
33.5179001402
 30
0.0
 10
176.2144004394
 20
33.5179001402
 30
0.0
 10
176.2096897379
 20
33.5179001402
 30
0.0
 10
176.2096897379
 20
33.5179001402
 30
0.0
 10
176.2096897379
 20
33.5179001402
 30
0.0
 10
176.2096897379
 20
34.6578899252
 30
0.0
 10
176.2096897379
 20
34.6578899252
 30
0.0
 10
176.2096897379
 20
34.6578899252
 30
0.0
 10
175.9882867631
 20
34.6578899252
 30
0.0
 10
175.9882867631
 20
34.6578899252
 30
0.0
  0
LWPOLYLINE
  5
257
330
22A
100
AcDbEntity
  8
0
  6
Continuous
 62
     7
100
AcDbPolyline
 90
        2
 70
     0
 43
0.2
 10
178.8105204273
 20
33.4655590114
 10
179.0269509948
 20
33.4655590114
  0
LWPOLYLINE
  5
258
330
22A
100
AcDbEntity
  8
0
  6
Continuous
 62
     7
100
AcDbPolyline
 90
        2
 70
     0
 43
0.2
 10
179.0269509948
 20
33.4655590114
 10
179.0269509948
 20
33.6723064701
  0
LWPOLYLINE
  5
259
330
22A
100
AcDbEntity
  8
0
  6
Continuous
 62
     7
100
AcDbPolyline
 90
        2
 70
     0
 43
0.2
 10
179.0269509948
 20
33.6723064701
 10
178.8105204273
 20
33.6723064701
  0
LWPOLYLINE
  5
25A
330
22A
100
AcDbEntity
  8
0
  6
Continuous
 62
     7
100
AcDbPolyline
 90
        2
 70
     0
 43
0.2
 10
178.8105204273
 20
33.6723064701
 10
178.8105204273
 20
34.1130187745
  0
LWPOLYLINE
  5
25B
330
22A
100
AcDbEntity
  8
0
  6
Continuous
 62
     7
100
AcDbPolyline
 90
        2
 70
     0
 43
0.2
 10
178.8105204273
 20
34.1130187745
 10
178.5888557469
 20
34.1130187745
  0
LWPOLYLINE
  5
25C
330
22A
100
AcDbEntity
  8
0
  6
Continuous
 62
     7
100
AcDbPolyline
 90
        2
 70
     0
 43
0.2
 10
178.5888557469
 20
34.1130187745
 10
178.5888557469
 20
33.6723064701
  0
LWPOLYLINE
  5
25D
330
22A
100
AcDbEntity
  8
0
  6
Continuous
 62
     7
100
AcDbPolyline
 90
        2
 70
     0
 43
0.2
 10
178.5888557469
 20
33.6723064701
 10
178.468209445
 20
33.6723064701
  0
LWPOLYLINE
  5
25E
330
22A
100
AcDbEntity
  8
0
  6
Continuous
 62
     7
100
AcDbPolyline
 90
        2
 70
     0
 43
0.2
 10
178.468209445
 20
33.6723064701
 10
178.468209445
 20
33.4655590114
  0
LWPOLYLINE
  5
25F
330
22A
100
AcDbEntity
  8
0
  6
Continuous
 62
     7
100
AcDbPolyline
 90
        2
 70
     0
 43
0.2
 10
178.468209445
 20
33.4655590114
 10
178.5888557469
 20
33.4655590114
  0
LWPOLYLINE
  5
260
330
22A
100
AcDbEntity
  8
0
  6
Continuous
 62
     7
100
AcDbPolyline
 90
        2
 70
     0
 43
0.2
 10
178.5888557469
 20
33.4655590114
 10
178.5888557469
 20
32.5197548143
  0
LWPOLYLINE
  5
261
330
22A
100
AcDbEntity
  8
0
  6
Continuous
 62
     7
100
AcDbPolyline
 90
        2
 70
     0
 43
0.2
 10
178.5888557469
 20
32.5197548143
 10
178.8105204273
 20
32.5197548143
  0
LWPOLYLINE
  5
262
330
22A
100
AcDbEntity
  8
0
  6
Continuous
 62
     7
100
AcDbPolyline
 90
        2
 70
     0
 43
0.2
 10
178.8105204273
 20
32.5197548143
 10
178.8105204273
 20
33.4655590114
  0
SPLINE
  5
263
330
22A
100
AcDbEntity
  8
0
  6
Continuous
 62
     7
100
AcDbSpline
 70
     3
 71
     3
 72
    20
 73
    16
 74
     0
 42
0.000000001
 43
0.0000001
 40
0.0
 40
0.0
 40
0.0
 40
0.0
 40
1.0
 40
1.0
 40
1.0
 40
2.0
 40
2.0
 40
2.0
 40
3.0
 40
3.0
 40
3.0
 40
4.0
 40
4.0
 40
4.0
 40
5.0
 40
5.0
 40
5.0
 40
5.0
 10
166.5925307345
 20
42.8806812576
 30
0.0
 10
166.5925307345
 20
42.8806812576
 30
0.0
 10
168.908887389
 20
40.0511198354
 30
0.0
 10
168.908887389
 20
40.0511198354
 30
0.0
 10
168.2572403356
 20
39.3989493707
 30
0.0
 10
167.4803671316
 20
38.6630331
 30
0.0
 10
166.5091774869
 20
38.6630331
 30
0.0
 10
165.5106396025
 20
38.6630331
 30
0.0
 10
164.5673216089
 20
39.5926115472
 30
0.0
 10
164.5673216089
 20
40.5918036958
 30
0.0
 10
164.5673216089
 20
41.5909958443
 30
0.0
 10
165.746174682
 20
42.297601083
 30
0.0
 10
166.4676971424
 20
42.7974588629
 30
0.0
 10
166.4676971424
 20
42.7974588629
 30
0.0
 10
166.5925307345
 20
42.8806812576
 30
0.0
 10
166.5925307345
 20
42.8806812576
 30
0.0
  0
SPLINE
  5
264
330
22A
100
AcDbEntity
  8
0
  6
Continuous
 62
     7
100
AcDbSpline
 70
     3
 71
     3
 72
    23
 73
    19
 74
     0
 42
0.000000001
 43
0.0000001
 40
0.0
 40
0.0
 40
0.0
 40
0.0
 40
1.0
 40
1.0
 40
1.0
 40
2.0
 40
2.0
 40
2.0
 40
3.0
 40
3.0
 40
3.0
 40
4.0
 40
4.0
 40
4.0
 40
5.0
 40
5.0
 40
5.0
 40
6.0
 40
6.0
 40
6.0
 40
6.0
 10
166.8699387171
 20
44.5184351774
 30
0.0
 10
166.8699387171
 20
44.5184351774
 30
0.0
 10
166.5234404445
 20
44.9617645382
 30
0.0
 10
166.5234404445
 20
44.9617645382
 30
0.0
 10
166.2176373996
 20
45.3498740082
 30
0.0
 10
165.8987490725
 20
45.7383760366
 30
0.0
 10
165.8987490725
 20
46.2653203507
 30
0.0
 10
165.8987490725
 20
46.9314920673
 30
0.0
 10
166.4400871969
 20
47.3752139866
 30
0.0
 10
167.0639934521
 20
47.3752139866
 30
0.0
 10
167.7577751141
 20
47.3752139866
 30
0.0
 10
168.2849811339
 20
46.9729724119
 30
0.0
 10
168.2849811339
 20
46.2379721109
 30
0.0
 10
168.2849811339
 20
45.4747076003
 30
0.0
 10
167.5637203792
 20
45.0445943745
 30
0.0
 10
167.0366452123
 20
44.6288749591
 30
0.0
 10
167.0366452123
 20
44.6288749591
 30
0.0
 10
166.8699387171
 20
44.5184351774
 30
0.0
 10
166.8699387171
 20
44.5184351774
 30
0.0
  0
SPLINE
  5
265
330
22A
100
AcDbEntity
  8
0
  6
Continuous
 62
     7
100
AcDbSpline
 70
     3
 71
     3
 72
    50
 73
    46
 74
     0
 42
0.000000001
 43
0.0000001
 40
0.0
 40
0.0
 40
0.0
 40
0.0
 40
1.0
 40
1.0
 40
1.0
 40
2.0
 40
2.0
 40
2.0
 40
3.0
 40
3.0
 40
3.0
 40
4.0
 40
4.0
 40
4.0
 40
5.0
 40
5.0
 40
5.0
 40
6.0
 40
6.0
 40
6.0
 40
7.0
 40
7.0
 40
7.0
 40
8.0
 40
8.0
 40
8.0
 40
9.0
 40
9.0
 40
9.0
 40
10.0
 40
10.0
 40
10.0
 40
11.0
 40
11.0
 40
11.0
 40
12.0
 40
12.0
 40
12.0
 40
13.0
 40
13.0
 40
13.0
 40
14.0
 40
14.0
 40
14.0
 40
15.0
 40
15.0
 40
15.0
 40
15.0
 10
170.82352588
 20
37.7198459592
 30
0.0
 10
170.82352588
 20
37.7198459592
 30
0.0
 10
172.4327538846
 20
37.7198459592
 30
0.0
 10
172.4327538846
 20
37.7198459592
 30
0.0
 10
172.4327538846
 20
37.7198459592
 30
0.0
 10
170.5597265909
 20
40.0369877306
 30
0.0
 10
170.5597265909
 20
40.0369877306
 30
0.0
 10
170.5597265909
 20
40.0369877306
 30
0.0
 10
171.8360650164
 20
41.5344674252
 30
0.0
 10
171.8360650164
 20
41.5344674252
 30
0.0
 10
171.8360650164
 20
41.5344674252
 30
0.0
 10
171.0038410687
 20
42.3954789938
 30
0.0
 10
171.0038410687
 20
42.3954789938
 30
0.0
 10
171.0038410687
 20
42.3954789938
 30
0.0
 10
169.7832459454
 20
40.9801748714
 30
0.0
 10
169.7832459454
 20
40.9801748714
 30
0.0
 10
169.7832459454
 20
40.9801748714
 30
0.0
 10
167.6053315766
 20
43.6155507058
 30
0.0
 10
167.6053315766
 20
43.6155507058
 30
0.0
 10
168.478905016
 20
44.2535890657
 30
0.0
 10
169.5055762572
 20
45.0445943745
 30
0.0
 10
169.5055762572
 20
46.2234474476
 30
0.0
 10
169.5055762572
 20
47.5971403726
 30
0.0
 10
168.3676801173
 20
48.4016235221
 30
0.0
 10
167.0923885144
 20
48.4016235221
 30
0.0
 10
165.7189572951
 20
48.4016235221
 30
0.0
 10
164.6780230963
 20
47.5553983224
 30
0.0
 10
164.6780230963
 20
46.1127459602
 30
0.0
 10
164.6780230963
 20
45.2251712688
 30
0.0
 10
165.2333624727
 20
44.4482980648
 30
0.0
 10
165.8295279296
 20
43.8238683984
 30
0.0
 10
165.8295279296
 20
43.8238683984
 30
0.0
 10
165.1776191706
 20
43.352274828
 30
0.0
 10
165.1776191706
 20
43.352274828
 30
0.0
 10
164.1790812862
 20
42.6310140733
 30
0.0
 10
163.3462030743
 20
41.9097533186
 30
0.0
 10
163.3462030743
 20
40.5781950023
 30
0.0
 10
163.3462030743
 20
38.7745197043
 30
0.0
 10
164.8032492469
 20
37.4979195732
 30
0.0
 10
166.5507886843
 20
37.4979195732
 30
0.0
 10
167.7856467652
 20
37.4979195732
 30
0.0
 10
168.8950169899
 20
38.2060950457
 30
0.0
 10
169.6858914458
 20
39.1346266704
 30
0.0
 10
169.6858914458
 20
39.1346266704
 30
0.0
 10
170.82352588
 20
37.7198459592
 30
0.0
 10
170.82352588
 20
37.7198459592
 30
0.0
  0
LINE
  5
266
330
22A
100
AcDbEntity
  8
0
  6
Continuous
 62
     7
100
AcDbLine
 10
156.626387255
 20
35.6937208639
 30
0.0
 11
179.0402979827
 21
35.6937208639
 31
0.0
  0
LINE
  5
267
330
22A
100
AcDbEntity
  8
0
  6
Continuous
 62
     7
100
AcDbLine
 10
179.0402979827
 20
35.6937208639
 30
0.0
 11
179.0402979827
 21
58.1076315915
 31
0.0
  0
LINE
  5
268
330
22A
100
AcDbEntity
  8
0
  6
Continuous
 62
     7
100
AcDbLine
 10
179.0402979827
 20
58.1076315915
 30
0.0
 11
156.626387255
 21
58.1076315915
 31
0.0
  0
LINE
  5
269
330
22A
100
AcDbEntity
  8
0
  6
Continuous
 62
     7
100
AcDbLine
 10
156.626387255
 20
58.1076315915
 30
0.0
 11
156.626387255
 21
35.6937208639
 31
0.0
  0
ENDBLK
  5
26A
330
22A
100
AcDbEntity
  8
0
  6
ByBlock
 62
     0
100
AcDbBlockEnd
  0
BLOCK
  5
26B
330
22B
100
AcDbEntity
  8
0
100
AcDbBlockBegin
  2
PROIEZIONE_EU_BL0
 70
     0
 10
169.0072301476
 20
70.6089440915
 30
0.0
  3
PROIEZIONE_EU_BL0
  1

  0
LWPOLYLINE
  5
26C
330
22B
100
AcDbEntity
  8
DEFAULT_1
  6
CENTER
 62
     7
100
AcDbPolyline
 90
        2
 70
     0
 43
0.25
 10
175.1338508093
 20
75.6086382234
 10
175.1338917917
 20
65.6092499597
  0
LWPOLYLINE
  5
26D
330
22B
100
AcDbEntity
  8
DEFAULT_1
  6
CENTER
 62
     7
100
AcDbPolyline
 90
        2
 70
     0
 43
0.25
 10
181.1338806344
 20
70.6092152267
 10
156.8805796609
 20
70.6089445663
  0
LWPOLYLINE
  5
26E
330
22B
100
AcDbEntity
  8
0
  6
Continuous
 62
     7
100
AcDbPolyline
 90
        2
 70
     1
 43
0.25
 10
171.5867406335
 20
70.5903963373
 42
1.0
 10
178.6930697321
 20
70.5903963373
 42
1.0
  0
LWPOLYLINE
  5
26F
330
22B
100
AcDbEntity
  8
0
  6
Continuous
 62
     7
100
AcDbPolyline
 90
        2
 70
     1
 43
0.25
 10
173.1364844619
 20
70.6082943819
 42
1.0
 10
177.1482362119
 20
70.6082943819
 42
1.0
  0
LWPOLYLINE
  5
270
330
22B
100
AcDbEntity
  8
0
  6
Continuous
 62
     7
100
AcDbPolyline
 90
        2
 70
     0
 43
0.25
 10
169.1338784284
 20
74.1841475868
 10
169.1338780738
 20
67.0839446785
  0
LWPOLYLINE
  5
271
330
22B
100
AcDbEntity
  8
0
  6
Continuous
 62
     7
100
AcDbPolyline
 90
        2
 70
     0
 43
0.25
 10
169.1339065102
 20
67.0839162421
 10
159.139349239
 20
68.6040096549
  0
LWPOLYLINE
  5
272
330
22B
100
AcDbEntity
  8
0
  6
Continuous
 62
     7
100
AcDbPolyline
 90
        2
 70
     0
 43
0.25
 10
159.1370392534
 20
68.6033321134
 10
159.1343723493
 20
72.6089707248
  0
LWPOLYLINE
  5
273
330
22B
100
AcDbEntity
  8
0
  6
Continuous
 62
     7
100
AcDbPolyline
 90
        2
 70
     0
 43
0.25
 10
159.1343640732
 20
72.6089624487
 10
169.1341073105
 20
74.1841196688
  0
ENDBLK
  5
274
330
22B
100
AcDbEntity
  8
0
  6
ByBlock
 62
     0
100
AcDbBlockEnd
  0
ENDSEC
  0
SECTION
  2
ENTITIES
  0
LWPOLYLINE
  5
2A1
330
1B
100
AcDbEntity
 67
     1
  8
0
  6
Continuous
 62
     7
100
AcDbPolyline
 90
        2
 70
     0
 43
0.5
 10
284.0
 20
13.0
 10
284.0
 20
197.0
  0
LWPOLYLINE
  5
2A2
330
1B
100
AcDbEntity
 67
     1
  8
0
  6
Continuous
 62
     7
100
AcDbPolyline
 90
        2
 70
     0
 43
0.5
 10
13.0
 20
13.0
 10
13.0
 20
197.0
  0
LWPOLYLINE
  5
2A3
330
1B
100
AcDbEntity
 67
     1
  8
0
  6
Continuous
 62
     7
100
AcDbPolyline
 90
        2
 70
     0
 43
0.5
 10
13.0
 20
13.0
 10
284.0
 20
13.0
  0
LWPOLYLINE
  5
2A4
330
1B
100
AcDbEntity
 67
     1
  8
0
  6
Continuous
 62
     7
100
AcDbPolyline
 90
        2
 70
     0
 43
0.1
 10
148.5
 20
197.0
 10
148.5
 20
200.0
  0
LWPOLYLINE
  5
2A5
330
1B
100
AcDbEntity
 67
     1
  8
0
  6
Continuous
 62
     7
100
AcDbPolyline
 90
        2
 70
     0
 43
0.1
 10
284.0
 20
105.0
 10
287.0
 20
105.0
  0
LWPOLYLINE
  5
2A6
330
1B
100
AcDbEntity
 67
     1
  8
0
  6
Continuous
 62
     7
100
AcDbPolyline
 90
        2
 70
     0
 43
0.1
 10
13.0
 20
105.0
 10
10.0
 20
105.0
  0
LWPOLYLINE
  5
2A7
330
1B
100
AcDbEntity
 67
     1
  8
0
  6
Continuous
 62
     7
100
AcDbPolyline
 90
        2
 70
     0
 43
0.5
 10
13.0
 20
197.0
 10
284.0
 20
197.0
  0
LWPOLYLINE
  5
2A8
330
1B
100
AcDbEntity
 67
     1
  8
0
  6
Continuous
 62
     7
100
AcDbPolyline
 90
        2
 70
     0
 43
0.1
 10
10.0
 20
200.0
 10
287.0
 20
200.0
  0
LWPOLYLINE
  5
2A9
330
1B
100
AcDbEntity
 67
     1
  8
0
  6
Continuous
 62
     7
100
AcDbPolyline
 90
        2
 70
     0
 43
0.1
 10
10.0
 20
10.0
 10
10.0
 20
200.0
  0
LWPOLYLINE
  5
2AA
330
1B
100
AcDbEntity
 67
     1
  8
0
  6
Continuous
 62
     7
100
AcDbPolyline
 90
        2
 70
     0
 43
0.1
 10
287.0
 20
10.0
 10
287.0
 20
200.0
  0
LWPOLYLINE
  5
2AB
330
1B
100
AcDbEntity
 67
     1
  8
0
  6
Continuous
 62
     7
100
AcDbPolyline
 90
        2
 70
     0
 43
0.1
 10
10.0
 20
10.0
 10
287.0
 20
10.0
  0
LWPOLYLINE
  5
2AC
330
1B
100
AcDbEntity
 67
     1
  8
0
  6
Continuous
 62
     7
100
AcDbPolyline
 90
        2
 70
     0
 43
0.1
 10
148.5
 20
13.0
 10
148.5
 20
10.0
  0
VIEWPORT
  5
2AD
330
1B
100
AcDbEntity
 67
     1
  8
0
100
AcDbViewport
 10
0.0
 20
0.0
 30
0.0
 40
316.8826459143969
 41
224.081299610895
 68
     1
 69
     1
 12
159.7369649805447
 22
105.0
 13
0.0
 23
0.0
 14
1.0
 24
1.0
 15
0.0
 25
0.0
 16
0.0
 26
0.0
 36
1.0
 17
0.0
 27
0.0
 37
0.0
 42
50.0
 43
0.0
 44
0.0
 45
224.081299610895
 50
0.0
 51
0.0
 72
   100
 90
   557216
  1

281
     0
 71
     1
 74
     0
110
0.0
120
0.0
130
0.0
111
1.0
121
0.0
131
0.0
112
0.0
122
1.0
132
0.0
 79
     0
146
0.0
170
     0
 61
     5
348
58B
292
     1
282
     1
141
0.0
142
0.0
 63
   256
  0
ARC
  5
2AE
330
1B
100
AcDbEntity
 67
     1
  8
7_ALL_FEATURES
  6
Continuous
 62
     7
100
AcDbCircle
 10
77.9595318583
 20
61.4352939898
 30
0.0
 40
24.7689029467
100
AcDbArc
 50
264.1907001185
 51
275.8092998815
  0
ARC
  5
2AF
330
1B
100
AcDbEntity
 67
     1
  8
7_ALL_FEATURES
  6
Continuous
 62
     7
100
AcDbCircle
 10
77.9595318583
 20
61.4352939898
 30
0.0
 40
24.7689029467
100
AcDbArc
 50
84.1907001185
 51
95.80929988149998
  0
LINE
  5
2B0
330
1B
100
AcDbEntity
 67
     1
  8
7_ALL_FEATURES
  6
Continuous
 62
     7
100
AcDbLine
 10
58.2345318583
 20
85.1602939898
 30
0.0
 11
97.6845318583
 21
85.1602939898
 31
0.0
  0
LINE
  5
2B1
330
1B
100
AcDbEntity
 67
     1
  8
7_ALL_FEATURES
  6
Continuous
 62
     7
100
AcDbLine
 10
101.6845318583
 20
81.1602939898
 30
0.0
 11
101.6845318583
 21
41.7102939898
 31
0.0
  0
LINE
  5
2B2
330
1B
100
AcDbEntity
 67
     1
  8
7_ALL_FEATURES
  6
Continuous
 62
     7
100
AcDbLine
 10
54.2345318583
 20
41.7102939898
 30
0.0
 11
54.2345318583
 21
81.1602939898
 31
0.0
  0
LINE
  5
2B3
330
1B
100
AcDbEntity
 67
     1
  8
7_ALL_FEATURES
  6
Continuous
 62
     7
100
AcDbLine
 10
97.6845318583
 20
37.7102939898
 30
0.0
 11
58.2345318583
 21
37.7102939898
 31
0.0
  0
LINE
  5
2B4
330
1B
100
AcDbEntity
 67
     1
  8
7_ALL_FEATURES
  6
Continuous
 62
     7
100
AcDbLine
 10
54.4345013973
 20
85.1602939898
 30
0.0
 11
58.2345318583
 21
85.1602939898
 31
0.0
  0
ELLIPSE
  5
2B5
330
1B
100
AcDbEntity
 67
     1
  8
06___PRT_ALL_SURFS
  6
Continuous
 62
     7
100
AcDbEllipse
 10
54.4345623239
 20
84.9602635242
 30
0.0
 11
0.1414644378
 21
-0.1414644378
 31
0.0
210
0.0
220
0.0
230
1.0
 40
0.9996954599
 41
2.3563467834
 42
3.9268385237
  0
LINE
  5
2B6
330
1B
100
AcDbEntity
 67
     1
  8
7_ALL_FEATURES
  6
Continuous
 62
     7
100
AcDbLine
 10
54.2345318583
 20
81.1602939898
 30
0.0
 11
54.2345318583
 21
84.9603244508
 31
0.0
  0
LINE
  5
2B7
330
1B
100
AcDbEntity
 67
     1
  8
7_ALL_FEATURES
  6
Continuous
 62
     7
100
AcDbLine
 10
101.6845318583
 20
84.9603244508
 30
0.0
 11
101.6845318583
 21
81.1602939898
 31
0.0
  0
ELLIPSE
  5
2B8
330
1B
100
AcDbEntity
 67
     1
  8
06___PRT_ALL_SURFS
  6
Continuous
 62
     7
100
AcDbEllipse
 10
101.4845013927
 20
84.9602635242
 30
0.0
 11
0.1414644378
 21
0.1414644378
 31
0.0
210
0.0
220
0.0
230
1.0
 40
0.9996954599
 41
-0.7852458701
 42
0.7852458701
  0
LINE
  5
2B9
330
1B
100
AcDbEntity
 67
     1
  8
7_ALL_FEATURES
  6
Continuous
 62
     7
100
AcDbLine
 10
97.6845318583
 20
85.1602939898
 30
0.0
 11
101.4845623193
 21
85.1602939898
 31
0.0
  0
LINE
  5
2BA
330
1B
100
AcDbEntity
 67
     1
  8
7_ALL_FEATURES
  6
Continuous
 62
     7
100
AcDbLine
 10
101.4845623193
 20
37.7102939898
 30
0.0
 11
97.6845318583
 21
37.7102939898
 31
0.0
  0
ELLIPSE
  5
2BB
330
1B
100
AcDbEntity
 67
     1
  8
06___PRT_ALL_SURFS
  6
Continuous
 62
     7
100
AcDbEllipse
 10
101.4845013927
 20
37.9103244555
 30
0.0
 11
0.1414644378
 21
-0.1414644378
 31
0.0
210
0.0
220
0.0
230
1.0
 40
0.9996954599
 41
-0.7852458701
 42
0.7852458701
  0
LINE
  5
2BC
330
1B
100
AcDbEntity
 67
     1
  8
7_ALL_FEATURES
  6
Continuous
 62
     7
100
AcDbLine
 10
101.6845318583
 20
41.7102939898
 30
0.0
 11
101.6845318583
 21
37.9102635289
 31
0.0
  0
LINE
  5
2BD
330
1B
100
AcDbEntity
 67
     1
  8
7_ALL_FEATURES
  6
Continuous
 62
     7
100
AcDbLine
 10
54.2345318583
 20
37.9102635289
 30
0.0
 11
54.2345318583
 21
41.7102939898
 31
0.0
  0
ELLIPSE
  5
2BE
330
1B
100
AcDbEntity
 67
     1
  8
06___PRT_ALL_SURFS
  6
Continuous
 62
     7
100
AcDbEllipse
 10
54.4345623239
 20
37.9103244555
 30
0.0
 11
0.1414644378
 21
0.1414644378
 31
0.0
210
0.0
220
0.0
230
1.0
 40
0.9996954599
 41
-3.9268385237
 42
-2.3563467834
  0
LINE
  5
2BF
330
1B
100
AcDbEntity
 67
     1
  8
7_ALL_FEATURES
  6
Continuous
 62
     7
100
AcDbLine
 10
58.2345318583
 20
37.7102939898
 30
0.0
 11
54.4345013973
 21
37.7102939898
 31
0.0
  0
LINE
  5
2C0
330
1B
100
AcDbEntity
 67
     1
  8
7_ALL_FEATURES
  6
Continuous
 62
     9
100
AcDbLine
 10
55.8990553712
 20
38.6749241161
 30
0.0
 11
77.0602506469
 21
38.6749241161
 31
0.0
  0
SPLINE
  5
2C1
330
1B
100
AcDbEntity
 67
     1
  8
7_ALL_FEATURES
  6
Continuous
 62
     9
100
AcDbSpline
 70
     0
 71
     3
 72
    12
 73
     8
 74
     0
 42
0.000000001
 43
0.0000001
 40
0.0
 40
0.0
 40
0.0
 40
0.0
 40
0.1253755603
 40
0.2507377703
 40
0.5006282308
 40
0.7504135086
 40
1.0
 40
1.0
 40
1.0
 40
1.0
 10
77.0602506469
 20
38.6749241161
 30
0.0
 10
77.1012914681
 20
38.6863425462
 30
0.0
 10
77.1832779388
 20
38.7098014355
 30
0.0
 10
77.3414590652
 20
38.7731735879
 30
0.0
 10
77.5189688112
 20
38.8980302784
 30
0.0
 10
77.6623786469
 20
39.1157091736
 30
0.0
 10
77.6962092285
 20
39.2871602155
 30
0.0
 10
77.6962139698
 20
39.3719637872
 30
0.0
  0
LINE
  5
2C2
330
1B
100
AcDbEntity
 67
     1
  8
7_ALL_FEATURES
  6
Continuous
 62
     9
100
AcDbLine
 10
77.6962139698
 20
39.3719637872
 30
0.0
 11
77.6962223157
 21
60.5221391296
 31
0.0
  0
ARC
  5
2C3
330
1B
100
AcDbEntity
 67
     1
  8
7_ALL_FEATURES
  6
Continuous
 62
     9
100
AcDbCircle
 10
77.0463379387
 20
60.522099802
 30
0.0
 40
0.6498878485
100
AcDbArc
 50
0.0034672435
 51
89.99655641079998
  0
LINE
  5
2C4
330
1B
100
AcDbEntity
 67
     1
  8
7_ALL_FEATURES
  6
Continuous
 62
     9
100
AcDbLine
 10
77.0463769981
 20
61.1719844472
 30
0.0
 11
55.8962079899
 21
61.1719844472
 31
0.0
  0
SPLINE
  5
2C5
330
1B
100
AcDbEntity
 67
     1
  8
7_ALL_FEATURES
  6
Continuous
 62
     9
100
AcDbSpline
 70
     0
 71
     3
 72
    12
 73
     8
 74
     0
 42
0.000000001
 43
0.0000001
 40
0.0
 40
0.0
 40
0.0
 40
0.0
 40
0.2498954394
 40
0.499671874
 40
0.7494229142
 40
0.8747065914
 40
1.0
 40
1.0
 40
1.0
 40
1.0
 10
77.6962223157
 20
83.4986178583
 30
0.0
 10
77.6962557516
 20
83.5835202399
 30
0.0
 10
77.662300978
 20
83.7550645159
 30
0.0
 10
77.5188083359
 20
83.9727144749
 30
0.0
 10
77.3413329005
 20
84.0974549175
 30
0.0
 10
77.1832609006
 20
84.1607765569
 30
0.0
 10
77.1013456284
 20
84.1842704069
 30
0.0
 10
77.0603175386
 20
84.1956187624
 30
0.0
  0
LINE
  5
2C6
330
1B
100
AcDbEntity
 67
     1
  8
7_ALL_FEATURES
  6
Continuous
 62
     9
100
AcDbLine
 10
77.0603175386
 20
84.1956187624
 30
0.0
 11
55.8990553712
 21
84.1956638636
 31
0.0
  0
ARC
  5
2C7
330
1B
100
AcDbEntity
 67
     1
  8
7_ALL_FEATURES
  6
Continuous
 62
     9
100
AcDbCircle
 10
55.8990484714
 20
83.495776599
 30
0.0
 40
0.6998857922
100
AcDbArc
 50
89.99943515400001
 51
180.0005011825
  0
LINE
  5
2C8
330
1B
100
AcDbEntity
 67
     1
  8
7_ALL_FEATURES
  6
Continuous
 62
     9
100
AcDbLine
 10
55.1991619846
 20
83.4957704769
 30
0.0
 11
55.1991619846
 21
62.3345752012
 31
0.0
  0
SPLINE
  5
2C9
330
1B
100
AcDbEntity
 67
     1
  8
7_ALL_FEATURES
  6
Continuous
 62
     9
100
AcDbSpline
 70
     0
 71
     3
 72
    12
 73
     8
 74
     0
 42
0.000000001
 43
0.0000001
 40
0.0
 40
0.0
 40
0.0
 40
0.0
 40
0.1253755603
 40
0.2507377703
 40
0.5006282308
 40
0.7504135086
 40
1.0
 40
1.0
 40
1.0
 40
1.0
 10
55.1991619846
 20
62.3345752012
 30
0.0
 10
55.2105804147
 20
62.2935343801
 30
0.0
 10
55.234039304
 20
62.2115479093
 30
0.0
 10
55.2974114563
 20
62.0533667829
 30
0.0
 10
55.4222681469
 20
61.875857037
 30
0.0
 10
55.6399470421
 20
61.7324472012
 30
0.0
 10
55.811398084
 20
61.6986166197
 30
0.0
 10
55.8962016556
 20
61.6986118783
 30
0.0
  0
LINE
  5
2CA
330
1B
100
AcDbEntity
 67
     1
  8
7_ALL_FEATURES
  6
Continuous
 62
     9
100
AcDbLine
 10
55.8962016556
 20
61.6986118783
 30
0.0
 11
77.0463769981
 21
61.6986035325
 31
0.0
  0
ARC
  5
2CB
330
1B
100
AcDbEntity
 67
     1
  8
7_ALL_FEATURES
  6
Continuous
 62
     9
100
AcDbCircle
 10
77.0463373264
 20
62.3484881649
 30
0.0
 40
0.6498881541
100
AcDbArc
 50
270.0034975749
 51
359.9965338883
  0
LINE
  5
2CC
330
1B
100
AcDbEntity
 67
     1
  8
7_ALL_FEATURES
  6
Continuous
 62
     9
100
AcDbLine
 10
77.6962223157
 20
62.3484488501
 30
0.0
 11
77.6962223157
 21
83.4986178583
 31
0.0
  0
LINE
  5
2CD
330
1B
100
AcDbEntity
 67
     1
  8
7_ALL_FEATURES
  6
Continuous
 62
     9
100
AcDbLine
 10
54.5200921421
 20
85.0747032451
 30
0.0
 11
101.3989715746
 21
85.0747032451
 31
0.0
  0
LINE
  5
2CE
330
1B
100
AcDbEntity
 67
     1
  8
7_ALL_FEATURES
  6
Continuous
 62
     9
100
AcDbLine
 10
54.5200921421
 20
85.0747032451
 30
0.0
 11
54.4345013973
 21
85.1602939898
 31
0.0
  0
LINE
  5
2CF
330
1B
100
AcDbEntity
 67
     1
  8
7_ALL_FEATURES
  6
Continuous
 62
     9
100
AcDbLine
 10
101.3989715746
 20
85.0747032451
 30
0.0
 11
101.4845623193
 21
85.1602939898
 31
0.0
  0
LINE
  5
2D0
330
1B
100
AcDbEntity
 67
     1
  8
7_ALL_FEATURES
  6
Continuous
 62
     9
100
AcDbLine
 10
101.5989411136
 20
84.8747337061
 30
0.0
 11
101.5989411136
 21
37.9958542736
 31
0.0
  0
LINE
  5
2D1
330
1B
100
AcDbEntity
 67
     1
  8
7_ALL_FEATURES
  6
Continuous
 62
     9
100
AcDbLine
 10
101.5989411136
 20
84.8747337061
 30
0.0
 11
101.6845318583
 21
84.9603244508
 31
0.0
  0
LINE
  5
2D2
330
1B
100
AcDbEntity
 67
     1
  8
7_ALL_FEATURES
  6
Continuous
 62
     9
100
AcDbLine
 10
101.5989411136
 20
37.9958542736
 30
0.0
 11
101.6845318583
 21
37.9102635289
 31
0.0
  0
LINE
  5
2D3
330
1B
100
AcDbEntity
 67
     1
  8
7_ALL_FEATURES
  6
Continuous
 62
     9
100
AcDbLine
 10
54.320122603
 20
37.9958542736
 30
0.0
 11
54.320122603
 21
84.8747337061
 31
0.0
  0
LINE
  5
2D4
330
1B
100
AcDbEntity
 67
     1
  8
7_ALL_FEATURES
  6
Continuous
 62
     9
100
AcDbLine
 10
54.320122603
 20
37.9958542736
 30
0.0
 11
54.2345318583
 21
37.9102635289
 31
0.0
  0
LINE
  5
2D5
330
1B
100
AcDbEntity
 67
     1
  8
7_ALL_FEATURES
  6
Continuous
 62
     9
100
AcDbLine
 10
54.320122603
 20
84.8747337061
 30
0.0
 11
54.2345318583
 21
84.9603244508
 31
0.0
  0
LINE
  5
2D6
330
1B
100
AcDbEntity
 67
     1
  8
7_ALL_FEATURES
  6
Continuous
 62
     9
100
AcDbLine
 10
101.3989715746
 20
37.7958847346
 30
0.0
 11
54.5200921421
 21
37.7958847346
 31
0.0
  0
LINE
  5
2D7
330
1B
100
AcDbEntity
 67
     1
  8
7_ALL_FEATURES
  6
Continuous
 62
     9
100
AcDbLine
 10
101.3989715746
 20
37.7958847346
 30
0.0
 11
101.4845623193
 21
37.7102939898
 31
0.0
  0
LINE
  5
2D8
330
1B
100
AcDbEntity
 67
     1
  8
7_ALL_FEATURES
  6
Continuous
 62
     9
100
AcDbLine
 10
54.5200921421
 20
37.7958847346
 30
0.0
 11
54.4345013973
 21
37.7102939898
 31
0.0
  0
LINE
  5
2D9
330
1B
100
AcDbEntity
 67
     1
  8
7_ALL_FEATURES
  6
Continuous
 62
     9
100
AcDbLine
 10
101.3989715746
 20
84.8747337061
 30
0.0
 11
101.3989715746
 21
37.9958542736
 31
0.0
  0
LINE
  5
2DA
330
1B
100
AcDbEntity
 67
     1
  8
7_ALL_FEATURES
  6
Continuous
 62
     9
100
AcDbLine
 10
101.3989715746
 20
37.9958542736
 30
0.0
 11
54.5200921421
 21
37.9958542736
 31
0.0
  0
LINE
  5
2DB
330
1B
100
AcDbEntity
 67
     1
  8
7_ALL_FEATURES
  6
Continuous
 62
     9
100
AcDbLine
 10
54.5200921421
 20
37.9958542736
 30
0.0
 11
54.5200921421
 21
84.8747337061
 31
0.0
  0
ARC
  5
2DC
330
1B
100
AcDbEntity
 67
     1
  8
7_ALL_FEATURES
  6
Continuous
 62
     9
100
AcDbCircle
 10
54.5201652665
 20
84.8746605817
 30
0.0
 40
0.2000430909
100
AcDbArc
 50
90.0209441261
 51
179.9790558739
  0
LINE
  5
2DD
330
1B
100
AcDbEntity
 67
     1
  8
7_ALL_FEATURES
  6
Continuous
 62
     9
100
AcDbLine
 10
54.5200921421
 20
84.8747337061
 30
0.0
 11
101.3989715746
 21
84.8747337061
 31
0.0
  0
SPLINE
  5
2DE
330
1B
100
AcDbEntity
 67
     1
  8
7_ALL_FEATURES
  6
Continuous
 62
     9
100
AcDbSpline
 70
     0
 71
     3
 72
    12
 73
     8
 74
     0
 42
0.000000001
 43
0.0000001
 40
0.0
 40
0.0
 40
0.0
 40
0.0
 40
0.2498954408
 40
0.4996718752
 40
0.7494229147
 40
0.8747065916
 40
1.0
 40
1.0
 40
1.0
 40
1.0
 10
78.2228414009
 20
39.3719701214
 30
0.0
 10
78.222807965
 20
39.2870677395
 30
0.0
 10
78.2567627387
 20
39.1155234632
 30
0.0
 10
78.4002553813
 20
38.8978735046
 30
0.0
 10
78.577730816
 20
38.7731330622
 30
0.0
 10
78.7358028153
 20
38.709811423
 30
0.0
 10
78.8177180873
 20
38.6863175731
 30
0.0
 10
78.8587461768
 20
38.6749692173
 30
0.0
  0
LINE
  5
2DF
330
1B
100
AcDbEntity
 67
     1
  8
7_ALL_FEATURES
  6
Continuous
 62
     9
100
AcDbLine
 10
78.8587461768
 20
38.6749692173
 30
0.0
 11
100.0200083454
 21
38.6749241161
 31
0.0
  0
ARC
  5
2E0
330
1B
100
AcDbEntity
 67
     1
  8
7_ALL_FEATURES
  6
Continuous
 62
     9
100
AcDbCircle
 10
101.3988984502
 20
84.8746605817
 30
0.0
 40
0.2000430909
100
AcDbArc
 50
0.0209441261
 51
89.9790558739
  0
ARC
  5
2E1
330
1B
100
AcDbEntity
 67
     1
  8
7_ALL_FEATURES
  6
Continuous
 62
     9
100
AcDbCircle
 10
100.0200239598
 20
39.3748018884
 30
0.0
 40
0.6998745941
100
AcDbArc
 50
269.998721723
 51
0.0012782766
  0
LINE
  5
2E2
330
1B
100
AcDbEntity
 67
     1
  8
7_ALL_FEATURES
  6
Continuous
 62
     9
100
AcDbLine
 10
100.719901732
 20
39.3748175028
 30
0.0
 11
100.719901732
 21
60.5360127785
 31
0.0
  0
SPLINE
  5
2E3
330
1B
100
AcDbEntity
 67
     1
  8
7_ALL_FEATURES
  6
Continuous
 62
     9
100
AcDbSpline
 70
     0
 71
     3
 72
    12
 73
     8
 74
     0
 42
0.000000001
 43
0.0000001
 40
0.0
 40
0.0
 40
0.0
 40
0.0
 40
0.1253755603
 40
0.2507377703
 40
0.5006282308
 40
0.7504135086
 40
1.0
 40
1.0
 40
1.0
 40
1.0
 10
100.719901732
 20
60.5360127785
 30
0.0
 10
100.7084833019
 20
60.5770535996
 30
0.0
 10
100.6850244126
 20
60.6590400704
 30
0.0
 10
100.6216522603
 20
60.8172211968
 30
0.0
 10
100.4967955697
 20
60.9947309427
 30
0.0
 10
100.2791166746
 20
61.1381407785
 30
0.0
 10
100.1076656326
 20
61.17197136
 30
0.0
 10
100.022862061
 20
61.1719761014
 30
0.0
  0
ARC
  5
2E4
330
1B
100
AcDbEntity
 67
     1
  8
7_ALL_FEATURES
  6
Continuous
 62
     9
100
AcDbCircle
 10
101.398898401
 20
37.9959274471
 30
0.0
 40
0.2000430909
100
AcDbArc
 50
270.0209581984
 51
359.9790418016
  0
LINE
  5
2E5
330
1B
100
AcDbEntity
 67
     1
  8
7_ALL_FEATURES
  6
Continuous
 62
     9
100
AcDbLine
 10
100.022862061
 20
61.1719761014
 30
0.0
 11
78.8726867185
 21
61.1719844472
 31
0.0
  0
ARC
  5
2E6
330
1B
100
AcDbEntity
 67
     1
  8
7_ALL_FEATURES
  6
Continuous
 62
     9
100
AcDbCircle
 10
78.8727263875
 20
60.5220998762
 30
0.0
 40
0.6498881154
100
AcDbArc
 50
90.0034973355
 51
179.9965392994
  0
LINE
  5
2E7
330
1B
100
AcDbEntity
 67
     1
  8
7_ALL_FEATURES
  6
Continuous
 62
     9
100
AcDbLine
 10
78.2228414009
 20
60.5221391296
 30
0.0
 11
78.2228414009
 21
39.3719701214
 31
0.0
  0
ARC
  5
2E8
330
1B
100
AcDbEntity
 67
     1
  8
7_ALL_FEATURES
  6
Continuous
 62
     9
100
AcDbCircle
 10
54.5201653156
 20
37.9959274471
 30
0.0
 40
0.2000430909
100
AcDbArc
 50
180.0209581984
 51
269.9790418016
  0
LINE
  5
2E9
330
1B
100
AcDbEntity
 67
     1
  8
7_ALL_FEATURES
  6
Continuous
 62
     9
100
AcDbLine
 10
76.8453228823
 20
60.3210850139
 30
0.0
 11
76.8453228823
 21
39.5347445899
 31
0.0
  0
LINE
  5
2EA
330
1B
100
AcDbEntity
 67
     1
  8
7_ALL_FEATURES
  6
Continuous
 62
     9
100
AcDbLine
 10
76.8453228823
 20
39.5347445899
 30
0.0
 11
58.2345318583
 21
39.5347445899
 31
0.0
  0
ARC
  5
2EB
330
1B
100
AcDbEntity
 67
     1
  8
7_ALL_FEATURES
  6
Continuous
 62
     9
100
AcDbCircle
 10
58.2345318583
 20
41.7102939898
 30
0.0
 40
2.1755494
100
AcDbArc
 50
180.0
 51
270.0
  0
LINE
  5
2EC
330
1B
100
AcDbEntity
 67
     1
  8
7_ALL_FEATURES
  6
Continuous
 62
     9
100
AcDbLine
 10
56.0589824583
 20
41.7102939898
 30
0.0
 11
56.0589824583
 21
60.3210850139
 31
0.0
  0
LINE
  5
2ED
330
1B
100
AcDbEntity
 67
     1
  8
7_ALL_FEATURES
  6
Continuous
 62
     9
100
AcDbLine
 10
56.0589824583
 20
60.3210850139
 30
0.0
 11
76.8453228823
 21
60.3210850139
 31
0.0
  0
LINE
  5
2EE
330
1B
100
AcDbEntity
 67
     1
  8
7_ALL_FEATURES
  6
Continuous
 62
     9
100
AcDbLine
 10
79.0737408343
 20
39.5347445899
 30
0.0
 11
79.0737408343
 21
60.3210850139
 31
0.0
  0
LINE
  5
2EF
330
1B
100
AcDbEntity
 67
     1
  8
7_ALL_FEATURES
  6
Continuous
 62
     9
100
AcDbLine
 10
79.0737408343
 20
60.3210850139
 30
0.0
 11
99.8600812583
 21
60.3210850139
 31
0.0
  0
LINE
  5
2F0
330
1B
100
AcDbEntity
 67
     1
  8
7_ALL_FEATURES
  6
Continuous
 62
     9
100
AcDbLine
 10
99.8600812583
 20
60.3210850139
 30
0.0
 11
99.8600812583
 21
41.7102939898
 31
0.0
  0
ARC
  5
2F1
330
1B
100
AcDbEntity
 67
     1
  8
7_ALL_FEATURES
  6
Continuous
 62
     9
100
AcDbCircle
 10
97.6845318583
 20
41.7102939898
 30
0.0
 40
2.1755494
100
AcDbArc
 50
270.0
 51
360.0
  0
LINE
  5
2F2
330
1B
100
AcDbEntity
 67
     1
  8
7_ALL_FEATURES
  6
Continuous
 62
     9
100
AcDbLine
 10
97.6845318583
 20
39.5347445899
 30
0.0
 11
79.0737408343
 21
39.5347445899
 31
0.0
  0
LINE
  5
2F3
330
1B
100
AcDbEntity
 67
     1
  8
7_ALL_FEATURES
  6
Continuous
 62
     9
100
AcDbLine
 10
76.8453228823
 20
62.5495029658
 30
0.0
 11
56.0589824583
 21
62.5495029658
 31
0.0
  0
LINE
  5
2F4
330
1B
100
AcDbEntity
 67
     1
  8
7_ALL_FEATURES
  6
Continuous
 62
     9
100
AcDbLine
 10
56.0589824583
 20
62.5495029658
 30
0.0
 11
56.0589824583
 21
81.1602939898
 31
0.0
  0
ARC
  5
2F5
330
1B
100
AcDbEntity
 67
     1
  8
7_ALL_FEATURES
  6
Continuous
 62
     9
100
AcDbCircle
 10
58.2345318583
 20
81.1602939898
 30
0.0
 40
2.1755494
100
AcDbArc
 50
90.0
 51
180.0
  0
LINE
  5
2F6
330
1B
100
AcDbEntity
 67
     1
  8
7_ALL_FEATURES
  6
Continuous
 62
     9
100
AcDbLine
 10
58.2345318583
 20
83.3358433898
 30
0.0
 11
76.8453228823
 21
83.3358433898
 31
0.0
  0
LINE
  5
2F7
330
1B
100
AcDbEntity
 67
     1
  8
7_ALL_FEATURES
  6
Continuous
 62
     9
100
AcDbLine
 10
76.8453228823
 20
83.3358433898
 30
0.0
 11
76.8453228823
 21
62.5495029658
 31
0.0
  0
LINE
  5
2F8
330
1B
100
AcDbEntity
 67
     1
  8
7_ALL_FEATURES
  6
Continuous
 62
     9
100
AcDbLine
 10
99.8600812583
 20
62.5495029658
 30
0.0
 11
79.0737408343
 21
62.5495029658
 31
0.0
  0
LINE
  5
2F9
330
1B
100
AcDbEntity
 67
     1
  8
7_ALL_FEATURES
  6
Continuous
 62
     9
100
AcDbLine
 10
79.0737408343
 20
62.5495029658
 30
0.0
 11
79.0737408343
 21
83.3358433898
 31
0.0
  0
LINE
  5
2FA
330
1B
100
AcDbEntity
 67
     1
  8
7_ALL_FEATURES
  6
Continuous
 62
     9
100
AcDbLine
 10
79.0737408343
 20
83.3358433898
 30
0.0
 11
97.6845318583
 21
83.3358433898
 31
0.0
  0
ARC
  5
2FB
330
1B
100
AcDbEntity
 67
     1
  8
7_ALL_FEATURES
  6
Continuous
 62
     9
100
AcDbCircle
 10
97.6845318583
 20
81.1602939898
 30
0.0
 40
2.1755494
100
AcDbArc
 50
0.0
 51
90.0
  0
LINE
  5
2FC
330
1B
100
AcDbEntity
 67
     1
  8
7_ALL_FEATURES
  6
Continuous
 62
     9
100
AcDbLine
 10
99.8600812583
 20
81.1602939898
 30
0.0
 11
99.8600812583
 21
62.5495029658
 31
0.0
  0
LINE
  5
2FD
330
1B
100
AcDbEntity
 67
     1
  8
7_ALL_FEATURES
  6
Continuous
 62
     9
100
AcDbLine
 10
77.0452430678
 20
83.9956942495
 30
0.0
 11
76.8453228823
 21
83.8357672374
 31
0.0
  0
LINE
  5
2FE
330
1B
100
AcDbEntity
 67
     1
  8
7_ALL_FEATURES
  6
Continuous
 62
     9
100
AcDbLine
 10
58.2345318583
 20
83.8357672374
 30
0.0
 11
76.8453228823
 21
83.8357672374
 31
0.0
  0
LINE
  5
2FF
330
1B
100
AcDbEntity
 67
     1
  8
7_ALL_FEATURES
  6
Continuous
 62
     9
100
AcDbLine
 10
58.2345318583
 20
83.8357672374
 30
0.0
 11
58.2345318583
 21
83.8945463378
 31
0.0
  0
SPLINE
  5
300
330
1B
100
AcDbEntity
 67
     1
  8
7_ALL_FEATURES
  6
Continuous
 62
     9
100
AcDbSpline
 70
     0
 71
     3
 72
     9
 73
     5
 74
     0
 42
0.000000001
 43
0.0000001
 40
0.0
 40
0.0
 40
0.0
 40
0.0
 40
0.2717503056
 40
1.0
 40
1.0
 40
1.0
 40
1.0
 10
55.9830621179
 20
83.9116748491
 30
0.0
 10
56.1870146473
 20
83.9115535265
 30
0.0
 10
56.9375290283
 20
83.9091653674
 30
0.0
 10
57.6880075218
 20
83.9009636263
 30
0.0
 10
58.2345318583
 20
83.8945463378
 30
0.0
  0
LINE
  5
301
330
1B
100
AcDbEntity
 67
     1
  8
7_ALL_FEATURES
  6
Continuous
 62
     9
100
AcDbLine
 10
55.8989619901
 20
83.9956943245
 30
0.0
 11
55.9830621179
 21
83.9116748491
 31
0.0
  0
LINE
  5
302
330
1B
100
AcDbEntity
 67
     1
  8
7_ALL_FEATURES
  6
Continuous
 62
     9
100
AcDbLine
 10
77.0452430678
 20
83.9956942495
 30
0.0
 11
55.8989619901
 21
83.9956943245
 31
0.0
  0
LINE
  5
303
330
1B
100
AcDbEntity
 67
     1
  8
7_ALL_FEATURES
  6
Continuous
 62
     9
100
AcDbLine
 10
79.0737408343
 20
83.8357672374
 30
0.0
 11
78.873820555
 21
83.9956943245
 31
0.0
  0
LINE
  5
304
330
1B
100
AcDbEntity
 67
     1
  8
7_ALL_FEATURES
  6
Continuous
 62
     9
100
AcDbLine
 10
100.0201088764
 20
83.9956943245
 30
0.0
 11
78.873820555
 21
83.9956943245
 31
0.0
  0
LINE
  5
305
330
1B
100
AcDbEntity
 67
     1
  8
7_ALL_FEATURES
  6
Continuous
 62
     9
100
AcDbLine
 10
100.0201088764
 20
83.9956943245
 30
0.0
 11
99.9359690862
 21
83.9116747726
 31
0.0
  0
SPLINE
  5
306
330
1B
100
AcDbEntity
 67
     1
  8
7_ALL_FEATURES
  6
Continuous
 62
     9
100
AcDbSpline
 70
     0
 71
     3
 72
     9
 73
     5
 74
     0
 42
0.000000001
 43
0.0000001
 40
0.0
 40
0.0
 40
0.0
 40
0.0
 40
0.2313753619
 40
1.0
 40
1.0
 40
1.0
 40
1.0
 10
97.6845318583
 20
83.8945463378
 30
0.0
 10
97.8581676987
 20
83.8965811806
 30
0.0
 10
98.6086176302
 20
83.9053007678
 30
0.0
 10
99.3591145805
 20
83.9112942447
 30
0.0
 10
99.9359690862
 20
83.9116747726
 30
0.0
  0
LINE
  5
307
330
1B
100
AcDbEntity
 67
     1
  8
7_ALL_FEATURES
  6
Continuous
 62
     9
100
AcDbLine
 10
97.6845318583
 20
83.8357672374
 30
0.0
 11
97.6845318583
 21
83.8945463378
 31
0.0
  0
LINE
  5
308
330
1B
100
AcDbEntity
 67
     1
  8
7_ALL_FEATURES
  6
Continuous
 62
     9
100
AcDbLine
 10
79.0737408343
 20
83.8357672374
 30
0.0
 11
97.6845318583
 21
83.8357672374
 31
0.0
  0
ARC
  5
309
330
1B
100
AcDbEntity
 67
     1
  8
7_ALL_FEATURES
  6
Continuous
 62
     9
100
AcDbCircle
 10
97.6845318583
 20
81.1602939898
 30
0.0
 40
2.734252348
100
AcDbArc
 50
0.0
 51
90.0
  0
ARC
  5
30A
330
1B
100
AcDbEntity
 67
     1
  8
7_ALL_FEATURES
  6
Continuous
 62
     9
100
AcDbCircle
 10
97.6845318583
 20
81.1602939898
 30
0.0
 40
2.6754732476
100
AcDbArc
 50
0.0
 51
90.0
  0
LINE
  5
30B
330
1B
100
AcDbEntity
 67
     1
  8
7_ALL_FEATURES
  6
Continuous
 62
     9
100
AcDbLine
 10
100.3600051059
 20
60.3210850139
 30
0.0
 11
100.519932193
 21
60.5210052931
 31
0.0
  0
LINE
  5
30C
330
1B
100
AcDbEntity
 67
     1
  8
7_ALL_FEATURES
  6
Continuous
 62
     9
100
AcDbLine
 10
100.519932193
 20
39.3747169718
 30
0.0
 11
100.519932193
 21
60.5210052931
 31
0.0
  0
LINE
  5
30D
330
1B
100
AcDbEntity
 67
     1
  8
7_ALL_FEATURES
  6
Continuous
 62
     9
100
AcDbLine
 10
100.519932193
 20
39.3747169718
 30
0.0
 11
100.435912641
 21
39.458856762
 31
0.0
  0
SPLINE
  5
30E
330
1B
100
AcDbEntity
 67
     1
  8
7_ALL_FEATURES
  6
Continuous
 62
     9
100
AcDbSpline
 70
     0
 71
     3
 72
     9
 73
     5
 74
     0
 42
0.000000001
 43
0.0000001
 40
0.0
 40
0.0
 40
0.0
 40
0.0
 40
0.2313753619
 40
1.0
 40
1.0
 40
1.0
 40
1.0
 10
100.4187842063
 20
41.7102939898
 30
0.0
 10
100.4208190491
 20
41.5366581495
 30
0.0
 10
100.4295386362
 20
40.7862082179
 30
0.0
 10
100.4355321132
 20
40.0357112677
 30
0.0
 10
100.435912641
 20
39.458856762
 30
0.0
  0
LINE
  5
30F
330
1B
100
AcDbEntity
 67
     1
  8
7_ALL_FEATURES
  6
Continuous
 62
     9
100
AcDbLine
 10
100.3600051059
 20
41.7102939898
 30
0.0
 11
100.4187842063
 21
41.7102939898
 31
0.0
  0
LINE
  5
310
330
1B
100
AcDbEntity
 67
     1
  8
7_ALL_FEATURES
  6
Continuous
 62
     9
100
AcDbLine
 10
100.3600051059
 20
60.3210850139
 30
0.0
 11
100.3600051059
 21
41.7102939898
 31
0.0
  0
LINE
  5
311
330
1B
100
AcDbEntity
 67
     1
  8
7_ALL_FEATURES
  6
Continuous
 62
     9
100
AcDbLine
 10
100.519932118
 20
62.3495827803
 30
0.0
 11
100.3600051059
 21
62.5495029658
 31
0.0
  0
LINE
  5
312
330
1B
100
AcDbEntity
 67
     1
  8
7_ALL_FEATURES
  6
Continuous
 62
     9
100
AcDbLine
 10
100.3600051059
 20
81.1602939898
 30
0.0
 11
100.3600051059
 21
62.5495029658
 31
0.0
  0
LINE
  5
313
330
1B
100
AcDbEntity
 67
     1
  8
7_ALL_FEATURES
  6
Continuous
 62
     9
100
AcDbLine
 10
100.3600051059
 20
81.1602939898
 30
0.0
 11
100.4187842063
 21
81.1602939898
 31
0.0
  0
SPLINE
  5
314
330
1B
100
AcDbEntity
 67
     1
  8
7_ALL_FEATURES
  6
Continuous
 62
     9
100
AcDbSpline
 70
     0
 71
     3
 72
     9
 73
     5
 74
     0
 42
0.000000001
 43
0.0000001
 40
0.0
 40
0.0
 40
0.0
 40
0.0
 40
0.2717503056
 40
1.0
 40
1.0
 40
1.0
 40
1.0
 10
100.4359127176
 20
83.4117637303
 30
0.0
 10
100.435791395
 20
83.2078112009
 30
0.0
 10
100.4334032358
 20
82.4572968199
 30
0.0
 10
100.4252014948
 20
81.7068183263
 30
0.0
 10
100.4187842063
 20
81.1602939898
 30
0.0
  0
LINE
  5
315
330
1B
100
AcDbEntity
 67
     1
  8
7_ALL_FEATURES
  6
Continuous
 62
     9
100
AcDbLine
 10
100.519932193
 20
83.4958638581
 30
0.0
 11
100.4359127176
 21
83.4117637303
 31
0.0
  0
LINE
  5
316
330
1B
100
AcDbEntity
 67
     1
  8
7_ALL_FEATURES
  6
Continuous
 62
     9
100
AcDbLine
 10
100.519932118
 20
62.3495827803
 30
0.0
 11
100.519932193
 21
83.4958638581
 31
0.0
  0
ARC
  5
317
330
1B
100
AcDbEntity
 67
     1
  8
7_ALL_FEATURES
  6
Continuous
 62
     9
100
AcDbCircle
 10
97.6845318583
 20
41.7102939898
 30
0.0
 40
2.734252348
100
AcDbArc
 50
270.0
 51
360.0
  0
ARC
  5
318
330
1B
100
AcDbEntity
 67
     1
  8
7_ALL_FEATURES
  6
Continuous
 62
     9
100
AcDbCircle
 10
97.6845318583
 20
41.7102939898
 30
0.0
 40
2.6754732476
100
AcDbArc
 50
270.0
 51
360.0
  0
LINE
  5
319
330
1B
100
AcDbEntity
 67
     1
  8
7_ALL_FEATURES
  6
Continuous
 62
     9
100
AcDbLine
 10
76.8453228823
 20
39.0348207423
 30
0.0
 11
77.0452431616
 21
38.8748936552
 31
0.0
  0
LINE
  5
31A
330
1B
100
AcDbEntity
 67
     1
  8
7_ALL_FEATURES
  6
Continuous
 62
     9
100
AcDbLine
 10
55.8989548403
 20
38.8748936552
 30
0.0
 11
77.0452431616
 21
38.8748936552
 31
0.0
  0
LINE
  5
31B
330
1B
100
AcDbEntity
 67
     1
  8
7_ALL_FEATURES
  6
Continuous
 62
     9
100
AcDbLine
 10
55.8989548403
 20
38.8748936552
 30
0.0
 11
55.9830946305
 21
38.9589132071
 31
0.0
  0
SPLINE
  5
31C
330
1B
100
AcDbEntity
 67
     1
  8
7_ALL_FEATURES
  6
Continuous
 62
     9
100
AcDbSpline
 70
     0
 71
     3
 72
     9
 73
     5
 74
     0
 42
0.000000001
 43
0.0000001
 40
0.0
 40
0.0
 40
0.0
 40
0.0
 40
0.2313753619
 40
1.0
 40
1.0
 40
1.0
 40
1.0
 10
58.2345318583
 20
38.9760416419
 30
0.0
 10
58.060896018
 20
38.9740067991
 30
0.0
 10
57.3104460864
 20
38.9652872119
 30
0.0
 10
56.5599491361
 20
38.959293735
 30
0.0
 10
55.9830946305
 20
38.9589132071
 30
0.0
  0
LINE
  5
31D
330
1B
100
AcDbEntity
 67
     1
  8
7_ALL_FEATURES
  6
Continuous
 62
     9
100
AcDbLine
 10
58.2345318583
 20
39.0348207423
 30
0.0
 11
58.2345318583
 21
38.9760416419
 31
0.0
  0
LINE
  5
31E
330
1B
100
AcDbEntity
 67
     1
  8
7_ALL_FEATURES
  6
Continuous
 62
     9
100
AcDbLine
 10
76.8453228823
 20
39.0348207423
 30
0.0
 11
58.2345318583
 21
39.0348207423
 31
0.0
  0
LINE
  5
31F
330
1B
100
AcDbEntity
 67
     1
  8
7_ALL_FEATURES
  6
Continuous
 62
     9
100
AcDbLine
 10
78.8738206488
 20
38.8748937302
 30
0.0
 11
79.0737408343
 21
39.0348207423
 31
0.0
  0
LINE
  5
320
330
1B
100
AcDbEntity
 67
     1
  8
7_ALL_FEATURES
  6
Continuous
 62
     9
100
AcDbLine
 10
97.6845318583
 20
39.0348207423
 30
0.0
 11
79.0737408343
 21
39.0348207423
 31
0.0
  0
LINE
  5
321
330
1B
100
AcDbEntity
 67
     1
  8
7_ALL_FEATURES
  6
Continuous
 62
     9
100
AcDbLine
 10
97.6845318583
 20
39.0348207423
 30
0.0
 11
97.6845318583
 21
38.9760416419
 31
0.0
  0
SPLINE
  5
322
330
1B
100
AcDbEntity
 67
     1
  8
7_ALL_FEATURES
  6
Continuous
 62
     9
100
AcDbSpline
 70
     0
 71
     3
 72
     9
 73
     5
 74
     0
 42
0.000000001
 43
0.0000001
 40
0.0
 40
0.0
 40
0.0
 40
0.0
 40
0.2717503056
 40
1.0
 40
1.0
 40
1.0
 40
1.0
 10
99.9360015988
 20
38.9589131306
 30
0.0
 10
99.7320490693
 20
38.9590344532
 30
0.0
 10
98.9815346884
 20
38.9614226123
 30
0.0
 10
98.2310561948
 20
38.9696243534
 30
0.0
 10
97.6845318583
 20
38.9760416419
 30
0.0
  0
LINE
  5
323
330
1B
100
AcDbEntity
 67
     1
  8
7_ALL_FEATURES
  6
Continuous
 62
     9
100
AcDbLine
 10
100.0201017266
 20
38.8748936552
 30
0.0
 11
99.9360015988
 21
38.9589131306
 31
0.0
  0
LINE
  5
324
330
1B
100
AcDbEntity
 67
     1
  8
7_ALL_FEATURES
  6
Continuous
 62
     9
100
AcDbLine
 10
78.8738206488
 20
38.8748937302
 30
0.0
 11
100.0201017266
 21
38.8748936552
 31
0.0
  0
ARC
  5
325
330
1B
100
AcDbEntity
 67
     1
  8
7_ALL_FEATURES
  6
Continuous
 62
     9
100
AcDbCircle
 10
58.2345318583
 20
41.7102939898
 30
0.0
 40
2.734252348
100
AcDbArc
 50
180.0
 51
270.0
  0
ARC
  5
326
330
1B
100
AcDbEntity
 67
     1
  8
7_ALL_FEATURES
  6
Continuous
 62
     9
100
AcDbCircle
 10
58.2345318583
 20
41.7102939898
 30
0.0
 40
2.6754732476
100
AcDbArc
 50
180.0
 51
270.0
  0
LINE
  5
327
330
1B
100
AcDbEntity
 67
     1
  8
7_ALL_FEATURES
  6
Continuous
 62
     9
100
AcDbLine
 10
55.3991315986
 20
60.5210051994
 30
0.0
 11
55.5590586108
 21
60.3210850139
 31
0.0
  0
LINE
  5
328
330
1B
100
AcDbEntity
 67
     1
  8
7_ALL_FEATURES
  6
Continuous
 62
     9
100
AcDbLine
 10
55.5590586108
 20
41.7102939898
 30
0.0
 11
55.5590586108
 21
60.3210850139
 31
0.0
  0
LINE
  5
329
330
1B
100
AcDbEntity
 67
     1
  8
7_ALL_FEATURES
  6
Continuous
 62
     9
100
AcDbLine
 10
55.5590586108
 20
41.7102939898
 30
0.0
 11
55.5002795104
 21
41.7102939898
 31
0.0
  0
SPLINE
  5
32A
330
1B
100
AcDbEntity
 67
     1
  8
7_ALL_FEATURES
  6
Continuous
 62
     9
100
AcDbSpline
 70
     0
 71
     3
 72
     9
 73
     5
 74
     0
 42
0.000000001
 43
0.0000001
 40
0.0
 40
0.0
 40
0.0
 40
0.0
 40
0.2717503056
 40
1.0
 40
1.0
 40
1.0
 40
1.0
 10
55.4831509991
 20
39.4588242494
 30
0.0
 10
55.4832723216
 20
39.6627767788
 30
0.0
 10
55.4856604808
 20
40.4132911598
 30
0.0
 10
55.4938622219
 20
41.1637696534
 30
0.0
 10
55.5002795104
 20
41.7102939898
 30
0.0
  0
LINE
  5
32B
330
1B
100
AcDbEntity
 67
     1
  8
7_ALL_FEATURES
  6
Continuous
 62
     9
100
AcDbLine
 10
55.3991315236
 20
39.3747241216
 30
0.0
 11
55.4831509991
 21
39.4588242494
 31
0.0
  0
LINE
  5
32C
330
1B
100
AcDbEntity
 67
     1
  8
7_ALL_FEATURES
  6
Continuous
 62
     9
100
AcDbLine
 10
55.3991315986
 20
60.5210051994
 30
0.0
 11
55.3991315236
 21
39.3747241216
 31
0.0
  0
LINE
  5
32D
330
1B
100
AcDbEntity
 67
     1
  8
7_ALL_FEATURES
  6
Continuous
 62
     9
100
AcDbLine
 10
55.5590586108
 20
62.5495029658
 30
0.0
 11
55.3991315236
 21
62.3495826866
 31
0.0
  0
LINE
  5
32E
330
1B
100
AcDbEntity
 67
     1
  8
7_ALL_FEATURES
  6
Continuous
 62
     9
100
AcDbLine
 10
55.3991315236
 20
83.4958710079
 30
0.0
 11
55.3991315236
 21
62.3495826866
 31
0.0
  0
LINE
  5
32F
330
1B
100
AcDbEntity
 67
     1
  8
7_ALL_FEATURES
  6
Continuous
 62
     9
100
AcDbLine
 10
55.3991315236
 20
83.4958710079
 30
0.0
 11
55.4831510756
 21
83.4117312177
 31
0.0
  0
SPLINE
  5
330
330
1B
100
AcDbEntity
 67
     1
  8
7_ALL_FEATURES
  6
Continuous
 62
     9
100
AcDbSpline
 70
     0
 71
     3
 72
     9
 73
     5
 74
     0
 42
0.000000001
 43
0.0000001
 40
0.0
 40
0.0
 40
0.0
 40
0.0
 40
0.2313753619
 40
1.0
 40
1.0
 40
1.0
 40
1.0
 10
55.5002795104
 20
81.1602939898
 30
0.0
 10
55.4982446675
 20
81.3339298302
 30
0.0
 10
55.4895250804
 20
82.0843797618
 30
0.0
 10
55.4835316035
 20
82.834876712
 30
0.0
 10
55.4831510756
 20
83.4117312177
 30
0.0
  0
LINE
  5
331
330
1B
100
AcDbEntity
 67
     1
  8
7_ALL_FEATURES
  6
Continuous
 62
     9
100
AcDbLine
 10
55.5590586108
 20
81.1602939898
 30
0.0
 11
55.5002795104
 21
81.1602939898
 31
0.0
  0
LINE
  5
332
330
1B
100
AcDbEntity
 67
     1
  8
7_ALL_FEATURES
  6
Continuous
 62
     9
100
AcDbLine
 10
55.5590586108
 20
62.5495029658
 30
0.0
 11
55.5590586108
 21
81.1602939898
 31
0.0
  0
ARC
  5
333
330
1B
100
AcDbEntity
 67
     1
  8
7_ALL_FEATURES
  6
Continuous
 62
     9
100
AcDbCircle
 10
58.2345318583
 20
81.1602939898
 30
0.0
 40
2.734252348
100
AcDbArc
 50
90.0
 51
180.0
  0
ARC
  5
334
330
1B
100
AcDbEntity
 67
     1
  8
7_ALL_FEATURES
  6
Continuous
 62
     9
100
AcDbCircle
 10
58.2345318583
 20
81.1602939898
 30
0.0
 40
2.6754732476
100
AcDbArc
 50
90.0
 51
180.0
  0
LINE
  5
335
330
1B
100
AcDbEntity
 67
     1
  8
7_ALL_FEATURES
  6
Continuous
 62
     9
100
AcDbLine
 10
99.8600812583
 20
60.3210850139
 30
0.0
 11
100.3600051059
 21
60.3210850139
 31
0.0
  0
LINE
  5
336
330
1B
100
AcDbEntity
 67
     1
  8
7_ALL_FEATURES
  6
Continuous
 62
     9
100
AcDbLine
 10
100.3600051059
 20
62.5495029658
 30
0.0
 11
99.8600812583
 21
62.5495029658
 31
0.0
  0
LINE
  5
337
330
1B
100
AcDbEntity
 67
     1
  8
7_ALL_FEATURES
  6
Continuous
 62
     9
100
AcDbLine
 10
99.8600812583
 20
81.1602939898
 30
0.0
 11
100.3600051059
 21
81.1602939898
 31
0.0
  0
LINE
  5
338
330
1B
100
AcDbEntity
 67
     1
  8
7_ALL_FEATURES
  6
Continuous
 62
     9
100
AcDbLine
 10
97.6845318583
 20
83.3358433898
 30
0.0
 11
97.6845318583
 21
83.8357672374
 31
0.0
  0
LINE
  5
339
330
1B
100
AcDbEntity
 67
     1
  8
7_ALL_FEATURES
  6
Continuous
 62
     9
100
AcDbLine
 10
76.8453228823
 20
83.8357672374
 30
0.0
 11
76.8453228823
 21
83.3358433898
 31
0.0
  0
LINE
  5
33A
330
1B
100
AcDbEntity
 67
     1
  8
7_ALL_FEATURES
  6
Continuous
 62
     9
100
AcDbLine
 10
58.2345318583
 20
83.3358433898
 30
0.0
 11
58.2345318583
 21
83.8357672374
 31
0.0
  0
LINE
  5
33B
330
1B
100
AcDbEntity
 67
     1
  8
7_ALL_FEATURES
  6
Continuous
 62
     9
100
AcDbLine
 10
79.0737408343
 20
83.3358433898
 30
0.0
 11
79.0737408343
 21
83.8357672374
 31
0.0
  0
LINE
  5
33C
330
1B
100
AcDbEntity
 67
     1
  8
7_ALL_FEATURES
  6
Continuous
 62
     9
100
AcDbLine
 10
56.0589824583
 20
81.1602939898
 30
0.0
 11
55.5590586108
 21
81.1602939898
 31
0.0
  0
LINE
  5
33D
330
1B
100
AcDbEntity
 67
     1
  8
7_ALL_FEATURES
  6
Continuous
 62
     9
100
AcDbLine
 10
55.5590586108
 20
60.3210850139
 30
0.0
 11
56.0589824583
 21
60.3210850139
 31
0.0
  0
LINE
  5
33E
330
1B
100
AcDbEntity
 67
     1
  8
7_ALL_FEATURES
  6
Continuous
 62
     9
100
AcDbLine
 10
56.0589824583
 20
41.7102939898
 30
0.0
 11
55.5590586108
 21
41.7102939898
 31
0.0
  0
LINE
  5
33F
330
1B
100
AcDbEntity
 67
     1
  8
7_ALL_FEATURES
  6
Continuous
 62
     9
100
AcDbLine
 10
56.0589824583
 20
62.5495029658
 30
0.0
 11
55.5590586108
 21
62.5495029658
 31
0.0
  0
LINE
  5
340
330
1B
100
AcDbEntity
 67
     1
  8
7_ALL_FEATURES
  6
Continuous
 62
     9
100
AcDbLine
 10
58.2345318583
 20
39.5347445899
 30
0.0
 11
58.2345318583
 21
39.0348207423
 31
0.0
  0
LINE
  5
341
330
1B
100
AcDbEntity
 67
     1
  8
7_ALL_FEATURES
  6
Continuous
 62
     9
100
AcDbLine
 10
76.8453228823
 20
39.5347445899
 30
0.0
 11
76.8453228823
 21
39.0348207423
 31
0.0
  0
LINE
  5
342
330
1B
100
AcDbEntity
 67
     1
  8
7_ALL_FEATURES
  6
Continuous
 62
     9
100
AcDbLine
 10
79.0737408343
 20
39.0348207423
 30
0.0
 11
79.0737408343
 21
39.5347445899
 31
0.0
  0
LINE
  5
343
330
1B
100
AcDbEntity
 67
     1
  8
7_ALL_FEATURES
  6
Continuous
 62
     9
100
AcDbLine
 10
97.6845318583
 20
39.5347445899
 30
0.0
 11
97.6845318583
 21
39.0348207423
 31
0.0
  0
LINE
  5
344
330
1B
100
AcDbEntity
 67
     1
  8
7_ALL_FEATURES
  6
Continuous
 62
     9
100
AcDbLine
 10
99.8600812583
 20
41.7102939898
 30
0.0
 11
100.3600051059
 21
41.7102939898
 31
0.0
  0
ARC
  5
345
330
1B
100
AcDbEntity
 67
     1
  8
7_ALL_FEATURES
  6
Continuous
 62
     9
100
AcDbCircle
 10
100.0201236903
 20
39.3747021566
 30
0.0
 40
0.4998062025
100
AcDbArc
 50
269.9974828335
 51
0.0016976339
  0
ARC
  5
346
330
1B
100
AcDbEntity
 67
     1
  8
7_ALL_FEATURES
  6
Continuous
 62
     9
100
AcDbCircle
 10
99.9357807218
 20
39.4590451227
 30
0.0
 40
0.500134808
100
AcDbArc
 50
270.0253000708
 51
359.9784151286
  0
ARC
  5
347
330
1B
100
AcDbEntity
 67
     1
  8
7_ALL_FEATURES
  6
Continuous
 62
     9
100
AcDbCircle
 10
55.8989400251
 20
39.3747021579
 30
0.0
 40
0.4998062025
100
AcDbArc
 50
179.9974828335
 51
270.0016976339
  0
ARC
  5
348
330
1B
100
AcDbEntity
 67
     1
  8
7_ALL_FEATURES
  6
Continuous
 62
     9
100
AcDbCircle
 10
55.9832829912
 20
39.4590451264
 30
0.0
 40
0.5001348081
100
AcDbArc
 50
180.0253000737
 51
269.9784151256999
  0
ARC
  5
349
330
1B
100
AcDbEntity
 67
     1
  8
7_ALL_FEATURES
  6
Continuous
 62
     9
100
AcDbCircle
 10
55.8989466037
 20
83.4958792456
 30
0.0
 40
0.4998142932
100
AcDbArc
 50
89.9982368522
 51
180.0009436152
  0
ARC
  5
34A
330
1B
100
AcDbEntity
 67
     1
  8
7_ALL_FEATURES
  6
Continuous
 62
     9
100
AcDbCircle
 10
55.9832829948
 20
83.4115428569
 30
0.0
 40
0.5001348081
100
AcDbArc
 50
90.02530007340002
 51
179.9784151261
  0
ARC
  5
34B
330
1B
100
AcDbEntity
 67
     1
  8
7_ALL_FEATURES
  6
Continuous
 62
     9
100
AcDbCircle
 10
100.0201171141
 20
83.4958792445
 30
0.0
 40
0.4998142932
100
AcDbArc
 50
359.9982368524
 51
90.000943615
  0
ARC
  5
34C
330
1B
100
AcDbEntity
 67
     1
  8
7_ALL_FEATURES
  6
Continuous
 62
     9
100
AcDbCircle
 10
99.9357807255
 20
83.4115428534
 30
0.0
 40
0.500134808
100
AcDbArc
 50
0.0253000632
 51
89.9784151363
  0
SPLINE
  5
34D
330
1B
100
AcDbEntity
 67
     1
  8
7_ALL_FEATURES
  6
Continuous
 62
     9
100
AcDbSpline
 70
     0
 71
     3
 72
    10
 73
     6
 74
     0
 42
0.000000001
 43
0.0000001
 40
0.0
 40
0.0
 40
0.0
 40
0.0
 40
0.504726679
 40
0.7528550174
 40
1.0
 40
1.0
 40
1.0
 40
1.0
 10
55.9653494078
 20
39.4411115393
 30
0.0
 10
55.8405764349
 20
39.8122034566
 30
0.0
 10
55.6574998396
 20
40.3686742093
 30
0.0
 10
55.5217763031
 20
41.1339328928
 30
0.0
 10
55.4993567645
 20
41.5185906328
 30
0.0
 10
55.5002795104
 20
41.7102939898
 30
0.0
  0
SPLINE
  5
34E
330
1B
100
AcDbEntity
 67
     1
  8
7_ALL_FEATURES
  6
Continuous
 62
     9
100
AcDbSpline
 70
     0
 71
     3
 72
    10
 73
     6
 74
     0
 42
0.000000001
 43
0.0000001
 40
0.0
 40
0.0
 40
0.0
 40
0.0
 40
0.2471402936
 40
0.495269687
 40
1.0
 40
1.0
 40
1.0
 40
1.0
 10
58.2345318583
 20
38.9760416419
 30
0.0
 10
58.0428321091
 20
38.9751225403
 30
0.0
 10
57.6581770064
 20
38.9975350359
 30
0.0
 10
56.892919009
 20
39.1332628535
 30
0.0
 10
56.3364395472
 20
39.3163243585
 30
0.0
 10
55.9653494078
 20
39.4411115393
 30
0.0
  0
SPLINE
  5
34F
330
1B
100
AcDbEntity
 67
     1
  8
7_ALL_FEATURES
  6
Continuous
 62
     9
100
AcDbSpline
 70
     0
 71
     3
 72
    10
 73
     6
 74
     0
 42
0.000000001
 43
0.0000001
 40
0.0
 40
0.0
 40
0.0
 40
0.0
 40
0.504726679
 40
0.7528550174
 40
1.0
 40
1.0
 40
1.0
 40
1.0
 10
99.9537143088
 20
39.4411115393
 30
0.0
 10
99.5826223916
 20
39.3163385664
 30
0.0
 10
99.0261516389
 20
39.1332619711
 30
0.0
 10
98.2608929553
 20
38.9975384346
 30
0.0
 10
97.8762352154
 20
38.975118896
 30
0.0
 10
97.6845318583
 20
38.9760416419
 30
0.0
  0
SPLINE
  5
350
330
1B
100
AcDbEntity
 67
     1
  8
7_ALL_FEATURES
  6
Continuous
 62
     9
100
AcDbSpline
 70
     0
 71
     3
 72
    10
 73
     6
 74
     0
 42
0.000000001
 43
0.0000001
 40
0.0
 40
0.0
 40
0.0
 40
0.0
 40
0.2471402936
 40
0.495269687
 40
1.0
 40
1.0
 40
1.0
 40
1.0
 10
100.4187842063
 20
41.7102939898
 30
0.0
 10
100.4197033079
 20
41.5185942407
 30
0.0
 10
100.3972908122
 20
41.1339391379
 30
0.0
 10
100.2615629947
 20
40.3686811405
 30
0.0
 10
100.0785014896
 20
39.8122016787
 30
0.0
 10
99.9537143088
 20
39.4411115393
 30
0.0
  0
SPLINE
  5
351
330
1B
100
AcDbEntity
 67
     1
  8
7_ALL_FEATURES
  6
Continuous
 62
     9
100
AcDbSpline
 70
     0
 71
     3
 72
    10
 73
     6
 74
     0
 42
0.000000001
 43
0.0000001
 40
0.0
 40
0.0
 40
0.0
 40
0.0
 40
0.504726679
 40
0.7528550174
 40
1.0
 40
1.0
 40
1.0
 40
1.0
 10
99.9537143088
 20
83.4294764404
 30
0.0
 10
100.0784872817
 20
83.0583845231
 30
0.0
 10
100.2615638771
 20
82.5019137704
 30
0.0
 10
100.3972874135
 20
81.7366550869
 30
0.0
 10
100.4197069521
 20
81.3519973469
 30
0.0
 10
100.4187842063
 20
81.1602939898
 30
0.0
  0
SPLINE
  5
352
330
1B
100
AcDbEntity
 67
     1
  8
7_ALL_FEATURES
  6
Continuous
 62
     9
100
AcDbSpline
 70
     0
 71
     3
 72
    10
 73
     6
 74
     0
 42
0.000000001
 43
0.0000001
 40
0.0
 40
0.0
 40
0.0
 40
0.0
 40
0.2471402936
 40
0.495269687
 40
1.0
 40
1.0
 40
1.0
 40
1.0
 10
97.6845318583
 20
83.8945463378
 30
0.0
 10
97.8762316075
 20
83.8954654394
 30
0.0
 10
98.2608867103
 20
83.8730529438
 30
0.0
 10
99.0261447076
 20
83.7373251262
 30
0.0
 10
99.5826241695
 20
83.5542636212
 30
0.0
 10
99.9537143088
 20
83.4294764404
 30
0.0
  0
SPLINE
  5
353
330
1B
100
AcDbEntity
 67
     1
  8
7_ALL_FEATURES
  6
Continuous
 62
     9
100
AcDbSpline
 70
     0
 71
     3
 72
    10
 73
     6
 74
     0
 42
0.000000001
 43
0.0000001
 40
0.0
 40
0.0
 40
0.0
 40
0.0
 40
0.504726679
 40
0.7528550174
 40
1.0
 40
1.0
 40
1.0
 40
1.0
 10
55.9653494078
 20
83.4294764404
 30
0.0
 10
56.336441325
 20
83.5542494133
 30
0.0
 10
56.8929120778
 20
83.7373260086
 30
0.0
 10
57.6581707613
 20
83.8730495451
 30
0.0
 10
58.0428285013
 20
83.8954690837
 30
0.0
 10
58.2345318583
 20
83.8945463378
 30
0.0
  0
SPLINE
  5
354
330
1B
100
AcDbEntity
 67
     1
  8
7_ALL_FEATURES
  6
Continuous
 62
     9
100
AcDbSpline
 70
     0
 71
     3
 72
    10
 73
     6
 74
     0
 42
0.000000001
 43
0.0000001
 40
0.0
 40
0.0
 40
0.0
 40
0.0
 40
0.2471402936
 40
0.495269687
 40
1.0
 40
1.0
 40
1.0
 40
1.0
 10
55.5002795104
 20
81.1602939898
 30
0.0
 10
55.4993604088
 20
81.351993739
 30
0.0
 10
55.5217729044
 20
81.7366488418
 30
0.0
 10
55.6575007219
 20
82.5019068392
 30
0.0
 10
55.840562227
 20
83.058386301
 30
0.0
 10
55.9653494078
 20
83.4294764404
 30
0.0
  0
SPLINE
  5
355
330
1B
100
AcDbEntity
 67
     1
  8
7_ALL_FEATURES
  6
Continuous
 62
     9
100
AcDbSpline
 70
     0
 71
     3
 72
    16
 73
    12
 74
     0
 42
0.000000001
 43
0.0000001
 40
0.0
 40
0.0
 40
0.0
 40
0.0
 40
0.1937522968
 40
0.3800497384
 40
0.5510616526
 40
0.7009021642
 40
0.8243379985
 40
0.9170355794
 40
0.9753998672
 40
0.9914091412
 40
1.0
 40
1.0
 40
1.0
 40
1.0
 10
99.9537143088
 20
39.4411115392
 30
0.0
 10
99.9523807563
 20
39.4098965137
 30
0.0
 10
99.9516671618
 20
39.3485928722
 30
0.0
 10
99.9524706918
 20
39.2597414883
 30
0.0
 10
99.9511747233
 20
39.1779500525
 30
0.0
 10
99.948553315
 20
39.1063841558
 30
0.0
 10
99.945516732
 20
39.0473542893
 30
0.0
 10
99.9428513163
 20
39.0033918428
 30
0.0
 10
99.9413573587
 20
38.9760915289
 30
0.0
 10
99.9397282539
 20
38.9632220387
 30
0.0
 10
99.9373370997
 20
38.9592314582
 30
0.0
 10
99.9359888446
 20
38.9589131606
 30
0.0
  0
SPLINE
  5
356
330
1B
100
AcDbEntity
 67
     1
  8
7_ALL_FEATURES
  6
Continuous
 62
     9
100
AcDbSpline
 70
     0
 71
     3
 72
    16
 73
    12
 74
     0
 42
0.000000001
 43
0.0000001
 40
0.0
 40
0.0
 40
0.0
 40
0.0
 40
0.1937517551
 40
0.3800485057
 40
0.5510598666
 40
0.7009000624
 40
0.8243357728
 40
0.9170332989
 40
0.9753976068
 40
0.991407242
 40
1.0
 40
1.0
 40
1.0
 40
1.0
 10
99.9537143088
 20
39.4411115392
 30
0.0
 10
99.984929343
 20
39.4424445347
 30
0.0
 10
100.0462329352
 20
39.443157023
 30
0.0
 10
100.1350842336
 20
39.442352439
 30
0.0
 10
100.2168755998
 20
39.4436480048
 30
0.0
 10
100.2884415621
 20
39.4462692302
 30
0.0
 10
100.3474713257
 20
39.4493061766
 30
0.0
 10
100.391434176
 20
39.4519718767
 30
0.0
 10
100.4187339736
 20
39.4534660031
 30
0.0
 10
100.4316044661
 20
39.4550957681
 30
0.0
 10
100.4355944703
 20
39.4574884063
 30
0.0
 10
100.4359126875
 20
39.4588369983
 30
0.0
  0
SPLINE
  5
357
330
1B
100
AcDbEntity
 67
     1
  8
7_ALL_FEATURES
  6
Continuous
 62
     9
100
AcDbSpline
 70
     0
 71
     3
 72
    16
 73
    12
 74
     0
 42
0.000000001
 43
0.0000001
 40
0.0
 40
0.0
 40
0.0
 40
0.0
 40
0.1937522968
 40
0.3800497384
 40
0.5510616526
 40
0.7009021642
 40
0.8243379985
 40
0.9170355794
 40
0.9753998672
 40
0.9914091412
 40
1.0
 40
1.0
 40
1.0
 40
1.0
 10
55.9653494077
 20
39.4411115393
 30
0.0
 10
55.9341343821
 20
39.4424450919
 30
0.0
 10
55.8728307407
 20
39.4431586864
 30
0.0
 10
55.7839793567
 20
39.4423551564
 30
0.0
 10
55.702187921
 20
39.4436511249
 30
0.0
 10
55.6306220243
 20
39.4462725332
 30
0.0
 10
55.5715921578
 20
39.4493091162
 30
0.0
 10
55.5276297113
 20
39.4519745319
 30
0.0
 10
55.5003293974
 20
39.4534684895
 30
0.0
 10
55.4874599071
 20
39.4550975942
 30
0.0
 10
55.4834693266
 20
39.4574887485
 30
0.0
 10
55.4831510291
 20
39.4588370035
 30
0.0
  0
SPLINE
  5
358
330
1B
100
AcDbEntity
 67
     1
  8
7_ALL_FEATURES
  6
Continuous
 62
     9
100
AcDbSpline
 70
     0
 71
     3
 72
    16
 73
    12
 74
     0
 42
0.000000001
 43
0.0000001
 40
0.0
 40
0.0
 40
0.0
 40
0.0
 40
0.1937517551
 40
0.3800485057
 40
0.5510598666
 40
0.7009000624
 40
0.8243357728
 40
0.9170332989
 40
0.9753976068
 40
0.991407242
 40
1.0
 40
1.0
 40
1.0
 40
1.0
 10
55.9653494077
 20
39.4411115393
 30
0.0
 10
55.9666824032
 20
39.4098965051
 30
0.0
 10
55.9673948915
 20
39.3485929129
 30
0.0
 10
55.9665903075
 20
39.2597416146
 30
0.0
 10
55.9678858732
 20
39.1779502484
 30
0.0
 10
55.9705070987
 20
39.1063842861
 30
0.0
 10
55.973544045
 20
39.0473545225
 30
0.0
 10
55.9762097452
 20
39.0033916722
 30
0.0
 10
55.9777038715
 20
38.9760918745
 30
0.0
 10
55.9793336365
 20
38.9632213821
 30
0.0
 10
55.9817262748
 20
38.9592313779
 30
0.0
 10
55.9830748667
 20
38.9589131606
 30
0.0
  0
SPLINE
  5
359
330
1B
100
AcDbEntity
 67
     1
  8
7_ALL_FEATURES
  6
Continuous
 62
     9
100
AcDbSpline
 70
     0
 71
     3
 72
    16
 73
    12
 74
     0
 42
0.000000001
 43
0.0000001
 40
0.0
 40
0.0
 40
0.0
 40
0.0
 40
0.1937522968
 40
0.3800497384
 40
0.5510616526
 40
0.7009021642
 40
0.8243379985
 40
0.9170355794
 40
0.9753998672
 40
0.9914091412
 40
1.0
 40
1.0
 40
1.0
 40
1.0
 10
55.9653494078
 20
83.4294764405
 30
0.0
 10
55.9666829603
 20
83.460691466
 30
0.0
 10
55.9673965548
 20
83.5219951075
 30
0.0
 10
55.9665930249
 20
83.6108464914
 30
0.0
 10
55.9678889933
 20
83.6926379272
 30
0.0
 10
55.9705104017
 20
83.7642038239
 30
0.0
 10
55.9735469847
 20
83.8232336904
 30
0.0
 10
55.9762124004
 20
83.8671961369
 30
0.0
 10
55.9777063579
 20
83.8944964508
 30
0.0
 10
55.9793354627
 20
83.907365941
 30
0.0
 10
55.9817266169
 20
83.9113565215
 30
0.0
 10
55.983074872
 20
83.9116748191
 30
0.0
  0
SPLINE
  5
35A
330
1B
100
AcDbEntity
 67
     1
  8
7_ALL_FEATURES
  6
Continuous
 62
     9
100
AcDbSpline
 70
     0
 71
     3
 72
    16
 73
    12
 74
     0
 42
0.000000001
 43
0.0000001
 40
0.0
 40
0.0
 40
0.0
 40
0.0
 40
0.1937517551
 40
0.3800485057
 40
0.5510598666
 40
0.7009000624
 40
0.8243357728
 40
0.9170332989
 40
0.9753976068
 40
0.991407242
 40
1.0
 40
1.0
 40
1.0
 40
1.0
 10
55.9653494078
 20
83.4294764405
 30
0.0
 10
55.9341343736
 20
83.428143445
 30
0.0
 10
55.8728307814
 20
83.4274309567
 30
0.0
 10
55.783979483
 20
83.4282355407
 30
0.0
 10
55.7021881169
 20
83.4269399749
 30
0.0
 10
55.6306221545
 20
83.4243187495
 30
0.0
 10
55.571592391
 20
83.4212818031
 30
0.0
 10
55.5276295406
 20
83.418616103
 30
0.0
 10
55.500329743
 20
83.4171219766
 30
0.0
 10
55.4874592506
 20
83.4154922116
 30
0.0
 10
55.4834692463
 20
83.4130995734
 30
0.0
 10
55.4831510291
 20
83.4117509814
 30
0.0
  0
SPLINE
  5
35B
330
1B
100
AcDbEntity
 67
     1
  8
7_ALL_FEATURES
  6
Continuous
 62
     9
100
AcDbSpline
 70
     0
 71
     3
 72
    16
 73
    12
 74
     0
 42
0.000000001
 43
0.0000001
 40
0.0
 40
0.0
 40
0.0
 40
0.0
 40
0.1937522968
 40
0.3800497384
 40
0.5510616526
 40
0.7009021642
 40
0.8243379985
 40
0.9170355794
 40
0.9753998672
 40
0.9914091412
 40
1.0
 40
1.0
 40
1.0
 40
1.0
 10
99.9537143089
 20
83.4294764404
 30
0.0
 10
99.9849293345
 20
83.4281428878
 30
0.0
 10
100.0462329759
 20
83.4274292933
 30
0.0
 10
100.1350843599
 20
83.4282328233
 30
0.0
 10
100.2168757957
 20
83.4269368548
 30
0.0
 10
100.2884416923
 20
83.4243154465
 30
0.0
 10
100.3474715588
 20
83.4212788635
 30
0.0
 10
100.3914340053
 20
83.4186134478
 30
0.0
 10
100.4187343192
 20
83.4171194902
 30
0.0
 10
100.4316038095
 20
83.4154903855
 30
0.0
 10
100.43559439
 20
83.4130992312
 30
0.0
 10
100.4359126875
 20
83.4117509762
 30
0.0
  0
SPLINE
  5
35C
330
1B
100
AcDbEntity
 67
     1
  8
7_ALL_FEATURES
  6
Continuous
 62
     9
100
AcDbSpline
 70
     0
 71
     3
 72
    16
 73
    12
 74
     0
 42
0.000000001
 43
0.0000001
 40
0.0
 40
0.0
 40
0.0
 40
0.0
 40
0.1937517551
 40
0.3800485057
 40
0.5510598666
 40
0.7009000624
 40
0.8243357728
 40
0.9170332989
 40
0.9753976068
 40
0.991407242
 40
1.0
 40
1.0
 40
1.0
 40
1.0
 10
99.9537143089
 20
83.4294764404
 30
0.0
 10
99.9523813135
 20
83.4606914746
 30
0.0
 10
99.9516688252
 20
83.5219950668
 30
0.0
 10
99.9524734092
 20
83.6108463651
 30
0.0
 10
99.9511778434
 20
83.6926377313
 30
0.0
 10
99.9485566179
 20
83.7642036936
 30
0.0
 10
99.9455196716
 20
83.8232334572
 30
0.0
 10
99.9428539714
 20
83.8671963075
 30
0.0
 10
99.9413598451
 20
83.8944961052
 30
0.0
 10
99.9397300801
 20
83.9073665976
 30
0.0
 10
99.9373374419
 20
83.9113566018
 30
0.0
 10
99.9359888499
 20
83.9116748191
 30
0.0
  0
LINE
  5
35D
330
1B
100
AcDbEntity
 67
     1
  8
7_ALL_FEATURES
  6
Continuous
 62
     9
100
AcDbLine
 10
55.3991315236
 20
39.3748175028
 30
0.0
 11
55.1991619856
 21
39.3748175008
 31
0.0
  0
SPLINE
  5
35E
330
1B
100
AcDbEntity
 67
     1
  8
7_ALL_FEATURES
  6
Continuous
 62
     9
100
AcDbSpline
 70
     0
 71
     3
 72
    14
 73
    10
 74
     0
 42
0.000000001
 43
0.0000001
 40
0.0
 40
0.0
 40
0.0
 40
0.0
 40
0.0263319945
 40
0.0862629323
 40
0.1796669669
 40
0.3035198621
 40
0.4533986021
 40
0.6237435811
 40
1.0
 40
1.0
 40
1.0
 40
1.0
 10
77.0452431616
 20
38.8748936552
 30
0.0
 10
77.0469668684
 20
38.8744947084
 30
0.0
 10
77.0491076427
 20
38.8676514555
 30
0.0
 10
77.0515836013
 20
38.8569500819
 30
0.0
 10
77.0539565321
 20
38.8378844113
 30
0.0
 10
77.0561054078
 20
38.8135457385
 30
0.0
 10
77.0579395167
 20
38.7836753446
 30
0.0
 10
77.0596325281
 20
38.7369435608
 30
0.0
 10
77.06053077
 20
38.7002051472
 30
0.0
 10
77.0605325482
 20
38.6749241161
 30
0.0
  0
LINE
  5
35F
330
1B
100
AcDbEntity
 67
     1
  8
7_ALL_FEATURES
  6
Continuous
 62
     9
100
AcDbLine
 10
55.8990553712
 20
38.8748936552
 30
0.0
 11
55.8990553712
 21
38.6749241161
 31
0.0
  0
SPLINE
  5
360
330
1B
100
AcDbEntity
 67
     1
  8
7_ALL_FEATURES
  6
Continuous
 62
     9
100
AcDbSpline
 70
     0
 71
     3
 72
    14
 73
    10
 74
     0
 42
0.000000001
 43
0.0000001
 40
0.0
 40
0.0
 40
0.0
 40
0.0
 40
0.376333065
 40
0.5466745149
 40
0.6965450135
 40
0.8203711486
 40
0.9137443017
 40
0.9736728139
 40
1.0
 40
1.0
 40
1.0
 40
1.0
 10
78.85881353
 20
38.6749692172
 30
0.0
 10
78.8588137219
 20
38.7002492111
 30
0.0
 10
78.8593205291
 20
38.7369912145
 30
0.0
 10
78.8611623852
 20
38.7837110356
 30
0.0
 10
78.8629433761
 20
38.8135746434
 30
0.0
 10
78.8651065873
 20
38.8379005331
 30
0.0
 10
78.8674737476
 20
38.8569614455
 30
0.0
 10
78.8699615873
 20
38.8676489762
 30
0.0
 10
78.8720971818
 20
38.8744981099
 30
0.0
 10
78.8738208796
 20
38.8748937301
 30
0.0
  0
LINE
  5
361
330
1B
100
AcDbEntity
 67
     1
  8
7_ALL_FEATURES
  6
Continuous
 62
     9
100
AcDbLine
 10
100.0200083454
 20
38.8748936552
 30
0.0
 11
100.0200083474
 21
38.6749241171
 31
0.0
  0
SPLINE
  5
362
330
1B
100
AcDbEntity
 67
     1
  8
7_ALL_FEATURES
  6
Continuous
 62
     9
100
AcDbSpline
 70
     0
 71
     3
 72
    14
 73
    10
 74
     0
 42
0.000000001
 43
0.0000001
 40
0.0
 40
0.0
 40
0.0
 40
0.0
 40
0.0263319945
 40
0.0862629323
 40
0.1796669669
 40
0.3035198621
 40
0.4533986021
 40
0.6237435811
 40
1.0
 40
1.0
 40
1.0
 40
1.0
 10
100.519932193
 20
60.5210052931
 30
0.0
 10
100.5203311398
 20
60.5227289999
 30
0.0
 10
100.5271743926
 20
60.5248697742
 30
0.0
 10
100.5378757662
 20
60.5273457328
 30
0.0
 10
100.5569414369
 20
60.5297186637
 30
0.0
 10
100.5812801097
 20
60.5318675393
 30
0.0
 10
100.6111505036
 20
60.5337016482
 30
0.0
 10
100.6578822873
 20
60.5353946596
 30
0.0
 10
100.694620701
 20
60.5362929015
 30
0.0
 10
100.719901732
 20
60.5362946797
 30
0.0
  0
LINE
  5
363
330
1B
100
AcDbEntity
 67
     1
  8
7_ALL_FEATURES
  6
Continuous
 62
     9
100
AcDbLine
 10
100.519932193
 20
39.3748175028
 30
0.0
 11
100.719901732
 21
39.3748175028
 31
0.0
  0
SPLINE
  5
364
330
1B
100
AcDbEntity
 67
     1
  8
7_ALL_FEATURES
  6
Continuous
 62
     9
100
AcDbSpline
 70
     0
 71
     3
 72
    14
 73
    10
 74
     0
 42
0.000000001
 43
0.0000001
 40
0.0
 40
0.0
 40
0.0
 40
0.0
 40
0.376333065
 40
0.5466745149
 40
0.6965450135
 40
0.8203711486
 40
0.9137443017
 40
0.9736728139
 40
1.0
 40
1.0
 40
1.0
 40
1.0
 10
100.719856631
 20
62.3345756615
 30
0.0
 10
100.6945766371
 20
62.3345758534
 30
0.0
 10
100.6578346337
 20
62.3350826607
 30
0.0
 10
100.6111148126
 20
62.3369245167
 30
0.0
 10
100.5812512048
 20
62.3387055077
 30
0.0
 10
100.556925315
 20
62.3408687188
 30
0.0
 10
100.5378644027
 20
62.3432358791
 30
0.0
 10
100.527176872
 20
62.3457237188
 30
0.0
 10
100.5203277383
 20
62.3478593134
 30
0.0
 10
100.519932118
 20
62.3495830111
 30
0.0
  0
LINE
  5
365
330
1B
100
AcDbEntity
 67
     1
  8
7_ALL_FEATURES
  6
Continuous
 62
     9
100
AcDbLine
 10
100.519932193
 20
83.4957704769
 30
0.0
 11
100.719901731
 21
83.4957704789
 31
0.0
  0
SPLINE
  5
366
330
1B
100
AcDbEntity
 67
     1
  8
7_ALL_FEATURES
  6
Continuous
 62
     9
100
AcDbSpline
 70
     0
 71
     3
 72
    14
 73
    10
 74
     0
 42
0.000000001
 43
0.0000001
 40
0.0
 40
0.0
 40
0.0
 40
0.0
 40
0.376333065
 40
0.5466745149
 40
0.6965450135
 40
0.8203711486
 40
0.9137443017
 40
0.9736728139
 40
1.0
 40
1.0
 40
1.0
 40
1.0
 10
77.0602501866
 20
84.1956187625
 30
0.0
 10
77.0602499948
 20
84.1703387686
 30
0.0
 10
77.0597431875
 20
84.1335967652
 30
0.0
 10
77.0579013315
 20
84.0868769441
 30
0.0
 10
77.0561203405
 20
84.0570133363
 30
0.0
 10
77.0539571294
 20
84.0326874466
 30
0.0
 10
77.051589969
 20
84.0136265342
 30
0.0
 10
77.0491021293
 20
84.0029390035
 30
0.0
 10
77.0469665348
 20
83.9960898698
 30
0.0
 10
77.045242837
 20
83.9956942496
 30
0.0
  0
SPLINE
  5
367
330
1B
100
AcDbEntity
 67
     1
  8
7_ALL_FEATURES
  6
Continuous
 62
     9
100
AcDbSpline
 70
     0
 71
     3
 72
    14
 73
    10
 74
     0
 42
0.000000001
 43
0.0000001
 40
0.0
 40
0.0
 40
0.0
 40
0.0
 40
0.0263319945
 40
0.0862629323
 40
0.1796669669
 40
0.3035198621
 40
0.4533986021
 40
0.6237435811
 40
1.0
 40
1.0
 40
1.0
 40
1.0
 10
78.873820555
 20
83.9956943245
 30
0.0
 10
78.8720968483
 20
83.9960932713
 30
0.0
 10
78.8699560739
 20
84.0029365242
 30
0.0
 10
78.8674801153
 20
84.0136378978
 30
0.0
 10
78.8651071845
 20
84.0327035684
 30
0.0
 10
78.8629583088
 20
84.0570422412
 30
0.0
 10
78.8611242
 20
84.0869126351
 30
0.0
 10
78.8594311886
 20
84.1336444189
 30
0.0
 10
78.8585329466
 20
84.1703828325
 30
0.0
 10
78.8585311684
 20
84.1956638636
 30
0.0
  0
LINE
  5
368
330
1B
100
AcDbEntity
 67
     1
  8
7_ALL_FEATURES
  6
Continuous
 62
     9
100
AcDbLine
 10
100.0200083454
 20
83.9956943245
 30
0.0
 11
100.0200083454
 21
84.1956638636
 31
0.0
  0
LINE
  5
369
330
1B
100
AcDbEntity
 67
     1
  8
7_ALL_FEATURES
  6
Continuous
 62
     9
100
AcDbLine
 10
55.8990553712
 20
83.9956943245
 30
0.0
 11
55.8990553693
 21
84.1956638626
 31
0.0
  0
SPLINE
  5
36A
330
1B
100
AcDbEntity
 67
     1
  8
7_ALL_FEATURES
  6
Continuous
 62
     9
100
AcDbSpline
 70
     0
 71
     3
 72
    14
 73
    10
 74
     0
 42
0.000000001
 43
0.0000001
 40
0.0
 40
0.0
 40
0.0
 40
0.0
 40
0.376333065
 40
0.5466745149
 40
0.6965450135
 40
0.8203711486
 40
0.9137443017
 40
0.9736728139
 40
1.0
 40
1.0
 40
1.0
 40
1.0
 10
55.1992070856
 20
60.5360123182
 30
0.0
 10
55.2244870796
 20
60.5360121263
 30
0.0
 10
55.2612290829
 20
60.535505319
 30
0.0
 10
55.3079489041
 20
60.533663463
 30
0.0
 10
55.3378125119
 20
60.531882472
 30
0.0
 10
55.3621384016
 20
60.5297192609
 30
0.0
 10
55.3811993139
 20
60.5273521006
 30
0.0
 10
55.3918868446
 20
60.5248642609
 30
0.0
 10
55.3987359784
 20
60.5227286663
 30
0.0
 10
55.3991315986
 20
60.5210049686
 30
0.0
  0
SPLINE
  5
36B
330
1B
100
AcDbEntity
 67
     1
  8
7_ALL_FEATURES
  6
Continuous
 62
     9
100
AcDbSpline
 70
     0
 71
     3
 72
    14
 73
    10
 74
     0
 42
0.000000001
 43
0.0000001
 40
0.0
 40
0.0
 40
0.0
 40
0.0
 40
0.0263319945
 40
0.0862629323
 40
0.1796669669
 40
0.3035198621
 40
0.4533986021
 40
0.6237435811
 40
1.0
 40
1.0
 40
1.0
 40
1.0
 10
55.3991315236
 20
62.3495826866
 30
0.0
 10
55.3987325768
 20
62.3478589798
 30
0.0
 10
55.391889324
 20
62.3457182055
 30
0.0
 10
55.3811879504
 20
62.3432422469
 30
0.0
 10
55.3621222797
 20
62.340869316
 30
0.0
 10
55.3377836069
 20
62.3387204404
 30
0.0
 10
55.307913213
 20
62.3368863315
 30
0.0
 10
55.2611814293
 20
62.3351933201
 30
0.0
 10
55.2244430157
 20
62.3342950782
 30
0.0
 10
55.1991619846
 20
62.3342933
 30
0.0
  0
LINE
  5
36C
330
1B
100
AcDbEntity
 67
     1
  8
7_ALL_FEATURES
  6
Continuous
 62
     9
100
AcDbLine
 10
55.3991315236
 20
83.4957704769
 30
0.0
 11
55.1991619846
 21
83.4957704769
 31
0.0
  0
SPLINE
  5
36D
330
1B
100
AcDbEntity
 67
     1
  8
7_ALL_FEATURES
  6
Continuous
 62
     9
100
AcDbSpline
 70
     0
 71
     3
 72
    12
 73
     8
 74
     0
 42
0.000000001
 43
0.0000001
 40
0.0
 40
0.0
 40
0.0
 40
0.0
 40
0.2498954388
 40
0.4996718735
 40
0.749422914
 40
0.8747065913
 40
1.0
 40
1.0
 40
1.0
 40
1.0
 10
100.0228557268
 20
61.6986035325
 30
0.0
 10
100.1077581081
 20
61.6985700965
 30
0.0
 10
100.2793023841
 20
61.7325248701
 30
0.0
 10
100.4969523433
 20
61.8760175121
 30
0.0
 10
100.621692786
 20
62.0534929478
 30
0.0
 10
100.6850144255
 20
62.2115649479
 30
0.0
 10
100.7085082755
 20
62.2934802202
 30
0.0
 10
100.7198566309
 20
62.3345083101
 30
0.0
  0
LINE
  5
36E
330
1B
100
AcDbEntity
 67
     1
  8
7_ALL_FEATURES
  6
Continuous
 62
     9
100
AcDbLine
 10
100.7198566309
 20
62.3345083101
 30
0.0
 11
100.719901732
 21
83.4957704769
 31
0.0
  0
ARC
  5
36F
330
1B
100
AcDbEntity
 67
     1
  8
7_ALL_FEATURES
  6
Continuous
 62
     9
100
AcDbCircle
 10
100.0200144675
 20
83.4957773767
 30
0.0
 40
0.6998857922
100
AcDbArc
 50
359.9994351537001
 51
90.00050118280001
  0
LINE
  5
370
330
1B
100
AcDbEntity
 67
     1
  8
7_ALL_FEATURES
  6
Continuous
 62
     9
100
AcDbLine
 10
100.0200083454
 20
84.1956638636
 30
0.0
 11
78.8588130697
 21
84.1956638636
 31
0.0
  0
SPLINE
  5
371
330
1B
100
AcDbEntity
 67
     1
  8
7_ALL_FEATURES
  6
Continuous
 62
     9
100
AcDbSpline
 70
     0
 71
     3
 72
    12
 73
     8
 74
     0
 42
0.000000001
 43
0.0000001
 40
0.0
 40
0.0
 40
0.0
 40
0.0
 40
0.1253755603
 40
0.2507377703
 40
0.5006282308
 40
0.7504135086
 40
1.0
 40
1.0
 40
1.0
 40
1.0
 10
78.8588130697
 20
84.1956638636
 30
0.0
 10
78.8177722485
 20
84.1842454335
 30
0.0
 10
78.7357857778
 20
84.1607865442
 30
0.0
 10
78.5776046514
 20
84.0974143918
 30
0.0
 10
78.4000949055
 20
83.9725577013
 30
0.0
 10
78.2566850697
 20
83.7548788061
 30
0.0
 10
78.2228544882
 20
83.5834277642
 30
0.0
 10
78.2228497468
 20
83.4986241925
 30
0.0
  0
LINE
  5
372
330
1B
100
AcDbEntity
 67
     1
  8
7_ALL_FEATURES
  6
Continuous
 62
     9
100
AcDbLine
 10
78.2228497468
 20
83.4986241925
 30
0.0
 11
78.2228414009
 21
62.3484488501
 31
0.0
  0
ARC
  5
373
330
1B
100
AcDbEntity
 67
     1
  8
7_ALL_FEATURES
  6
Continuous
 62
     9
100
AcDbCircle
 10
78.8727258026
 20
62.3484883744
 30
0.0
 40
0.6498880103
100
AcDbArc
 50
180.0034845847
 51
269.9965542301
  0
LINE
  5
374
330
1B
100
AcDbEntity
 67
     1
  8
7_ALL_FEATURES
  6
Continuous
 62
     9
100
AcDbLine
 10
78.8726867185
 20
61.6986035325
 30
0.0
 11
100.0228557268
 21
61.6986035325
 31
0.0
  0
LINE
  5
375
330
1B
100
AcDbEntity
 67
     1
  8
7_ALL_FEATURES
  6
Continuous
 62
     9
100
AcDbLine
 10
100.0228376847
 20
61.0220198343
 30
0.0
 11
78.8726867185
 21
61.0220201432
 31
0.0
  0
SPLINE
  5
376
330
1B
100
AcDbEntity
 67
     1
  8
7_ALL_FEATURES
  6
Continuous
 62
     9
100
AcDbSpline
 70
     0
 71
     3
 72
     9
 73
     5
 74
     0
 42
0.000000001
 43
0.0000001
 40
0.0
 40
0.0
 40
0.0
 40
0.0
 40
0.1472002137
 40
1.0
 40
1.0
 40
1.0
 40
1.0
 10
100.0200083454
 20
61.0208863067
 30
0.0
 10
100.0201030108
 20
61.0210035381
 30
0.0
 10
100.0209666344
 20
61.0215941572
 30
0.0
 10
100.021987929
 20
61.0218198762
 30
0.0
 10
100.0228376847
 20
61.0220198343
 30
0.0
  0
LINE
  5
377
330
1B
100
AcDbEntity
 67
     1
  8
7_ALL_FEATURES
  6
Continuous
 62
     9
100
AcDbLine
 10
99.8600812583
 20
60.8209660274
 30
0.0
 11
100.0200083454
 21
61.0208863067
 31
0.0
  0
LINE
  5
378
330
1B
100
AcDbEntity
 67
     1
  8
7_ALL_FEATURES
  6
Continuous
 62
     9
100
AcDbLine
 10
79.0737408343
 20
60.8209660274
 30
0.0
 11
99.8600812583
 21
60.8209660274
 31
0.0
  0
LINE
  5
379
330
1B
100
AcDbEntity
 67
     1
  8
7_ALL_FEATURES
  6
Continuous
 62
     9
100
AcDbLine
 10
79.0737408343
 20
60.8209660274
 30
0.0
 11
78.8726867185
 21
61.0220201432
 31
0.0
  0
LINE
  5
37A
330
1B
100
AcDbEntity
 67
     1
  8
7_ALL_FEATURES
  6
Continuous
 62
     9
100
AcDbLine
 10
77.0463769981
 20
61.0220201432
 30
0.0
 11
55.8962079784
 21
61.0220201432
 31
0.0
  0
LINE
  5
37B
330
1B
100
AcDbEntity
 67
     1
  8
7_ALL_FEATURES
  6
Continuous
 62
     9
100
AcDbLine
 10
77.0463769981
 20
61.0220201432
 30
0.0
 11
76.8453228823
 21
60.8209660274
 31
0.0
  0
LINE
  5
37C
330
1B
100
AcDbEntity
 67
     1
  8
7_ALL_FEATURES
  6
Continuous
 62
     9
100
AcDbLine
 10
56.0589824583
 20
60.8209660274
 30
0.0
 11
76.8453228823
 21
60.8209660274
 31
0.0
  0
LINE
  5
37D
330
1B
100
AcDbEntity
 67
     1
  8
7_ALL_FEATURES
  6
Continuous
 62
     9
100
AcDbLine
 10
55.8990553712
 20
61.0208863067
 30
0.0
 11
56.0589824583
 21
60.8209660274
 31
0.0
  0
SPLINE
  5
37E
330
1B
100
AcDbEntity
 67
     1
  8
7_ALL_FEATURES
  6
Continuous
 62
     9
100
AcDbSpline
 70
     0
 71
     3
 72
     9
 73
     5
 74
     0
 42
0.000000001
 43
0.0000001
 40
0.0
 40
0.0
 40
0.0
 40
0.0
 40
0.3613531011
 40
1.0
 40
1.0
 40
1.0
 40
1.0
 10
55.8962079784
 20
61.0220201432
 30
0.0
 10
55.8965687477
 20
61.021934859
 30
0.0
 10
55.8975296432
 20
61.0216584369
 30
0.0
 10
55.8986461745
 20
61.0213980002
 30
0.0
 10
55.8990553712
 20
61.0208863067
 30
0.0
  0
LINE
  5
37F
330
1B
100
AcDbEntity
 67
     1
  8
7_ALL_FEATURES
  6
Continuous
 62
     9
100
AcDbLine
 10
78.8726867185
 20
61.8485678365
 30
0.0
 11
100.0228557382
 21
61.8485678365
 31
0.0
  0
LINE
  5
380
330
1B
100
AcDbEntity
 67
     1
  8
7_ALL_FEATURES
  6
Continuous
 62
     9
100
AcDbLine
 10
78.8726867185
 20
61.8485678365
 30
0.0
 11
79.0737408343
 21
62.0496219523
 31
0.0
  0
LINE
  5
381
330
1B
100
AcDbEntity
 67
     1
  8
7_ALL_FEATURES
  6
Continuous
 62
     9
100
AcDbLine
 10
99.8600812583
 20
62.0496219523
 30
0.0
 11
79.0737408343
 21
62.0496219523
 31
0.0
  0
LINE
  5
382
330
1B
100
AcDbEntity
 67
     1
  8
7_ALL_FEATURES
  6
Continuous
 62
     9
100
AcDbLine
 10
100.0200083454
 20
61.849701673
 30
0.0
 11
99.8600812583
 21
62.0496219523
 31
0.0
  0
SPLINE
  5
383
330
1B
100
AcDbEntity
 67
     1
  8
7_ALL_FEATURES
  6
Continuous
 62
     9
100
AcDbSpline
 70
     0
 71
     3
 72
     9
 73
     5
 74
     0
 42
0.000000001
 43
0.0000001
 40
0.0
 40
0.0
 40
0.0
 40
0.0
 40
0.3613531011
 40
1.0
 40
1.0
 40
1.0
 40
1.0
 10
100.0228557382
 20
61.8485678365
 30
0.0
 10
100.022494969
 20
61.8486531207
 30
0.0
 10
100.0215340735
 20
61.8489295428
 30
0.0
 10
100.0204175421
 20
61.8491899795
 30
0.0
 10
100.0200083454
 20
61.849701673
 30
0.0
  0
LINE
  5
384
330
1B
100
AcDbEntity
 67
     1
  8
7_ALL_FEATURES
  6
Continuous
 62
     9
100
AcDbLine
 10
55.8962260319
 20
61.8485681454
 30
0.0
 11
77.0463769981
 21
61.8485678365
 31
0.0
  0
SPLINE
  5
385
330
1B
100
AcDbEntity
 67
     1
  8
7_ALL_FEATURES
  6
Continuous
 62
     9
100
AcDbSpline
 70
     0
 71
     3
 72
     9
 73
     5
 74
     0
 42
0.000000001
 43
0.0000001
 40
0.0
 40
0.0
 40
0.0
 40
0.0
 40
0.1472002137
 40
1.0
 40
1.0
 40
1.0
 40
1.0
 10
55.8990553712
 20
61.849701673
 30
0.0
 10
55.8989607058
 20
61.8495844416
 30
0.0
 10
55.8980970822
 20
61.8489938225
 30
0.0
 10
55.8970757876
 20
61.8487681035
 30
0.0
 10
55.8962260319
 20
61.8485681454
 30
0.0
  0
LINE
  5
386
330
1B
100
AcDbEntity
 67
     1
  8
7_ALL_FEATURES
  6
Continuous
 62
     9
100
AcDbLine
 10
56.0589824583
 20
62.0496219523
 30
0.0
 11
55.8990553712
 21
61.849701673
 31
0.0
  0
LINE
  5
387
330
1B
100
AcDbEntity
 67
     1
  8
7_ALL_FEATURES
  6
Continuous
 62
     9
100
AcDbLine
 10
76.8453228823
 20
62.0496219523
 30
0.0
 11
56.0589824583
 21
62.0496219523
 31
0.0
  0
LINE
  5
388
330
1B
100
AcDbEntity
 67
     1
  8
7_ALL_FEATURES
  6
Continuous
 62
     9
100
AcDbLine
 10
76.8453228823
 20
62.0496219523
 30
0.0
 11
77.0463769981
 21
61.8485678365
 31
0.0
  0
LINE
  5
389
330
1B
100
AcDbEntity
 67
     1
  8
7_ALL_FEATURES
  6
Continuous
 62
     9
100
AcDbLine
 10
77.5462577028
 20
39.3719881635
 30
0.0
 11
77.5462580116
 21
60.5222327583
 31
0.0
  0
SPLINE
  5
38A
330
1B
100
AcDbEntity
 67
     1
  8
7_ALL_FEATURES
  6
Continuous
 62
     9
100
AcDbSpline
 70
     0
 71
     3
 72
     9
 73
     5
 74
     0
 42
0.000000001
 43
0.0000001
 40
0.0
 40
0.0
 40
0.0
 40
0.0
 40
0.1472002137
 40
1.0
 40
1.0
 40
1.0
 40
1.0
 10
77.5451241751
 20
39.3748175028
 30
0.0
 10
77.5452414065
 20
39.3747228374
 30
0.0
 10
77.5458320256
 20
39.3738592137
 30
0.0
 10
77.5460577447
 20
39.3728379192
 30
0.0
 10
77.5462577028
 20
39.3719881635
 30
0.0
  0
LINE
  5
38B
330
1B
100
AcDbEntity
 67
     1
  8
7_ALL_FEATURES
  6
Continuous
 62
     9
100
AcDbLine
 10
77.3452038959
 20
39.5347445899
 30
0.0
 11
77.5451241751
 21
39.3748175028
 31
0.0
  0
LINE
  5
38C
330
1B
100
AcDbEntity
 67
     1
  8
7_ALL_FEATURES
  6
Continuous
 62
     9
100
AcDbLine
 10
77.3452038959
 20
60.3210850139
 30
0.0
 11
77.3452038959
 21
39.5347445899
 31
0.0
  0
LINE
  5
38D
330
1B
100
AcDbEntity
 67
     1
  8
7_ALL_FEATURES
  6
Continuous
 62
     9
100
AcDbLine
 10
77.5462580116
 20
60.5222327583
 30
0.0
 11
77.3452038959
 21
60.3210850139
 31
0.0
  0
LINE
  5
38E
330
1B
100
AcDbEntity
 67
     1
  8
7_ALL_FEATURES
  6
Continuous
 62
     9
100
AcDbLine
 10
77.5462580116
 20
62.3483540955
 30
0.0
 11
77.5462580116
 21
83.4986178698
 31
0.0
  0
LINE
  5
38F
330
1B
100
AcDbEntity
 67
     1
  8
7_ALL_FEATURES
  6
Continuous
 62
     9
100
AcDbLine
 10
77.3452038959
 20
62.5495029658
 30
0.0
 11
77.5462580116
 21
62.3483540955
 31
0.0
  0
LINE
  5
390
330
1B
100
AcDbEntity
 67
     1
  8
7_ALL_FEATURES
  6
Continuous
 62
     9
100
AcDbLine
 10
77.3452038959
 20
83.3358433898
 30
0.0
 11
77.3452038959
 21
62.5495029658
 31
0.0
  0
LINE
  5
391
330
1B
100
AcDbEntity
 67
     1
  8
7_ALL_FEATURES
  6
Continuous
 62
     9
100
AcDbLine
 10
77.5451241751
 20
83.4957704769
 30
0.0
 11
77.3452038959
 21
83.3358433898
 31
0.0
  0
SPLINE
  5
392
330
1B
100
AcDbEntity
 67
     1
  8
7_ALL_FEATURES
  6
Continuous
 62
     9
100
AcDbSpline
 70
     0
 71
     3
 72
     9
 73
     5
 74
     0
 42
0.000000001
 43
0.0000001
 40
0.0
 40
0.0
 40
0.0
 40
0.0
 40
0.3613531011
 40
1.0
 40
1.0
 40
1.0
 40
1.0
 10
77.5462580116
 20
83.4986178698
 30
0.0
 10
77.5461727275
 20
83.4982571005
 30
0.0
 10
77.5458963053
 20
83.497296205
 30
0.0
 10
77.5456358686
 20
83.4961796737
 30
0.0
 10
77.5451241751
 20
83.4957704769
 30
0.0
  0
LINE
  5
393
330
1B
100
AcDbEntity
 67
     1
  8
7_ALL_FEATURES
  6
Continuous
 62
     9
100
AcDbLine
 10
78.372805705
 20
60.5222338842
 30
0.0
 11
78.372805705
 21
39.3719701099
 31
0.0
  0
LINE
  5
394
330
1B
100
AcDbEntity
 67
     1
  8
7_ALL_FEATURES
  6
Continuous
 62
     9
100
AcDbLine
 10
78.5738598207
 20
60.3210850139
 30
0.0
 11
78.372805705
 21
60.5222338842
 31
0.0
  0
LINE
  5
395
330
1B
100
AcDbEntity
 67
     1
  8
7_ALL_FEATURES
  6
Continuous
 62
     9
100
AcDbLine
 10
78.5738598207
 20
39.5347445899
 30
0.0
 11
78.5738598207
 21
60.3210850139
 31
0.0
  0
LINE
  5
396
330
1B
100
AcDbEntity
 67
     1
  8
7_ALL_FEATURES
  6
Continuous
 62
     9
100
AcDbLine
 10
78.3739395415
 20
39.3748175028
 30
0.0
 11
78.5738598207
 21
39.5347445899
 31
0.0
  0
SPLINE
  5
397
330
1B
100
AcDbEntity
 67
     1
  8
7_ALL_FEATURES
  6
Continuous
 62
     9
100
AcDbSpline
 70
     0
 71
     3
 72
     9
 73
     5
 74
     0
 42
0.000000001
 43
0.0000001
 40
0.0
 40
0.0
 40
0.0
 40
0.0
 40
0.3613531011
 40
1.0
 40
1.0
 40
1.0
 40
1.0
 10
78.372805705
 20
39.3719701099
 30
0.0
 10
78.3728909892
 20
39.3723308792
 30
0.0
 10
78.3731674113
 20
39.3732917747
 30
0.0
 10
78.373427848
 20
39.374408306
 30
0.0
 10
78.3739395415
 20
39.3748175028
 30
0.0
  0
LINE
  5
398
330
1B
100
AcDbEntity
 67
     1
  8
7_ALL_FEATURES
  6
Continuous
 62
     9
100
AcDbLine
 10
78.3728060139
 20
83.4985998162
 30
0.0
 11
78.372805705
 21
62.3483552214
 31
0.0
  0
SPLINE
  5
399
330
1B
100
AcDbEntity
 67
     1
  8
7_ALL_FEATURES
  6
Continuous
 62
     9
100
AcDbSpline
 70
     0
 71
     3
 72
     9
 73
     5
 74
     0
 42
0.000000001
 43
0.0000001
 40
0.0
 40
0.0
 40
0.0
 40
0.0
 40
0.1472002137
 40
1.0
 40
1.0
 40
1.0
 40
1.0
 10
78.3739395415
 20
83.4957704769
 30
0.0
 10
78.3738223101
 20
83.4958651423
 30
0.0
 10
78.373231691
 20
83.496728766
 30
0.0
 10
78.373005972
 20
83.4977500605
 30
0.0
 10
78.3728060139
 20
83.4985998162
 30
0.0
  0
LINE
  5
39A
330
1B
100
AcDbEntity
 67
     1
  8
7_ALL_FEATURES
  6
Continuous
 62
     9
100
AcDbLine
 10
78.5738598207
 20
83.3358433898
 30
0.0
 11
78.3739395415
 21
83.4957704769
 31
0.0
  0
LINE
  5
39B
330
1B
100
AcDbEntity
 67
     1
  8
7_ALL_FEATURES
  6
Continuous
 62
     9
100
AcDbLine
 10
78.5738598207
 20
62.5495029658
 30
0.0
 11
78.5738598207
 21
83.3358433898
 31
0.0
  0
LINE
  5
39C
330
1B
100
AcDbEntity
 67
     1
  8
7_ALL_FEATURES
  6
Continuous
 62
     9
100
AcDbLine
 10
78.372805705
 20
62.3483552214
 30
0.0
 11
78.5738598207
 21
62.5495029658
 31
0.0
  0
ARC
  5
39D
330
1B
100
AcDbEntity
 67
     1
  8
7_ALL_FEATURES
  6
Continuous
 62
     9
100
AcDbCircle
 10
77.0464771255
 20
60.5222392724
 30
0.0
 40
0.4997851898
100
AcDbArc
 50
359.9992535975
 51
90.0114787859
  0
SPLINE
  5
39E
330
1B
100
AcDbEntity
 67
     1
  8
7_ALL_FEATURES
  6
Continuous
 62
     9
100
AcDbSpline
 70
     0
 71
     3
 72
    14
 73
    10
 74
     0
 42
0.000000001
 43
0.0000001
 40
0.0
 40
0.0
 40
0.0
 40
0.0
 40
0.1263918562
 40
0.2470562272
 40
0.3677321448
 40
0.4923810135
 40
0.6190452036
 40
0.746395708
 40
1.0
 40
1.0
 40
1.0
 40
1.0
 10
77.06053233
 20
38.6752993123
 30
0.0
 10
77.0772964978
 20
38.7082151414
 30
0.0
 10
77.124660729
 20
38.7640132337
 30
0.0
 10
77.1978188589
 20
38.8427312
 30
0.0
 10
77.2840103788
 20
38.9066590344
 30
0.0
 10
77.3689132316
 20
38.9746527347
 30
0.0
 10
77.4438439075
 20
39.0570807189
 30
0.0
 10
77.5207863775
 20
39.1847341554
 30
0.0
 10
77.5462829318
 20
39.297871615
 30
0.0
 10
77.546240696
 20
39.3719894076
 30
0.0
  0
ARC
  5
39F
330
1B
100
AcDbEntity
 67
     1
  8
7_ALL_FEATURES
  6
Continuous
 62
     9
100
AcDbCircle
 10
77.0449917533
 20
39.3750230863
 30
0.0
 40
0.5001320381
100
AcDbArc
 50
270.0288018074
 51
359.9764481012999
  0
ARC
  5
3A0
330
1B
100
AcDbEntity
 67
     1
  8
7_ALL_FEATURES
  6
Continuous
 62
     9
100
AcDbCircle
 10
76.8450453138
 20
39.534976732
 30
0.0
 40
0.5001602834
100
AcDbArc
 50
270.0317970899999
 51
359.9734069125
  0
LINE
  5
3A1
330
1B
100
AcDbEntity
 67
     1
  8
7_ALL_FEATURES
  6
Continuous
 62
     9
100
AcDbLine
 10
76.8453228823
 20
39.5347445899
 30
0.0
 11
77.3452038959
 21
39.5347445899
 31
0.0
  0
SPLINE
  5
3A2
330
1B
100
AcDbEntity
 67
     1
  8
7_ALL_FEATURES
  6
Continuous
 62
     9
100
AcDbSpline
 70
     0
 71
     3
 72
    14
 73
    10
 74
     0
 42
0.000000001
 43
0.0000001
 40
0.0
 40
0.0
 40
0.0
 40
0.0
 40
0.2539013308
 40
0.3812375908
 40
0.5078339786
 40
0.632330594
 40
0.7530954918
 40
0.8736421861
 40
1.0
 40
1.0
 40
1.0
 40
1.0
 10
55.8962079899
 20
61.0220201432
 30
0.0
 10
55.8219626466
 20
61.0220798322
 30
0.0
 10
55.7086706205
 20
60.9964883257
 30
0.0
 10
55.5809650047
 20
60.9193347866
 30
0.0
 10
55.4986501863
 20
60.8443318823
 30
0.0
 10
55.4305104489
 20
60.7594365848
 30
0.0
 10
55.3666314851
 20
60.673519761
 30
0.0
 10
55.2890195541
 20
60.5982103799
 30
0.0
 10
55.2295222807
 20
60.5570723351
 30
0.0
 10
55.1991619851
 20
60.5360127785
 30
0.0
  0
ARC
  5
3A3
330
1B
100
AcDbEntity
 67
     1
  8
7_ALL_FEATURES
  6
Continuous
 62
     9
100
AcDbCircle
 10
55.8992609548
 20
60.5207538849
 30
0.0
 40
0.5001320381
100
AcDbArc
 50
90.02355190109999
 51
179.971198196
  0
ARC
  5
3A4
330
1B
100
AcDbEntity
 67
     1
  8
7_ALL_FEATURES
  6
Continuous
 62
     9
100
AcDbCircle
 10
56.0592146102
 20
60.3208075031
 30
0.0
 40
0.5001602506
100
AcDbArc
 50
90.02659421199999
 51
179.9682095245
  0
LINE
  5
3A5
330
1B
100
AcDbEntity
 67
     1
  8
7_ALL_FEATURES
  6
Continuous
 62
     9
100
AcDbLine
 10
56.0589824583
 20
60.3210850139
 30
0.0
 11
56.0589824583
 21
60.8209660274
 31
0.0
  0
LINE
  5
3A6
330
1B
100
AcDbEntity
 67
     1
  8
7_ALL_FEATURES
  6
Continuous
 62
     9
100
AcDbLine
 10
76.8453228823
 20
60.8209660274
 30
0.0
 11
76.8453228823
 21
60.3210850139
 31
0.0
  0
ARC
  5
3A7
330
1B
100
AcDbEntity
 67
     1
  8
7_ALL_FEATURES
  6
Continuous
 62
     9
100
AcDbCircle
 10
76.8450132681
 20
60.3207753996
 30
0.0
 40
0.5001936888
100
AcDbArc
 50
0.0354656566
 51
89.9645343434
  0
LINE
  5
3A8
330
1B
100
AcDbEntity
 67
     1
  8
7_ALL_FEATURES
  6
Continuous
 62
     9
100
AcDbLine
 10
76.8453228823
 20
60.3210850139
 30
0.0
 11
77.3452038959
 21
60.3210850139
 31
0.0
  0
SPLINE
  5
3A9
330
1B
100
AcDbEntity
 67
     1
  8
7_ALL_FEATURES
  6
Continuous
 62
     9
100
AcDbSpline
 70
     0
 71
     3
 72
    14
 73
    10
 74
     0
 42
0.000000001
 43
0.0000001
 40
0.0
 40
0.0
 40
0.0
 40
0.0
 40
0.2539013315
 40
0.3812375915
 40
0.5078339792
 40
0.6323305946
 40
0.7530954922
 40
0.8736421863
 40
1.0
 40
1.0
 40
1.0
 40
1.0
 10
78.372805705
 20
39.3719701214
 30
0.0
 10
78.372746016
 20
39.297724778
 30
0.0
 10
78.3983375226
 20
39.1844327517
 30
0.0
 10
78.4754910619
 20
39.0567271357
 30
0.0
 10
78.5504939661
 20
38.9744123174
 30
0.0
 10
78.6353892638
 20
38.9062725801
 30
0.0
 10
78.7213060876
 20
38.8423936166
 30
0.0
 10
78.7966154685
 20
38.7647816855
 30
0.0
 10
78.8377535132
 20
38.7052844122
 30
0.0
 10
78.8588130697
 20
38.6749241166
 30
0.0
  0
ARC
  5
3AA
330
1B
100
AcDbEntity
 67
     1
  8
7_ALL_FEATURES
  6
Continuous
 62
     9
100
AcDbCircle
 10
78.8740721403
 20
39.3750232633
 30
0.0
 40
0.500132288
100
AcDbArc
 50
180.0235721706
 51
269.971177926
  0
ARC
  5
3AB
330
1B
100
AcDbEntity
 67
     1
  8
7_ALL_FEATURES
  6
Continuous
 62
     9
100
AcDbCircle
 10
79.0740183435
 20
39.534976743
 30
0.0
 40
0.5001602507
100
AcDbArc
 50
180.0265943578
 51
269.9682097129
  0
LINE
  5
3AC
330
1B
100
AcDbEntity
 67
     1
  8
7_ALL_FEATURES
  6
Continuous
 62
     9
100
AcDbLine
 10
79.0737408343
 20
39.5347445899
 30
0.0
 11
78.5738598207
 21
39.5347445899
 31
0.0
  0
ARC
  5
3AD
330
1B
100
AcDbEntity
 67
     1
  8
7_ALL_FEATURES
  6
Continuous
 62
     9
100
AcDbCircle
 10
78.8725865585
 20
60.5222393052
 30
0.0
 40
0.4997851381
100
AcDbArc
 50
89.9885174655
 51
180.000621082
  0
SPLINE
  5
3AE
330
1B
100
AcDbEntity
 67
     1
  8
7_ALL_FEATURES
  6
Continuous
 62
     9
100
AcDbSpline
 70
     0
 71
     3
 72
    14
 73
    10
 74
     0
 42
0.000000001
 43
0.0000001
 40
0.0
 40
0.0
 40
0.0
 40
0.0
 40
0.1263918562
 40
0.2470562272
 40
0.3677321448
 40
0.4923810135
 40
0.6190452036
 40
0.746395708
 40
1.0
 40
1.0
 40
1.0
 40
1.0
 10
100.7195265359
 20
60.5362944615
 30
0.0
 10
100.6866107068
 20
60.5530586293
 30
0.0
 10
100.6308126144
 20
60.6004228605
 30
0.0
 10
100.5520946482
 20
60.6735809904
 30
0.0
 10
100.4881668138
 20
60.7597725103
 30
0.0
 10
100.4201731135
 20
60.8446753632
 30
0.0
 10
100.3377451293
 20
60.9196060391
 30
0.0
 10
100.2100916927
 20
60.9965485091
 30
0.0
 10
100.0969542332
 20
61.0220450633
 30
0.0
 10
100.0228364406
 20
61.0220028276
 30
0.0
  0
ARC
  5
3AF
330
1B
100
AcDbEntity
 67
     1
  8
7_ALL_FEATURES
  6
Continuous
 62
     9
100
AcDbCircle
 10
100.0198025602
 20
60.5207536802
 30
0.0
 40
0.500132288
100
AcDbArc
 50
0.0288252405
 51
89.9764250092
  0
ARC
  5
3B0
330
1B
100
AcDbEntity
 67
     1
  8
7_ALL_FEATURES
  6
Continuous
 62
     9
100
AcDbCircle
 10
99.8598491075
 20
60.3208075035
 30
0.0
 40
0.5001602501
100
AcDbArc
 50
0.0317904247
 51
89.9734059142
  0
LINE
  5
3B1
330
1B
100
AcDbEntity
 67
     1
  8
7_ALL_FEATURES
  6
Continuous
 62
     9
100
AcDbLine
 10
99.8600812583
 20
60.3210850139
 30
0.0
 11
99.8600812583
 21
60.8209660274
 31
0.0
  0
LINE
  5
3B2
330
1B
100
AcDbEntity
 67
     1
  8
7_ALL_FEATURES
  6
Continuous
 62
     9
100
AcDbLine
 10
79.0737408343
 20
60.3210850139
 30
0.0
 11
79.0737408343
 21
60.8209660274
 31
0.0
  0
LINE
  5
3B3
330
1B
100
AcDbEntity
 67
     1
  8
7_ALL_FEATURES
  6
Continuous
 62
     9
100
AcDbLine
 10
78.5738598207
 20
60.3210850139
 30
0.0
 11
79.0737408343
 21
60.3210850139
 31
0.0
  0
ARC
  5
3B4
330
1B
100
AcDbEntity
 67
     1
  8
7_ALL_FEATURES
  6
Continuous
 62
     9
100
AcDbCircle
 10
79.0740522168
 20
60.3207739734
 30
0.0
 40
0.5001953671
100
AcDbArc
 50
90.035668107
 51
179.9643710969
  0
ARC
  5
3B5
330
1B
100
AcDbEntity
 67
     1
  8
7_ALL_FEATURES
  6
Continuous
 62
     9
100
AcDbCircle
 10
77.0464894452
 20
62.3483363851
 30
0.0
 40
0.4997700228
100
AcDbArc
 50
269.9871085457
 51
0.0020300004
  0
SPLINE
  5
3B6
330
1B
100
AcDbEntity
 67
     1
  8
7_ALL_FEATURES
  6
Continuous
 62
     9
100
AcDbSpline
 70
     0
 71
     3
 72
    14
 73
    10
 74
     0
 42
0.000000001
 43
0.0000001
 40
0.0
 40
0.0
 40
0.0
 40
0.0
 40
0.1263918562
 40
0.2470562272
 40
0.3677321448
 40
0.4923810135
 40
0.6190452036
 40
0.746395708
 40
1.0
 40
1.0
 40
1.0
 40
1.0
 10
55.1995371808
 20
62.3342935182
 30
0.0
 10
55.2324530099
 20
62.3175293504
 30
0.0
 10
55.2882511022
 20
62.2701651192
 30
0.0
 10
55.3669690684
 20
62.1970069893
 30
0.0
 10
55.4308969028
 20
62.1108154694
 30
0.0
 10
55.4988906031
 20
62.0259126165
 30
0.0
 10
55.5813185873
 20
61.9509819406
 30
0.0
 10
55.7089720239
 20
61.8740394706
 30
0.0
 10
55.8221094834
 20
61.8485429164
 30
0.0
 10
55.896227276
 20
61.8485851521
 30
0.0
  0
ARC
  5
3B7
330
1B
100
AcDbEntity
 67
     1
  8
7_ALL_FEATURES
  6
Continuous
 62
     9
100
AcDbCircle
 10
55.8992611318
 20
62.3498342719
 30
0.0
 40
0.500132288
100
AcDbArc
 50
180.02882208
 51
269.9764278257
  0
ARC
  5
3B8
330
1B
100
AcDbEntity
 67
     1
  8
7_ALL_FEATURES
  6
Continuous
 62
     9
100
AcDbCircle
 10
56.0592146107
 20
62.5497804748
 30
0.0
 40
0.5001602501
100
AcDbArc
 50
180.03179026
 51
269.9734057329
  0
LINE
  5
3B9
330
1B
100
AcDbEntity
 67
     1
  8
7_ALL_FEATURES
  6
Continuous
 62
     9
100
AcDbLine
 10
56.0589824583
 20
62.5495029658
 30
0.0
 11
56.0589824583
 21
62.0496219523
 31
0.0
  0
SPLINE
  5
3BA
330
1B
100
AcDbEntity
 67
     1
  8
7_ALL_FEATURES
  6
Continuous
 62
     9
100
AcDbSpline
 70
     0
 71
     3
 72
    14
 73
    10
 74
     0
 42
0.000000001
 43
0.0000001
 40
0.0
 40
0.0
 40
0.0
 40
0.0
 40
0.25390133
 40
0.3812375901
 40
0.5078339779
 40
0.6323305933
 40
0.7530954915
 40
0.8736421858
 40
1.0
 40
1.0
 40
1.0
 40
1.0
 10
77.5462580116
 20
83.4986178583
 30
0.0
 10
77.5463177006
 20
83.5728632013
 30
0.0
 10
77.5207261943
 20
83.6861552271
 30
0.0
 10
77.4435726555
 20
83.8138608429
 30
0.0
 10
77.3685697512
 20
83.8961756613
 30
0.0
 10
77.2836744536
 20
83.964315399
 30
0.0
 10
77.1977576299
 20
84.028194363
 30
0.0
 10
77.1224482485
 20
84.105806294
 30
0.0
 10
77.0813102036
 20
84.1653035675
 30
0.0
 10
77.0602506469
 20
84.1956638631
 30
0.0
  0
ARC
  5
3BB
330
1B
100
AcDbEntity
 67
     1
  8
7_ALL_FEATURES
  6
Continuous
 62
     9
100
AcDbCircle
 10
77.0449915487
 20
83.4955646917
 30
0.0
 40
0.500132288
100
AcDbArc
 50
0.0235749935
 51
89.97117476259999
  0
ARC
  5
3BC
330
1B
100
AcDbEntity
 67
     1
  8
7_ALL_FEATURES
  6
Continuous
 62
     9
100
AcDbCircle
 10
76.8450453717
 20
83.3356112382
 30
0.0
 40
0.5001602507
100
AcDbArc
 50
0.0265941887
 51
89.9682095438
  0
LINE
  5
3BD
330
1B
100
AcDbEntity
 67
     1
  8
7_ALL_FEATURES
  6
Continuous
 62
     9
100
AcDbLine
 10
76.8453228823
 20
83.3358433898
 30
0.0
 11
77.3452038959
 21
83.3358433898
 31
0.0
  0
LINE
  5
3BE
330
1B
100
AcDbEntity
 67
     1
  8
7_ALL_FEATURES
  6
Continuous
 62
     9
100
AcDbLine
 10
77.3452038959
 20
62.5495029658
 30
0.0
 11
76.8453228823
 21
62.5495029658
 31
0.0
  0
ARC
  5
3BF
330
1B
100
AcDbEntity
 67
     1
  8
7_ALL_FEATURES
  6
Continuous
 62
     9
100
AcDbCircle
 10
76.8450114564
 20
62.5498139244
 30
0.0
 40
0.5001953187
100
AcDbArc
 50
270.0356730865
 51
359.9643804845001
  0
LINE
  5
3C0
330
1B
100
AcDbEntity
 67
     1
  8
7_ALL_FEATURES
  6
Continuous
 62
     9
100
AcDbLine
 10
76.8453228823
 20
62.5495029658
 30
0.0
 11
76.8453228823
 21
62.0496219523
 31
0.0
  0
SPLINE
  5
3C1
330
1B
100
AcDbEntity
 67
     1
  8
7_ALL_FEATURES
  6
Continuous
 62
     9
100
AcDbSpline
 70
     0
 71
     3
 72
    14
 73
    10
 74
     0
 42
0.000000001
 43
0.0000001
 40
0.0
 40
0.0
 40
0.0
 40
0.0
 40
0.2539013293
 40
0.3812375894
 40
0.5078339773
 40
0.6323305927
 40
0.7530954912
 40
0.8736421855
 40
1.0
 40
1.0
 40
1.0
 40
1.0
 10
100.0228557268
 20
61.8485678365
 30
0.0
 10
100.0971010696
 20
61.8485081475
 30
0.0
 10
100.2103930952
 20
61.8740996537
 30
0.0
 10
100.3380987109
 20
61.9512531923
 30
0.0
 10
100.4204135293
 20
62.0262560967
 30
0.0
 10
100.4885532672
 20
62.1111513942
 30
0.0
 10
100.5524322314
 20
62.1970682178
 30
0.0
 10
100.6300441623
 20
62.2723775995
 30
0.0
 10
100.6895414359
 20
62.3135156444
 30
0.0
 10
100.7199017316
 20
62.3345752012
 30
0.0
  0
ARC
  5
3C2
330
1B
100
AcDbEntity
 67
     1
  8
7_ALL_FEATURES
  6
Continuous
 62
     9
100
AcDbCircle
 10
100.0198025863
 20
62.3498342733
 30
0.0
 40
0.500132288
100
AcDbArc
 50
270.0235720016
 51
359.9711777570001
  0
ARC
  5
3C3
330
1B
100
AcDbEntity
 67
     1
  8
7_ALL_FEATURES
  6
Continuous
 62
     9
100
AcDbCircle
 10
99.8598491067
 20
62.5497804764
 30
0.0
 40
0.5001602506
100
AcDbArc
 50
270.0265941838
 51
359.9682095535
  0
LINE
  5
3C4
330
1B
100
AcDbEntity
 67
     1
  8
7_ALL_FEATURES
  6
Continuous
 62
     9
100
AcDbLine
 10
99.8600812583
 20
62.5495029658
 30
0.0
 11
99.8600812583
 21
62.0496219523
 31
0.0
  0
ARC
  5
3C5
330
1B
100
AcDbEntity
 67
     1
  8
7_ALL_FEATURES
  6
Continuous
 62
     9
100
AcDbCircle
 10
78.87257425
 20
62.3483363638
 30
0.0
 40
0.499770008
100
AcDbArc
 50
179.9978384627
 51
270.0128939204
  0
SPLINE
  5
3C6
330
1B
100
AcDbEntity
 67
     1
  8
7_ALL_FEATURES
  6
Continuous
 62
     9
100
AcDbSpline
 70
     0
 71
     3
 72
    14
 73
    10
 74
     0
 42
0.000000001
 43
0.0000001
 40
0.0
 40
0.0
 40
0.0
 40
0.0
 40
0.1263918562
 40
0.2470562272
 40
0.3677321448
 40
0.4923810135
 40
0.6190452036
 40
0.746395708
 40
1.0
 40
1.0
 40
1.0
 40
1.0
 10
78.8585313866
 20
84.1952886674
 30
0.0
 10
78.8417672189
 20
84.1623728383
 30
0.0
 10
78.7944029876
 20
84.106574746
 30
0.0
 10
78.7212448577
 20
84.0278567797
 30
0.0
 10
78.6350533378
 20
83.9639289453
 30
0.0
 10
78.550150485
 20
83.895935245
 30
0.0
 10
78.4752198091
 20
83.8135072608
 30
0.0
 10
78.3982773391
 20
83.6858538243
 30
0.0
 10
78.3727807848
 20
83.5727163647
 30
0.0
 10
78.3728230206
 20
83.4985985721
 30
0.0
  0
ARC
  5
3C7
330
1B
100
AcDbEntity
 67
     1
  8
7_ALL_FEATURES
  6
Continuous
 62
     9
100
AcDbCircle
 10
78.8740721418
 20
83.4955647179
 30
0.0
 40
0.500132288
100
AcDbArc
 50
90.02882224809998
 51
179.9764280025
  0
ARC
  5
3C8
330
1B
100
AcDbEntity
 67
     1
  8
7_ALL_FEATURES
  6
Continuous
 62
     9
100
AcDbCircle
 10
79.0740183447
 20
83.335611239
 30
0.0
 40
0.5001602501
100
AcDbArc
 50
90.0317904345
 51
179.9734059075
  0
LINE
  5
3C9
330
1B
100
AcDbEntity
 67
     1
  8
7_ALL_FEATURES
  6
Continuous
 62
     9
100
AcDbLine
 10
79.0737408343
 20
83.3358433898
 30
0.0
 11
78.5738598207
 21
83.3358433898
 31
0.0
  0
LINE
  5
3CA
330
1B
100
AcDbEntity
 67
     1
  8
7_ALL_FEATURES
  6
Continuous
 62
     9
100
AcDbLine
 10
79.0737408343
 20
62.5495029658
 30
0.0
 11
78.5738598207
 21
62.5495029658
 31
0.0
  0
LINE
  5
3CB
330
1B
100
AcDbEntity
 67
     1
  8
7_ALL_FEATURES
  6
Continuous
 62
     9
100
AcDbLine
 10
79.0737408343
 20
62.0496219523
 30
0.0
 11
79.0737408343
 21
62.5495029658
 31
0.0
  0
ARC
  5
3CC
330
1B
100
AcDbEntity
 67
     1
  8
7_ALL_FEATURES
  6
Continuous
 62
     9
100
AcDbCircle
 10
79.0740504485
 20
62.5498125801
 30
0.0
 40
0.5001936888
100
AcDbArc
 50
180.0354656549
 51
269.9645343451
  0
LINE
  5
3CD
330
1B
100
AcDbEntity
 67
     1
  8
7_ALL_FEATURES
  6
Continuous
 62
     9
100
AcDbLine
 10
78.372805705
 20
39.3719701214
 30
0.0
 11
78.2228414009
 21
39.3719701214
 31
0.0
  0
LINE
  5
3CE
330
1B
100
AcDbEntity
 67
     1
  8
7_ALL_FEATURES
  6
Continuous
 62
     9
100
AcDbLine
 10
78.372805705
 20
60.5221391296
 30
0.0
 11
78.2228414009
 21
60.5221391296
 31
0.0
  0
LINE
  5
3CF
330
1B
100
AcDbEntity
 67
     1
  8
7_ALL_FEATURES
  6
Continuous
 62
     9
100
AcDbLine
 10
78.8726867185
 20
61.0220201432
 30
0.0
 11
78.8726867151
 21
61.1719844428
 31
0.0
  0
LINE
  5
3D0
330
1B
100
AcDbEntity
 67
     1
  8
7_ALL_FEATURES
  6
Continuous
 62
     9
100
AcDbLine
 10
100.0228607762
 20
61.022019835
 30
0.0
 11
100.022862061
 21
61.1719761014
 31
0.0
  0
LINE
  5
3D1
330
1B
100
AcDbEntity
 67
     1
  8
7_ALL_FEATURES
  6
Continuous
 62
     9
100
AcDbLine
 10
100.0228557268
 20
61.8485678365
 30
0.0
 11
100.0228557268
 21
61.6986035325
 31
0.0
  0
LINE
  5
3D2
330
1B
100
AcDbEntity
 67
     1
  8
7_ALL_FEATURES
  6
Continuous
 62
     9
100
AcDbLine
 10
78.8726867185
 20
61.8485678365
 30
0.0
 11
78.8726867185
 21
61.6986035325
 31
0.0
  0
LINE
  5
3D3
330
1B
100
AcDbEntity
 67
     1
  8
7_ALL_FEATURES
  6
Continuous
 62
     9
100
AcDbLine
 10
78.372805705
 20
62.3484488501
 30
0.0
 11
78.2228414067
 21
62.3484488473
 31
0.0
  0
LINE
  5
3D4
330
1B
100
AcDbEntity
 67
     1
  8
7_ALL_FEATURES
  6
Continuous
 62
     9
100
AcDbLine
 10
78.3728060132
 20
83.4986229077
 30
0.0
 11
78.2228497468
 21
83.4986241925
 31
0.0
  0
LINE
  5
3D5
330
1B
100
AcDbEntity
 67
     1
  8
7_ALL_FEATURES
  6
Continuous
 62
     9
100
AcDbLine
 10
55.8962079899
 20
61.0220201432
 30
0.0
 11
55.8962079899
 21
61.1719844472
 31
0.0
  0
LINE
  5
3D6
330
1B
100
AcDbEntity
 67
     1
  8
7_ALL_FEATURES
  6
Continuous
 62
     9
100
AcDbLine
 10
77.0463769981
 20
61.0220201432
 30
0.0
 11
77.0463769981
 21
61.1719844472
 31
0.0
  0
LINE
  5
3D7
330
1B
100
AcDbEntity
 67
     1
  8
7_ALL_FEATURES
  6
Continuous
 62
     9
100
AcDbLine
 10
77.5462580116
 20
60.5221391296
 30
0.0
 11
77.69622231
 21
60.5221391324
 31
0.0
  0
LINE
  5
3D8
330
1B
100
AcDbEntity
 67
     1
  8
7_ALL_FEATURES
  6
Continuous
 62
     9
100
AcDbLine
 10
77.5462577034
 20
39.371965072
 30
0.0
 11
77.6962139698
 21
39.3719637872
 31
0.0
  0
LINE
  5
3D9
330
1B
100
AcDbEntity
 67
     1
  8
7_ALL_FEATURES
  6
Continuous
 62
     9
100
AcDbLine
 10
77.5462580116
 20
83.4986178583
 30
0.0
 11
77.6962223157
 21
83.4986178583
 31
0.0
  0
LINE
  5
3DA
330
1B
100
AcDbEntity
 67
     1
  8
7_ALL_FEATURES
  6
Continuous
 62
     9
100
AcDbLine
 10
77.5462580116
 20
62.3484488501
 30
0.0
 11
77.6962223157
 21
62.3484488501
 31
0.0
  0
LINE
  5
3DB
330
1B
100
AcDbEntity
 67
     1
  8
7_ALL_FEATURES
  6
Continuous
 62
     9
100
AcDbLine
 10
77.0463769981
 20
61.8485678365
 30
0.0
 11
77.0463770015
 21
61.6986035369
 31
0.0
  0
LINE
  5
3DC
330
1B
100
AcDbEntity
 67
     1
  8
7_ALL_FEATURES
  6
Continuous
 62
     9
100
AcDbLine
 10
55.8962029405
 20
61.8485681447
 30
0.0
 11
55.8962016556
 21
61.6986118783
 31
0.0
  0
LINE
  5
3DD
330
1B
100
AcDbEntity
 67
     1
  8
7_ALL_FEATURES
  6
Continuous
 62
     9
100
AcDbLine
 10
101.3989715746
 20
85.0747032451
 30
0.0
 11
101.3989715746
 21
84.8747337061
 31
0.0
  0
LINE
  5
3DE
330
1B
100
AcDbEntity
 67
     1
  8
7_ALL_FEATURES
  6
Continuous
 62
     9
100
AcDbLine
 10
101.5989411136
 20
84.8747337061
 30
0.0
 11
101.3989715746
 21
84.8747337061
 31
0.0
  0
LINE
  5
3DF
330
1B
100
AcDbEntity
 67
     1
  8
7_ALL_FEATURES
  6
Continuous
 62
     9
100
AcDbLine
 10
101.5989411136
 20
37.9958542736
 30
0.0
 11
101.3989715746
 21
37.9958542736
 31
0.0
  0
LINE
  5
3E0
330
1B
100
AcDbEntity
 67
     1
  8
7_ALL_FEATURES
  6
Continuous
 62
     9
100
AcDbLine
 10
101.3989715746
 20
37.7958847346
 30
0.0
 11
101.3989715746
 21
37.9958542736
 31
0.0
  0
LINE
  5
3E1
330
1B
100
AcDbEntity
 67
     1
  8
7_ALL_FEATURES
  6
Continuous
 62
     9
100
AcDbLine
 10
54.5200921421
 20
37.7958847346
 30
0.0
 11
54.5200921421
 21
37.9958542736
 31
0.0
  0
LINE
  5
3E2
330
1B
100
AcDbEntity
 67
     1
  8
7_ALL_FEATURES
  6
Continuous
 62
     9
100
AcDbLine
 10
54.320122603
 20
37.9958542736
 30
0.0
 11
54.5200921421
 21
37.9958542736
 31
0.0
  0
LINE
  5
3E3
330
1B
100
AcDbEntity
 67
     1
  8
7_ALL_FEATURES
  6
Continuous
 62
     9
100
AcDbLine
 10
54.320122603
 20
84.8747337061
 30
0.0
 11
54.5200921421
 21
84.8747337061
 31
0.0
  0
LINE
  5
3E4
330
1B
100
AcDbEntity
 67
     1
  8
7_ALL_FEATURES
  6
Continuous
 62
     9
100
AcDbLine
 10
54.5200921421
 20
85.0747032451
 30
0.0
 11
54.5200921421
 21
84.8747337061
 31
0.0
  0
SPLINE
  5
3E5
330
1B
100
AcDbEntity
 67
     1
  8
7_ALL_FEATURES
  6
Continuous
 62
     9
100
AcDbSpline
 70
     0
 71
     3
 72
    12
 73
     8
 74
     0
 42
0.000000001
 43
0.0000001
 40
0.0
 40
0.0
 40
0.0
 40
0.0
 40
0.2498954401
 40
0.4996718746
 40
0.7494229145
 40
0.8747065915
 40
1.0
 40
1.0
 40
1.0
 40
1.0
 10
55.8962079899
 20
61.1719844472
 30
0.0
 10
55.8113056081
 20
61.1720178832
 30
0.0
 10
55.6397613319
 20
61.1380631095
 30
0.0
 10
55.4221113732
 20
60.9945704671
 30
0.0
 10
55.2973709307
 20
60.8170950321
 30
0.0
 10
55.2340492914
 20
60.6590230325
 30
0.0
 10
55.2105554414
 20
60.5771077604
 30
0.0
 10
55.1992070858
 20
60.5360796708
 30
0.0
  0
LINE
  5
3E6
330
1B
100
AcDbEntity
 67
     1
  8
7_ALL_FEATURES
  6
Continuous
 62
     9
100
AcDbLine
 10
55.1992070858
 20
60.5360796708
 30
0.0
 11
55.1991619846
 21
39.3748175028
 31
0.0
  0
ARC
  5
3E7
330
1B
100
AcDbEntity
 67
     1
  8
7_ALL_FEATURES
  6
Continuous
 62
     9
100
AcDbCircle
 10
55.8990397569
 20
39.3748018884
 30
0.0
 40
0.6998745941
100
AcDbArc
 50
179.998721723
 51
270.0012782766
  0
LINE
  5
3E8
330
1B
100
AcDbEntity
 67
     1
  8
7_ALL_FEATURES
  6
Continuous
 62
     7
100
AcDbLine
 10
68.9721528413
 20
70.4226730068
 30
0.0
 11
68.9721528413
 21
75.4226753959
 31
0.0
  0
LINE
  5
3E9
330
1B
100
AcDbEntity
 67
     1
  8
7_ALL_FEATURES
  6
Continuous
 62
     7
100
AcDbLine
 10
68.6709109509
 20
70.8747693633
 30
0.0
 11
68.6709109509
 21
71.1408663666
 31
0.0
  0
LINE
  5
3EA
330
1B
100
AcDbEntity
 67
     1
  8
7_ALL_FEATURES
  6
Continuous
 62
     7
100
AcDbLine
 10
68.9721528413
 20
75.4226753959
 30
0.0
 11
63.9721504522
 21
75.4226753959
 31
0.0
  0
LINE
  5
3EB
330
1B
100
AcDbEntity
 67
     1
  8
7_ALL_FEATURES
  6
Continuous
 62
     7
100
AcDbLine
 10
67.9621168052
 20
71.1408663666
 30
0.0
 11
67.9621168052
 21
73.207934509
 31
0.0
  0
LINE
  5
3EC
330
1B
100
AcDbEntity
 67
     1
  8
7_ALL_FEATURES
  6
Continuous
 62
     7
100
AcDbLine
 10
67.6712665924
 20
73.207934509
 30
0.0
 11
67.6712665924
 21
70.8747693633
 31
0.0
  0
LINE
  5
3ED
330
1B
100
AcDbEntity
 67
     1
  8
7_ALL_FEATURES
  6
Continuous
 62
     7
100
AcDbLine
 10
65.3388311994
 20
70.8747693633
 30
0.0
 11
65.3388311994
 21
71.1408663666
 31
0.0
  0
LINE
  5
3EE
330
1B
100
AcDbEntity
 67
     1
  8
7_ALL_FEATURES
  6
Continuous
 62
     7
100
AcDbLine
 10
64.6301830042
 20
71.1408663666
 30
0.0
 11
64.6301830042
 21
73.207934509
 31
0.0
  0
LINE
  5
3EF
330
1B
100
AcDbEntity
 67
     1
  8
7_ALL_FEATURES
  6
Continuous
 62
     7
100
AcDbLine
 10
64.3392160309
 20
73.207934509
 30
0.0
 11
64.3392160309
 21
70.8747693633
 31
0.0
  0
LINE
  5
3F0
330
1B
100
AcDbEntity
 67
     1
  8
7_ALL_FEATURES
  6
Continuous
 62
     7
100
AcDbLine
 10
63.9721504522
 20
75.4226753959
 30
0.0
 11
63.9721504522
 21
70.4226730068
 31
0.0
  0
LINE
  5
3F1
330
1B
100
AcDbEntity
 67
     1
  8
7_ALL_FEATURES
  6
Continuous
 62
     7
100
AcDbLine
 10
66.8854105677
 20
71.1902560253
 30
0.0
 11
67.1391893464
 21
70.8746526029
 31
0.0
  0
LINE
  5
3F2
330
1B
100
AcDbEntity
 67
     1
  8
7_ALL_FEATURES
  6
Continuous
 62
     7
100
AcDbLine
 10
64.6301830042
 20
73.207934509
 30
0.0
 11
64.3392160309
 21
73.207934509
 31
0.0
  0
SPLINE
  5
3F3
330
1B
100
AcDbEntity
 67
     1
  8
7_ALL_FEATURES
  6
Continuous
 62
     7
100
AcDbSpline
 70
     0
 71
     3
 72
    27
 73
    23
 74
     0
 42
0.000000001
 43
0.0000001
 40
0.0
 40
0.0
 40
0.0
 40
0.0
 40
0.0826592268
 40
0.1603008642
 40
0.1981468307
 40
0.2364637193
 40
0.2766202277
 40
0.2979198529
 40
0.3203149066
 40
0.3509540815
 40
0.3806626124
 40
0.4379687079
 40
0.493649494
 40
0.548741396
 40
0.6040186376
 40
0.6600763819
 40
0.7174352054
 40
0.7766463716
 40
0.8188766607
 40
0.8605980543
 40
0.9438647411
 40
1.0
 40
1.0
 40
1.0
 40
1.0
 10
65.8797238573
 20
72.1311115111
 30
0.0
 10
65.8256925719
 20
72.0920838023
 30
0.0
 10
65.7221623966
 20
72.0146068739
 30
0.0
 10
65.6081099065
 20
71.9008502193
 30
0.0
 10
65.5393717629
 20
71.7970708047
 30
0.0
 10
65.5005621169
 20
71.7111946816
 30
0.0
 10
65.4806806927
 20
71.6327764769
 30
0.0
 10
65.4725185635
 20
71.565591861
 30
0.0
 10
65.4702578112
 20
71.5056337529
 30
0.0
 10
65.473608667
 20
71.4388734017
 30
0.0
 10
65.4880408914
 20
71.3449710022
 30
0.0
 10
65.5231465127
 20
71.2344352594
 30
0.0
 10
65.5905782449
 20
71.115779654
 30
0.0
 10
65.6795294107
 20
71.0144961326
 30
0.0
 10
65.7868030166
 20
70.9324753563
 30
0.0
 10
65.9093260689
 20
70.87152635
 30
0.0
 10
66.0440819321
 20
70.8336616754
 30
0.0
 10
66.1723595013
 20
70.8219021985
 30
0.0
 10
66.2878740173
 20
70.8299469453
 30
0.0
 10
66.420153852
 20
70.857946229
 30
0.0
 10
66.5560800146
 20
70.915282125
 30
0.0
 10
66.6506823423
 20
70.9766634549
 30
0.0
 10
66.6870944297
 20
71.0036671218
 30
0.0
  0
LINE
  5
3F4
330
1B
100
AcDbEntity
 67
     1
  8
7_ALL_FEATURES
  6
Continuous
 62
     7
100
AcDbLine
 10
66.0251489637
 20
72.2363126519
 30
0.0
 11
65.8797238573
 21
72.1311115111
 31
0.0
  0
SPLINE
  5
3F5
330
1B
100
AcDbEntity
 67
     1
  8
7_ALL_FEATURES
  6
Continuous
 62
     7
100
AcDbSpline
 70
     0
 71
     3
 72
     9
 73
     5
 74
     0
 42
0.000000001
 43
0.0000001
 40
0.0
 40
0.0
 40
0.0
 40
0.0
 40
0.4953598734
 40
1.0
 40
1.0
 40
1.0
 40
1.0
 10
65.7682760339
 20
72.7469059801
 30
0.0
 10
65.7682760339
 20
72.6508312816
 30
0.0
 10
65.8325174558
 20
72.4570332254
 30
0.0
 10
65.957561872
 20
72.3071040482
 30
0.0
 10
66.0251489637
 20
72.2363126519
 30
0.0
  0
LINE
  5
3F6
330
1B
100
AcDbEntity
 67
     1
  8
7_ALL_FEATURES
  6
Continuous
 62
     7
100
AcDbLine
 10
67.9621168052
 20
73.207934509
 30
0.0
 11
67.6712665924
 21
73.207934509
 31
0.0
  0
SPLINE
  5
3F7
330
1B
100
AcDbEntity
 67
     1
  8
7_ALL_FEATURES
  6
Continuous
 62
     7
100
AcDbSpline
 70
     0
 71
     3
 72
    17
 73
    13
 74
     0
 42
0.000000001
 43
0.0000001
 40
0.0
 40
0.0
 40
0.0
 40
0.0
 40
0.1281677449
 40
0.2461327339
 40
0.3660286349
 40
0.4284999773
 40
0.4927031576
 40
0.5607602658
 40
0.6251843142
 40
0.7460608357
 40
0.8660071045
 40
1.0
 40
1.0
 40
1.0
 40
1.0
 10
66.8451866021
 20
72.7716008095
 30
0.0
 10
66.8451866021
 20
72.8415631052
 30
0.0
 10
66.8181471267
 20
72.9787903756
 30
0.0
 10
66.6904778041
 20
73.1407552417
 30
0.0
 10
66.5423747086
 20
73.2200729259
 30
0.0
 10
66.4112011243
 20
73.2521336436
 30
0.0
 10
66.30476202
 20
73.2602688427
 30
0.0
 10
66.1972184729
 20
73.2520236364
 30
0.0
 10
66.062483606
 20
73.2188515904
 30
0.0
 10
65.9130988977
 20
73.1343531227
 30
0.0
 10
65.7916522436
 20
72.9613430866
 30
0.0
 10
65.7682760339
 20
72.820048022
 30
0.0
 10
65.7682760339
 20
72.7469059801
 30
0.0
  0
SPLINE
  5
3F8
330
1B
100
AcDbEntity
 67
     1
  8
7_ALL_FEATURES
  6
Continuous
 62
     7
100
AcDbSpline
 70
     0
 71
     3
 72
    11
 73
     7
 74
     0
 42
0.000000001
 43
0.0000001
 40
0.0
 40
0.0
 40
0.0
 40
0.0
 40
0.2506404223
 40
0.5047200834
 40
0.7509952871
 40
1.0
 40
1.0
 40
1.0
 40
1.0
 10
66.4212878877
 20
72.1898420037
 30
0.0
 10
66.4716644623
 20
72.2266359188
 30
0.0
 10
66.5724943777
 20
72.3016779078
 30
0.0
 10
66.7100149159
 20
72.4292679899
 30
0.0
 10
66.8174443761
 20
72.584960898
 30
0.0
 10
66.8451866021
 20
72.7096253045
 30
0.0
 10
66.8451866021
 20
72.7716008095
 30
0.0
  0
LINE
  5
3F9
330
1B
100
AcDbEntity
 67
     1
  8
7_ALL_FEATURES
  6
Continuous
 62
     7
100
AcDbLine
 10
66.9071280063
 20
71.6019532756
 30
0.0
 11
66.4212878877
 21
72.1898420037
 31
0.0
  0
LINE
  5
3FA
330
1B
100
AcDbEntity
 67
     1
  8
7_ALL_FEATURES
  6
Continuous
 62
     7
100
AcDbLine
 10
67.179413312
 20
71.9176734585
 30
0.0
 11
66.9071280063
 21
71.6019532756
 31
0.0
  0
LINE
  5
3FB
330
1B
100
AcDbEntity
 67
     1
  8
7_ALL_FEATURES
  6
Continuous
 62
     7
100
AcDbLine
 10
67.365062384
 20
71.7256025632
 30
0.0
 11
67.179413312
 21
71.9176734585
 31
0.0
  0
LINE
  5
3FC
330
1B
100
AcDbEntity
 67
     1
  8
7_ALL_FEATURES
  6
Continuous
 62
     7
100
AcDbLine
 10
67.0803420933
 20
71.391550994
 30
0.0
 11
67.365062384
 21
71.7256025632
 31
0.0
  0
LINE
  5
3FD
330
1B
100
AcDbEntity
 67
     1
  8
7_ALL_FEATURES
  6
Continuous
 62
     7
100
AcDbLine
 10
67.4981692658
 20
70.8746526029
 30
0.0
 11
67.0803420933
 21
71.391550994
 31
0.0
  0
LINE
  5
3FE
330
1B
100
AcDbEntity
 67
     1
  8
7_ALL_FEATURES
  6
Continuous
 62
     7
100
AcDbLine
 10
65.3388311994
 20
71.1408663666
 30
0.0
 11
64.6301830042
 21
71.1408663666
 31
0.0
  0
LINE
  5
3FF
330
1B
100
AcDbEntity
 67
     1
  8
7_ALL_FEATURES
  6
Continuous
 62
     7
100
AcDbLine
 10
67.1391893464
 20
70.8746526029
 30
0.0
 11
67.4981692658
 21
70.8746526029
 31
0.0
  0
LINE
  5
400
330
1B
100
AcDbEntity
 67
     1
  8
7_ALL_FEATURES
  6
Continuous
 62
     7
100
AcDbLine
 10
68.6709109509
 20
71.1408663666
 30
0.0
 11
67.9621168052
 21
71.1408663666
 31
0.0
  0
LINE
  5
401
330
1B
100
AcDbEntity
 67
     1
  8
7_ALL_FEATURES
  6
Continuous
 62
     7
100
AcDbLine
 10
67.6712665924
 20
70.8747693633
 30
0.0
 11
68.6709109509
 21
70.8747693633
 31
0.0
  0
LINE
  5
402
330
1B
100
AcDbEntity
 67
     1
  8
7_ALL_FEATURES
  6
Continuous
 62
     7
100
AcDbLine
 10
64.3392160309
 20
70.8747693633
 30
0.0
 11
65.3388311994
 21
70.8747693633
 31
0.0
  0
LINE
  5
403
330
1B
100
AcDbEntity
 67
     1
  8
7_ALL_FEATURES
  6
Continuous
 62
     7
100
AcDbLine
 10
63.9721504522
 20
70.4226730068
 30
0.0
 11
68.9721528413
 21
70.4226730068
 31
0.0
  0
LINE
  5
404
330
1B
100
AcDbEntity
 67
     1
  8
7_ALL_FEATURES
  6
Continuous
 62
     7
100
AcDbLine
 10
66.2944276885
 20
72.4158901819
 30
0.0
 11
66.2572394939
 21
72.3912537327
 31
0.0
  0
SPLINE
  5
405
330
1B
100
AcDbEntity
 67
     1
  8
7_ALL_FEATURES
  6
Continuous
 62
     7
100
AcDbSpline
 70
     0
 71
     3
 72
    11
 73
     7
 74
     0
 42
0.000000001
 43
0.0000001
 40
0.0
 40
0.0
 40
0.0
 40
0.0
 40
0.2504725281
 40
0.496381803
 40
0.7511071037
 40
1.0
 40
1.0
 40
1.0
 40
1.0
 10
66.5729012965
 20
72.7748409112
 30
0.0
 10
66.5729012965
 20
72.7355072624
 30
0.0
 10
66.5536807804
 20
72.6563979217
 30
0.0
 10
66.4795503734
 20
72.5622136931
 30
0.0
 10
66.3890431061
 20
72.4866759212
 30
0.0
 10
66.3251164051
 20
72.4400952595
 30
0.0
 10
66.2944276885
 20
72.4158901819
 30
0.0
  0
SPLINE
  5
406
330
1B
100
AcDbEntity
 67
     1
  8
7_ALL_FEATURES
  6
Continuous
 62
     7
100
AcDbSpline
 70
     0
 71
     3
 72
    10
 73
     6
 74
     0
 42
0.000000001
 43
0.0000001
 40
0.0
 40
0.0
 40
0.0
 40
0.0
 40
0.4952875374
 40
0.7322567619
 40
1.0
 40
1.0
 40
1.0
 40
1.0
 10
66.3005284205
 20
73.0285321195
 30
0.0
 10
66.368837197
 20
73.0285321195
 30
0.0
 10
66.47848563
 20
72.9990077948
 30
0.0
 10
66.5613188977
 20
72.8828067151
 30
0.0
 10
66.5729012965
 20
72.8117673663
 30
0.0
 10
66.5729012965
 20
72.7748409112
 30
0.0
  0
SPLINE
  5
407
330
1B
100
AcDbEntity
 67
     1
  8
7_ALL_FEATURES
  6
Continuous
 62
     7
100
AcDbSpline
 70
     0
 71
     3
 72
    21
 73
    17
 74
     0
 42
0.000000001
 43
0.0000001
 40
0.0
 40
0.0
 40
0.0
 40
0.0
 40
0.113532822
 40
0.225675151
 40
0.2811462738
 40
0.3366967504
 40
0.3932028375
 40
0.4222309888
 40
0.45202846
 40
0.4895210857
 40
0.5257031608
 40
0.5950939447
 40
0.6621762677
 40
0.7283962835
 40
0.8614412499
 40
1.0
 40
1.0
 40
1.0
 40
1.0
 10
66.1799440941
 20
72.4901498107
 30
0.0
 10
66.162886228
 20
72.5117987755
 30
0.0
 10
66.1287656059
 20
72.554644455
 30
0.0
 10
66.0903710523
 20
72.6113311972
 30
0.0
 10
66.0660042947
 20
72.6598191948
 30
0.0
 10
66.0518403104
 20
72.6980466802
 30
0.0
 10
66.0442685968
 20
72.7315774555
 30
0.0
 10
66.0411268195
 20
72.759421624
 30
0.0
 10
66.0402398451
 20
72.7828085228
 30
0.0
 10
66.0414812963
 20
72.8079447692
 30
0.0
 10
66.0468245069
 20
72.842314759
 30
0.0
 10
66.0597753067
 20
72.8825402162
 30
0.0
 10
66.0846616715
 20
72.9254157333
 30
0.0
 10
66.12818454
 20
72.9737747021
 30
0.0
 10
66.2003141946
 20
73.0170384644
 30
0.0
 10
66.2668912963
 20
73.0285321195
 30
0.0
 10
66.3005284205
 20
73.0285321195
 30
0.0
  0
LINE
  5
408
330
1B
100
AcDbEntity
 67
     1
  8
7_ALL_FEATURES
  6
Continuous
 62
     7
100
AcDbLine
 10
66.2572394939
 20
72.3912537327
 30
0.0
 11
66.1799440941
 21
72.4901498107
 31
0.0
  0
LINE
  5
409
330
1B
100
AcDbEntity
 67
     1
  8
7_ALL_FEATURES
  6
Continuous
 62
     7
100
AcDbLine
 10
66.167509109
 20
72.007345463
 30
0.0
 11
66.1953564698
 21
72.0259103702
 31
0.0
  0
SPLINE
  5
40A
330
1B
100
AcDbEntity
 67
     1
  8
7_ALL_FEATURES
  6
Continuous
 62
     7
100
AcDbSpline
 70
     0
 71
     3
 72
    11
 73
     7
 74
     0
 42
0.000000001
 43
0.0000001
 40
0.0
 40
0.0
 40
0.0
 40
0.0
 40
0.2395309727
 40
0.4285764247
 40
0.6263623505
 40
1.0
 40
1.0
 40
1.0
 40
1.0
 10
65.7435812045
 20
71.515317042
 30
0.0
 10
65.7435812045
 20
71.5690640161
 30
0.0
 10
65.77423424
 20
71.6658372661
 30
0.0
 10
65.8627360826
 20
71.7759842575
 30
0.0
 10
65.9909287527
 20
71.8895073588
 30
0.0
 10
66.0985931343
 20
71.9596017155
 30
0.0
 10
66.167509109
 20
72.007345463
 30
0.0
  0
SPLINE
  5
40B
330
1B
100
AcDbEntity
 67
     1
  8
7_ALL_FEATURES
  6
Continuous
 62
     7
100
AcDbSpline
 70
     0
 71
     3
 72
     9
 73
     5
 74
     0
 42
0.000000001
 43
0.0000001
 40
0.0
 40
0.0
 40
0.0
 40
0.0
 40
0.5005139184
 40
1.0
 40
1.0
 40
1.0
 40
1.0
 10
66.1767623725
 20
71.0850548845
 30
0.0
 10
66.0675341764
 20
71.0850548845
 30
0.0
 10
65.8480565244
 20
71.1871859098
 30
0.0
 10
65.7435812045
 20
71.4063131528
 30
0.0
 10
65.7435812045
 20
71.515317042
 30
0.0
  0
LINE
  5
40C
330
1B
100
AcDbEntity
 67
     1
  8
7_ALL_FEATURES
  6
Continuous
 62
     7
100
AcDbLine
 10
66.1953564698
 20
72.0259103702
 30
0.0
 11
66.7120797203
 21
71.3947035254
 31
0.0
  0
SPLINE
  5
40D
330
1B
100
AcDbEntity
 67
     1
  8
7_ALL_FEATURES
  6
Continuous
 62
     7
100
AcDbSpline
 70
     0
 71
     3
 72
    10
 73
     6
 74
     0
 42
0.000000001
 43
0.0000001
 40
0.0
 40
0.0
 40
0.0
 40
0.0
 40
0.5037044435
 40
0.7520878066
 40
1.0
 40
1.0
 40
1.0
 40
1.0
 10
66.7120797203
 20
71.3947035254
 30
0.0
 10
66.6368745693
 20
71.3194379687
 30
0.0
 10
66.5217060391
 20
71.2075836122
 30
0.0
 10
66.3346145152
 20
71.1054328498
 30
0.0
 10
66.2291295428
 20
71.0850548845
 30
0.0
 10
66.1767623725
 20
71.0850548845
 30
0.0
  0
SPLINE
  5
40E
330
1B
100
AcDbEntity
 67
     1
  8
7_ALL_FEATURES
  6
Continuous
 62
     7
100
AcDbSpline
 70
     0
 71
     3
 72
     9
 73
     5
 74
     0
 42
0.000000001
 43
0.0000001
 40
0.0
 40
0.0
 40
0.0
 40
0.0
 40
0.2491323432
 40
1.0
 40
1.0
 40
1.0
 40
1.0
 10
66.6870944297
 20
71.0036671218
 30
0.0
 10
66.7053004734
 20
71.0171689552
 30
0.0
 10
66.7766894353
 20
71.0736585873
 30
0.0
 10
66.8411802441
 20
71.138327108
 30
0.0
 10
66.8854105677
 20
71.1902560253
 30
0.0
  0
LINE
  5
40F
330
1B
100
AcDbEntity
 67
     1
  8
7_ALL_FEATURES
  6
Continuous
 62
     7
100
AcDbLine
 10
101.7595318583
 20
37.6352939898
 30
0.0
 11
101.7595318583
 21
36.8352939898
 31
0.0
  0
LINE
  5
410
330
1B
100
AcDbEntity
 67
     1
  8
7_ALL_FEATURES
  6
Continuous
 62
     7
100
AcDbLine
 10
101.7595318583
 20
36.8352939898
 30
0.0
 11
53.3595318583
 21
36.8352939898
 31
0.0
  0
LINE
  5
411
330
1B
100
AcDbEntity
 67
     1
  8
7_ALL_FEATURES
  6
Continuous
 62
     7
100
AcDbLine
 10
53.3595318583
 20
37.6352939898
 30
0.0
 11
53.3595318583
 21
36.8352939898
 31
0.0
  0
LINE
  5
412
330
1B
100
AcDbEntity
 67
     1
  8
7_ALL_FEATURES
  6
Continuous
 62
     7
100
AcDbLine
 10
101.7595318583
 20
85.2352939898
 30
0.0
 11
102.5595318583
 21
85.2352939898
 31
0.0
  0
LINE
  5
413
330
1B
100
AcDbEntity
 67
     1
  8
7_ALL_FEATURES
  6
Continuous
 62
     7
100
AcDbLine
 10
102.5595318583
 20
85.2352939898
 30
0.0
 11
102.5595318583
 21
36.8352939898
 31
0.0
  0
LINE
  5
414
330
1B
100
AcDbEntity
 67
     1
  8
7_ALL_FEATURES
  6
Continuous
 62
     7
100
AcDbLine
 10
101.7595318583
 20
36.8352939898
 30
0.0
 11
102.5595318583
 21
36.8352939898
 31
0.0
  0
LINE
  5
415
330
1B
100
AcDbEntity
 67
     1
  8
7_ALL_FEATURES
  6
Continuous
 62
     7
100
AcDbLine
 10
54.1595318583
 20
86.0352939898
 30
0.0
 11
53.3595318583
 21
86.0352939898
 31
0.0
  0
LINE
  5
416
330
1B
100
AcDbEntity
 67
     1
  8
7_ALL_FEATURES
  6
Continuous
 62
     7
100
AcDbLine
 10
102.5595318583
 20
85.2352939898
 30
0.0
 11
102.5595318583
 21
86.0352939898
 31
0.0
  0
LINE
  5
417
330
1B
100
AcDbEntity
 67
     1
  8
7_ALL_FEATURES
  6
Continuous
 62
     7
100
AcDbLine
 10
54.1595318583
 20
86.0352939898
 30
0.0
 11
102.5595318583
 21
86.0352939898
 31
0.0
  0
LINE
  5
418
330
1B
100
AcDbEntity
 67
     1
  8
7_ALL_FEATURES
  6
Continuous
 62
     7
100
AcDbLine
 10
54.1595318583
 20
85.2352939898
 30
0.0
 11
54.1595318583
 21
86.0352939898
 31
0.0
  0
LINE
  5
419
330
1B
100
AcDbEntity
 67
     1
  8
7_ALL_FEATURES
  6
Continuous
 62
     7
100
AcDbLine
 10
53.3595318583
 20
37.6352939898
 30
0.0
 11
53.3595318583
 21
86.0352939898
 31
0.0
  0
LINE
  5
41A
330
1B
100
AcDbEntity
 67
     1
  8
7_ALL_FEATURES
  6
Continuous
 62
     7
100
AcDbLine
 10
54.1595318583
 20
37.6352939898
 30
0.0
 11
53.3595318583
 21
37.6352939898
 31
0.0
  0
ARC
  5
41B
330
1B
100
AcDbEntity
 67
     1
  8
02___PRT_ALL_AXES
  6
Continuous
 62
     7
100
AcDbCircle
 10
119.3838690065
 20
47.4352939898
 30
0.0
 40
1.0
100
AcDbArc
 50
180.0
 51
360.0
  0
ARC
  5
41C
330
1B
100
AcDbEntity
 67
     1
  8
02___PRT_ALL_AXES
  6
Continuous
 62
     7
100
AcDbCircle
 10
119.3838690065
 20
47.4352939898
 30
0.0
 40
1.0
100
AcDbArc
 50
0.0
 51
180.0
  0
ARC
  5
41D
330
1B
100
AcDbEntity
 67
     1
  8
02___PRT_ALL_AXES
  6
Continuous
 62
     7
100
AcDbCircle
 10
119.3838690065
 20
51.4352939898
 30
0.0
 40
1.0
100
AcDbArc
 50
180.0
 51
360.0
  0
ARC
  5
41E
330
1B
100
AcDbEntity
 67
     1
  8
02___PRT_ALL_AXES
  6
Continuous
 62
     7
100
AcDbCircle
 10
119.3838690065
 20
51.4352939898
 30
0.0
 40
1.0
100
AcDbArc
 50
0.0
 51
180.0
  0
ARC
  5
41F
330
1B
100
AcDbEntity
 67
     1
  8
02___PRT_ALL_AXES
  6
Continuous
 62
     7
100
AcDbCircle
 10
119.3838690065
 20
55.4352939898
 30
0.0
 40
1.0
100
AcDbArc
 50
180.0
 51
360.0
  0
ARC
  5
420
330
1B
100
AcDbEntity
 67
     1
  8
02___PRT_ALL_AXES
  6
Continuous
 62
     7
100
AcDbCircle
 10
119.3838690065
 20
55.4352939898
 30
0.0
 40
1.0
100
AcDbArc
 50
0.0
 51
180.0
  0
ARC
  5
421
330
1B
100
AcDbEntity
 67
     1
  8
02___PRT_ALL_AXES
  6
Continuous
 62
     7
100
AcDbCircle
 10
119.3838690065
 20
59.4352939898
 30
0.0
 40
1.0
100
AcDbArc
 50
180.0
 51
360.0
  0
ARC
  5
422
330
1B
100
AcDbEntity
 67
     1
  8
02___PRT_ALL_AXES
  6
Continuous
 62
     7
100
AcDbCircle
 10
119.3838690065
 20
59.4352939898
 30
0.0
 40
1.0
100
AcDbArc
 50
0.0
 51
180.0
  0
ARC
  5
423
330
1B
100
AcDbEntity
 67
     1
  8
02___PRT_ALL_AXES
  6
Continuous
 62
     7
100
AcDbCircle
 10
119.3838690065
 20
63.4352939898
 30
0.0
 40
1.0
100
AcDbArc
 50
180.0
 51
360.0
  0
ARC
  5
424
330
1B
100
AcDbEntity
 67
     1
  8
02___PRT_ALL_AXES
  6
Continuous
 62
     7
100
AcDbCircle
 10
119.3838690065
 20
63.4352939898
 30
0.0
 40
1.0
100
AcDbArc
 50
0.0
 51
180.0
  0
ARC
  5
425
330
1B
100
AcDbEntity
 67
     1
  8
02___PRT_ALL_AXES
  6
Continuous
 62
     7
100
AcDbCircle
 10
119.3838690065
 20
67.4352939898
 30
0.0
 40
1.0
100
AcDbArc
 50
180.0
 51
360.0
  0
ARC
  5
426
330
1B
100
AcDbEntity
 67
     1
  8
02___PRT_ALL_AXES
  6
Continuous
 62
     7
100
AcDbCircle
 10
119.3838690065
 20
67.4352939898
 30
0.0
 40
1.0
100
AcDbArc
 50
0.0
 51
180.0
  0
ARC
  5
427
330
1B
100
AcDbEntity
 67
     1
  8
02___PRT_ALL_AXES
  6
Continuous
 62
     7
100
AcDbCircle
 10
119.3838690065
 20
71.4352939898
 30
0.0
 40
1.0
100
AcDbArc
 50
180.0
 51
360.0
  0
ARC
  5
428
330
1B
100
AcDbEntity
 67
     1
  8
02___PRT_ALL_AXES
  6
Continuous
 62
     7
100
AcDbCircle
 10
119.3838690065
 20
71.4352939898
 30
0.0
 40
1.0
100
AcDbArc
 50
0.0
 51
180.0
  0
ARC
  5
429
330
1B
100
AcDbEntity
 67
     1
  8
02___PRT_ALL_AXES
  6
Continuous
 62
     7
100
AcDbCircle
 10
119.3838690065
 20
75.4352939898
 30
0.0
 40
1.0
100
AcDbArc
 50
180.0
 51
360.0
  0
ARC
  5
42A
330
1B
100
AcDbEntity
 67
     1
  8
02___PRT_ALL_AXES
  6
Continuous
 62
     7
100
AcDbCircle
 10
119.3838690065
 20
75.4352939898
 30
0.0
 40
1.0
100
AcDbArc
 50
0.0
 51
180.0
  0
ARC
  5
42B
330
1B
100
AcDbEntity
 67
     1
  8
02___PRT_ALL_AXES
  6
Continuous
 62
     7
100
AcDbCircle
 10
115.9197673913
 20
45.4352939898
 30
0.0
 40
1.0
100
AcDbArc
 50
180.0
 51
360.0
  0
ARC
  5
42C
330
1B
100
AcDbEntity
 67
     1
  8
02___PRT_ALL_AXES
  6
Continuous
 62
     7
100
AcDbCircle
 10
115.9197673913
 20
45.4352939898
 30
0.0
 40
1.0
100
AcDbArc
 50
0.0
 51
180.0
  0
ARC
  5
42D
330
1B
100
AcDbEntity
 67
     1
  8
02___PRT_ALL_AXES
  6
Continuous
 62
     7
100
AcDbCircle
 10
115.9197673913
 20
49.4352939898
 30
0.0
 40
1.0
100
AcDbArc
 50
180.0
 51
360.0
  0
ARC
  5
42E
330
1B
100
AcDbEntity
 67
     1
  8
02___PRT_ALL_AXES
  6
Continuous
 62
     7
100
AcDbCircle
 10
115.9197673913
 20
49.4352939898
 30
0.0
 40
1.0
100
AcDbArc
 50
0.0
 51
180.0
  0
ARC
  5
42F
330
1B
100
AcDbEntity
 67
     1
  8
02___PRT_ALL_AXES
  6
Continuous
 62
     7
100
AcDbCircle
 10
115.9197673913
 20
53.4352939898
 30
0.0
 40
1.0
100
AcDbArc
 50
180.0
 51
360.0
  0
ARC
  5
430
330
1B
100
AcDbEntity
 67
     1
  8
02___PRT_ALL_AXES
  6
Continuous
 62
     7
100
AcDbCircle
 10
115.9197673913
 20
53.4352939898
 30
0.0
 40
1.0
100
AcDbArc
 50
0.0
 51
180.0
  0
ARC
  5
431
330
1B
100
AcDbEntity
 67
     1
  8
02___PRT_ALL_AXES
  6
Continuous
 62
     7
100
AcDbCircle
 10
115.9197673913
 20
57.4352939898
 30
0.0
 40
1.0
100
AcDbArc
 50
180.0
 51
360.0
  0
ARC
  5
432
330
1B
100
AcDbEntity
 67
     1
  8
02___PRT_ALL_AXES
  6
Continuous
 62
     7
100
AcDbCircle
 10
115.9197673913
 20
57.4352939898
 30
0.0
 40
1.0
100
AcDbArc
 50
0.0
 51
180.0
  0
ARC
  5
433
330
1B
100
AcDbEntity
 67
     1
  8
02___PRT_ALL_AXES
  6
Continuous
 62
     7
100
AcDbCircle
 10
115.9197673913
 20
61.4352939898
 30
0.0
 40
1.0
100
AcDbArc
 50
180.0
 51
360.0
  0
ARC
  5
434
330
1B
100
AcDbEntity
 67
     1
  8
02___PRT_ALL_AXES
  6
Continuous
 62
     7
100
AcDbCircle
 10
115.9197673913
 20
61.4352939898
 30
0.0
 40
1.0
100
AcDbArc
 50
0.0
 51
180.0
  0
ARC
  5
435
330
1B
100
AcDbEntity
 67
     1
  8
02___PRT_ALL_AXES
  6
Continuous
 62
     7
100
AcDbCircle
 10
115.9197673913
 20
65.4352939898
 30
0.0
 40
1.0
100
AcDbArc
 50
180.0
 51
360.0
  0
ARC
  5
436
330
1B
100
AcDbEntity
 67
     1
  8
02___PRT_ALL_AXES
  6
Continuous
 62
     7
100
AcDbCircle
 10
115.9197673913
 20
65.4352939898
 30
0.0
 40
1.0
100
AcDbArc
 50
0.0
 51
180.0
  0
ARC
  5
437
330
1B
100
AcDbEntity
 67
     1
  8
02___PRT_ALL_AXES
  6
Continuous
 62
     7
100
AcDbCircle
 10
115.9197673913
 20
69.4352939898
 30
0.0
 40
1.0
100
AcDbArc
 50
180.0
 51
360.0
  0
ARC
  5
438
330
1B
100
AcDbEntity
 67
     1
  8
02___PRT_ALL_AXES
  6
Continuous
 62
     7
100
AcDbCircle
 10
115.9197673913
 20
69.4352939898
 30
0.0
 40
1.0
100
AcDbArc
 50
0.0
 51
180.0
  0
ARC
  5
439
330
1B
100
AcDbEntity
 67
     1
  8
02___PRT_ALL_AXES
  6
Continuous
 62
     7
100
AcDbCircle
 10
115.9197673913
 20
73.4352939898
 30
0.0
 40
1.0
100
AcDbArc
 50
180.0
 51
360.0
  0
ARC
  5
43A
330
1B
100
AcDbEntity
 67
     1
  8
02___PRT_ALL_AXES
  6
Continuous
 62
     7
100
AcDbCircle
 10
115.9197673913
 20
73.4352939898
 30
0.0
 40
1.0
100
AcDbArc
 50
0.0
 51
180.0
  0
ARC
  5
43B
330
1B
100
AcDbEntity
 67
     1
  8
02___PRT_ALL_AXES
  6
Continuous
 62
     7
100
AcDbCircle
 10
115.9197673913
 20
77.4352939898
 30
0.0
 40
1.0
100
AcDbArc
 50
180.0
 51
360.0
  0
ARC
  5
43C
330
1B
100
AcDbEntity
 67
     1
  8
02___PRT_ALL_AXES
  6
Continuous
 62
     7
100
AcDbCircle
 10
115.9197673913
 20
77.4352939898
 30
0.0
 40
1.0
100
AcDbArc
 50
0.0
 51
180.0
  0
ARC
  5
43D
330
1B
100
AcDbEntity
 67
     1
  8
02___PRT_ALL_AXES
  6
Continuous
 62
     7
100
AcDbCircle
 10
112.4556657762
 20
43.4352939898
 30
0.0
 40
1.0
100
AcDbArc
 50
180.0
 51
360.0
  0
ARC
  5
43E
330
1B
100
AcDbEntity
 67
     1
  8
02___PRT_ALL_AXES
  6
Continuous
 62
     7
100
AcDbCircle
 10
112.4556657762
 20
43.4352939898
 30
0.0
 40
1.0
100
AcDbArc
 50
0.0
 51
180.0
  0
ARC
  5
43F
330
1B
100
AcDbEntity
 67
     1
  8
02___PRT_ALL_AXES
  6
Continuous
 62
     7
100
AcDbCircle
 10
112.4556657762
 20
47.4352939898
 30
0.0
 40
1.0
100
AcDbArc
 50
180.0
 51
360.0
  0
ARC
  5
440
330
1B
100
AcDbEntity
 67
     1
  8
02___PRT_ALL_AXES
  6
Continuous
 62
     7
100
AcDbCircle
 10
112.4556657762
 20
47.4352939898
 30
0.0
 40
1.0
100
AcDbArc
 50
0.0
 51
180.0
  0
ARC
  5
441
330
1B
100
AcDbEntity
 67
     1
  8
02___PRT_ALL_AXES
  6
Continuous
 62
     7
100
AcDbCircle
 10
112.4556657762
 20
51.4352939898
 30
0.0
 40
1.0
100
AcDbArc
 50
180.0
 51
360.0
  0
ARC
  5
442
330
1B
100
AcDbEntity
 67
     1
  8
02___PRT_ALL_AXES
  6
Continuous
 62
     7
100
AcDbCircle
 10
112.4556657762
 20
51.4352939898
 30
0.0
 40
1.0
100
AcDbArc
 50
0.0
 51
180.0
  0
ARC
  5
443
330
1B
100
AcDbEntity
 67
     1
  8
02___PRT_ALL_AXES
  6
Continuous
 62
     7
100
AcDbCircle
 10
112.4556657762
 20
55.4352939898
 30
0.0
 40
1.0
100
AcDbArc
 50
180.0
 51
360.0
  0
ARC
  5
444
330
1B
100
AcDbEntity
 67
     1
  8
02___PRT_ALL_AXES
  6
Continuous
 62
     7
100
AcDbCircle
 10
112.4556657762
 20
55.4352939898
 30
0.0
 40
1.0
100
AcDbArc
 50
0.0
 51
180.0
  0
ARC
  5
445
330
1B
100
AcDbEntity
 67
     1
  8
02___PRT_ALL_AXES
  6
Continuous
 62
     7
100
AcDbCircle
 10
112.4556657762
 20
59.4352939898
 30
0.0
 40
1.0
100
AcDbArc
 50
180.0
 51
360.0
  0
ARC
  5
446
330
1B
100
AcDbEntity
 67
     1
  8
02___PRT_ALL_AXES
  6
Continuous
 62
     7
100
AcDbCircle
 10
112.4556657762
 20
59.4352939898
 30
0.0
 40
1.0
100
AcDbArc
 50
0.0
 51
180.0
  0
ARC
  5
447
330
1B
100
AcDbEntity
 67
     1
  8
02___PRT_ALL_AXES
  6
Continuous
 62
     7
100
AcDbCircle
 10
112.4556657762
 20
63.4352939898
 30
0.0
 40
1.0
100
AcDbArc
 50
180.0
 51
360.0
  0
ARC
  5
448
330
1B
100
AcDbEntity
 67
     1
  8
02___PRT_ALL_AXES
  6
Continuous
 62
     7
100
AcDbCircle
 10
112.4556657762
 20
63.4352939898
 30
0.0
 40
1.0
100
AcDbArc
 50
0.0
 51
180.0
  0
ARC
  5
449
330
1B
100
AcDbEntity
 67
     1
  8
02___PRT_ALL_AXES
  6
Continuous
 62
     7
100
AcDbCircle
 10
112.4556657762
 20
67.4352939898
 30
0.0
 40
1.0
100
AcDbArc
 50
180.0
 51
360.0
  0
ARC
  5
44A
330
1B
100
AcDbEntity
 67
     1
  8
02___PRT_ALL_AXES
  6
Continuous
 62
     7
100
AcDbCircle
 10
112.4556657762
 20
67.4352939898
 30
0.0
 40
1.0
100
AcDbArc
 50
0.0
 51
180.0
  0
ARC
  5
44B
330
1B
100
AcDbEntity
 67
     1
  8
02___PRT_ALL_AXES
  6
Continuous
 62
     7
100
AcDbCircle
 10
112.4556657762
 20
71.4352939898
 30
0.0
 40
1.0
100
AcDbArc
 50
180.0
 51
360.0
  0
ARC
  5
44C
330
1B
100
AcDbEntity
 67
     1
  8
02___PRT_ALL_AXES
  6
Continuous
 62
     7
100
AcDbCircle
 10
112.4556657762
 20
71.4352939898
 30
0.0
 40
1.0
100
AcDbArc
 50
0.0
 51
180.0
  0
ARC
  5
44D
330
1B
100
AcDbEntity
 67
     1
  8
02___PRT_ALL_AXES
  6
Continuous
 62
     7
100
AcDbCircle
 10
112.4556657762
 20
75.4352939898
 30
0.0
 40
1.0
100
AcDbArc
 50
180.0
 51
360.0
  0
ARC
  5
44E
330
1B
100
AcDbEntity
 67
     1
  8
02___PRT_ALL_AXES
  6
Continuous
 62
     7
100
AcDbCircle
 10
112.4556657762
 20
75.4352939898
 30
0.0
 40
1.0
100
AcDbArc
 50
0.0
 51
180.0
  0
ARC
  5
44F
330
1B
100
AcDbEntity
 67
     1
  8
02___PRT_ALL_AXES
  6
Continuous
 62
     7
100
AcDbCircle
 10
112.4556657762
 20
79.4352939898
 30
0.0
 40
1.0
100
AcDbArc
 50
180.0
 51
360.0
  0
ARC
  5
450
330
1B
100
AcDbEntity
 67
     1
  8
02___PRT_ALL_AXES
  6
Continuous
 62
     7
100
AcDbCircle
 10
112.4556657762
 20
79.4352939898
 30
0.0
 40
1.0
100
AcDbArc
 50
0.0
 51
180.0
  0
ARC
  5
451
330
1B
100
AcDbEntity
 67
     1
  8
02___PRT_ALL_AXES
  6
Continuous
 62
     7
100
AcDbCircle
 10
43.1736334735
 20
43.4352939898
 30
0.0
 40
1.0
100
AcDbArc
 50
180.0
 51
360.0
  0
ARC
  5
452
330
1B
100
AcDbEntity
 67
     1
  8
02___PRT_ALL_AXES
  6
Continuous
 62
     7
100
AcDbCircle
 10
43.1736334735
 20
43.4352939898
 30
0.0
 40
1.0
100
AcDbArc
 50
0.0
 51
180.0
  0
ARC
  5
453
330
1B
100
AcDbEntity
 67
     1
  8
02___PRT_ALL_AXES
  6
Continuous
 62
     7
100
AcDbCircle
 10
43.1736334735
 20
79.4352939898
 30
0.0
 40
1.0
100
AcDbArc
 50
180.0
 51
360.0
  0
ARC
  5
454
330
1B
100
AcDbEntity
 67
     1
  8
02___PRT_ALL_AXES
  6
Continuous
 62
     7
100
AcDbCircle
 10
43.1736334735
 20
79.4352939898
 30
0.0
 40
1.0
100
AcDbArc
 50
0.0
 51
180.0
  0
ARC
  5
455
330
1B
100
AcDbEntity
 67
     1
  8
02___PRT_ALL_AXES
  6
Continuous
 62
     7
100
AcDbCircle
 10
43.1736334735
 20
47.4352939898
 30
0.0
 40
1.0
100
AcDbArc
 50
180.0
 51
360.0
  0
ARC
  5
456
330
1B
100
AcDbEntity
 67
     1
  8
02___PRT_ALL_AXES
  6
Continuous
 62
     7
100
AcDbCircle
 10
43.1736334735
 20
47.4352939898
 30
0.0
 40
1.0
100
AcDbArc
 50
0.0
 51
180.0
  0
ARC
  5
457
330
1B
100
AcDbEntity
 67
     1
  8
02___PRT_ALL_AXES
  6
Continuous
 62
     7
100
AcDbCircle
 10
43.1736334735
 20
75.4352939898
 30
0.0
 40
1.0
100
AcDbArc
 50
180.0
 51
360.0
  0
ARC
  5
458
330
1B
100
AcDbEntity
 67
     1
  8
02___PRT_ALL_AXES
  6
Continuous
 62
     7
100
AcDbCircle
 10
43.1736334735
 20
75.4352939898
 30
0.0
 40
1.0
100
AcDbArc
 50
0.0
 51
180.0
  0
ARC
  5
459
330
1B
100
AcDbEntity
 67
     1
  8
02___PRT_ALL_AXES
  6
Continuous
 62
     7
100
AcDbCircle
 10
39.7095318583
 20
77.4352939898
 30
0.0
 40
1.0
100
AcDbArc
 50
180.0
 51
360.0
  0
ARC
  5
45A
330
1B
100
AcDbEntity
 67
     1
  8
02___PRT_ALL_AXES
  6
Continuous
 62
     7
100
AcDbCircle
 10
39.7095318583
 20
77.4352939898
 30
0.0
 40
1.0
100
AcDbArc
 50
0.0
 51
180.0
  0
ARC
  5
45B
330
1B
100
AcDbEntity
 67
     1
  8
02___PRT_ALL_AXES
  6
Continuous
 62
     7
100
AcDbCircle
 10
36.2454302432
 20
75.4352939898
 30
0.0
 40
1.0
100
AcDbArc
 50
180.0
 51
360.0
  0
ARC
  5
45C
330
1B
100
AcDbEntity
 67
     1
  8
02___PRT_ALL_AXES
  6
Continuous
 62
     7
100
AcDbCircle
 10
36.2454302432
 20
75.4352939898
 30
0.0
 40
1.0
100
AcDbArc
 50
0.0
 51
180.0
  0
ARC
  5
45D
330
1B
100
AcDbEntity
 67
     1
  8
02___PRT_ALL_AXES
  6
Continuous
 62
     7
100
AcDbCircle
 10
36.2454302432
 20
47.4352939898
 30
0.0
 40
1.0
100
AcDbArc
 50
180.0
 51
360.0
  0
ARC
  5
45E
330
1B
100
AcDbEntity
 67
     1
  8
02___PRT_ALL_AXES
  6
Continuous
 62
     7
100
AcDbCircle
 10
36.2454302432
 20
47.4352939898
 30
0.0
 40
1.0
100
AcDbArc
 50
0.0
 51
180.0
  0
ARC
  5
45F
330
1B
100
AcDbEntity
 67
     1
  8
02___PRT_ALL_AXES
  6
Continuous
 62
     7
100
AcDbCircle
 10
39.7095318583
 20
45.4352939898
 30
0.0
 40
1.0
100
AcDbArc
 50
180.0
 51
360.0
  0
ARC
  5
460
330
1B
100
AcDbEntity
 67
     1
  8
02___PRT_ALL_AXES
  6
Continuous
 62
     7
100
AcDbCircle
 10
39.7095318583
 20
45.4352939898
 30
0.0
 40
1.0
100
AcDbArc
 50
0.0
 51
180.0
  0
ARC
  5
461
330
1B
100
AcDbEntity
 67
     1
  8
02___PRT_ALL_AXES
  6
Continuous
 62
     7
100
AcDbCircle
 10
43.1736334735
 20
51.4352939898
 30
0.0
 40
1.0
100
AcDbArc
 50
180.0
 51
360.0
  0
ARC
  5
462
330
1B
100
AcDbEntity
 67
     1
  8
02___PRT_ALL_AXES
  6
Continuous
 62
     7
100
AcDbCircle
 10
43.1736334735
 20
51.4352939898
 30
0.0
 40
1.0
100
AcDbArc
 50
0.0
 51
180.0
  0
ARC
  5
463
330
1B
100
AcDbEntity
 67
     1
  8
02___PRT_ALL_AXES
  6
Continuous
 62
     7
100
AcDbCircle
 10
43.1736334735
 20
71.4352939898
 30
0.0
 40
1.0
100
AcDbArc
 50
180.0
 51
360.0
  0
ARC
  5
464
330
1B
100
AcDbEntity
 67
     1
  8
02___PRT_ALL_AXES
  6
Continuous
 62
     7
100
AcDbCircle
 10
43.1736334735
 20
71.4352939898
 30
0.0
 40
1.0
100
AcDbArc
 50
0.0
 51
180.0
  0
ARC
  5
465
330
1B
100
AcDbEntity
 67
     1
  8
02___PRT_ALL_AXES
  6
Continuous
 62
     7
100
AcDbCircle
 10
39.7095318583
 20
73.4352939898
 30
0.0
 40
1.0
100
AcDbArc
 50
180.0
 51
360.0
  0
ARC
  5
466
330
1B
100
AcDbEntity
 67
     1
  8
02___PRT_ALL_AXES
  6
Continuous
 62
     7
100
AcDbCircle
 10
39.7095318583
 20
73.4352939898
 30
0.0
 40
1.0
100
AcDbArc
 50
0.0
 51
180.0
  0
ARC
  5
467
330
1B
100
AcDbEntity
 67
     1
  8
02___PRT_ALL_AXES
  6
Continuous
 62
     7
100
AcDbCircle
 10
36.2454302432
 20
71.4352939898
 30
0.0
 40
1.0
100
AcDbArc
 50
180.0
 51
360.0
  0
ARC
  5
468
330
1B
100
AcDbEntity
 67
     1
  8
02___PRT_ALL_AXES
  6
Continuous
 62
     7
100
AcDbCircle
 10
36.2454302432
 20
71.4352939898
 30
0.0
 40
1.0
100
AcDbArc
 50
0.0
 51
180.0
  0
ARC
  5
469
330
1B
100
AcDbEntity
 67
     1
  8
02___PRT_ALL_AXES
  6
Continuous
 62
     7
100
AcDbCircle
 10
36.2454302432
 20
51.4352939898
 30
0.0
 40
1.0
100
AcDbArc
 50
180.0
 51
360.0
  0
ARC
  5
46A
330
1B
100
AcDbEntity
 67
     1
  8
02___PRT_ALL_AXES
  6
Continuous
 62
     7
100
AcDbCircle
 10
36.2454302432
 20
51.4352939898
 30
0.0
 40
1.0
100
AcDbArc
 50
0.0
 51
180.0
  0
ARC
  5
46B
330
1B
100
AcDbEntity
 67
     1
  8
02___PRT_ALL_AXES
  6
Continuous
 62
     7
100
AcDbCircle
 10
39.7095318583
 20
49.4352939898
 30
0.0
 40
1.0
100
AcDbArc
 50
180.0
 51
360.0
  0
ARC
  5
46C
330
1B
100
AcDbEntity
 67
     1
  8
02___PRT_ALL_AXES
  6
Continuous
 62
     7
100
AcDbCircle
 10
39.7095318583
 20
49.4352939898
 30
0.0
 40
1.0
100
AcDbArc
 50
0.0
 51
180.0
  0
ARC
  5
46D
330
1B
100
AcDbEntity
 67
     1
  8
02___PRT_ALL_AXES
  6
Continuous
 62
     7
100
AcDbCircle
 10
43.1736334735
 20
55.4352939898
 30
0.0
 40
1.0
100
AcDbArc
 50
180.0
 51
360.0
  0
ARC
  5
46E
330
1B
100
AcDbEntity
 67
     1
  8
02___PRT_ALL_AXES
  6
Continuous
 62
     7
100
AcDbCircle
 10
43.1736334735
 20
55.4352939898
 30
0.0
 40
1.0
100
AcDbArc
 50
0.0
 51
180.0
  0
ARC
  5
46F
330
1B
100
AcDbEntity
 67
     1
  8
02___PRT_ALL_AXES
  6
Continuous
 62
     7
100
AcDbCircle
 10
43.1736334735
 20
67.4352939898
 30
0.0
 40
1.0
100
AcDbArc
 50
180.0
 51
360.0
  0
ARC
  5
470
330
1B
100
AcDbEntity
 67
     1
  8
02___PRT_ALL_AXES
  6
Continuous
 62
     7
100
AcDbCircle
 10
43.1736334735
 20
67.4352939898
 30
0.0
 40
1.0
100
AcDbArc
 50
0.0
 51
180.0
  0
ARC
  5
471
330
1B
100
AcDbEntity
 67
     1
  8
02___PRT_ALL_AXES
  6
Continuous
 62
     7
100
AcDbCircle
 10
39.7095318583
 20
69.4352939898
 30
0.0
 40
1.0
100
AcDbArc
 50
180.0
 51
360.0
  0
ARC
  5
472
330
1B
100
AcDbEntity
 67
     1
  8
02___PRT_ALL_AXES
  6
Continuous
 62
     7
100
AcDbCircle
 10
39.7095318583
 20
69.4352939898
 30
0.0
 40
1.0
100
AcDbArc
 50
0.0
 51
180.0
  0
ARC
  5
473
330
1B
100
AcDbEntity
 67
     1
  8
02___PRT_ALL_AXES
  6
Continuous
 62
     7
100
AcDbCircle
 10
36.2454302432
 20
67.4352939898
 30
0.0
 40
1.0
100
AcDbArc
 50
180.0
 51
360.0
  0
ARC
  5
474
330
1B
100
AcDbEntity
 67
     1
  8
02___PRT_ALL_AXES
  6
Continuous
 62
     7
100
AcDbCircle
 10
36.2454302432
 20
67.4352939898
 30
0.0
 40
1.0
100
AcDbArc
 50
0.0
 51
180.0
  0
ARC
  5
475
330
1B
100
AcDbEntity
 67
     1
  8
02___PRT_ALL_AXES
  6
Continuous
 62
     7
100
AcDbCircle
 10
36.2454302432
 20
55.4352939898
 30
0.0
 40
1.0
100
AcDbArc
 50
180.0
 51
360.0
  0
ARC
  5
476
330
1B
100
AcDbEntity
 67
     1
  8
02___PRT_ALL_AXES
  6
Continuous
 62
     7
100
AcDbCircle
 10
36.2454302432
 20
55.4352939898
 30
0.0
 40
1.0
100
AcDbArc
 50
0.0
 51
180.0
  0
ARC
  5
477
330
1B
100
AcDbEntity
 67
     1
  8
02___PRT_ALL_AXES
  6
Continuous
 62
     7
100
AcDbCircle
 10
39.7095318583
 20
53.4352939898
 30
0.0
 40
1.0
100
AcDbArc
 50
180.0
 51
360.0
  0
ARC
  5
478
330
1B
100
AcDbEntity
 67
     1
  8
02___PRT_ALL_AXES
  6
Continuous
 62
     7
100
AcDbCircle
 10
39.7095318583
 20
53.4352939898
 30
0.0
 40
1.0
100
AcDbArc
 50
0.0
 51
180.0
  0
ARC
  5
479
330
1B
100
AcDbEntity
 67
     1
  8
02___PRT_ALL_AXES
  6
Continuous
 62
     7
100
AcDbCircle
 10
43.1736334735
 20
59.4352939898
 30
0.0
 40
1.0
100
AcDbArc
 50
180.0
 51
360.0
  0
ARC
  5
47A
330
1B
100
AcDbEntity
 67
     1
  8
02___PRT_ALL_AXES
  6
Continuous
 62
     7
100
AcDbCircle
 10
43.1736334735
 20
59.4352939898
 30
0.0
 40
1.0
100
AcDbArc
 50
0.0
 51
180.0
  0
ARC
  5
47B
330
1B
100
AcDbEntity
 67
     1
  8
02___PRT_ALL_AXES
  6
Continuous
 62
     7
100
AcDbCircle
 10
43.1736334735
 20
63.4352939898
 30
0.0
 40
1.0
100
AcDbArc
 50
180.0
 51
360.0
  0
ARC
  5
47C
330
1B
100
AcDbEntity
 67
     1
  8
02___PRT_ALL_AXES
  6
Continuous
 62
     7
100
AcDbCircle
 10
43.1736334735
 20
63.4352939898
 30
0.0
 40
1.0
100
AcDbArc
 50
0.0
 51
180.0
  0
ARC
  5
47D
330
1B
100
AcDbEntity
 67
     1
  8
02___PRT_ALL_AXES
  6
Continuous
 62
     7
100
AcDbCircle
 10
39.7095318583
 20
65.4352939898
 30
0.0
 40
1.0
100
AcDbArc
 50
180.0
 51
360.0
  0
ARC
  5
47E
330
1B
100
AcDbEntity
 67
     1
  8
02___PRT_ALL_AXES
  6
Continuous
 62
     7
100
AcDbCircle
 10
39.7095318583
 20
65.4352939898
 30
0.0
 40
1.0
100
AcDbArc
 50
0.0
 51
180.0
  0
ARC
  5
47F
330
1B
100
AcDbEntity
 67
     1
  8
02___PRT_ALL_AXES
  6
Continuous
 62
     7
100
AcDbCircle
 10
36.2454302432
 20
63.4352939898
 30
0.0
 40
1.0
100
AcDbArc
 50
180.0
 51
360.0
  0
ARC
  5
480
330
1B
100
AcDbEntity
 67
     1
  8
02___PRT_ALL_AXES
  6
Continuous
 62
     7
100
AcDbCircle
 10
36.2454302432
 20
63.4352939898
 30
0.0
 40
1.0
100
AcDbArc
 50
0.0
 51
180.0
  0
ARC
  5
481
330
1B
100
AcDbEntity
 67
     1
  8
02___PRT_ALL_AXES
  6
Continuous
 62
     7
100
AcDbCircle
 10
36.2454302432
 20
59.4352939898
 30
0.0
 40
1.0
100
AcDbArc
 50
180.0
 51
360.0
  0
ARC
  5
482
330
1B
100
AcDbEntity
 67
     1
  8
02___PRT_ALL_AXES
  6
Continuous
 62
     7
100
AcDbCircle
 10
36.2454302432
 20
59.4352939898
 30
0.0
 40
1.0
100
AcDbArc
 50
0.0
 51
180.0
  0
ARC
  5
483
330
1B
100
AcDbEntity
 67
     1
  8
02___PRT_ALL_AXES
  6
Continuous
 62
     7
100
AcDbCircle
 10
39.7095318583
 20
57.4352939898
 30
0.0
 40
1.0
100
AcDbArc
 50
180.0
 51
360.0
  0
ARC
  5
484
330
1B
100
AcDbEntity
 67
     1
  8
02___PRT_ALL_AXES
  6
Continuous
 62
     7
100
AcDbCircle
 10
39.7095318583
 20
57.4352939898
 30
0.0
 40
1.0
100
AcDbArc
 50
0.0
 51
180.0
  0
ARC
  5
485
330
1B
100
AcDbEntity
 67
     1
  8
02___PRT_ALL_AXES
  6
Continuous
 62
     7
100
AcDbCircle
 10
39.7095318583
 20
61.4352939898
 30
0.0
 40
1.0
100
AcDbArc
 50
180.0
 51
360.0
  0
ARC
  5
486
330
1B
100
AcDbEntity
 67
     1
  8
02___PRT_ALL_AXES
  6
Continuous
 62
     7
100
AcDbCircle
 10
39.7095318583
 20
61.4352939898
 30
0.0
 40
1.0
100
AcDbArc
 50
0.0
 51
180.0
  0
LINE
  5
487
330
1B
100
AcDbEntity
 67
     1
  8
7_ALL_FEATURES
  6
Continuous
 62
     7
100
AcDbLine
 10
46.7095318583
 20
37.1852939898
 30
0.0
 11
53.3595318583
 21
37.1852939898
 31
0.0
  0
LINE
  5
488
330
1B
100
AcDbEntity
 67
     1
  8
7_ALL_FEATURES
  6
Continuous
 62
     7
100
AcDbLine
 10
102.5595318583
 20
37.1852939898
 30
0.0
 11
109.2095318583
 21
37.1852939898
 31
0.0
  0
LINE
  5
489
330
1B
100
AcDbEntity
 67
     1
  8
7_ALL_FEATURES
  6
Continuous
 62
     7
100
AcDbLine
 10
109.2095318583
 20
37.1852939898
 30
0.0
 11
124.2095318583
 21
47.688407063
 31
0.0
  0
LINE
  5
48A
330
1B
100
AcDbEntity
 67
     1
  8
7_ALL_FEATURES
  6
Continuous
 62
     7
100
AcDbLine
 10
124.2095318583
 20
47.688407063
 30
0.0
 11
124.2095318583
 21
75.1821809167
 31
0.0
  0
LINE
  5
48B
330
1B
100
AcDbEntity
 67
     1
  8
7_ALL_FEATURES
  6
Continuous
 62
     7
100
AcDbLine
 10
124.2095318583
 20
75.1821809167
 30
0.0
 11
109.2095318583
 21
85.6852939898
 31
0.0
  0
LINE
  5
48C
330
1B
100
AcDbEntity
 67
     1
  8
7_ALL_FEATURES
  6
Continuous
 62
     7
100
AcDbLine
 10
109.2095318583
 20
85.6852939898
 30
0.0
 11
102.5595318583
 21
85.6852939898
 31
0.0
  0
LINE
  5
48D
330
1B
100
AcDbEntity
 67
     1
  8
7_ALL_FEATURES
  6
Continuous
 62
     7
100
AcDbLine
 10
53.3595318583
 20
85.6852939898
 30
0.0
 11
46.7095318583
 21
85.6852939898
 31
0.0
  0
LINE
  5
48E
330
1B
100
AcDbEntity
 67
     1
  8
7_ALL_FEATURES
  6
Continuous
 62
     7
100
AcDbLine
 10
46.7095318583
 20
85.6852939898
 30
0.0
 11
31.7095318583
 21
75.1821809167
 31
0.0
  0
LINE
  5
48F
330
1B
100
AcDbEntity
 67
     1
  8
7_ALL_FEATURES
  6
Continuous
 62
     7
100
AcDbLine
 10
31.7095318583
 20
75.1821809167
 30
0.0
 11
31.7095318583
 21
47.688407063
 31
0.0
  0
LINE
  5
490
330
1B
100
AcDbEntity
 67
     1
  8
7_ALL_FEATURES
  6
Continuous
 62
     7
100
AcDbLine
 10
31.7095318583
 20
47.688407063
 30
0.0
 11
46.7095318583
 21
37.1852939898
 31
0.0
  0
LINE
  5
491
330
1B
100
AcDbEntity
 67
     1
  8
7_ALL_FEATURES
  6
Continuous
 62
     3
100
AcDbLine
 10
53.3595318583
 20
37.6352939898
 30
0.0
 11
54.1595318583
 21
37.6352939898
 31
0.0
  0
LINE
  5
492
330
1B
100
AcDbEntity
 67
     1
  8
7_ALL_FEATURES
  6
Continuous
 62
     3
100
AcDbLine
 10
54.1595318583
 20
37.6352939898
 30
0.0
 11
101.7595318583
 21
37.6352939898
 31
0.0
  0
SPLINE
  5
493
330
1B
100
AcDbEntity
 67
     1
  8
7_ALL_FEATURES
  6
Continuous
 62
     3
100
AcDbSpline
 70
     0
 71
     3
 72
     9
 73
     5
 74
     0
 42
0.000000001
 43
0.0000001
 40
0.0
 40
0.0
 40
0.0
 40
0.0
 40
0.2420722518
 40
1.0
 40
1.0
 40
1.0
 40
1.0
 10
101.7595318583
 20
37.6352939898
 30
0.0
 10
101.7461729721
 20
37.6352939898
 30
0.0
 10
101.6909794284
 20
37.6387098255
 30
0.0
 10
101.6371602605
 20
37.6561848312
 30
0.0
 10
101.5995318583
 20
37.6744487768
 30
0.0
  0
SPLINE
  5
494
330
1B
100
AcDbEntity
 67
     1
  8
7_ALL_FEATURES
  6
Continuous
 62
     3
100
AcDbSpline
 70
     0
 71
     3
 72
     9
 73
     5
 74
     0
 42
0.000000001
 43
0.0000001
 40
0.0
 40
0.0
 40
0.0
 40
0.0
 40
0.2426798983
 40
1.0
 40
1.0
 40
1.0
 40
1.0
 10
101.5995318583
 20
37.6744487768
 30
0.0
 10
101.5941060365
 20
37.6770823437
 30
0.0
 10
101.5719601586
 20
37.6883697342
 30
0.0
 10
101.5506682072
 20
37.7013017162
 30
0.0
 10
101.5350348589
 20
37.7117820737
 30
0.0
  0
SPLINE
  5
495
330
1B
100
AcDbEntity
 67
     1
  8
7_ALL_FEATURES
  6
Continuous
 62
     3
100
AcDbSpline
 70
     0
 71
     3
 72
     9
 73
     5
 74
     0
 42
0.000000001
 43
0.0000001
 40
0.0
 40
0.0
 40
0.0
 40
0.0
 40
0.2420722518
 40
1.0
 40
1.0
 40
1.0
 40
1.0
 10
101.7595318583
 20
85.2352939898
 30
0.0
 10
101.7595318583
 20
85.2219351037
 30
0.0
 10
101.7561160226
 20
85.1667415599
 30
0.0
 10
101.738641017
 20
85.112922392
 30
0.0
 10
101.7203770714
 20
85.0752939898
 30
0.0
  0
SPLINE
  5
496
330
1B
100
AcDbEntity
 67
     1
  8
7_ALL_FEATURES
  6
Continuous
 62
     3
100
AcDbSpline
 70
     0
 71
     3
 72
     9
 73
     5
 74
     0
 42
0.000000001
 43
0.0000001
 40
0.0
 40
0.0
 40
0.0
 40
0.0
 40
0.2426798983
 40
1.0
 40
1.0
 40
1.0
 40
1.0
 10
101.7203770714
 20
85.0752939898
 30
0.0
 10
101.7177435045
 20
85.0698681681
 30
0.0
 10
101.706456114
 20
85.0477222901
 30
0.0
 10
101.693524132
 20
85.0264303387
 30
0.0
 10
101.6830437745
 20
85.0107969905
 30
0.0
  0
LINE
  5
497
330
1B
100
AcDbEntity
 67
     1
  8
7_ALL_FEATURES
  6
Continuous
 62
     3
100
AcDbLine
 10
101.7595318583
 20
36.8352939898
 30
0.0
 11
101.7595318583
 21
37.6352939898
 31
0.0
  0
LINE
  5
498
330
1B
100
AcDbEntity
 67
     1
  8
7_ALL_FEATURES
  6
Continuous
 62
     3
100
AcDbLine
 10
101.7595318583
 20
37.6352939898
 30
0.0
 11
101.7595318583
 21
85.2352939898
 31
0.0
  0
SPLINE
  5
499
330
1B
100
AcDbEntity
 67
     1
  8
7_ALL_FEATURES
  6
Continuous
 62
     3
100
AcDbSpline
 70
     0
 71
     3
 72
     9
 73
     5
 74
     0
 42
0.000000001
 43
0.0000001
 40
0.0
 40
0.0
 40
0.0
 40
0.0
 40
0.2420722518
 40
1.0
 40
1.0
 40
1.0
 40
1.0
 10
54.1595318583
 20
37.6352939898
 30
0.0
 10
54.1595318583
 20
37.648652876
 30
0.0
 10
54.162947694
 20
37.7038464198
 30
0.0
 10
54.1804226996
 20
37.7576655877
 30
0.0
 10
54.1986866453
 20
37.7952939898
 30
0.0
  0
SPLINE
  5
49A
330
1B
100
AcDbEntity
 67
     1
  8
7_ALL_FEATURES
  6
Continuous
 62
     3
100
AcDbSpline
 70
     0
 71
     3
 72
     9
 73
     5
 74
     0
 42
0.000000001
 43
0.0000001
 40
0.0
 40
0.0
 40
0.0
 40
0.0
 40
0.2426798983
 40
1.0
 40
1.0
 40
1.0
 40
1.0
 10
54.1986866453
 20
37.7952939898
 30
0.0
 10
54.2013202122
 20
37.8007198116
 30
0.0
 10
54.2126076027
 20
37.8228656896
 30
0.0
 10
54.2255395847
 20
37.844157641
 30
0.0
 10
54.2360199422
 20
37.8597909892
 30
0.0
  0
LINE
  5
49B
330
1B
100
AcDbEntity
 67
     1
  8
7_ALL_FEATURES
  6
Continuous
 62
     3
100
AcDbLine
 10
102.5595318583
 20
85.2352939898
 30
0.0
 11
101.7595318583
 21
85.2352939898
 31
0.0
  0
LINE
  5
49C
330
1B
100
AcDbEntity
 67
     1
  8
7_ALL_FEATURES
  6
Continuous
 62
     3
100
AcDbLine
 10
101.7595318583
 20
85.2352939898
 30
0.0
 11
54.1595318583
 21
85.2352939898
 31
0.0
  0
SPLINE
  5
49D
330
1B
100
AcDbEntity
 67
     1
  8
7_ALL_FEATURES
  6
Continuous
 62
     3
100
AcDbSpline
 70
     0
 71
     3
 72
     9
 73
     5
 74
     0
 42
0.000000001
 43
0.0000001
 40
0.0
 40
0.0
 40
0.0
 40
0.0
 40
0.2420722518
 40
1.0
 40
1.0
 40
1.0
 40
1.0
 10
54.1595318583
 20
85.2352939898
 30
0.0
 10
54.1728907445
 20
85.2352939898
 30
0.0
 10
54.2280842882
 20
85.2318781542
 30
0.0
 10
54.2819034561
 20
85.2144031485
 30
0.0
 10
54.3195318583
 20
85.1961392029
 30
0.0
  0
SPLINE
  5
49E
330
1B
100
AcDbEntity
 67
     1
  8
7_ALL_FEATURES
  6
Continuous
 62
     3
100
AcDbSpline
 70
     0
 71
     3
 72
     9
 73
     5
 74
     0
 42
0.000000001
 43
0.0000001
 40
0.0
 40
0.0
 40
0.0
 40
0.0
 40
0.2426798983
 40
1.0
 40
1.0
 40
1.0
 40
1.0
 10
54.3195318583
 20
85.1961392029
 30
0.0
 10
54.3249576801
 20
85.193505636
 30
0.0
 10
54.347103558
 20
85.1822182455
 30
0.0
 10
54.3683955094
 20
85.1692862635
 30
0.0
 10
54.3840288577
 20
85.158805906
 30
0.0
  0
LINE
  5
49F
330
1B
100
AcDbEntity
 67
     1
  8
7_ALL_FEATURES
  6
Continuous
 62
     3
100
AcDbLine
 10
54.1595318583
 20
86.0352939898
 30
0.0
 11
54.1595318583
 21
85.2352939898
 31
0.0
  0
LINE
  5
4A0
330
1B
100
AcDbEntity
 67
     1
  8
7_ALL_FEATURES
  6
Continuous
 62
     3
100
AcDbLine
 10
54.1595318583
 20
85.2352939898
 30
0.0
 11
54.1595318583
 21
37.6352939898
 31
0.0
  0
LINE
  5
4A1
330
1B
100
AcDbEntity
 67
     1
  8
7_ALL_FEATURES
  6
Continuous
 62
     7
100
AcDbLine
 10
31.7095318583
 20
159.9020382071
 30
0.0
 11
31.7095318583
 21
158.9020382071
 31
0.0
  0
LINE
  5
4A2
330
1B
100
AcDbEntity
 67
     1
  8
7_ALL_FEATURES
  6
Continuous
 62
     7
100
AcDbLine
 10
124.2095318583
 20
159.9020382071
 30
0.0
 11
124.2095318583
 21
158.9020382071
 31
0.0
  0
LINE
  5
4A3
330
1B
100
AcDbEntity
 67
     1
  8
7_ALL_FEATURES
  6
Continuous
 62
     7
100
AcDbLine
 10
46.7095318583
 20
158.9020382071
 30
0.0
 11
44.1736334735
 21
158.9020382071
 31
0.0
  0
LINE
  5
4A4
330
1B
100
AcDbEntity
 67
     1
  8
7_ALL_FEATURES
  6
Continuous
 62
     7
100
AcDbLine
 10
44.1736334735
 20
158.9020382071
 30
0.0
 11
42.1736334735
 21
158.9020382071
 31
0.0
  0
LINE
  5
4A5
330
1B
100
AcDbEntity
 67
     1
  8
7_ALL_FEATURES
  6
Continuous
 62
     7
100
AcDbLine
 10
42.1736334735
 20
158.9020382071
 30
0.0
 11
40.7095318583
 21
158.9020382071
 31
0.0
  0
LINE
  5
4A6
330
1B
100
AcDbEntity
 67
     1
  8
7_ALL_FEATURES
  6
Continuous
 62
     7
100
AcDbLine
 10
40.7095318583
 20
158.9020382071
 30
0.0
 11
38.7095318583
 21
158.9020382071
 31
0.0
  0
LINE
  5
4A7
330
1B
100
AcDbEntity
 67
     1
  8
7_ALL_FEATURES
  6
Continuous
 62
     7
100
AcDbLine
 10
38.7095318583
 20
158.9020382071
 30
0.0
 11
37.2454302432
 21
158.9020382071
 31
0.0
  0
LINE
  5
4A8
330
1B
100
AcDbEntity
 67
     1
  8
7_ALL_FEATURES
  6
Continuous
 62
     7
100
AcDbLine
 10
37.2454302432
 20
158.9020382071
 30
0.0
 11
35.2454302432
 21
158.9020382071
 31
0.0
  0
LINE
  5
4A9
330
1B
100
AcDbEntity
 67
     1
  8
7_ALL_FEATURES
  6
Continuous
 62
     7
100
AcDbLine
 10
35.2454302432
 20
158.9020382071
 30
0.0
 11
31.7095318583
 21
158.9020382071
 31
0.0
  0
LINE
  5
4AA
330
1B
100
AcDbEntity
 67
     1
  8
7_ALL_FEATURES
  6
Continuous
 62
     7
100
AcDbLine
 10
46.7095318583
 20
158.9020382071
 30
0.0
 11
109.2095318583
 21
158.9020382071
 31
0.0
  0
LINE
  5
4AB
330
1B
100
AcDbEntity
 67
     1
  8
7_ALL_FEATURES
  6
Continuous
 62
     7
100
AcDbLine
 10
124.2095318583
 20
158.9020382071
 30
0.0
 11
120.3838690065
 21
158.9020382071
 31
0.0
  0
LINE
  5
4AC
330
1B
100
AcDbEntity
 67
     1
  8
7_ALL_FEATURES
  6
Continuous
 62
     7
100
AcDbLine
 10
120.3838690065
 20
158.9020382071
 30
0.0
 11
118.3838690065
 21
158.9020382071
 31
0.0
  0
LINE
  5
4AD
330
1B
100
AcDbEntity
 67
     1
  8
7_ALL_FEATURES
  6
Continuous
 62
     7
100
AcDbLine
 10
118.3838690065
 20
158.9020382071
 30
0.0
 11
116.9197673913
 21
158.9020382071
 31
0.0
  0
LINE
  5
4AE
330
1B
100
AcDbEntity
 67
     1
  8
7_ALL_FEATURES
  6
Continuous
 62
     7
100
AcDbLine
 10
116.9197673913
 20
158.9020382071
 30
0.0
 11
114.9197673913
 21
158.9020382071
 31
0.0
  0
LINE
  5
4AF
330
1B
100
AcDbEntity
 67
     1
  8
7_ALL_FEATURES
  6
Continuous
 62
     7
100
AcDbLine
 10
114.9197673913
 20
158.9020382071
 30
0.0
 11
113.4556657762
 21
158.9020382071
 31
0.0
  0
LINE
  5
4B0
330
1B
100
AcDbEntity
 67
     1
  8
7_ALL_FEATURES
  6
Continuous
 62
     7
100
AcDbLine
 10
113.4556657762
 20
158.9020382071
 30
0.0
 11
111.4556657762
 21
158.9020382071
 31
0.0
  0
LINE
  5
4B1
330
1B
100
AcDbEntity
 67
     1
  8
7_ALL_FEATURES
  6
Continuous
 62
     7
100
AcDbLine
 10
111.4556657762
 20
158.9020382071
 30
0.0
 11
109.2095318583
 21
158.9020382071
 31
0.0
  0
LINE
  5
4B2
330
1B
100
AcDbEntity
 67
     1
  8
7_ALL_FEATURES
  6
Continuous
 62
     7
100
AcDbLine
 10
46.7095318583
 20
159.9020382071
 30
0.0
 11
54.9595318583
 21
159.9020382071
 31
0.0
  0
LINE
  5
4B3
330
1B
100
AcDbEntity
 67
     1
  8
7_ALL_FEATURES
  6
Continuous
 62
     7
100
AcDbLine
 10
54.9595318583
 20
159.9020382071
 30
0.0
 11
100.9595318583
 21
159.9020382071
 31
0.0
  0
LINE
  5
4B4
330
1B
100
AcDbEntity
 67
     1
  8
7_ALL_FEATURES
  6
Continuous
 62
     7
100
AcDbLine
 10
100.9595318583
 20
159.9020382071
 30
0.0
 11
109.2095318583
 21
159.9020382071
 31
0.0
  0
LINE
  5
4B5
330
1B
100
AcDbEntity
 67
     1
  8
7_ALL_FEATURES
  6
Continuous
 62
     7
100
AcDbLine
 10
109.2095318583
 20
159.9020382071
 30
0.0
 11
111.4556657762
 21
159.9020382071
 31
0.0
  0
LINE
  5
4B6
330
1B
100
AcDbEntity
 67
     1
  8
7_ALL_FEATURES
  6
Continuous
 62
     7
100
AcDbLine
 10
111.4556657762
 20
159.9020382071
 30
0.0
 11
113.4556657762
 21
159.9020382071
 31
0.0
  0
LINE
  5
4B7
330
1B
100
AcDbEntity
 67
     1
  8
7_ALL_FEATURES
  6
Continuous
 62
     7
100
AcDbLine
 10
113.4556657762
 20
159.9020382071
 30
0.0
 11
114.9197673913
 21
159.9020382071
 31
0.0
  0
LINE
  5
4B8
330
1B
100
AcDbEntity
 67
     1
  8
7_ALL_FEATURES
  6
Continuous
 62
     7
100
AcDbLine
 10
114.9197673913
 20
159.9020382071
 30
0.0
 11
116.9197673913
 21
159.9020382071
 31
0.0
  0
LINE
  5
4B9
330
1B
100
AcDbEntity
 67
     1
  8
7_ALL_FEATURES
  6
Continuous
 62
     7
100
AcDbLine
 10
116.9197673913
 20
159.9020382071
 30
0.0
 11
118.3838690065
 21
159.9020382071
 31
0.0
  0
LINE
  5
4BA
330
1B
100
AcDbEntity
 67
     1
  8
7_ALL_FEATURES
  6
Continuous
 62
     7
100
AcDbLine
 10
118.3838690065
 20
159.9020382071
 30
0.0
 11
120.3838690065
 21
159.9020382071
 31
0.0
  0
LINE
  5
4BB
330
1B
100
AcDbEntity
 67
     1
  8
7_ALL_FEATURES
  6
Continuous
 62
     7
100
AcDbLine
 10
120.3838690065
 20
159.9020382071
 30
0.0
 11
124.2095318583
 21
159.9020382071
 31
0.0
  0
LINE
  5
4BC
330
1B
100
AcDbEntity
 67
     1
  8
7_ALL_FEATURES
  6
Continuous
 62
     7
100
AcDbLine
 10
31.7095318583
 20
159.9020382071
 30
0.0
 11
35.2454302432
 21
159.9020382071
 31
0.0
  0
LINE
  5
4BD
330
1B
100
AcDbEntity
 67
     1
  8
7_ALL_FEATURES
  6
Continuous
 62
     7
100
AcDbLine
 10
35.2454302432
 20
159.9020382071
 30
0.0
 11
37.2454302432
 21
159.9020382071
 31
0.0
  0
LINE
  5
4BE
330
1B
100
AcDbEntity
 67
     1
  8
7_ALL_FEATURES
  6
Continuous
 62
     7
100
AcDbLine
 10
37.2454302432
 20
159.9020382071
 30
0.0
 11
38.7095318583
 21
159.9020382071
 31
0.0
  0
LINE
  5
4BF
330
1B
100
AcDbEntity
 67
     1
  8
7_ALL_FEATURES
  6
Continuous
 62
     7
100
AcDbLine
 10
38.7095318583
 20
159.9020382071
 30
0.0
 11
40.7095318583
 21
159.9020382071
 31
0.0
  0
LINE
  5
4C0
330
1B
100
AcDbEntity
 67
     1
  8
7_ALL_FEATURES
  6
Continuous
 62
     7
100
AcDbLine
 10
40.7095318583
 20
159.9020382071
 30
0.0
 11
42.1736334735
 21
159.9020382071
 31
0.0
  0
LINE
  5
4C1
330
1B
100
AcDbEntity
 67
     1
  8
7_ALL_FEATURES
  6
Continuous
 62
     7
100
AcDbLine
 10
42.1736334735
 20
159.9020382071
 30
0.0
 11
44.1736334735
 21
159.9020382071
 31
0.0
  0
LINE
  5
4C2
330
1B
100
AcDbEntity
 67
     1
  8
7_ALL_FEATURES
  6
Continuous
 62
     7
100
AcDbLine
 10
44.1736334735
 20
159.9020382071
 30
0.0
 11
46.7095318583
 21
159.9020382071
 31
0.0
  0
LINE
  5
4C3
330
1B
100
AcDbEntity
 67
     1
  8
7_ALL_FEATURES
  6
Continuous
 62
     7
100
AcDbLine
 10
109.2095318583
 20
159.9020382071
 30
0.0
 11
109.2095318583
 21
158.9020382071
 31
0.0
  0
LINE
  5
4C4
330
1B
100
AcDbEntity
 67
     1
  8
7_ALL_FEATURES
  6
Continuous
 62
     7
100
AcDbLine
 10
46.7095318583
 20
159.9020382071
 30
0.0
 11
46.7095318583
 21
158.9020382071
 31
0.0
  0
LINE
  5
4C5
330
1B
100
AcDbEntity
 67
     1
  8
7_ALL_FEATURES
  6
Continuous
 62
     7
100
AcDbLine
 10
101.7595318583
 20
172.4020382071
 30
0.0
 11
53.3595318583
 21
172.4020382071
 31
0.0
  0
SPLINE
  5
4C6
330
1B
100
AcDbEntity
 67
     1
  8
7_ALL_FEATURES
  6
Continuous
 62
     7
100
AcDbSpline
 70
     0
 71
     3
 72
    17
 73
    13
 74
     0
 42
0.000000001
 43
0.0000001
 40
0.0
 40
0.0
 40
0.0
 40
0.0
 40
0.1778414832
 40
0.3494900911
 40
0.5090898838
 40
0.6513791621
 40
0.7722191001
 40
0.869062809
 40
0.9085630312
 40
0.942676528
 40
0.972548376
 40
1.0
 40
1.0
 40
1.0
 40
1.0
 10
101.7595318583
 20
161.5020382071
 30
0.0
 10
101.7263926619
 20
161.3979283511
 30
0.0
 10
101.6612767212
 20
161.1933319191
 30
0.0
 10
101.563099801
 20
160.896361689
 30
0.0
 10
101.4651542663
 20
160.622394685
 30
0.0
 10
101.3674876153
 20
160.3815728305
 30
0.0
 10
101.2702842914
 20
160.1827850006
 30
0.0
 10
101.1844554896
 20
160.0490477638
 30
0.0
 10
101.1132299368
 20
159.9718629335
 30
0.0
 10
101.0629224495
 20
159.9323885964
 30
0.0
 10
101.0117926679
 20
159.907803851
 30
0.0
 10
100.9763967599
 20
159.9020382071
 30
0.0
 10
100.9595318583
 20
159.9020382071
 30
0.0
  0
SPLINE
  5
4C7
330
1B
100
AcDbEntity
 67
     1
  8
7_ALL_FEATURES
  6
Continuous
 62
     7
100
AcDbSpline
 70
     0
 71
     3
 72
    14
 73
    10
 74
     0
 42
0.000000001
 43
0.0000001
 40
0.0
 40
0.0
 40
0.0
 40
0.0
 40
0.3125618488
 40
0.4584204907
 40
0.5927622594
 40
0.7133059606
 40
0.8196213019
 40
0.9135166149
 40
1.0
 40
1.0
 40
1.0
 40
1.0
 10
53.3595318583
 20
161.5020382071
 30
0.0
 10
53.4904543767
 20
161.2963855961
 30
0.0
 10
53.6821246506
 20
160.9943635122
 30
0.0
 10
53.9514010102
 20
160.6183258665
 30
0.0
 10
54.148749739
 20
160.3755377519
 30
0.0
 10
54.3469645248
 20
160.174505102
 30
0.0
 10
54.5468168374
 20
160.0219508047
 30
0.0
 10
54.7507189923
 20
159.9251415731
 30
0.0
 10
54.8920770201
 20
159.9020382071
 30
0.0
 10
54.9595318583
 20
159.9020382071
 30
0.0
  0
LINE
  5
4C8
330
1B
100
AcDbEntity
 67
     1
  8
7_ALL_FEATURES
  6
Continuous
 62
     7
100
AcDbLine
 10
101.7595318583
 20
161.5020382071
 30
0.0
 11
101.7595318583
 21
172.4020382071
 31
0.0
  0
LINE
  5
4C9
330
1B
100
AcDbEntity
 67
     1
  8
7_ALL_FEATURES
  6
Continuous
 62
     7
100
AcDbLine
 10
53.3595318583
 20
161.5020382071
 30
0.0
 11
53.3595318583
 21
172.4020382071
 31
0.0
  0
LINE
  5
4CA
330
1B
100
AcDbEntity
 67
     1
  8
7_ALL_FEATURES
  6
Continuous
 62
     7
100
AcDbLine
 10
101.7595318583
 20
172.4020382071
 30
0.0
 11
102.5595318583
 21
172.4020382071
 31
0.0
  0
ARC
  5
4CB
330
1B
100
AcDbEntity
 67
     1
  8
7_ALL_FEATURES
  6
Continuous
 62
     7
100
AcDbCircle
 10
100.9595318583
 20
161.5020382071
 30
0.0
 40
1.6
100
AcDbArc
 50
270.0
 51
360.0
  0
LINE
  5
4CC
330
1B
100
AcDbEntity
 67
     1
  8
7_ALL_FEATURES
  6
Continuous
 62
     7
100
AcDbLine
 10
102.5595318583
 20
161.5020382071
 30
0.0
 11
102.5595318583
 21
172.4020382071
 31
0.0
  0
ARC
  5
4CD
330
1B
100
AcDbEntity
 67
     1
  8
7_ALL_FEATURES
  6
Continuous
 62
     7
100
AcDbCircle
 10
54.9595318583
 20
161.5020382071
 30
0.0
 40
1.6
100
AcDbArc
 50
180.0
 51
270.0
  0
LINE
  5
4CE
330
1B
100
AcDbEntity
 67
     1
  8
7_ALL_FEATURES
  6
Continuous
 62
     9
100
AcDbLine
 10
101.7595318583
 20
161.5020382071
 30
0.0
 11
53.3595318583
 21
161.5020382071
 31
0.0
  0
LINE
  5
4CF
330
1B
100
AcDbEntity
 67
     1
  8
7_ALL_FEATURES
  6
Continuous
 62
     7
100
AcDbLine
 10
101.7595318583
 20
161.5020382071
 30
0.0
 11
102.5595318583
 21
161.5020382071
 31
0.0
  0
LWPOLYLINE
  5
4D0
330
1B
100
AcDbEntity
 67
     1
  8
06___PRT_ALL_SURFS
  6
Continuous
 62
     7
100
AcDbPolyline
 90
        4
 70
     0
 43
0.0
 10
61.7930450311
 20
158.9020414133
 10
61.6197067506
 20
158.8989673361
 10
61.2400446174
 20
158.8834066917
 10
61.0083621182
 20
158.8787936472
  0
LINE
  5
4D1
330
1B
100
AcDbEntity
 67
     1
  8
06___PRT_ALL_SURFS
  6
Continuous
 62
     7
100
AcDbLine
 10
61.0094769884
 20
158.8787902359
 30
0.0
 11
60.9543171095
 21
158.8799200575
 31
0.0
  0
LWPOLYLINE
  5
4D2
330
1B
100
AcDbEntity
 67
     1
  8
06___PRT_ALL_SURFS
  6
Continuous
 62
     7
100
AcDbPolyline
 90
        4
 70
     0
 43
0.0
 10
60.9543171095
 20
158.8799200575
 10
60.8099035196
 20
158.8828780335
 10
60.5326107939
 20
158.8983504941
 10
60.4184672002
 20
158.9020185211
  0
ARC
  5
4D3
330
1B
100
AcDbEntity
 67
     1
  8
06___PRT_ALL_SURFS
  6
Continuous
 62
     7
100
AcDbCircle
 10
54.1030293397
 20
158.4020382071
 30
0.0
 40
0.5
100
AcDbArc
 50
90.0
 51
179.25
  0
ARC
  5
4D4
330
1B
100
AcDbEntity
 67
     1
  8
06___PRT_ALL_SURFS
  6
Continuous
 62
     7
100
AcDbCircle
 10
101.816034377
 20
158.4020382071
 30
0.0
 40
0.5
100
AcDbArc
 50
0.75
 51
90.0
  0
LINE
  5
4D5
330
1B
100
AcDbEntity
 67
     1
  8
7_ALL_FEATURES
  6
Continuous
 62
     7
100
AcDbLine
 10
102.7281938207
 20
126.9020382071
 30
0.0
 11
101.2055260474
 21
126.9020382071
 31
0.0
  0
LINE
  5
4D6
330
1B
100
AcDbEntity
 67
     1
  8
7_ALL_FEATURES
  6
Continuous
 62
     7
100
AcDbLine
 10
101.2055260474
 20
126.9020382071
 30
0.0
 11
101.1667486628
 21
126.9020382071
 31
0.0
  0
LINE
  5
4D7
330
1B
100
AcDbEntity
 67
     1
  8
7_ALL_FEATURES
  6
Continuous
 62
     7
100
AcDbLine
 10
101.1667486628
 20
126.9020382071
 30
0.0
 11
94.9283903783
 21
126.9020382071
 31
0.0
  0
LINE
  5
4D8
330
1B
100
AcDbEntity
 67
     1
  8
7_ALL_FEATURES
  6
Continuous
 62
     7
100
AcDbLine
 10
94.9283903783
 20
126.9020382071
 30
0.0
 11
60.9906443855
 21
126.9020382071
 31
0.0
  0
LINE
  5
4D9
330
1B
100
AcDbEntity
 67
     1
  8
7_ALL_FEATURES
  6
Continuous
 62
     7
100
AcDbLine
 10
60.9906443855
 20
126.9020382071
 30
0.0
 11
60.4452726221
 21
126.9020382071
 31
0.0
  0
LINE
  5
4DA
330
1B
100
AcDbEntity
 67
     1
  8
06___PRT_ALL_SURFS
  6
Continuous
 62
     7
100
AcDbLine
 10
102.3159915408
 20
158.4085830049
 30
0.0
 11
102.728434805
 21
126.9020382071
 31
0.0
  0
LINE
  5
4DB
330
1B
100
AcDbEntity
 67
     1
  8
06___PRT_ALL_SURFS
  6
Continuous
 62
     7
100
AcDbLine
 10
53.6030721759
 20
158.4085830049
 30
0.0
 11
53.1906289116
 21
126.9020382071
 31
0.0
  0
LINE
  5
4DC
330
1B
100
AcDbEntity
 67
     1
  8
7_ALL_FEATURES
  6
Continuous
 62
     7
100
AcDbLine
 10
60.4452726221
 20
126.9020382071
 30
0.0
 11
54.7523150538
 21
126.9020382071
 31
0.0
  0
LINE
  5
4DD
330
1B
100
AcDbEntity
 67
     1
  8
7_ALL_FEATURES
  6
Continuous
 62
     7
100
AcDbLine
 10
54.7523150538
 20
126.9020382071
 30
0.0
 11
54.7135376618
 21
126.9020382071
 31
0.0
  0
LINE
  5
4DE
330
1B
100
AcDbEntity
 67
     1
  8
7_ALL_FEATURES
  6
Continuous
 62
     7
100
AcDbLine
 10
54.7135376618
 20
126.9020382071
 30
0.0
 11
53.1908698959
 21
126.9020382071
 31
0.0
  0
SPLINE
  5
4DF
330
1B
100
AcDbEntity
 67
     1
  8
06___PRT_ALL_SURFS
  6
Continuous
 62
     9
100
AcDbSpline
 70
     0
 71
     3
 72
    10
 73
     6
 74
     0
 42
0.000000001
 43
0.0000001
 40
0.0
 40
0.0
 40
0.0
 40
0.0
 40
0.582511497
 40
0.8140760613
 40
1.0
 40
1.0
 40
1.0
 40
1.0
 10
60.9539765659
 20
158.8632941196
 30
0.0
 10
60.8496859192
 20
158.8632857083
 30
0.0
 10
60.7037632731
 20
158.8717990437
 30
0.0
 10
60.5262173446
 20
158.8938088739
 30
0.0
 10
60.4517102235
 20
158.901693936
 30
0.0
 10
60.4184246843
 20
158.9020179495
 30
0.0
  0
LINE
  5
4E0
330
1B
100
AcDbEntity
 67
     1
  8
06___PRT_ALL_SURFS
  6
Continuous
 62
     9
100
AcDbLine
 10
53.6030721759
 20
158.4085830049
 30
0.0
 11
60.7369140512
 21
158.4085830049
 31
0.0
  0
LINE
  5
4E1
330
1B
100
AcDbEntity
 67
     1
  8
06___PRT_ALL_SURFS
  6
Continuous
 62
     9
100
AcDbLine
 10
60.7369140512
 20
158.4085830049
 30
0.0
 11
102.3159915408
 21
158.4085830049
 31
0.0
  0
SPLINE
  5
4E2
330
1B
100
AcDbEntity
 67
     1
  8
06___PRT_ALL_SURFS
  6
Continuous
 62
     9
100
AcDbSpline
 70
     0
 71
     3
 72
     9
 73
     5
 74
     0
 42
0.000000001
 43
0.0000001
 40
0.0
 40
0.0
 40
0.0
 40
0.0
 40
0.2674562243
 40
1.0
 40
1.0
 40
1.0
 40
1.0
 10
61.7930449282
 20
158.902037688
 30
0.0
 10
61.7327301497
 20
158.9020024438
 30
0.0
 10
61.5072213491
 20
158.8951699682
 30
0.0
 10
61.2825369679
 20
158.8741941685
 30
0.0
 10
61.1174924161
 20
158.8670764115
 30
0.0
  0
SPLINE
  5
4E3
330
1B
100
AcDbEntity
 67
     1
  8
06___PRT_ALL_SURFS
  6
Continuous
 62
     9
100
AcDbSpline
 70
     0
 71
     3
 72
     9
 73
     5
 74
     0
 42
0.000000001
 43
0.0000001
 40
0.0
 40
0.0
 40
0.0
 40
0.0
 40
0.2579904149
 40
1.0
 40
1.0
 40
1.0
 40
1.0
 10
61.1174924161
 20
158.8670764115
 30
0.0
 10
61.1034392985
 20
158.8664703528
 30
0.0
 10
61.0489582586
 20
158.864363402
 30
0.0
 10
60.9944324891
 20
158.8632915183
 30
0.0
 10
60.9539765659
 20
158.8632941196
 30
0.0
  0
LINE
  5
4E4
330
1B
100
AcDbEntity
 67
     1
  8
7_ALL_FEATURES
  6
Continuous
 62
     3
100
AcDbLine
 10
101.7595318583
 20
161.5020382071
 30
0.0
 11
101.7595318583
 21
172.4020382071
 31
0.0
  0
ARC
  5
4E5
330
1B
100
AcDbEntity
 67
     1
  8
7_ALL_FEATURES
  6
Continuous
 62
     3
100
AcDbCircle
 10
100.9595318583
 20
161.5020382071
 30
0.0
 40
0.8
100
AcDbArc
 50
327.8954427598
 51
360.0
  0
LINE
  5
4E6
330
1B
100
AcDbEntity
 67
     1
  8
7_ALL_FEATURES
  6
Continuous
 62
     7
100
AcDbLine
 10
229.196094103
 20
158.9020382071
 30
0.0
 11
223.946094103
 21
158.9020382071
 31
0.0
  0
LINE
  5
4E7
330
1B
100
AcDbEntity
 67
     1
  8
7_ALL_FEATURES
  6
Continuous
 62
     7
100
AcDbLine
 10
223.946094103
 20
158.9020382071
 30
0.0
 11
222.946094103
 21
158.9020382071
 31
0.0
  0
LINE
  5
4E8
330
1B
100
AcDbEntity
 67
     1
  8
7_ALL_FEATURES
  6
Continuous
 62
     7
100
AcDbLine
 10
222.946094103
 20
158.9020382071
 30
0.0
 11
221.946094103
 21
158.9020382071
 31
0.0
  0
LINE
  5
4E9
330
1B
100
AcDbEntity
 67
     1
  8
7_ALL_FEATURES
  6
Continuous
 62
     7
100
AcDbLine
 10
221.946094103
 20
158.9020382071
 30
0.0
 11
220.946094103
 21
158.9020382071
 31
0.0
  0
LINE
  5
4EA
330
1B
100
AcDbEntity
 67
     1
  8
7_ALL_FEATURES
  6
Continuous
 62
     7
100
AcDbLine
 10
220.946094103
 20
158.9020382071
 30
0.0
 11
219.946094103
 21
158.9020382071
 31
0.0
  0
LINE
  5
4EB
330
1B
100
AcDbEntity
 67
     1
  8
7_ALL_FEATURES
  6
Continuous
 62
     7
100
AcDbLine
 10
219.946094103
 20
158.9020382071
 30
0.0
 11
218.946094103
 21
158.9020382071
 31
0.0
  0
LINE
  5
4EC
330
1B
100
AcDbEntity
 67
     1
  8
7_ALL_FEATURES
  6
Continuous
 62
     7
100
AcDbLine
 10
218.946094103
 20
158.9020382071
 30
0.0
 11
218.6929810299
 21
158.9020382071
 31
0.0
  0
LINE
  5
4ED
330
1B
100
AcDbEntity
 67
     1
  8
7_ALL_FEATURES
  6
Continuous
 62
     7
100
AcDbLine
 10
191.1992071762
 20
158.9020382071
 30
0.0
 11
190.946094103
 21
158.9020382071
 31
0.0
  0
LINE
  5
4EE
330
1B
100
AcDbEntity
 67
     1
  8
7_ALL_FEATURES
  6
Continuous
 62
     7
100
AcDbLine
 10
190.946094103
 20
158.9020382071
 30
0.0
 11
189.946094103
 21
158.9020382071
 31
0.0
  0
LINE
  5
4EF
330
1B
100
AcDbEntity
 67
     1
  8
7_ALL_FEATURES
  6
Continuous
 62
     7
100
AcDbLine
 10
189.946094103
 20
158.9020382071
 30
0.0
 11
188.946094103
 21
158.9020382071
 31
0.0
  0
LINE
  5
4F0
330
1B
100
AcDbEntity
 67
     1
  8
7_ALL_FEATURES
  6
Continuous
 62
     7
100
AcDbLine
 10
188.946094103
 20
158.9020382071
 30
0.0
 11
187.946094103
 21
158.9020382071
 31
0.0
  0
LINE
  5
4F1
330
1B
100
AcDbEntity
 67
     1
  8
7_ALL_FEATURES
  6
Continuous
 62
     7
100
AcDbLine
 10
187.946094103
 20
158.9020382071
 30
0.0
 11
186.946094103
 21
158.9020382071
 31
0.0
  0
LINE
  5
4F2
330
1B
100
AcDbEntity
 67
     1
  8
7_ALL_FEATURES
  6
Continuous
 62
     7
100
AcDbLine
 10
186.946094103
 20
158.9020382071
 30
0.0
 11
185.946094103
 21
158.9020382071
 31
0.0
  0
LINE
  5
4F3
330
1B
100
AcDbEntity
 67
     1
  8
7_ALL_FEATURES
  6
Continuous
 62
     7
100
AcDbLine
 10
185.946094103
 20
158.9020382071
 30
0.0
 11
180.696094103
 21
158.9020382071
 31
0.0
  0
LINE
  5
4F4
330
1B
100
AcDbEntity
 67
     1
  8
7_ALL_FEATURES
  6
Continuous
 62
     7
100
AcDbLine
 10
191.1992071762
 20
158.9020382071
 30
0.0
 11
218.6929810299
 21
158.9020382071
 31
0.0
  0
LINE
  5
4F5
330
1B
100
AcDbEntity
 67
     1
  8
7_ALL_FEATURES
  6
Continuous
 62
     7
100
AcDbLine
 10
218.6929810299
 20
159.9020382071
 30
0.0
 11
218.946094103
 21
159.9020382071
 31
0.0
  0
LINE
  5
4F6
330
1B
100
AcDbEntity
 67
     1
  8
7_ALL_FEATURES
  6
Continuous
 62
     7
100
AcDbLine
 10
218.946094103
 20
159.9020382071
 30
0.0
 11
219.946094103
 21
159.9020382071
 31
0.0
  0
LINE
  5
4F7
330
1B
100
AcDbEntity
 67
     1
  8
7_ALL_FEATURES
  6
Continuous
 62
     7
100
AcDbLine
 10
219.946094103
 20
159.9020382071
 30
0.0
 11
220.946094103
 21
159.9020382071
 31
0.0
  0
LINE
  5
4F8
330
1B
100
AcDbEntity
 67
     1
  8
7_ALL_FEATURES
  6
Continuous
 62
     7
100
AcDbLine
 10
220.946094103
 20
159.9020382071
 30
0.0
 11
221.946094103
 21
159.9020382071
 31
0.0
  0
LINE
  5
4F9
330
1B
100
AcDbEntity
 67
     1
  8
7_ALL_FEATURES
  6
Continuous
 62
     7
100
AcDbLine
 10
221.946094103
 20
159.9020382071
 30
0.0
 11
222.946094103
 21
159.9020382071
 31
0.0
  0
LINE
  5
4FA
330
1B
100
AcDbEntity
 67
     1
  8
7_ALL_FEATURES
  6
Continuous
 62
     7
100
AcDbLine
 10
222.946094103
 20
159.9020382071
 30
0.0
 11
223.946094103
 21
159.9020382071
 31
0.0
  0
LINE
  5
4FB
330
1B
100
AcDbEntity
 67
     1
  8
7_ALL_FEATURES
  6
Continuous
 62
     7
100
AcDbLine
 10
223.946094103
 20
159.9020382071
 30
0.0
 11
229.196094103
 21
159.9020382071
 31
0.0
  0
LINE
  5
4FC
330
1B
100
AcDbEntity
 67
     1
  8
7_ALL_FEATURES
  6
Continuous
 62
     7
100
AcDbLine
 10
191.1992071762
 20
159.9020382071
 30
0.0
 11
218.6929810299
 21
159.9020382071
 31
0.0
  0
LINE
  5
4FD
330
1B
100
AcDbEntity
 67
     1
  8
7_ALL_FEATURES
  6
Continuous
 62
     7
100
AcDbLine
 10
180.696094103
 20
159.9020382071
 30
0.0
 11
185.946094103
 21
159.9020382071
 31
0.0
  0
LINE
  5
4FE
330
1B
100
AcDbEntity
 67
     1
  8
7_ALL_FEATURES
  6
Continuous
 62
     7
100
AcDbLine
 10
185.946094103
 20
159.9020382071
 30
0.0
 11
186.946094103
 21
159.9020382071
 31
0.0
  0
LINE
  5
4FF
330
1B
100
AcDbEntity
 67
     1
  8
7_ALL_FEATURES
  6
Continuous
 62
     7
100
AcDbLine
 10
186.946094103
 20
159.9020382071
 30
0.0
 11
187.946094103
 21
159.9020382071
 31
0.0
  0
LINE
  5
500
330
1B
100
AcDbEntity
 67
     1
  8
7_ALL_FEATURES
  6
Continuous
 62
     7
100
AcDbLine
 10
187.946094103
 20
159.9020382071
 30
0.0
 11
188.946094103
 21
159.9020382071
 31
0.0
  0
LINE
  5
501
330
1B
100
AcDbEntity
 67
     1
  8
7_ALL_FEATURES
  6
Continuous
 62
     7
100
AcDbLine
 10
188.946094103
 20
159.9020382071
 30
0.0
 11
189.946094103
 21
159.9020382071
 31
0.0
  0
LINE
  5
502
330
1B
100
AcDbEntity
 67
     1
  8
7_ALL_FEATURES
  6
Continuous
 62
     7
100
AcDbLine
 10
189.946094103
 20
159.9020382071
 30
0.0
 11
190.946094103
 21
159.9020382071
 31
0.0
  0
LINE
  5
503
330
1B
100
AcDbEntity
 67
     1
  8
7_ALL_FEATURES
  6
Continuous
 62
     7
100
AcDbLine
 10
190.946094103
 20
159.9020382071
 30
0.0
 11
191.1992071762
 21
159.9020382071
 31
0.0
  0
LINE
  5
504
330
1B
100
AcDbEntity
 67
     1
  8
7_ALL_FEATURES
  6
Continuous
 62
     7
100
AcDbLine
 10
229.196094103
 20
159.9020382071
 30
0.0
 11
229.196094103
 21
158.9020382071
 31
0.0
  0
LINE
  5
505
330
1B
100
AcDbEntity
 67
     1
  8
7_ALL_FEATURES
  6
Continuous
 62
     7
100
AcDbLine
 10
180.696094103
 20
159.9020382071
 30
0.0
 11
180.696094103
 21
158.9020382071
 31
0.0
  0
LINE
  5
506
330
1B
100
AcDbEntity
 67
     1
  8
7_ALL_FEATURES
  6
Continuous
 62
     7
100
AcDbLine
 10
218.6929810299
 20
159.9020382071
 30
0.0
 11
218.6929810299
 21
158.9020382071
 31
0.0
  0
LINE
  5
507
330
1B
100
AcDbEntity
 67
     1
  8
7_ALL_FEATURES
  6
Continuous
 62
     7
100
AcDbLine
 10
191.1992071762
 20
159.9020382071
 30
0.0
 11
191.1992071762
 21
158.9020382071
 31
0.0
  0
LINE
  5
508
330
1B
100
AcDbEntity
 67
     1
  8
7_ALL_FEATURES
  6
Continuous
 62
     7
100
AcDbLine
 10
228.746094103
 20
172.4020382071
 30
0.0
 11
229.546094103
 21
172.4020382071
 31
0.0
  0
ARC
  5
509
330
1B
100
AcDbEntity
 67
     1
  8
7_ALL_FEATURES
  6
Continuous
 62
     7
100
AcDbCircle
 10
227.946094103
 20
161.5020382071
 30
0.0
 40
1.6
100
AcDbArc
 50
270.0
 51
360.0
  0
LINE
  5
50A
330
1B
100
AcDbEntity
 67
     1
  8
7_ALL_FEATURES
  6
Continuous
 62
     7
100
AcDbLine
 10
229.546094103
 20
161.5020382071
 30
0.0
 11
229.546094103
 21
172.4020382071
 31
0.0
  0
ARC
  5
50B
330
1B
100
AcDbEntity
 67
     1
  8
7_ALL_FEATURES
  6
Continuous
 62
     7
100
AcDbCircle
 10
181.946094103
 20
161.5020382071
 30
0.0
 40
1.6
100
AcDbArc
 50
180.0
 51
270.0
  0
LINE
  5
50C
330
1B
100
AcDbEntity
 67
     1
  8
7_ALL_FEATURES
  6
Continuous
 62
     7
100
AcDbLine
 10
180.346094103
 20
161.5020382071
 30
0.0
 11
180.346094103
 21
172.4020382071
 31
0.0
  0
LINE
  5
50D
330
1B
100
AcDbEntity
 67
     1
  8
7_ALL_FEATURES
  6
Continuous
 62
     7
100
AcDbLine
 10
228.746094103
 20
172.4020382071
 30
0.0
 11
180.346094103
 21
172.4020382071
 31
0.0
  0
LINE
  5
50E
330
1B
100
AcDbEntity
 67
     1
  8
7_ALL_FEATURES
  6
Continuous
 62
     7
100
AcDbLine
 10
228.746094103
 20
161.5020382071
 30
0.0
 11
228.746094103
 21
172.4020382071
 31
0.0
  0
SPLINE
  5
50F
330
1B
100
AcDbEntity
 67
     1
  8
7_ALL_FEATURES
  6
Continuous
 62
     7
100
AcDbSpline
 70
     0
 71
     3
 72
    14
 73
    10
 74
     0
 42
0.000000001
 43
0.0000001
 40
0.0
 40
0.0
 40
0.0
 40
0.0
 40
0.3125618488
 40
0.4584204907
 40
0.5927622594
 40
0.7133059606
 40
0.8196213019
 40
0.9135166149
 40
1.0
 40
1.0
 40
1.0
 40
1.0
 10
180.346094103
 20
161.5020382071
 30
0.0
 10
180.4770166214
 20
161.2963855961
 30
0.0
 10
180.6686868953
 20
160.9943635122
 30
0.0
 10
180.9379632549
 20
160.6183258665
 30
0.0
 10
181.1353119837
 20
160.3755377519
 30
0.0
 10
181.3335267695
 20
160.174505102
 30
0.0
 10
181.5333790822
 20
160.0219508047
 30
0.0
 10
181.737281237
 20
159.9251415731
 30
0.0
 10
181.8786392648
 20
159.9020382071
 30
0.0
 10
181.946094103
 20
159.9020382071
 30
0.0
  0
SPLINE
  5
510
330
1B
100
AcDbEntity
 67
     1
  8
7_ALL_FEATURES
  6
Continuous
 62
     7
100
AcDbSpline
 70
     0
 71
     3
 72
    17
 73
    13
 74
     0
 42
0.000000001
 43
0.0000001
 40
0.0
 40
0.0
 40
0.0
 40
0.0
 40
0.1778414832
 40
0.3494900911
 40
0.5090898838
 40
0.6513791621
 40
0.7722191001
 40
0.869062809
 40
0.9085630312
 40
0.942676528
 40
0.972548376
 40
1.0
 40
1.0
 40
1.0
 40
1.0
 10
228.746094103
 20
161.5020382071
 30
0.0
 10
228.7129549066
 20
161.3979283511
 30
0.0
 10
228.6478389659
 20
161.1933319191
 30
0.0
 10
228.5496620457
 20
160.896361689
 30
0.0
 10
228.451716511
 20
160.622394685
 30
0.0
 10
228.35404986
 20
160.3815728305
 30
0.0
 10
228.2568465361
 20
160.1827850006
 30
0.0
 10
228.1710177343
 20
160.0490477638
 30
0.0
 10
228.0997921816
 20
159.9718629335
 30
0.0
 10
228.0494846943
 20
159.9323885964
 30
0.0
 10
227.9983549126
 20
159.907803851
 30
0.0
 10
227.9629590047
 20
159.9020382071
 30
0.0
 10
227.946094103
 20
159.9020382071
 30
0.0
  0
LINE
  5
511
330
1B
100
AcDbEntity
 67
     1
  8
7_ALL_FEATURES
  6
Continuous
 62
     9
100
AcDbLine
 10
228.746094103
 20
161.5020382071
 30
0.0
 11
180.346094103
 21
161.5020382071
 31
0.0
  0
LINE
  5
512
330
1B
100
AcDbEntity
 67
     1
  8
7_ALL_FEATURES
  6
Continuous
 62
     7
100
AcDbLine
 10
228.746094103
 20
161.5020382071
 30
0.0
 11
229.546094103
 21
161.5020382071
 31
0.0
  0
LINE
  5
513
330
1B
100
AcDbEntity
 67
     1
  8
06___PRT_ALL_SURFS
  6
Continuous
 62
     7
100
AcDbLine
 10
222.1072273505
 20
158.8833609275
 30
0.0
 11
221.9512879591
 21
158.8799838732
 31
0.0
  0
LINE
  5
514
330
1B
100
AcDbEntity
 67
     1
  8
06___PRT_ALL_SURFS
  6
Continuous
 62
     7
100
AcDbLine
 10
221.9512879591
 20
158.8799838732
 30
0.0
 11
221.8961389638
 21
158.8787895557
 31
0.0
  0
LWPOLYLINE
  5
515
330
1B
100
AcDbEntity
 67
     1
  8
06___PRT_ALL_SURFS
  6
Continuous
 62
     7
100
AcDbPolyline
 90
        4
 70
     0
 43
0.0
 10
221.8972848203
 20
158.87879419
 10
221.6792951381
 20
158.8829225992
 10
221.3016389302
 20
158.8984520193
 10
221.1130292046
 20
158.9020375647
  0
ARC
  5
516
330
1B
100
AcDbEntity
 67
     1
  8
06___PRT_ALL_SURFS
  6
Continuous
 62
     7
100
AcDbCircle
 10
181.0895915844
 20
158.4020382071
 30
0.0
 40
0.5
100
AcDbArc
 50
90.0
 51
125.7
  0
ARC
  5
517
330
1B
100
AcDbEntity
 67
     1
  8
06___PRT_ALL_SURFS
  6
Continuous
 62
     7
100
AcDbCircle
 10
181.0895915844
 20
158.4020382071
 30
0.0
 40
0.5
100
AcDbArc
 50
125.7
 51
179.25
  0
ARC
  5
518
330
1B
100
AcDbEntity
 67
     1
  8
06___PRT_ALL_SURFS
  6
Continuous
 62
     7
100
AcDbCircle
 10
228.8025966217
 20
158.4020382071
 30
0.0
 40
0.5
100
AcDbArc
 50
54.3
 51
90.0
  0
ARC
  5
519
330
1B
100
AcDbEntity
 67
     1
  8
06___PRT_ALL_SURFS
  6
Continuous
 62
     7
100
AcDbCircle
 10
228.8025966217
 20
158.4020382071
 30
0.0
 40
0.5
100
AcDbArc
 50
0.75
 51
54.3
  0
LINE
  5
51A
330
1B
100
AcDbEntity
 67
     1
  8
7_ALL_FEATURES
  6
Continuous
 62
     7
100
AcDbLine
 10
229.7147560654
 20
126.9020382071
 30
0.0
 11
228.1796839239
 21
126.9020382071
 31
0.0
  0
LINE
  5
51B
330
1B
100
AcDbEntity
 67
     1
  8
7_ALL_FEATURES
  6
Continuous
 62
     7
100
AcDbLine
 10
228.1796839239
 20
126.9020382071
 30
0.0
 11
228.1533109075
 21
126.9020382071
 31
0.0
  0
LINE
  5
51C
330
1B
100
AcDbEntity
 67
     1
  8
7_ALL_FEATURES
  6
Continuous
 62
     7
100
AcDbLine
 10
228.1533109075
 20
126.9020382071
 30
0.0
 11
228.1278145395
 21
126.9020382071
 31
0.0
  0
LINE
  5
51D
330
1B
100
AcDbEntity
 67
     1
  8
7_ALL_FEATURES
  6
Continuous
 62
     7
100
AcDbLine
 10
228.1278145395
 20
126.9020382071
 30
0.0
 11
222.4603533392
 21
126.9020382071
 31
0.0
  0
LINE
  5
51E
330
1B
100
AcDbEntity
 67
     1
  8
06___PRT_ALL_SURFS
  6
Continuous
 62
     7
100
AcDbLine
 10
229.3025537855
 20
158.4085830049
 30
0.0
 11
229.7149970498
 21
126.9020382071
 31
0.0
  0
LINE
  5
51F
330
1B
100
AcDbEntity
 67
     1
  8
06___PRT_ALL_SURFS
  6
Continuous
 62
     7
100
AcDbLine
 10
180.5896344206
 20
158.4085830049
 30
0.0
 11
180.1771911563
 21
126.9020382071
 31
0.0
  0
LINE
  5
520
330
1B
100
AcDbEntity
 67
     1
  8
7_ALL_FEATURES
  6
Continuous
 62
     7
100
AcDbLine
 10
222.4603533392
 20
126.9020382071
 30
0.0
 11
181.7638561243
 21
126.9020382071
 31
0.0
  0
LINE
  5
521
330
1B
100
AcDbEntity
 67
     1
  8
7_ALL_FEATURES
  6
Continuous
 62
     7
100
AcDbLine
 10
181.7638561243
 20
126.9020382071
 30
0.0
 11
181.7388772986
 21
126.9020382071
 31
0.0
  0
LINE
  5
522
330
1B
100
AcDbEntity
 67
     1
  8
7_ALL_FEATURES
  6
Continuous
 62
     7
100
AcDbLine
 10
181.7388772986
 20
126.9020382071
 30
0.0
 11
181.7125179599
 21
126.9020382071
 31
0.0
  0
LINE
  5
523
330
1B
100
AcDbEntity
 67
     1
  8
7_ALL_FEATURES
  6
Continuous
 62
     7
100
AcDbLine
 10
181.7125179599
 20
126.9020382071
 30
0.0
 11
180.1774321407
 21
126.9020382071
 31
0.0
  0
SPLINE
  5
524
330
1B
100
AcDbEntity
 67
     1
  8
06___PRT_ALL_SURFS
  6
Continuous
 62
     9
100
AcDbSpline
 70
     0
 71
     3
 72
     9
 73
     5
 74
     0
 42
0.000000001
 43
0.0000001
 40
0.0
 40
0.0
 40
0.0
 40
0.0
 40
0.2425153925
 40
1.0
 40
1.0
 40
1.0
 40
1.0
 10
221.9516493957
 20
158.8632941196
 30
0.0
 10
221.9395970756
 20
158.8632931475
 30
0.0
 10
221.8898999815
 20
158.8635842836
 30
0.0
 10
221.8402123704
 20
158.8649660366
 30
0.0
 10
221.8025977782
 20
158.8664741936
 30
0.0
  0
SPLINE
  5
525
330
1B
100
AcDbEntity
 67
     1
  8
06___PRT_ALL_SURFS
  6
Continuous
 62
     9
100
AcDbSpline
 70
     0
 71
     3
 72
     9
 73
     5
 74
     0
 42
0.000000001
 43
0.0000001
 40
0.0
 40
0.0
 40
0.0
 40
0.0
 40
0.2302247594
 40
1.0
 40
1.0
 40
1.0
 40
1.0
 10
221.8025977782
 20
158.8664741936
 30
0.0
 10
221.7496527424
 20
158.8685970248
 30
0.0
 10
221.5198959964
 20
158.8817618539
 30
0.0
 10
221.2902154653
 20
158.9019075349
 30
0.0
 10
221.1130472348
 20
158.9020373931
 30
0.0
  0
LINE
  5
526
330
1B
100
AcDbEntity
 67
     1
  8
06___PRT_ALL_SURFS
  6
Continuous
 62
     9
100
AcDbLine
 10
222.1687119102
 20
158.4085830049
 30
0.0
 11
229.3025537855
 21
158.4085830049
 31
0.0
  0
SPLINE
  5
527
330
1B
100
AcDbEntity
 67
     1
  8
06___PRT_ALL_SURFS
  6
Continuous
 62
     9
100
AcDbSpline
 70
     0
 71
     3
 72
    10
 73
     6
 74
     0
 42
0.000000001
 43
0.0000001
 40
0.0
 40
0.0
 40
0.0
 40
0.0
 40
0.1944059238
 40
0.427862022
 40
1.0
 40
1.0
 40
1.0
 40
1.0
 10
222.4873033159
 20
158.9020189094
 30
0.0
 10
222.4621386479
 20
158.9017800227
 30
0.0
 10
222.4068574112
 20
158.8969863499
 30
0.0
 10
222.2784299213
 20
158.8812483697
 30
0.0
 10
222.1745385006
 20
158.8709253673
 30
0.0
 10
222.1005754516
 20
158.8670764115
 30
0.0
  0
ARC
  5
528
330
1B
100
AcDbEntity
 67
     1
  8
06___PRT_ALL_SURFS
  6
Continuous
 62
     9
100
AcDbCircle
 10
221.9541899159
 20
161.6971019453
 30
0.0
 40
2.8338089644
100
AcDbArc
 50
269.9486341152
 51
272.9610351658
  0
LINE
  5
529
330
1B
100
AcDbEntity
 67
     1
  8
06___PRT_ALL_SURFS
  6
Continuous
 62
     9
100
AcDbLine
 10
180.5896344206
 20
158.4085830049
 30
0.0
 11
222.1687119102
 21
158.4085830049
 31
0.0
  0
LINE
  5
52A
330
1B
100
AcDbEntity
 67
     1
  8
7_ALL_FEATURES
  6
Continuous
 62
     3
100
AcDbLine
 10
228.746094103
 20
161.5020382071
 30
0.0
 11
228.746094103
 21
172.4020382071
 31
0.0
  0
ARC
  5
52B
330
1B
100
AcDbEntity
 67
     1
  8
7_ALL_FEATURES
  6
Continuous
 62
     3
100
AcDbCircle
 10
227.946094103
 20
161.5020382071
 30
0.0
 40
0.8
100
AcDbArc
 50
327.8954427598
 51
360.0
  0
DIMENSION
  5
52C
330
1B
100
AcDbEntity
 67
     1
  8
0
  6
Continuous
 62
     2
100
AcDbDimension
280
     0
  2
*D1
 10
241.0148783891
 20
126.9020382071
 30
0.0
 11
241.0148783891
 21
149.5868079323
 31
0.0
 70
   160
 71
     5
 42
-1.0
 73
     0
 74
     0
 75
     0
  3
DIMSTYLE_1
100
AcDbAlignedDimension
 13
228.746094103
 23
172.4020382071
 33
0.0
 14
229.7149970498
 24
126.9020382071
 34
0.0
 50
270.0
100
AcDbRotatedDimension
  0
DIMENSION
  5
52D
330
1B
100
AcDbEntity
 67
     1
  8
0
  6
Continuous
 62
     2
100
AcDbDimension
280
     0
  2
*D2
 10
102.5595318583
 20
94.7273585647
 30
0.0
 11
77.9595318583
 21
94.7273585647
 31
0.0
 70
   160
  1
{\Fgdt;o}<>
 71
     5
 42
-1.0
 73
     0
 74
     0
 75
     0
  3
DIMSTYLE_1
100
AcDbAlignedDimension
 13
53.3595318583
 23
87.1502828664
 33
0.0
 14
102.5595318583
 24
86.796278417
 34
0.0
100
AcDbRotatedDimension
  0
DIMENSION
  5
52E
330
1B
100
AcDbEntity
 67
     1
  8
0
  6
Continuous
 62
     2
100
AcDbDimension
280
     0
  2
*D3
 10
124.2095318583
 20
105.4067666237
 30
0.0
 11
77.9612106857
 21
105.4067666237
 31
0.0
 70
   160
 71
     5
 42
-1.0
 73
     0
 74
     0
 75
     0
  3
DIMSTYLE_1
100
AcDbAlignedDimension
 13
31.7095318583
 23
86.332069682
 33
0.0
 14
124.2095318583
 24
85.6630763561
 34
0.0
100
AcDbRotatedDimension
  0
DIMENSION
  5
52F
330
1B
100
AcDbEntity
 67
     1
  8
0
  6
Continuous
 62
     2
100
AcDbDimension
280
     0
  2
*D4
 10
130.3763139233
 20
159.9020382071
 30
0.0
 11
130.3763139233
 21
166.2931217115
 31
0.0
 70
   160
 71
     5
 42
-1.0
 73
     0
 74
     0
 75
     0
  3
DIMSTYLE_2
100
AcDbAlignedDimension
 13
105.4131274089
 23
172.4020382071
 33
0.0
 14
124.894581024
 24
159.9020382071
 34
0.0
 50
270.0
100
AcDbRotatedDimension
  0
LINE
  5
530
330
1B
100
AcDbEntity
 67
     1
  8
0
  6
Continuous
 62
     2
100
AcDbLine
 10
154.0072301476
 20
78.9839440915
 30
0.0
 11
284.0072301476
 21
78.9839440915
 31
0.0
  0
LINE
  5
531
330
1B
100
AcDbEntity
 67
     1
  8
0
  6
Continuous
 62
     2
100
AcDbLine
 10
154.0072301476
 20
78.9839440915
 30
0.0
 11
154.0072301476
 21
12.9839440915
 31
0.0
  0
LINE
  5
532
330
1B
100
AcDbEntity
 67
     1
  8
0
  6
Continuous
 62
     2
100
AcDbLine
 10
184.0072301476
 20
70.9839440915
 30
0.0
 11
284.0072301476
 21
70.9839440915
 31
0.0
  0
LINE
  5
533
330
1B
100
AcDbEntity
 67
     1
  8
0
  6
Continuous
 62
     2
100
AcDbLine
 10
154.0072301476
 20
62.9839440915
 30
0.0
 11
284.0072301476
 21
62.9839440915
 31
0.0
  0
LINE
  5
534
330
1B
100
AcDbEntity
 67
     1
  8
0
  6
Continuous
 62
     2
100
AcDbLine
 10
184.0072301476
 20
56.9839440915
 30
0.0
 11
284.0072301476
 21
56.9839440915
 31
0.0
  0
LINE
  5
535
330
1B
100
AcDbEntity
 67
     1
  8
0
  6
Continuous
 62
     2
100
AcDbLine
 10
184.0072301476
 20
50.9839440915
 30
0.0
 11
284.0072301476
 21
50.9839440915
 31
0.0
  0
LINE
  5
536
330
1B
100
AcDbEntity
 67
     1
  8
0
  6
Continuous
 62
     2
100
AcDbLine
 10
184.0072301476
 20
44.9839440915
 30
0.0
 11
284.0072301476
 21
44.9839440915
 31
0.0
  0
LINE
  5
537
330
1B
100
AcDbEntity
 67
     1
  8
0
  6
Continuous
 62
     2
100
AcDbLine
 10
184.0072301476
 20
38.9839440915
 30
0.0
 11
284.0072301476
 21
38.9839440915
 31
0.0
  0
LINE
  5
538
330
1B
100
AcDbEntity
 67
     1
  8
0
  6
Continuous
 62
     2
100
AcDbLine
 10
184.0072301476
 20
32.9839440915
 30
0.0
 11
284.0072301476
 21
32.9839440915
 31
0.0
  0
LINE
  5
539
330
1B
100
AcDbEntity
 67
     1
  8
0
  6
Continuous
 62
     2
100
AcDbLine
 10
154.0072301476
 20
26.9839440915
 30
0.0
 11
284.0072301476
 21
26.9839440915
 31
0.0
  0
LINE
  5
53A
330
1B
100
AcDbEntity
 67
     1
  8
0
  6
Continuous
 62
     2
100
AcDbLine
 10
154.0072301476
 20
20.9839440915
 30
0.0
 11
284.0072301476
 21
20.9839440915
 31
0.0
  0
LINE
  5
53B
330
1B
100
AcDbEntity
 67
     1
  8
0
  6
Continuous
 62
     2
100
AcDbLine
 10
154.0072301476
 20
16.9839440915
 30
0.0
 11
284.0072301476
 21
16.9839440915
 31
0.0
  0
LINE
  5
53C
330
1B
100
AcDbEntity
 67
     1
  8
0
  6
Continuous
 62
     2
100
AcDbLine
 10
154.0072301476
 20
12.9839440915
 30
0.0
 11
284.0072301476
 21
12.9839440915
 31
0.0
  0
LINE
  5
53D
330
1B
100
AcDbEntity
 67
     1
  8
0
  6
Continuous
 62
     2
100
AcDbLine
 10
184.0072301476
 20
78.9839440915
 30
0.0
 11
184.0072301476
 21
20.9839440915
 31
0.0
  0
LINE
  5
53E
330
1B
100
AcDbEntity
 67
     1
  8
0
  6
Continuous
 62
     2
100
AcDbLine
 10
204.0072301476
 20
62.9839440915
 30
0.0
 11
204.0072301476
 21
56.9839440915
 31
0.0
  0
LINE
  5
53F
330
1B
100
AcDbEntity
 67
     1
  8
0
  6
Continuous
 62
     2
100
AcDbLine
 10
234.0072301476
 20
32.9839440915
 30
0.0
 11
234.0072301476
 21
20.9839440915
 31
0.0
  0
LINE
  5
540
330
1B
100
AcDbEntity
 67
     1
  8
0
  6
Continuous
 62
     2
100
AcDbLine
 10
244.0072301476
 20
62.9839440915
 30
0.0
 11
244.0072301476
 21
56.9839440915
 31
0.0
  0
LINE
  5
541
330
1B
100
AcDbEntity
 67
     1
  8
0
  6
Continuous
 62
     2
100
AcDbLine
 10
244.0072301476
 20
50.9839440915
 30
0.0
 11
244.0072301476
 21
44.9839440915
 31
0.0
  0
LINE
  5
542
330
1B
100
AcDbEntity
 67
     1
  8
0
  6
Continuous
 62
     2
100
AcDbLine
 10
264.0072301476
 20
62.9839440915
 30
0.0
 11
264.0072301476
 21
56.9839440915
 31
0.0
  0
LINE
  5
543
330
1B
100
AcDbEntity
 67
     1
  8
0
  6
Continuous
 62
     2
100
AcDbLine
 10
274.0072301476
 20
50.9839440915
 30
0.0
 11
274.0072301476
 21
44.9839440915
 31
0.0
  0
LINE
  5
544
330
1B
100
AcDbEntity
 67
     1
  8
0
  6
Continuous
 62
     2
100
AcDbLine
 10
284.0072301476
 20
78.9839440915
 30
0.0
 11
284.0072301476
 21
12.9839440915
 31
0.0
  0
INSERT
  5
545
330
1B
100
AcDbEntity
 67
     1
  8
0
  6
Continuous
 62
     2
100
AcDbBlockReference
  2
PROIEZIONE_EU_BL0
 10
169.0072301476
 20
70.6089440915
 30
0.0
  0
MTEXT
  5
546
330
1B
100
AcDbEntity
 67
     1
  8
9_SOLID
  6
Continuous
 62
     2
100
AcDbMText
 10
185.4947301476
 20
77.3589440915
 30
0.0
 40
1.9
 41
142.3642857143
 46
0.0
 71
     1
 72
     1
  1
EN: Chamfer/radii unlisted 0.3x45°. Remove sharp edges.\PGen. tol.: hole H11, shaft h11, lenght Js12. UNI EN 22768 Medium Grande.
  7
TEXTSTYLE_4
 73
     1
 44
1.0
  0
MTEXT
  5
547
330
1B
100
AcDbEntity
 67
     1
  8
9_SOLID
  6
Continuous
 62
     2
100
AcDbMText
 10
185.4947301476
 20
69.3589440915
 30
0.0
 40
1.9
 41
148.2678571429
 46
0.0
 71
     1
 72
     1
  1
IT: Sm./rac. non quotati 0.3x45°. Eliminare spigoli taglienti.\PToll. gen.: foro H11, albero h11, lunghezza Js12. UNI EN 22768 Grado Medio.
  7
TEXTSTYLE_4
 73
     1
 44
1.0
  0
INSERT
  5
548
330
1B
100
AcDbEntity
 67
     1
  8
0
  6
Continuous
 62
     2
100
AcDbBlockReference
  2
LOGO2_BL1
 10
167.8332771924
 20
44.9839440915
 30
0.0
  0
MTEXT
  5
549
330
1B
100
AcDbEntity
 67
     1
  8
9_SOLID
  6
Continuous
 62
     2
100
AcDbMText
 10
185.4947301476
 20
61.2339440915
 30
0.0
 40
3.0
 41
21.1071428571
 46
0.0
 71
     1
 72
     1
  1
Pj: 2E1
  7
TEXTSTYLE_4
 73
     1
 44
1.0
  0
MTEXT
  5
54A
330
1B
100
AcDbEntity
 67
     1
  8
9_SOLID
  6
Continuous
 62
     2
100
AcDbMText
 10
205.4947301476
 20
61.2339440915
 30
0.0
 40
3.0
 41
38.0357142857
 46
0.0
 71
     1
 72
     1
  1
% Check: %
  7
TEXTSTYLE_4
 73
     1
 44
1.0
  0
MTEXT
  5
54B
330
1B
100
AcDbEntity
 67
     1
  8
9_SOLID
  6
Continuous
 62
     2
100
AcDbMText
 10
245.4947301476
 20
61.2339440915
 30
0.0
 40
3.0
 41
19.5
 46
0.0
 71
     1
 72
     1
  1
Rev:00
  7
TEXTSTYLE_4
 73
     1
 44
1.0
  0
MTEXT
  5
54C
330
1B
100
AcDbEntity
 67
     1
  8
9_SOLID
  6
Continuous
 62
     2
100
AcDbMText
 10
265.4947301476
 20
61.4839440915
 30
0.0
 40
3.0
 41
19.7142857143
 46
0.0
 71
     1
 72
     1
  1
Ver: A
  7
TEXTSTYLE_4
 73
     1
 44
1.0
  0
MTEXT
  5
54D
330
1B
100
AcDbEntity
 67
     1
  8
9_SOLID
  6
Continuous
 62
     2
100
AcDbMText
 10
185.4947301476
 20
55.2339440915
 30
0.0
 40
3.0
 41
72.4285714286
 46
0.0
 71
     1
 72
     1
  1
Neutral code: 2E1_C_157
  7
TEXTSTYLE_4
 73
     1
 44
1.0
  0
MTEXT
  5
54E
330
1B
100
AcDbEntity
 67
     1
  8
9_SOLID
  6
Continuous
 62
     2
100
AcDbMText
 10
185.4947301476
 20
49.2339440915
 30
0.0
 40
3.0
 41
19.3928571429
 46
0.0
 71
     1
 72
     1
  1
Code: 
  7
TEXTSTYLE_4
 73
     1
 44
1.0
  0
MTEXT
  5
54F
330
1B
100
AcDbEntity
 67
     1
  8
9_SOLID
  6
Continuous
 62
     2
100
AcDbMText
 10
245.4947301476
 20
49.4839440915
 30
0.0
 40
3.0
 41
27.0
 46
0.0
 71
     1
 72
     1
  1
Scale: 1:1
  7
TEXTSTYLE_4
 73
     1
 44
1.0
  0
MTEXT
  5
550
330
1B
100
AcDbEntity
 67
     1
  8
9_SOLID
  6
Continuous
 62
     2
100
AcDbMText
 10
279.0072301476
 20
49.4839440915
 30
0.0
 40
3.0
 41
7.3928571429
 46
0.0
 71
     2
 72
     1
  1
A4
  7
TEXTSTYLE_4
 73
     1
 44
1.0
  0
MTEXT
  5
551
330
1B
100
AcDbEntity
 67
     1
  8
9_SOLID
  6
Continuous
 62
     2
100
AcDbMText
 10
185.4947301476
 20
43.4839440915
 30
0.0
 40
3.0
 41
54.75
 46
0.0
 71
     1
 72
     1
  1
It descr.: WC4511
  7
TEXTSTYLE_4
 73
     1
 44
1.0
  0
MTEXT
  5
552
330
1B
100
AcDbEntity
 67
     1
  8
9_SOLID
  6
Continuous
 62
     2
100
AcDbMText
 10
185.4947301476
 20
37.4839440915
 30
0.0
 40
3.0
 41
33.9642857143
 46
0.0
 71
     1
 72
     1
  1
En descr.: 
  7
TEXTSTYLE_4
 73
     1
 44
1.0
  0
MTEXT
  5
553
330
1B
100
AcDbEntity
 67
     1
  8
9_SOLID
  6
Continuous
 62
     2
100
AcDbMText
 10
185.4947301476
 20
31.4839440915
 30
0.0
 40
3.0
 41
28.7142857143
 46
0.0
 71
     1
 72
     1
  1
Des.: A.F
  7
TEXTSTYLE_4
 73
     1
 44
1.0
  0
MTEXT
  5
554
330
1B
100
AcDbEntity
 67
     1
  8
9_SOLID
  6
Continuous
 62
     2
100
AcDbMText
 10
235.4947301476
 20
31.4839440915
 30
0.0
 40
3.0
 41
34.8214285714
 46
0.0
 71
     1
 72
     1
  1
Check: A.P.
  7
TEXTSTYLE_4
 73
     1
 44
1.0
  0
MTEXT
  5
555
330
1B
100
AcDbEntity
 67
     1
  8
9_SOLID
  6
Continuous
 62
     2
100
AcDbMText
 10
155.4947301476
 20
25.4839440915
 30
0.0
 40
3.0
 41
43.5
 46
0.0
 71
     1
 72
     1
  1
Date: 04.12.18
  7
TEXTSTYLE_4
 73
     1
 44
1.0
  0
MTEXT
  5
556
330
1B
100
AcDbEntity
 67
     1
  8
9_SOLID
  6
Continuous
 62
     2
100
AcDbMText
 10
185.4947301476
 20
25.4839440915
 30
0.0
 40
3.0
 41
18.2142857143
 46
0.0
 71
     1
 72
     1
  1
Mat.: 
  7
TEXTSTYLE_4
 73
     1
 44
1.0
  0
MTEXT
  5
557
330
1B
100
AcDbEntity
 67
     1
  8
9_SOLID
  6
Continuous
 62
     2
100
AcDbMText
 10
235.4947301476
 20
24.9839440915
 30
0.0
 40
2.0
 41
42.3571428571
 46
0.0
 71
     1
 72
     1
  1
Disegno per catalogo
  7
TEXTSTYLE_4
 73
     1
 44
1.0
  0
MTEXT
  5
558
330
1B
100
AcDbEntity
 67
     1
  8
9_SOLID
  6
Continuous
 62
     2
100
AcDbMText
 10
155.4947301476
 20
19.8839440915
 30
0.0
 40
1.8
 41
175.6928571429
 46
0.0
 71
     1
 72
     1
  1
It: A norma di legge si diffida da qualsiasi riproduzione senza nostra autorizzazione esplicita.
  7
TEXTSTYLE_4
 73
     1
 44
1.0
  0
MTEXT
  5
559
330
1B
100
AcDbEntity
 67
     1
  8
9_SOLID
  6
Continuous
 62
     2
100
AcDbMText
 10
155.4947301476
 20
15.8839440915
 30
0.0
 40
1.8
 41
157.6285714286
 46
0.0
 71
     1
 72
     1
  1
En: According to the law, beware of any reproduction made without our authorization.
  7
TEXTSTYLE_4
 73
     1
 44
1.0
  0
ENDSEC
  0
SECTION
  2
OBJECTS
  0
DICTIONARY
  5
55A
330
0
100
AcDbDictionary
281
     1
  3
ACAD_DETAILVIEWSTYLE
350
5B0
  3
ACAD_GROUP
350
55B
  3
ACAD_LAYOUT
350
583
  3
ACAD_MATERIAL
350
59F
  3
ACAD_MLEADERSTYLE
350
5A5
  3
ACAD_MLINESTYLE
350
55C
  3
ACAD_PLOTSETTINGS
350
55E
  3
ACAD_PLOTSTYLENAME
350
55F
  3
ACAD_SCALELIST
350
561
  3
ACAD_SECTIONVIEWSTYLE
350
5B1
  3
ACAD_TABLESTYLE
350
5A3
  3
ACAD_VISUALSTYLE
350
586
  3
ACDB_RECOMPOSE_DATA
350
5AC
  3
AcDbVariableDictionary
350
5A8
  3
APPDATA
350
5A7
  0
DICTIONARY
  5
5B0
102
{ACAD_REACTORS
330
55A
102
}
330
55A
100
AcDbDictionary
281
     1
  0
DICTIONARY
  5
55B
102
{ACAD_REACTORS
330
55A
102
}
330
55A
100
AcDbDictionary
281
     1
  0
DICTIONARY
  5
583
102
{ACAD_REACTORS
330
55A
102
}
330
55A
100
AcDbDictionary
281
     1
  3
Foglio 1
350
585
  3
Model
350
584
  0
DICTIONARY
  5
59F
102
{ACAD_REACTORS
330
55A
102
}
330
55A
100
AcDbDictionary
281
     1
  3
ByBlock
350
5A1
  3
ByLayer
350
5A0
  3
Global
350
5A2
  0
DICTIONARY
  5
5A5
102
{ACAD_REACTORS
330
55A
102
}
330
55A
100
AcDbDictionary
281
     1
  3
Standard
350
5A6
  0
DICTIONARY
  5
55C
102
{ACAD_REACTORS
330
55A
102
}
330
55A
100
AcDbDictionary
281
     1
  3
STANDARD
350
55D
  0
DICTIONARY
  5
55E
102
{ACAD_REACTORS
330
55A
102
}
330
55A
100
AcDbDictionary
281
     1
  0
ACDBDICTIONARYWDFLT
  5
55F
102
{ACAD_REACTORS
330
55A
102
}
330
55A
100
AcDbDictionary
281
     1
  3
Normal
350
560
100
AcDbDictionaryWithDefault
340
560
  0
DICTIONARY
  5
561
102
{ACAD_REACTORS
330
55A
102
}
330
55A
100
AcDbDictionary
281
     1
  3
A0
350
562
  3
A1
350
563
  3
A2
350
564
  3
A3
350
565
  3
A4
350
566
  3
A5
350
567
  3
A6
350
568
  3
A7
350
569
  3
A8
350
56A
  3
A9
350
56B
  3
B0
350
56C
  3
B1
350
56D
  3
B2
350
56E
  3
B3
350
56F
  3
B4
350
570
  3
B5
350
571
  3
B6
350
572
  3
B7
350
573
  3
B8
350
574
  3
B9
350
575
  3
C0
350
576
  3
C1
350
577
  3
C2
350
578
  3
C3
350
579
  3
C4
350
57A
  3
C5
350
57B
  3
C6
350
57C
  3
C7
350
57D
  3
C8
350
57E
  3
C9
350
57F
  3
D0
350
580
  3
D1
350
581
  3
D2
350
582
  0
DICTIONARY
  5
5B1
102
{ACAD_REACTORS
330
55A
102
}
330
55A
100
AcDbDictionary
281
     1
  0
DICTIONARY
  5
5A3
102
{ACAD_REACTORS
330
55A
102
}
330
55A
100
AcDbDictionary
281
     1
  3
Standard
350
5A4
  0
DICTIONARY
  5
586
102
{ACAD_REACTORS
330
55A
102
}
330
55A
100
AcDbDictionary
281
     1
  3
2dWireframe
350
58B
  3
Basic
350
58E
  3
Brighten
350
592
  3
ColorChange
350
596
  3
Conceptual
350
590
  3
Dim
350
591
  3
EdgeColorOff
350
599
  3
Facepattern
350
595
  3
Flat
350
587
  3
FlatWithEdges
350
588
  3
Gouraud
350
589
  3
GouraudWithEdges
350
58A
  3
Hidden
350
58D
  3
JitterOff
350
597
  3
Linepattern
350
594
  3
OverhangOff
350
598
  3
Realistic
350
58F
  3
Shaded
350
59E
  3
Shaded with edges
350
59D
  3
Shades of Gray
350
59A
  3
Sketchy
350
59B
  3
Thicken
350
593
  3
Wireframe
350
58C
  3
X-Ray
350
59C
  0
XRECORD
  5
5AC
102
{ACAD_REACTORS
330
55A
102
}
330
55A
100
AcDbXrecord
280
     1
 90
        1
330
5A4
  0
DICTIONARY
  5
5A8
102
{ACAD_REACTORS
330
55A
102
}
330
55A
100
AcDbDictionary
281
     1
  3
CANNOSCALE
350
5A9
  3
CMLEADERSTYLE
350
5AE
  3
CTABLESTYLE
350
5AD
  3
MSLTSCALE
350
5AF
  0
DICTIONARY
  5
5A7
102
{ACAD_REACTORS
330
55A
102
}
330
55A
100
AcDbDictionary
281
     1
  0
LAYOUT
  5
585
102
{ACAD_REACTORS
330
583
102
}
330
583
100
AcDbPlotSettings
  1

  2
none_device
  4
ISO_A3_(420.00_x_297.00_MM)
  6

 40
7.5
 41
20.0
 42
7.5
 43
20.0
 44
420.0
 45
297.0
 46
0.0
 47
0.0
 48
0.0
 49
0.0
140
0.0
141
0.0
142
1.0
143
0.7396887159533074
 70
   688
 72
     1
 73
     0
 74
     1
  7

 75
     0
 76
     0
 77
     2
 78
   300
147
1.351920042083114
148
-9.949999999999989
149
-9.950000000000003
100
AcDbLayout
  1
Foglio 1
 70
     1
 71
     1
 10
0.0
 20
0.0
 11
412.5
 21
277.0
 12
0.0
 22
0.0
 32
0.0
 14
9.949999999999989
 24
9.950000000000003
 34
0.0
 15
291.5463968142667
 25
200.05
 35
0.0
146
0.0
 13
0.0
 23
0.0
 33
0.0
 16
1.0
 26
0.0
 36
0.0
 17
0.0
 27
1.0
 37
0.0
 76
     0
330
1B
331
2AD
  0
LAYOUT
  5
584
102
{ACAD_REACTORS
330
583
102
}
330
583
100
AcDbPlotSettings
  1

  2
none_device
  4
Letter_(8.50_x_11.00_Inches)
  6

 40
6.35
 41
6.35
 42
6.35
 43
6.35
 44
215.9
 45
279.4
 46
0.0
 47
0.0
 48
0.0
 49
0.0
140
0.0
141
0.0
142
1.0
143
37.125000000375
 70
  1712
 72
     0
 73
     0
 74
     0
  7

 75
     0
 76
     0
 77
     2
 78
   300
147
0.0269360269357549
148
0.000000038100319
149
0.0
100
AcDbLayout
  1
Model
 70
     1
 71
     0
 10
0.0
 20
0.0
 11
297.0
 21
210.0
 12
0.0
 22
0.0
 32
0.0
 14
0.0
 24
0.0
 34
0.0
 15
297.0
 25
210.0
 35
0.0
146
0.0
 13
0.0
 23
0.0
 33
0.0
 16
1.0
 26
0.0
 36
0.0
 17
0.0
 27
1.0
 37
0.0
 76
     0
330
1F
331
1F4
  0
MATERIAL
  5
5A1
102
{ACAD_REACTORS
330
59F
102
}
330
59F
100
AcDbMaterial
  1
ByBlock
 72
     1
 94
      127
  0
MATERIAL
  5
5A0
102
{ACAD_REACTORS
330
59F
102
}
330
59F
100
AcDbMaterial
  1
ByLayer
 72
     1
 94
      127
  0
MATERIAL
  5
5A2
102
{ACAD_REACTORS
330
59F
102
}
330
59F
100
AcDbMaterial
  1
Global
 72
     1
 94
      127
  0
MLEADERSTYLE
  5
5A6
102
{ACAD_REACTORS
330
5A5
102
}
330
5A5
100
AcDbMLeaderStyle
179
     2
170
     2
171
     1
172
     0
 90
        2
 40
0.0
 41
0.0
173
     1
 91
-1056964608
340
14
 92
       -2
290
     1
 42
2.0
291
     1
 43
8.0
  3
Standard
341
0
 44
4.0
300

342
11
174
     1
178
     1
175
     1
176
     0
 93
-1056964608
 45
4.0
292
     0
297
     0
 46
4.0
343
0
 94
-1056964608
 47
1.0
 49
1.0
140
1.0
293
     1
141
0.0
294
     1
177
     0
142
1.0
295
     0
296
     0
143
3.75
271
     0
272
     9
273
     9
298
     0
  0
MLINESTYLE
  5
55D
102
{ACAD_REACTORS
330
55C
102
}
330
55C
100
AcDbMlineStyle
  2
STANDARD
 70
     0
  3

 62
   256
 51
90.0
 52
90.0
 71
     2
 49
0.5
 62
   256
  6
BYLAYER
 49
-0.5
 62
   256
  6
BYLAYER
  0
ACDBPLACEHOLDER
  5
560
102
{ACAD_REACTORS
330
55F
102
}
330
55F
  0
SCALE
  5
562
102
{ACAD_REACTORS
330
561
102
}
330
561
100
AcDbScale
 70
     0
300
1:1
140
1.0
141
1.0
290
     1
  0
SCALE
  5
563
102
{ACAD_REACTORS
330
561
102
}
330
561
100
AcDbScale
 70
     0
300
1:2
140
1.0
141
2.0
290
     0
  0
SCALE
  5
564
102
{ACAD_REACTORS
330
561
102
}
330
561
100
AcDbScale
 70
     0
300
1:4
140
1.0
141
4.0
290
     0
  0
SCALE
  5
565
102
{ACAD_REACTORS
330
561
102
}
330
561
100
AcDbScale
 70
     0
300
1:5
140
1.0
141
5.0
290
     0
  0
SCALE
  5
566
102
{ACAD_REACTORS
330
561
102
}
330
561
100
AcDbScale
 70
     0
300
1:8
140
1.0
141
8.0
290
     0
  0
SCALE
  5
567
102
{ACAD_REACTORS
330
561
102
}
330
561
100
AcDbScale
 70
     0
300
1:10
140
1.0
141
10.0
290
     0
  0
SCALE
  5
568
102
{ACAD_REACTORS
330
561
102
}
330
561
100
AcDbScale
 70
     0
300
1:16
140
1.0
141
16.0
290
     0
  0
SCALE
  5
569
102
{ACAD_REACTORS
330
561
102
}
330
561
100
AcDbScale
 70
     0
300
1:20
140
1.0
141
20.0
290
     0
  0
SCALE
  5
56A
102
{ACAD_REACTORS
330
561
102
}
330
561
100
AcDbScale
 70
     0
300
1:30
140
1.0
141
30.0
290
     0
  0
SCALE
  5
56B
102
{ACAD_REACTORS
330
561
102
}
330
561
100
AcDbScale
 70
     0
300
1:40
140
1.0
141
40.0
290
     0
  0
SCALE
  5
56C
102
{ACAD_REACTORS
330
561
102
}
330
561
100
AcDbScale
 70
     0
300
1:50
140
1.0
141
50.0
290
     0
  0
SCALE
  5
56D
102
{ACAD_REACTORS
330
561
102
}
330
561
100
AcDbScale
 70
     0
300
1:100
140
1.0
141
100.0
290
     0
  0
SCALE
  5
56E
102
{ACAD_REACTORS
330
561
102
}
330
561
100
AcDbScale
 70
     0
300
2:1
140
2.0
141
1.0
290
     0
  0
SCALE
  5
56F
102
{ACAD_REACTORS
330
561
102
}
330
561
100
AcDbScale
 70
     0
300
4:1
140
4.0
141
1.0
290
     0
  0
SCALE
  5
570
102
{ACAD_REACTORS
330
561
102
}
330
561
100
AcDbScale
 70
     0
300
8:1
140
8.0
141
1.0
290
     0
  0
SCALE
  5
571
102
{ACAD_REACTORS
330
561
102
}
330
561
100
AcDbScale
 70
     0
300
10:1
140
10.0
141
1.0
290
     0
  0
SCALE
  5
572
102
{ACAD_REACTORS
330
561
102
}
330
561
100
AcDbScale
 70
     0
300
100:1
140
100.0
141
1.0
290
     0
  0
SCALE
  5
573
102
{ACAD_REACTORS
330
561
102
}
330
561
100
AcDbScale
 70
     0
300
1/128" = 1'-0"
140
0.0078125
141
12.0
290
     0
  0
SCALE
  5
574
102
{ACAD_REACTORS
330
561
102
}
330
561
100
AcDbScale
 70
     0
300
1/64" = 1'-0"
140
0.015625
141
12.0
290
     0
  0
SCALE
  5
575
102
{ACAD_REACTORS
330
561
102
}
330
561
100
AcDbScale
 70
     0
300
1/32" = 1'-0"
140
0.03125
141
12.0
290
     0
  0
SCALE
  5
576
102
{ACAD_REACTORS
330
561
102
}
330
561
100
AcDbScale
 70
     0
300
1/16" = 1'-0"
140
0.0625
141
12.0
290
     0
  0
SCALE
  5
577
102
{ACAD_REACTORS
330
561
102
}
330
561
100
AcDbScale
 70
     0
300
3/32" = 1'-0"
140
0.09375
141
12.0
290
     0
  0
SCALE
  5
578
102
{ACAD_REACTORS
330
561
102
}
330
561
100
AcDbScale
 70
     0
300
1/8" = 1'-0"
140
0.125
141
12.0
290
     0
  0
SCALE
  5
579
102
{ACAD_REACTORS
330
561
102
}
330
561
100
AcDbScale
 70
     0
300
3/16" = 1'-0"
140
0.1875
141
12.0
290
     0
  0
SCALE
  5
57A
102
{ACAD_REACTORS
330
561
102
}
330
561
100
AcDbScale
 70
     0
300
1/4" = 1'-0"
140
0.25
141
12.0
290
     0
  0
SCALE
  5
57B
102
{ACAD_REACTORS
330
561
102
}
330
561
100
AcDbScale
 70
     0
300
3/8" = 1'-0"
140
0.375
141
12.0
290
     0
  0
SCALE
  5
57C
102
{ACAD_REACTORS
330
561
102
}
330
561
100
AcDbScale
 70
     0
300
1/2" = 1'-0"
140
0.5
141
12.0
290
     0
  0
SCALE
  5
57D
102
{ACAD_REACTORS
330
561
102
}
330
561
100
AcDbScale
 70
     0
300
3/4" = 1'-0"
140
0.75
141
12.0
290
     0
  0
SCALE
  5
57E
102
{ACAD_REACTORS
330
561
102
}
330
561
100
AcDbScale
 70
     0
300
1" = 1'-0"
140
1.0
141
12.0
290
     0
  0
SCALE
  5
57F
102
{ACAD_REACTORS
330
561
102
}
330
561
100
AcDbScale
 70
     0
300
1-1/2" = 1'-0"
140
1.5
141
12.0
290
     0
  0
SCALE
  5
580
102
{ACAD_REACTORS
330
561
102
}
330
561
100
AcDbScale
 70
     0
300
3" = 1'-0"
140
3.0
141
12.0
290
     0
  0
SCALE
  5
581
102
{ACAD_REACTORS
330
561
102
}
330
561
100
AcDbScale
 70
     0
300
6" = 1'-0"
140
6.0
141
12.0
290
     0
  0
SCALE
  5
582
102
{ACAD_REACTORS
330
561
102
}
330
561
100
AcDbScale
 70
     0
300
1'-0" = 1'-0"
140
12.0
141
12.0
290
     0
  0
TABLESTYLE
  5
5A4
102
{ACAD_REACTORS
330
5A3
102
}
102
{ACAD_XDICTIONARY
360
5AA
102
}
330
5A3
100
AcDbTableStyle
  3
Standard
 70
     0
 71
     0
 40
0.06
 41
0.06
280
     0
281
     0
  7
STANDARD
140
4.5
170
     2
 62
     0
 63
   257
283
     0
 90
        4
 91
        0
  1

274
    -2
284
     1
 64
     0
275
    -2
285
     1
 65
     0
276
    -2
286
     1
 66
     0
277
    -2
287
     1
 67
     0
278
    -2
288
     1
 68
     0
279
    -2
289
     1
 69
     0
  7
STANDARD
140
6.0
170
     5
 62
     0
 63
   257
283
     0
 90
        4
 91
        0
  1

274
    -2
284
     1
 64
     0
275
    -2
285
     1
 65
     0
276
    -2
286
     1
 66
     0
277
    -2
287
     1
 67
     0
278
    -2
288
     1
 68
     0
279
    -2
289
     1
 69
     0
  7
STANDARD
140
4.5
170
     5
 62
     0
 63
   257
283
     0
 90
        4
 91
        0
  1

274
    -2
284
     1
 64
     0
275
    -2
285
     1
 65
     0
276
    -2
286
     1
 66
     0
277
    -2
287
     1
 67
     0
278
    -2
288
     1
 68
     0
279
    -2
289
     1
 69
     0
  0
VISUALSTYLE
  5
58B
102
{ACAD_REACTORS
330
586
102
}
330
586
100
AcDbVisualStyle
  2
2dWireframe
 70
     4
177
     3
291
     0
 70
    58
 90
        0
176
     1
 90
        2
176
     1
 90
        0
176
     1
 90
        0
176
     1
 40
0.6
176
     1
 40
30.0
176
     1
 62
     7
420
 16777215
176
     1
 90
        1
176
     1
 90
        4
176
     1
 62
     7
176
     1
 62
   257
176
     1
 90
        1
176
     1
 90
        1
176
     1
 40
1.0
176
     1
 90
        0
176
     1
 62
   257
176
     1
 40
1.0
176
     1
 90
        1
176
     1
 90
        6
176
     1
 90
        2
176
     1
 62
     7
176
     1
 90
        5
176
     1
 90
        0
176
     1
 90
        0
176
     1
290
     0
176
     1
 90
        1
176
     1
 40
0.0
176
     1
 90
        0
176
     1
290
     1
176
     1
290
     1
176
     1
290
     0
176
     1
290
     0
176
     1
290
     0
176
     1
290
     0
176
     1
290
     0
176
     1
290
     0
176
     1
290
     0
176
     1
 90
       50
176
     1
 40
0.0
176
     1
 40
1.0
176
     1
 90
        0
176
     1
 62
    18
420
        0
176
     1
 90
       50
176
     1
 90
        3
176
     1
 62
     5
420
      255
176
     1
290
     0
176
     1
 90
       50
176
     1
 90
       50
176
     1
 90
       50
176
     1
290
     0
176
     1
 90
       50
176
     1
 62
   256
176
     0
 40
1.0
176
     0
 90
        2
176
     1
  1
strokes_ogs.tif
176
     1
290
     0
176
     1
 40
1.0
176
     1
 40
1.0
176
     1
  0
VISUALSTYLE
  5
58E
102
{ACAD_REACTORS
330
586
102
}
330
586
100
AcDbVisualStyle
  2
Basic
 70
     7
177
     3
291
     1
 70
    58
 90
        1
176
     1
 90
        0
176
     1
 90
        1
176
     1
 90
        0
176
     1
 40
0.6
176
     1
 40
30.0
176
     1
 62
     7
420
 16777215
176
     1
 90
        0
176
     1
 90
        4
176
     1
 62
     7
176
     1
 62
   257
176
     1
 90
        1
176
     1
 90
        1
176
     1
 40
1.0
176
     1
 90
        8
176
     1
 62
     7
176
     1
 40
1.0
176
     1
 90
        1
176
     1
 90
        6
176
     1
 90
        2
176
     1
 62
     7
176
     1
 90
        5
176
     1
 90
        0
176
     1
 90
        0
176
     1
290
     0
176
     1
 90
        1
176
     1
 40
0.0
176
     1
 90
        0
176
     1
290
     0
176
     1
290
     1
176
     1
290
     1
176
     1
290
     0
176
     1
290
     0
176
     1
290
     0
176
     1
290
     0
176
     1
290
     0
176
     1
290
     0
176
     1
 90
       50
176
     1
 40
0.0
176
     1
 40
1.0
176
     1
 90
        0
176
     1
 62
    18
420
        0
176
     1
 90
       50
176
     1
 90
        3
176
     1
 62
     5
420
      255
176
     1
290
     0
176
     1
 90
       50
176
     1
 90
       50
176
     1
 90
       50
176
     1
290
     0
176
     1
 90
       50
176
     1
 62
   256
176
     0
 40
1.0
176
     0
 90
        2
176
     1
  1
strokes_ogs.tif
176
     1
290
     0
176
     1
 40
1.0
176
     1
 40
1.0
176
     1
  0
VISUALSTYLE
  5
592
102
{ACAD_REACTORS
330
586
102
}
330
586
100
AcDbVisualStyle
  2
Brighten
 70
    12
177
     3
291
     1
 70
    58
 90
        2
176
     1
 90
        2
176
     1
 90
        0
176
     1
 90
        0
176
     1
 40
0.6
176
     1
 40
30.0
176
     1
 62
     7
420
 16777215
176
     1
 90
        1
176
     1
 90
        4
176
     1
 62
     7
176
     1
 62
   257
176
     1
 90
        1
176
     1
 90
        1
176
     1
 40
1.0
176
     1
 90
        8
176
     1
 62
     7
176
     1
 40
1.0
176
     1
 90
        1
176
     1
 90
        6
176
     1
 90
        2
176
     1
 62
     7
176
     1
 90
        5
176
     1
 90
        0
176
     1
 90
        0
176
     1
290
     0
176
     1
 90
        1
176
     1
 40
50.0
176
     1
 90
        0
176
     1
290
     0
176
     1
290
     1
176
     1
290
     1
176
     1
290
     0
176
     1
290
     0
176
     1
290
     0
176
     1
290
     0
176
     1
290
     0
176
     1
290
     0
176
     1
 90
       50
176
     1
 40
0.0
176
     1
 40
1.0
176
     1
 90
        0
176
     1
 62
    18
420
        0
176
     1
 90
       50
176
     1
 90
        3
176
     1
 62
     5
420
      255
176
     1
290
     0
176
     1
 90
       50
176
     1
 90
       50
176
     1
 90
       50
176
     1
290
     0
176
     1
 90
       50
176
     1
 62
   256
176
     0
 40
1.0
176
     0
 90
        2
176
     1
  1
strokes_ogs.tif
176
     1
290
     0
176
     1
 40
1.0
176
     1
 40
1.0
176
     1
  0
VISUALSTYLE
  5
596
102
{ACAD_REACTORS
330
586
102
}
330
586
100
AcDbVisualStyle
  2
ColorChange
 70
    16
177
     3
291
     1
 70
    58
 90
        2
176
     1
 90
        2
176
     1
 90
        3
176
     1
 90
        0
176
     1
 40
0.6
176
     1
 40
30.0
176
     1
 62
     8
420
  8421504
176
     1
 90
        1
176
     1
 90
        4
176
     1
 62
     7
176
     1
 62
   257
176
     1
 90
        1
176
     1
 90
        1
176
     1
 40
1.0
176
     1
 90
        8
176
     1
 62
     8
420
  8421504
176
     1
 40
1.0
176
     1
 90
        1
176
     1
 90
        6
176
     1
 90
        2
176
     1
 62
     7
176
     1
 90
        5
176
     1
 90
        0
176
     1
 90
        0
176
     1
290
     0
176
     1
 90
        1
176
     1
 40
0.0
176
     1
 90
        0
176
     1
290
     0
176
     1
290
     1
176
     1
290
     1
176
     1
290
     0
176
     1
290
     0
176
     1
290
     0
176
     1
290
     0
176
     1
290
     0
176
     1
290
     0
176
     1
 90
       50
176
     1
 40
0.0
176
     1
 40
1.0
176
     1
 90
        0
176
     1
 62
    18
420
        0
176
     1
 90
       50
176
     1
 90
        3
176
     1
 62
     5
420
      255
176
     1
290
     0
176
     1
 90
       50
176
     1
 90
       50
176
     1
 90
       50
176
     1
290
     0
176
     1
 90
       50
176
     1
 62
   256
176
     0
 40
1.0
176
     0
 90
        2
176
     1
  1
strokes_ogs.tif
176
     1
290
     0
176
     1
 40
1.0
176
     1
 40
1.0
176
     1
  0
VISUALSTYLE
  5
590
102
{ACAD_REACTORS
330
586
102
}
330
586
100
AcDbVisualStyle
  2
Conceptual
 70
     9
177
     3
291
     0
 70
    58
 90
        3
176
     1
 90
        2
176
     1
 90
        0
176
     1
 90
        0
176
     1
 40
0.6
176
     1
 40
30.0
176
     1
 62
     7
420
 16777215
176
     1
 90
        2
176
     1
 90
        2
176
     1
 62
     7
176
     1
 62
   257
176
     1
 90
        1
176
     1
 90
        1
176
     1
 40
179.0
176
     1
 90
        8
176
     1
 62
     7
176
     1
 40
1.0
176
     1
 90
        1
176
     1
 90
        6
176
     1
 90
        2
176
     1
 62
     7
176
     1
 90
        3
176
     1
 90
        0
176
     1
 90
        0
176
     1
290
     0
176
     1
 90
        1
176
     1
 40
0.0
176
     1
 90
        0
176
     1
290
     0
176
     1
290
     1
176
     1
290
     1
176
     1
290
     0
176
     1
290
     0
176
     1
290
     0
176
     1
290
     0
176
     1
290
     0
176
     1
290
     0
176
     1
 90
       50
176
     1
 40
0.0
176
     1
 40
1.0
176
     1
 90
        0
176
     1
 62
    18
420
        0
176
     1
 90
       50
176
     1
 90
        3
176
     1
 62
     5
420
      255
176
     1
290
     0
176
     1
 90
       50
176
     1
 90
       50
176
     1
 90
       50
176
     1
290
     0
176
     1
 90
       50
176
     1
 62
   256
176
     0
 40
1.0
176
     0
 90
        2
176
     1
  1
strokes_ogs.tif
176
     1
290
     0
176
     1
 40
1.0
176
     1
 40
1.0
176
     1
  0
VISUALSTYLE
  5
591
102
{ACAD_REACTORS
330
586
102
}
330
586
100
AcDbVisualStyle
  2
Dim
 70
    11
177
     3
291
     1
 70
    58
 90
        2
176
     1
 90
        2
176
     1
 90
        0
176
     1
 90
        0
176
     1
 40
0.6
176
     1
 40
30.0
176
     1
 62
     7
420
 16777215
176
     1
 90
        1
176
     1
 90
        4
176
     1
 62
     7
176
     1
 62
   257
176
     1
 90
        1
176
     1
 90
        1
176
     1
 40
1.0
176
     1
 90
        8
176
     1
 62
     7
176
     1
 40
1.0
176
     1
 90
        1
176
     1
 90
        6
176
     1
 90
        2
176
     1
 62
     7
176
     1
 90
        5
176
     1
 90
        0
176
     1
 90
        0
176
     1
290
     0
176
     1
 90
        1
176
     1
 40
-50.0
176
     1
 90
        0
176
     1
290
     0
176
     1
290
     1
176
     1
290
     1
176
     1
290
     0
176
     1
290
     0
176
     1
290
     0
176
     1
290
     0
176
     1
290
     0
176
     1
290
     0
176
     1
 90
       50
176
     1
 40
0.0
176
     1
 40
1.0
176
     1
 90
        0
176
     1
 62
    18
420
        0
176
     1
 90
       50
176
     1
 90
        3
176
     1
 62
     5
420
      255
176
     1
290
     0
176
     1
 90
       50
176
     1
 90
       50
176
     1
 90
       50
176
     1
290
     0
176
     1
 90
       50
176
     1
 62
   256
176
     0
 40
1.0
176
     0
 90
        2
176
     1
  1
strokes_ogs.tif
176
     1
290
     0
176
     1
 40
1.0
176
     1
 40
1.0
176
     1
  0
VISUALSTYLE
  5
599
102
{ACAD_REACTORS
330
586
102
}
330
586
100
AcDbVisualStyle
  2
EdgeColorOff
 70
    22
177
     3
291
     1
 70
    58
 90
        2
176
     0
 90
        2
176
     0
 90
        0
176
     0
 90
        0
176
     0
 40
0.6
176
     0
 40
30.0
176
     0
 62
     7
420
 16777215
176
     0
 90
        1
176
     0
 90
        4
176
     0
 62
     7
176
     0
 62
   257
176
     0
 90
        1
176
     0
 90
        1
176
     0
 40
1.0
176
     0
 90
        8
176
     2
 62
     7
176
     0
 40
1.0
176
     0
 90
        1
176
     0
 90
        6
176
     0
 90
        2
176
     0
 62
     7
176
     0
 90
        5
176
     0
 90
        0
176
     0
 90
        0
176
     0
290
     0
176
     0
 90
        1
176
     0
 40
0.0
176
     0
 90
        0
176
     0
290
     0
176
     0
290
     1
176
     0
290
     1
176
     0
290
     0
176
     0
290
     0
176
     0
290
     0
176
     0
290
     0
176
     0
290
     0
176
     0
290
     0
176
     0
 90
       50
176
     0
 40
0.0
176
     0
 40
1.0
176
     0
 90
        0
176
     0
 62
    18
420
        0
176
     0
 90
       50
176
     0
 90
        3
176
     0
 62
     5
420
      255
176
     0
290
     0
176
     0
 90
       50
176
     0
 90
       50
176
     0
 90
       50
176
     0
290
     0
176
     0
 90
       50
176
     0
 62
   256
176
     0
 40
1.0
176
     0
 90
        2
176
     0
  1
strokes_ogs.tif
176
     0
290
     0
176
     0
 40
1.0
176
     0
 40
1.0
176
     0
  0
VISUALSTYLE
  5
595
102
{ACAD_REACTORS
330
586
102
}
330
586
100
AcDbVisualStyle
  2
Facepattern
 70
    15
177
     3
291
     1
 70
    58
 90
        2
176
     1
 90
        2
176
     1
 90
        0
176
     1
 90
        0
176
     1
 40
0.6
176
     1
 40
30.0
176
     1
 62
     7
420
 16777215
176
     1
 90
        1
176
     1
 90
        4
176
     1
 62
     7
176
     1
 62
   257
176
     1
 90
        1
176
     1
 90
        1
176
     1
 40
1.0
176
     1
 90
        8
176
     1
 62
     7
176
     1
 40
1.0
176
     1
 90
        1
176
     1
 90
        6
176
     1
 90
        2
176
     1
 62
     7
176
     1
 90
        5
176
     1
 90
        0
176
     1
 90
        0
176
     1
290
     0
176
     1
 90
        1
176
     1
 40
0.0
176
     1
 90
        0
176
     1
290
     0
176
     1
290
     1
176
     1
290
     1
176
     1
290
     0
176
     1
290
     0
176
     1
290
     0
176
     1
290
     0
176
     1
290
     0
176
     1
290
     0
176
     1
 90
       50
176
     1
 40
0.0
176
     1
 40
1.0
176
     1
 90
        0
176
     1
 62
    18
420
        0
176
     1
 90
       50
176
     1
 90
        3
176
     1
 62
     5
420
      255
176
     1
290
     0
176
     1
 90
       50
176
     1
 90
       50
176
     1
 90
       50
176
     1
290
     0
176
     1
 90
       50
176
     1
 62
   256
176
     0
 40
1.0
176
     0
 90
        2
176
     1
  1
strokes_ogs.tif
176
     1
290
     0
176
     1
 40
1.0
176
     1
 40
1.0
176
     1
  0
VISUALSTYLE
  5
587
102
{ACAD_REACTORS
330
586
102
}
330
586
100
AcDbVisualStyle
  2
Flat
 70
     0
177
     3
291
     1
 70
    58
 90
        2
176
     1
 90
        1
176
     1
 90
        1
176
     1
 90
        2
176
     1
 40
0.6
176
     1
 40
30.0
176
     1
 62
     7
420
 16777215
176
     1
 90
        0
176
     1
 90
        0
176
     1
 62
     7
176
     1
 62
   257
176
     1
 90
        1
176
     1
 90
        1
176
     1
 40
1.0
176
     1
 90
        8
176
     1
 62
     7
176
     1
 40
1.0
176
     1
 90
        1
176
     1
 90
        6
176
     1
 90
        2
176
     1
 62
     7
176
     1
 90
        5
176
     1
 90
        0
176
     1
 90
        0
176
     1
290
     0
176
     1
 90
       13
176
     1
 40
0.0
176
     1
 90
        0
176
     1
290
     0
176
     1
290
     1
176
     1
290
     1
176
     1
290
     0
176
     1
290
     0
176
     1
290
     0
176
     1
290
     0
176
     1
290
     0
176
     1
290
     0
176
     1
 90
       50
176
     1
 40
0.0
176
     1
 40
1.0
176
     1
 90
        0
176
     1
 62
    18
420
        0
176
     1
 90
       50
176
     1
 90
        3
176
     1
 62
     5
420
      255
176
     1
290
     0
176
     1
 90
       50
176
     1
 90
       50
176
     1
 90
       50
176
     1
290
     0
176
     1
 90
       50
176
     1
 62
   256
176
     0
 40
1.0
176
     0
 90
        2
176
     1
  1
strokes_ogs.tif
176
     1
290
     0
176
     1
 40
1.0
176
     1
 40
1.0
176
     1
  0
VISUALSTYLE
  5
588
102
{ACAD_REACTORS
330
586
102
}
330
586
100
AcDbVisualStyle
  2
FlatWithEdges
 70
     1
177
     3
291
     1
 70
    58
 90
        2
176
     1
 90
        1
176
     1
 90
        1
176
     1
 90
        2
176
     1
 40
0.6
176
     1
 40
30.0
176
     1
 62
     7
420
 16777215
176
     1
 90
        1
176
     1
 90
        0
176
     1
 62
     7
176
     1
 62
   257
176
     1
 90
        1
176
     1
 90
        1
176
     1
 40
1.0
176
     1
 90
        0
176
     1
 62
   257
176
     1
 40
1.0
176
     1
 90
        1
176
     1
 90
        6
176
     1
 90
        2
176
     1
 62
     7
176
     1
 90
        5
176
     1
 90
        0
176
     1
 90
        0
176
     1
290
     0
176
     1
 90
       13
176
     1
 40
0.0
176
     1
 90
        0
176
     1
290
     0
176
     1
290
     1
176
     1
290
     1
176
     1
290
     0
176
     1
290
     0
176
     1
290
     0
176
     1
290
     0
176
     1
290
     0
176
     1
290
     0
176
     1
 90
       50
176
     1
 40
0.0
176
     1
 40
1.0
176
     1
 90
        0
176
     1
 62
    18
420
        0
176
     1
 90
       50
176
     1
 90
        3
176
     1
 62
     5
420
      255
176
     1
290
     0
176
     1
 90
       50
176
     1
 90
       50
176
     1
 90
       50
176
     1
290
     0
176
     1
 90
       50
176
     1
 62
   256
176
     0
 40
1.0
176
     0
 90
        2
176
     1
  1
strokes_ogs.tif
176
     1
290
     0
176
     1
 40
1.0
176
     1
 40
1.0
176
     1
  0
VISUALSTYLE
  5
589
102
{ACAD_REACTORS
330
586
102
}
330
586
100
AcDbVisualStyle
  2
Gouraud
 70
     2
177
     3
291
     1
 70
    58
 90
        2
176
     1
 90
        2
176
     1
 90
        1
176
     1
 90
        2
176
     1
 40
0.6
176
     1
 40
30.0
176
     1
 62
     7
420
 16777215
176
     1
 90
        0
176
     1
 90
        0
176
     1
 62
     7
176
     1
 62
   257
176
     1
 90
        1
176
     1
 90
        1
176
     1
 40
1.0
176
     1
 90
        0
176
     1
 62
     7
176
     1
 40
1.0
176
     1
 90
        1
176
     1
 90
        6
176
     1
 90
        2
176
     1
 62
     7
176
     1
 90
        5
176
     1
 90
        0
176
     1
 90
        0
176
     1
290
     0
176
     1
 90
       13
176
     1
 40
0.0
176
     1
 90
        0
176
     1
290
     0
176
     1
290
     1
176
     1
290
     1
176
     1
290
     0
176
     1
290
     0
176
     1
290
     0
176
     1
290
     0
176
     1
290
     0
176
     1
290
     0
176
     1
 90
       50
176
     1
 40
0.0
176
     1
 40
1.0
176
     1
 90
        0
176
     1
 62
    18
420
        0
176
     1
 90
       50
176
     1
 90
        3
176
     1
 62
     5
420
      255
176
     1
290
     0
176
     1
 90
       50
176
     1
 90
       50
176
     1
 90
       50
176
     1
290
     0
176
     1
 90
       50
176
     1
 62
   256
176
     0
 40
1.0
176
     0
 90
        2
176
     1
  1
strokes_ogs.tif
176
     1
290
     0
176
     1
 40
1.0
176
     1
 40
1.0
176
     1
  0
VISUALSTYLE
  5
58A
102
{ACAD_REACTORS
330
586
102
}
330
586
100
AcDbVisualStyle
  2
GouraudWithEdges
 70
     3
177
     3
291
     1
 70
    58
 90
        2
176
     1
 90
        2
176
     1
 90
        1
176
     1
 90
        2
176
     1
 40
0.6
176
     1
 40
30.0
176
     1
 62
     7
420
 16777215
176
     1
 90
        1
176
     1
 90
        0
176
     1
 62
     7
176
     1
 62
   257
176
     1
 90
        1
176
     1
 90
        1
176
     1
 40
1.0
176
     1
 90
        0
176
     1
 62
   257
176
     1
 40
1.0
176
     1
 90
        1
176
     1
 90
        6
176
     1
 90
        2
176
     1
 62
     7
176
     1
 90
        5
176
     1
 90
        0
176
     1
 90
        0
176
     1
290
     0
176
     1
 90
       13
176
     1
 40
0.0
176
     1
 90
        0
176
     1
290
     0
176
     1
290
     1
176
     1
290
     1
176
     1
290
     0
176
     1
290
     0
176
     1
290
     0
176
     1
290
     0
176
     1
290
     0
176
     1
290
     0
176
     1
 90
       50
176
     1
 40
0.0
176
     1
 40
1.0
176
     1
 90
        0
176
     1
 62
    18
420
        0
176
     1
 90
       50
176
     1
 90
        3
176
     1
 62
     5
420
      255
176
     1
290
     0
176
     1
 90
       50
176
     1
 90
       50
176
     1
 90
       50
176
     1
290
     0
176
     1
 90
       50
176
     1
 62
   256
176
     0
 40
1.0
176
     0
 90
        2
176
     1
  1
strokes_ogs.tif
176
     1
290
     0
176
     1
 40
1.0
176
     1
 40
1.0
176
     1
  0
VISUALSTYLE
  5
58D
102
{ACAD_REACTORS
330
586
102
}
330
586
100
AcDbVisualStyle
  2
Hidden
 70
     6
177
     3
291
     0
 70
    58
 90
        1
176
     1
 90
        2
176
     1
 90
        2
176
     1
 90
        0
176
     1
 40
0.6
176
     1
 40
30.0
176
     1
 62
     7
420
 16777215
176
     1
 90
        2
176
     1
 90
        2
176
     1
 62
     7
176
     1
 62
   257
176
     1
 90
        2
176
     1
 90
        1
176
     1
 40
40.0
176
     1
 90
        0
176
     1
 62
   257
176
     1
 40
1.0
176
     1
 90
        1
176
     1
 90
        6
176
     1
 90
        2
176
     1
 62
     7
176
     1
 90
        3
176
     1
 90
        0
176
     1
 90
        0
176
     1
290
     0
176
     1
 90
        1
176
     1
 40
0.0
176
     1
 90
        0
176
     1
290
     0
176
     1
290
     1
176
     1
290
     1
176
     1
290
     0
176
     1
290
     0
176
     1
290
     0
176
     1
290
     0
176
     1
290
     0
176
     1
290
     0
176
     1
 90
       50
176
     1
 40
0.0
176
     1
 40
1.0
176
     1
 90
        0
176
     1
 62
    18
420
        0
176
     1
 90
       50
176
     1
 90
        3
176
     1
 62
     5
420
      255
176
     1
290
     0
176
     1
 90
       50
176
     1
 90
       50
176
     1
 90
       50
176
     1
290
     0
176
     1
 90
       50
176
     1
 62
   256
176
     0
 40
1.0
176
     0
 90
        2
176
     1
  1
strokes_ogs.tif
176
     1
290
     0
176
     1
 40
1.0
176
     1
 40
1.0
176
     1
  0
VISUALSTYLE
  5
597
102
{ACAD_REACTORS
330
586
102
}
330
586
100
AcDbVisualStyle
  2
JitterOff
 70
    20
177
     3
291
     1
 70
    58
 90
        2
176
     0
 90
        2
176
     0
 90
        0
176
     0
 90
        0
176
     0
 40
0.6
176
     0
 40
30.0
176
     0
 62
     7
420
 16777215
176
     0
 90
        1
176
     0
 90
        4
176
     0
 62
     7
176
     0
 62
   257
176
     0
 90
        1
176
     0
 90
        1
176
     0
 40
1.0
176
     0
 90
       10
176
     2
 62
     7
176
     0
 40
1.0
176
     0
 90
        1
176
     0
 90
        6
176
     0
 90
        2
176
     0
 62
     7
176
     0
 90
        5
176
     0
 90
        0
176
     0
 90
        0
176
     0
290
     0
176
     0
 90
        1
176
     0
 40
0.0
176
     0
 90
        0
176
     0
290
     0
176
     0
290
     1
176
     0
290
     1
176
     0
290
     0
176
     0
290
     0
176
     0
290
     0
176
     0
290
     0
176
     0
290
     0
176
     0
290
     0
176
     0
 90
       50
176
     0
 40
0.0
176
     0
 40
1.0
176
     0
 90
        0
176
     0
 62
    18
420
        0
176
     0
 90
       50
176
     0
 90
        3
176
     0
 62
     5
420
      255
176
     0
290
     0
176
     0
 90
       50
176
     0
 90
       50
176
     0
 90
       50
176
     0
290
     0
176
     0
 90
       50
176
     0
 62
   256
176
     0
 40
1.0
176
     0
 90
        2
176
     0
  1
strokes_ogs.tif
176
     0
290
     0
176
     0
 40
1.0
176
     0
 40
1.0
176
     0
  0
VISUALSTYLE
  5
594
102
{ACAD_REACTORS
330
586
102
}
330
586
100
AcDbVisualStyle
  2
Linepattern
 70
    14
177
     3
291
     1
 70
    58
 90
        2
176
     1
 90
        2
176
     1
 90
        0
176
     1
 90
        0
176
     1
 40
0.6
176
     1
 40
30.0
176
     1
 62
     7
420
 16777215
176
     1
 90
        1
176
     1
 90
        4
176
     1
 62
     7
176
     1
 62
   257
176
     1
 90
        7
176
     1
 90
        7
176
     1
 40
1.0
176
     1
 90
        8
176
     1
 62
     7
176
     1
 40
1.0
176
     1
 90
        1
176
     1
 90
        6
176
     1
 90
        2
176
     1
 62
     7
176
     1
 90
        5
176
     1
 90
        0
176
     1
 90
        0
176
     1
290
     0
176
     1
 90
        1
176
     1
 40
0.0
176
     1
 90
        0
176
     1
290
     0
176
     1
290
     1
176
     1
290
     1
176
     1
290
     0
176
     1
290
     0
176
     1
290
     0
176
     1
290
     0
176
     1
290
     0
176
     1
290
     0
176
     1
 90
       50
176
     1
 40
0.0
176
     1
 40
1.0
176
     1
 90
        0
176
     1
 62
    18
420
        0
176
     1
 90
       50
176
     1
 90
        3
176
     1
 62
     5
420
      255
176
     1
290
     0
176
     1
 90
       50
176
     1
 90
       50
176
     1
 90
       50
176
     1
290
     0
176
     1
 90
       50
176
     1
 62
   256
176
     0
 40
1.0
176
     0
 90
        2
176
     1
  1
strokes_ogs.tif
176
     1
290
     0
176
     1
 40
1.0
176
     1
 40
1.0
176
     1
  0
VISUALSTYLE
  5
598
102
{ACAD_REACTORS
330
586
102
}
330
586
100
AcDbVisualStyle
  2
OverhangOff
 70
    21
177
     3
291
     1
 70
    58
 90
        2
176
     0
 90
        2
176
     0
 90
        0
176
     0
 90
        0
176
     0
 40
0.6
176
     0
 40
30.0
176
     0
 62
     7
420
 16777215
176
     0
 90
        1
176
     0
 90
        4
176
     0
 62
     7
176
     0
 62
   257
176
     0
 90
        1
176
     0
 90
        1
176
     0
 40
1.0
176
     0
 90
        9
176
     2
 62
     7
176
     0
 40
1.0
176
     0
 90
        1
176
     0
 90
        6
176
     0
 90
        2
176
     0
 62
     7
176
     0
 90
        5
176
     0
 90
        0
176
     0
 90
        0
176
     0
290
     0
176
     0
 90
        1
176
     0
 40
0.0
176
     0
 90
        0
176
     0
290
     0
176
     0
290
     1
176
     0
290
     1
176
     0
290
     0
176
     0
290
     0
176
     0
290
     0
176
     0
290
     0
176
     0
290
     0
176
     0
290
     0
176
     0
 90
       50
176
     0
 40
0.0
176
     0
 40
1.0
176
     0
 90
        0
176
     0
 62
    18
420
        0
176
     0
 90
       50
176
     0
 90
        3
176
     0
 62
     5
420
      255
176
     0
290
     0
176
     0
 90
       50
176
     0
 90
       50
176
     0
 90
       50
176
     0
290
     0
176
     0
 90
       50
176
     0
 62
   256
176
     0
 40
1.0
176
     0
 90
        2
176
     0
  1
strokes_ogs.tif
176
     0
290
     0
176
     0
 40
1.0
176
     0
 40
1.0
176
     0
  0
VISUALSTYLE
  5
58F
102
{ACAD_REACTORS
330
586
102
}
330
586
100
AcDbVisualStyle
  2
Realistic
 70
     8
177
     3
291
     0
 70
    58
 90
        2
176
     1
 90
        3
176
     1
 90
        0
176
     1
 90
        2
176
     1
 40
0.6
176
     1
 40
30.0
176
     1
 62
     7
420
 16777215
176
     1
 90
        0
176
     1
 90
        0
176
     1
 62
     7
176
     1
 62
   257
176
     1
 90
        1
176
     1
 90
        1
176
     1
 40
1.0
176
     1
 90
        8
176
     1
 62
   257
176
     1
 40
1.0
176
     1
 90
        1
176
     1
 90
        6
176
     1
 90
        2
176
     1
 62
     7
176
     1
 90
        3
176
     1
 90
        0
176
     1
 90
        0
176
     1
290
     0
176
     1
 90
       13
176
     1
 40
0.0
176
     1
 90
        0
176
     1
290
     0
176
     1
290
     1
176
     1
290
     1
176
     1
290
     0
176
     1
290
     0
176
     1
290
     0
176
     1
290
     0
176
     1
290
     0
176
     1
290
     0
176
     1
 90
       50
176
     1
 40
0.0
176
     1
 40
1.0
176
     1
 90
        0
176
     1
 62
    18
420
        0
176
     1
 90
       50
176
     1
 90
        3
176
     1
 62
     5
420
      255
176
     1
290
     0
176
     1
 90
       50
176
     1
 90
       50
176
     1
 90
       50
176
     1
290
     0
176
     1
 90
       50
176
     1
 62
   256
176
     0
 40
1.0
176
     0
 90
        2
176
     1
  1
strokes_ogs.tif
176
     1
290
     0
176
     1
 40
1.0
176
     1
 40
1.0
176
     1
  0
VISUALSTYLE
  5
59E
102
{ACAD_REACTORS
330
586
102
}
330
586
100
AcDbVisualStyle
  2
Shaded
 70
    27
177
     3
291
     0
 70
    58
 90
        2
176
     1
 90
        2
176
     1
 90
        1
176
     1
 90
        2
176
     1
 40
0.6
176
     1
 40
30.0
176
     1
 62
     7
420
 16777215
176
     1
 90
        0
176
     1
 90
        4
176
     1
 62
     7
176
     1
 62
   257
176
     1
 90
        1
176
     1
 90
        1
176
     1
 40
1.0
176
     1
 90
        8
176
     1
 62
   257
176
     1
 40
1.0
176
     1
 90
        1
176
     1
 90
        6
176
     1
 90
        2
176
     1
 62
     8
420
  7895160
176
     1
 90
        3
176
     1
 90
        0
176
     1
 90
        0
176
     1
290
     0
176
     1
 90
        5
176
     1
 40
0.0
176
     1
 90
        0
176
     1
290
     0
176
     1
290
     1
176
     1
290
     1
176
     1
290
     0
176
     1
290
     0
176
     1
290
     0
176
     1
290
     0
176
     1
290
     0
176
     1
290
     0
176
     1
 90
       50
176
     1
 40
0.0
176
     1
 40
1.0
176
     1
 90
        0
176
     1
 62
    18
420
        0
176
     1
 90
       50
176
     1
 90
        3
176
     1
 62
     5
420
      255
176
     1
290
     0
176
     1
 90
       50
176
     1
 90
       50
176
     1
 90
       50
176
     1
290
     0
176
     1
 90
       50
176
     1
 62
   256
176
     0
 40
1.0
176
     0
 90
        2
176
     1
  1
strokes_ogs.tif
176
     1
290
     0
176
     1
 40
1.0
176
     1
 40
1.0
176
     1
  0
VISUALSTYLE
  5
59D
102
{ACAD_REACTORS
330
586
102
}
330
586
100
AcDbVisualStyle
  2
Shaded with edges
 70
    26
177
     3
291
     0
 70
    58
 90
        2
176
     1
 90
        2
176
     1
 90
        1
176
     1
 90
        2
176
     1
 40
0.6
176
     1
 40
30.0
176
     1
 62
     7
420
 16777215
176
     1
 90
        1
176
     1
 90
       10
176
     1
 62
     7
176
     1
 62
   257
176
     1
 90
        2
176
     1
 90
        1
176
     1
 40
1.0
176
     1
 90
        8
176
     1
 62
   257
176
     1
 40
1.0
176
     1
 90
        1
176
     1
 90
        6
176
     1
 90
        2
176
     1
 62
     7
176
     1
 90
        3
176
     1
 90
        0
176
     1
 90
        0
176
     1
290
     0
176
     1
 90
        5
176
     1
 40
0.0
176
     1
 90
        0
176
     1
290
     0
176
     1
290
     1
176
     1
290
     1
176
     1
290
     0
176
     1
290
     0
176
     1
290
     0
176
     1
290
     0
176
     1
290
     0
176
     1
290
     0
176
     1
 90
       50
176
     1
 40
0.0
176
     1
 40
1.0
176
     1
 90
        0
176
     1
 62
    18
420
        0
176
     1
 90
       50
176
     1
 90
        3
176
     1
 62
     5
420
      255
176
     1
290
     0
176
     1
 90
       50
176
     1
 90
       50
176
     1
 90
       50
176
     1
290
     0
176
     1
 90
       50
176
     1
 62
   256
176
     0
 40
1.0
176
     0
 90
        2
176
     1
  1
strokes_ogs.tif
176
     1
290
     0
176
     1
 40
1.0
176
     1
 40
1.0
176
     1
  0
VISUALSTYLE
  5
59A
102
{ACAD_REACTORS
330
586
102
}
330
586
100
AcDbVisualStyle
  2
Shades of Gray
 70
    23
177
     3
291
     0
 70
    58
 90
        2
176
     1
 90
        2
176
     1
 90
        3
176
     1
 90
        0
176
     1
 40
0.6
176
     1
 40
30.0
176
     1
 62
     7
420
 16777215
176
     1
 90
        2
176
     1
 90
        2
176
     1
 62
     7
176
     1
 62
     7
176
     1
 90
        1
176
     1
 90
        1
176
     1
 40
40.0
176
     1
 90
        8
176
     1
 62
     7
176
     1
 40
1.0
176
     1
 90
        1
176
     1
 90
        6
176
     1
 90
        2
176
     1
 62
     7
176
     1
 90
        3
176
     1
 90
        0
176
     1
 90
        0
176
     1
290
     0
176
     1
 90
        1
176
     1
 40
0.0
176
     1
 90
        0
176
     1
290
     0
176
     1
290
     1
176
     1
290
     1
176
     1
290
     0
176
     1
290
     0
176
     1
290
     0
176
     1
290
     0
176
     1
290
     0
176
     1
290
     0
176
     1
 90
       50
176
     1
 40
0.0
176
     1
 40
1.0
176
     1
 90
        0
176
     1
 62
    18
420
        0
176
     1
 90
       50
176
     1
 90
        3
176
     1
 62
     5
420
      255
176
     1
290
     0
176
     1
 90
       50
176
     1
 90
       50
176
     1
 90
       50
176
     1
290
     0
176
     1
 90
       50
176
     1
 62
   256
176
     0
 40
1.0
176
     0
 90
        2
176
     1
  1
strokes_ogs.tif
176
     1
290
     0
176
     1
 40
1.0
176
     1
 40
1.0
176
     1
  0
VISUALSTYLE
  5
59B
102
{ACAD_REACTORS
330
586
102
}
330
586
100
AcDbVisualStyle
  2
Sketchy
 70
    24
177
     3
291
     0
 70
    58
 90
        1
176
     1
 90
        2
176
     1
 90
        2
176
     1
 90
        0
176
     1
 40
0.6
176
     1
 40
30.0
176
     1
 62
     7
420
 16777215
176
     1
 90
        2
176
     1
 90
        2
176
     1
 62
     7
176
     1
 62
     7
176
     1
 90
        1
176
     1
 90
        1
176
     1
 40
40.0
176
     1
 90
       11
176
     1
 62
     7
176
     1
 40
1.0
176
     1
 90
        1
176
     1
 90
        6
176
     1
 90
        2
176
     1
 62
     7
176
     1
 90
        6
176
     1
 90
        0
176
     1
 90
        0
176
     1
290
     0
176
     1
 90
        1
176
     1
 40
0.0
176
     1
 90
        0
176
     1
290
     0
176
     1
290
     1
176
     1
290
     1
176
     1
290
     0
176
     1
290
     0
176
     1
290
     0
176
     1
290
     0
176
     1
290
     0
176
     1
290
     0
176
     1
 90
       50
176
     1
 40
0.0
176
     1
 40
1.0
176
     1
 90
        0
176
     1
 62
    18
420
        0
176
     1
 90
       50
176
     1
 90
        3
176
     1
 62
     5
420
      255
176
     1
290
     0
176
     1
 90
       50
176
     1
 90
       50
176
     1
 90
       50
176
     1
290
     0
176
     1
 90
       50
176
     1
 62
   256
176
     0
 40
1.0
176
     0
 90
        2
176
     1
  1
strokes_ogs.tif
176
     1
290
     0
176
     1
 40
1.0
176
     1
 40
1.0
176
     1
  0
VISUALSTYLE
  5
593
102
{ACAD_REACTORS
330
586
102
}
330
586
100
AcDbVisualStyle
  2
Thicken
 70
    13
177
     3
291
     1
 70
    58
 90
        2
176
     1
 90
        2
176
     1
 90
        0
176
     1
 90
        0
176
     1
 40
0.6
176
     1
 40
30.0
176
     1
 62
     7
420
 16777215
176
     1
 90
        1
176
     1
 90
        4
176
     1
 62
     7
176
     1
 62
   257
176
     1
 90
        1
176
     1
 90
        1
176
     1
 40
1.0
176
     1
 90
       12
176
     1
 62
     7
176
     1
 40
1.0
176
     1
 90
        1
176
     1
 90
        6
176
     1
 90
        2
176
     1
 62
     7
176
     1
 90
        5
176
     1
 90
        0
176
     1
 90
        0
176
     1
290
     0
176
     1
 90
        1
176
     1
 40
0.0
176
     1
 90
        0
176
     1
290
     0
176
     1
290
     1
176
     1
290
     1
176
     1
290
     0
176
     1
290
     0
176
     1
290
     0
176
     1
290
     0
176
     1
290
     0
176
     1
290
     0
176
     1
 90
       50
176
     1
 40
0.0
176
     1
 40
1.0
176
     1
 90
        0
176
     1
 62
    18
420
        0
176
     1
 90
       50
176
     1
 90
        3
176
     1
 62
     5
420
      255
176
     1
290
     0
176
     1
 90
       50
176
     1
 90
       50
176
     1
 90
       50
176
     1
290
     0
176
     1
 90
       50
176
     1
 62
   256
176
     0
 40
1.0
176
     0
 90
        2
176
     1
  1
strokes_ogs.tif
176
     1
290
     0
176
     1
 40
1.0
176
     1
 40
1.0
176
     1
  0
VISUALSTYLE
  5
58C
102
{ACAD_REACTORS
330
586
102
}
330
586
100
AcDbVisualStyle
  2
Wireframe
 70
     5
177
     3
291
     0
 70
    58
 90
        0
176
     1
 90
        2
176
     1
 90
        0
176
     1
 90
        0
176
     1
 40
0.6
176
     1
 40
30.0
176
     1
 62
     7
420
 16777215
176
     1
 90
        1
176
     1
 90
        4
176
     1
 62
     7
176
     1
 62
   257
176
     1
 90
        1
176
     1
 90
        1
176
     1
 40
1.0
176
     1
 90
        0
176
     1
 62
   257
176
     1
 40
1.0
176
     1
 90
        1
176
     1
 90
        6
176
     1
 90
        2
176
     1
 62
     7
176
     1
 90
        3
176
     1
 90
        0
176
     1
 90
        0
176
     1
290
     0
176
     1
 90
        1
176
     1
 40
0.0
176
     1
 90
        0
176
     1
290
     0
176
     1
290
     1
176
     1
290
     1
176
     1
290
     0
176
     1
290
     0
176
     1
290
     0
176
     1
290
     0
176
     1
290
     0
176
     1
290
     0
176
     1
 90
       50
176
     1
 40
0.0
176
     1
 40
1.0
176
     1
 90
        0
176
     1
 62
    18
420
        0
176
     1
 90
       50
176
     1
 90
        3
176
     1
 62
     5
420
      255
176
     1
290
     0
176
     1
 90
       50
176
     1
 90
       50
176
     1
 90
       50
176
     1
290
     0
176
     1
 90
       50
176
     1
 62
   256
176
     0
 40
1.0
176
     0
 90
        2
176
     1
  1
strokes_ogs.tif
176
     1
290
     0
176
     1
 40
1.0
176
     1
 40
1.0
176
     1
  0
VISUALSTYLE
  5
59C
102
{ACAD_REACTORS
330
586
102
}
330
586
100
AcDbVisualStyle
  2
X-Ray
 70
    25
177
     3
291
     0
 70
    58
 90
        2
176
     1
 90
        2
176
     1
 90
        1
176
     1
 90
        1
176
     1
 40
0.5
176
     1
 40
30.0
176
     1
 62
     7
420
 16777215
176
     1
 90
        1
176
     1
 90
        0
176
     1
 62
     7
176
     1
 62
   257
176
     1
 90
        1
176
     1
 90
        1
176
     1
 40
1.0
176
     1
 90
        8
176
     1
 62
     7
176
     1
 40
1.0
176
     1
 90
        1
176
     1
 90
        6
176
     1
 90
        2
176
     1
 62
     7
176
     1
 90
        3
176
     1
 90
        0
176
     1
 90
        0
176
     1
290
     0
176
     1
 90
       13
176
     1
 40
0.0
176
     1
 90
        0
176
     1
290
     0
176
     1
290
     1
176
     1
290
     1
176
     1
290
     0
176
     1
290
     0
176
     1
290
     0
176
     1
290
     0
176
     1
290
     0
176
     1
290
     0
176
     1
 90
       50
176
     1
 40
0.0
176
     1
 40
1.0
176
     1
 90
        0
176
     1
 62
    18
420
        0
176
     1
 90
       50
176
     1
 90
        3
176
     1
 62
     5
420
      255
176
     1
290
     0
176
     1
 90
       50
176
     1
 90
       50
176
     1
 90
       50
176
     1
290
     0
176
     1
 90
       50
176
     1
 62
   256
176
     0
 40
1.0
176
     0
 90
        2
176
     1
  1
strokes_ogs.tif
176
     1
290
     0
176
     1
 40
1.0
176
     1
 40
1.0
176
     1
  0
DICTIONARYVAR
  5
5A9
102
{ACAD_REACTORS
330
5A8
102
}
330
5A8
100
DictionaryVariables
280
     0
  1
1:1
  0
DICTIONARYVAR
  5
5AE
102
{ACAD_REACTORS
330
5A8
102
}
330
5A8
100
DictionaryVariables
280
     0
  1
Standard
  0
DICTIONARYVAR
  5
5AD
102
{ACAD_REACTORS
330
5A8
102
}
330
5A8
100
DictionaryVariables
280
     0
  1
Standard
  0
DICTIONARYVAR
  5
5AF
102
{ACAD_REACTORS
330
5A8
102
}
330
5A8
100
DictionaryVariables
280
     0
  1
0
  0
DICTIONARY
  5
5AA
330
5A4
100
AcDbDictionary
280
     1
281
     1
  3
ACAD_ROUNDTRIP_2008_TABLESTYLE_CELLSTYLEMAP
360
5AB
  0
CELLSTYLEMAP
  5
5AB
102
{ACAD_REACTORS
330
5AA
102
}
330
5AA
100
AcDbCellStyleMap
 90
        3
300
CELLSTYLE
  1
TABLEFORMAT_BEGIN
 90
        5
170
     1
 91
        0
 92
    32768
 62
   257
 93
        1
300
CONTENTFORMAT
  1
CONTENTFORMAT_BEGIN
 90
        0
 91
        0
 92
        4
 93
        0
300

 40
0.0
140
1.0
 94
        5
 62
     0
340
11
144
6.0
309
CONTENTFORMAT_END
171
     1
301
MARGIN
  1
CELLMARGIN_BEGIN
 40
1.5
 40
1.5
 40
1.5
 40
1.5
 40
1.5
 40
1.5
309
CELLMARGIN_END
 94
        6
 95
        1
302
GRIDFORMAT
  1
GRIDFORMAT_BEGIN
 90
        0
 91
        1
 62
     0
 92
       -2
340
14
 93
        0
 40
0.045
309
GRIDFORMAT_END
 95
        2
302
GRIDFORMAT
  1
GRIDFORMAT_BEGIN
 90
        0
 91
        1
 62
     0
 92
       -2
340
14
 93
        0
 40
0.045
309
GRIDFORMAT_END
 95
        4
302
GRIDFORMAT
  1
GRIDFORMAT_BEGIN
 90
        0
 91
        1
 62
     0
 92
       -2
340
14
 93
        0
 40
0.045
309
GRIDFORMAT_END
 95
        8
302
GRIDFORMAT
  1
GRIDFORMAT_BEGIN
 90
        0
 91
        1
 62
     0
 92
       -2
340
14
 93
        0
 40
0.045
309
GRIDFORMAT_END
 95
       16
302
GRIDFORMAT
  1
GRIDFORMAT_BEGIN
 90
        0
 91
        1
 62
     0
 92
       -2
340
14
 93
        0
 40
0.045
309
GRIDFORMAT_END
 95
       32
302
GRIDFORMAT
  1
GRIDFORMAT_BEGIN
 90
        0
 91
        1
 62
     0
 92
       -2
340
14
 93
        0
 40
0.045
309
GRIDFORMAT_END
309
TABLEFORMAT_END
  1
CELLSTYLE_BEGIN
 90
        1
 91
        1
300
_TITLE
309
CELLSTYLE_END
300
CELLSTYLE
  1
TABLEFORMAT_BEGIN
 90
        5
170
     1
 91
        0
 92
        0
 62
   257
 93
        1
300
CONTENTFORMAT
  1
CONTENTFORMAT_BEGIN
 90
        0
 91
        0
 92
        4
 93
        0
300

 40
0.0
140
1.0
 94
        5
 62
     0
340
11
144
4.5
309
CONTENTFORMAT_END
171
     1
301
MARGIN
  1
CELLMARGIN_BEGIN
 40
1.5
 40
1.5
 40
1.5
 40
1.5
 40
1.5
 40
1.5
309
CELLMARGIN_END
 94
        6
 95
        1
302
GRIDFORMAT
  1
GRIDFORMAT_BEGIN
 90
        0
 91
        1
 62
     0
 92
       -2
340
14
 93
        0
 40
0.045
309
GRIDFORMAT_END
 95
        2
302
GRIDFORMAT
  1
GRIDFORMAT_BEGIN
 90
        0
 91
        1
 62
     0
 92
       -2
340
14
 93
        0
 40
0.045
309
GRIDFORMAT_END
 95
        4
302
GRIDFORMAT
  1
GRIDFORMAT_BEGIN
 90
        0
 91
        1
 62
     0
 92
       -2
340
14
 93
        0
 40
0.045
309
GRIDFORMAT_END
 95
        8
302
GRIDFORMAT
  1
GRIDFORMAT_BEGIN
 90
        0
 91
        1
 62
     0
 92
       -2
340
14
 93
        0
 40
0.045
309
GRIDFORMAT_END
 95
       16
302
GRIDFORMAT
  1
GRIDFORMAT_BEGIN
 90
        0
 91
        1
 62
     0
 92
       -2
340
14
 93
        0
 40
0.045
309
GRIDFORMAT_END
 95
       32
302
GRIDFORMAT
  1
GRIDFORMAT_BEGIN
 90
        0
 91
        1
 62
     0
 92
       -2
340
14
 93
        0
 40
0.045
309
GRIDFORMAT_END
309
TABLEFORMAT_END
  1
CELLSTYLE_BEGIN
 90
        2
 91
        1
300
_HEADER
309
CELLSTYLE_END
300
CELLSTYLE
  1
TABLEFORMAT_BEGIN
 90
        5
170
     1
 91
        0
 92
        0
 62
   257
 93
        1
300
CONTENTFORMAT
  1
CONTENTFORMAT_BEGIN
 90
        0
 91
        0
 92
        4
 93
        0
300

 40
0.0
140
1.0
 94
        2
 62
     0
340
11
144
4.5
309
CONTENTFORMAT_END
171
     1
301
MARGIN
  1
CELLMARGIN_BEGIN
 40
1.5
 40
1.5
 40
1.5
 40
1.5
 40
1.5
 40
1.5
309
CELLMARGIN_END
 94
        6
 95
        1
302
GRIDFORMAT
  1
GRIDFORMAT_BEGIN
 90
        0
 91
        1
 62
     0
 92
       -2
340
14
 93
        0
 40
0.045
309
GRIDFORMAT_END
 95
        2
302
GRIDFORMAT
  1
GRIDFORMAT_BEGIN
 90
        0
 91
        1
 62
     0
 92
       -2
340
14
 93
        0
 40
0.045
309
GRIDFORMAT_END
 95
        4
302
GRIDFORMAT
  1
GRIDFORMAT_BEGIN
 90
        0
 91
        1
 62
     0
 92
       -2
340
14
 93
        0
 40
0.045
309
GRIDFORMAT_END
 95
        8
302
GRIDFORMAT
  1
GRIDFORMAT_BEGIN
 90
        0
 91
        1
 62
     0
 92
       -2
340
14
 93
        0
 40
0.045
309
GRIDFORMAT_END
 95
       16
302
GRIDFORMAT
  1
GRIDFORMAT_BEGIN
 90
        0
 91
        1
 62
     0
 92
       -2
340
14
 93
        0
 40
0.045
309
GRIDFORMAT_END
 95
       32
302
GRIDFORMAT
  1
GRIDFORMAT_BEGIN
 90
        0
 91
        1
 62
     0
 92
       -2
340
14
 93
        0
 40
0.045
309
GRIDFORMAT_END
309
TABLEFORMAT_END
  1
CELLSTYLE_BEGIN
 90
        3
 91
        2
300
_DATA
309
CELLSTYLE_END
  0
ENDSEC
  0
EOF
