  0
SECTION
  2
HEADER
  9
$ACADVER
  1
AC1027
  9
$ACADMAINTVER
 70
   105
  9
$DWGCODEPAGE
  3
ANSI_1252
  9
$REQUIREDVERSIONS
160
                 0
  9
$LASTSAVEDBY
  1
andrea.zolin
  9
$INSBASE
 10
0.0
 20
0.0
 30
0.0
  9
$EXTMIN
 10
0.0
 20
0.0
 30
0.0
  9
$EXTMAX
 10
420.0
 20
297.0
 30
0.0
  9
$LIMMIN
 10
0.0
 20
0.0
  9
$LIMMAX
 10
420.0
 20
297.0
  9
$ORTHOMODE
 70
     0
  9
$REGENMODE
 70
     1
  9
$FILLMODE
 70
     1
  9
$QTEXTMODE
 70
     0
  9
$MIRRTEXT
 70
     1
  9
$LTSCALE
 40
23.1
  9
$ATTMODE
 70
     1
  9
$TEXTSIZE
 40
0.2
  9
$TRACEWID
 40
0.05
  9
$TEXTSTYLE
  7
STANDARD
  9
$CLAYER
  8
0
  9
$CELTYPE
  6
BYLAYER
  9
$CECOLOR
 62
   256
  9
$CELTSCALE
 40
1.0
  9
$DISPSILH
 70
     0
  9
$DIMSCALE
 40
1.0
  9
$DIMASZ
 40
2.5
  9
$DIMEXO
 40
0.75
  9
$DIMDLI
 40
15.96
  9
$DIMRND
 40
0.0
  9
$DIMDLE
 40
0.0
  9
$DIMEXE
 40
0.75
  9
$DIMTP
 40
0.01
  9
$DIMTM
 40
0.01
  9
$DIMTXT
 40
3.0
  9
$DIMCEN
 40
3.78
  9
$DIMTSZ
 40
0.0
  9
$DIMTOL
 70
     1
  9
$DIMLIM
 70
     0
  9
$DIMTIH
 70
     1
  9
$DIMTOH
 70
     1
  9
$DIMSE1
 70
     0
  9
$DIMSE2
 70
     0
  9
$DIMTAD
 70
     0
  9
$DIMZIN
 70
     0
  9
$DIMBLK
  1
CLOSED
  9
$DIMASO
 70
     1
  9
$DIMSHO
 70
     1
  9
$DIMPOST
  1

  9
$DIMAPOST
  1

  9
$DIMALT
 70
     0
  9
$DIMALTD
 70
     2
  9
$DIMALTF
 40
25.4
  9
$DIMLFAC
 40
1.0
  9
$DIMTOFL
 70
     0
  9
$DIMTVP
 40
0.0
  9
$DIMTIX
 70
     0
  9
$DIMSOXD
 70
     0
  9
$DIMSAH
 70
     0
  9
$DIMBLK1
  1

  9
$DIMBLK2
  1

  9
$DIMSTYLE
  2
STANDARD
  9
$DIMCLRD
 70
     0
  9
$DIMCLRE
 70
     0
  9
$DIMCLRT
 70
     0
  9
$DIMTFAC
 40
1.0
  9
$DIMGAP
 40
0.625
  9
$DIMJUST
 70
     0
  9
$DIMSD1
 70
     0
  9
$DIMSD2
 70
     0
  9
$DIMTOLJ
 70
     1
  9
$DIMTZIN
 70
     0
  9
$DIMALTZ
 70
     0
  9
$DIMALTTZ
 70
     0
  9
$DIMUPT
 70
     0
  9
$DIMDEC
 70
     4
  9
$DIMTDEC
 70
     4
  9
$DIMALTU
 70
     2
  9
$DIMALTTD
 70
     2
  9
$DIMTXSTY
  7
STANDARD
  9
$DIMAUNIT
 70
     0
  9
$DIMADEC
 70
     0
  9
$DIMALTRND
 40
0.0
  9
$DIMAZIN
 70
     0
  9
$DIMDSEP
 70
    46
  9
$DIMATFIT
 70
     3
  9
$DIMFRAC
 70
     0
  9
$DIMLDRBLK
  1

  9
$DIMLUNIT
 70
     2
  9
$DIMLWD
 70
    -2
  9
$DIMLWE
 70
    -2
  9
$DIMTMOVE
 70
     2
  9
$DIMFXL
 40
1.0
  9
$DIMFXLON
 70
     0
  9
$DIMJOGANG
 40
0.7853981633974483
  9
$DIMTFILL
 70
     0
  9
$DIMTFILLCLR
 70
     0
  9
$DIMARCSYM
 70
     0
  9
$DIMLTYPE
  6

  9
$DIMLTEX1
  6

  9
$DIMLTEX2
  6

  9
$DIMTXTDIRECTION
 70
     0
  9
$LUNITS
 70
     2
  9
$LUPREC
 70
     4
  9
$SKETCHINC
 40
0.1
  9
$FILLETRAD
 40
0.5
  9
$AUNITS
 70
     0
  9
$AUPREC
 70
     0
  9
$MENU
  1
.
  9
$ELEVATION
 40
0.0
  9
$PELEVATION
 40
0.0
  9
$THICKNESS
 40
0.0
  9
$LIMCHECK
 70
     0
  9
$CHAMFERA
 40
0.0
  9
$CHAMFERB
 40
0.0
  9
$CHAMFERC
 40
0.0
  9
$CHAMFERD
 40
0.0
  9
$SKPOLY
 70
     0
  9
$TDCREATE
 40
2447893.041666667
  9
$TDUCREATE
 40
0.0
  9
$TDUPDATE
 40
2458473.492741863
  9
$TDUUPDATE
 40
2458473.451075197
  9
$TDINDWG
 40
0.0001846875
  9
$TDUSRTIMER
 40
0.0001846875
  9
$USRTIMER
 70
     1
  9
$ANGBASE
 50
0.0
  9
$ANGDIR
 70
     0
  9
$PDMODE
 70
     3
  9
$PDSIZE
 40
0.3125
  9
$PLINEWID
 40
0.0
  9
$SPLFRAME
 70
     0
  9
$SPLINETYPE
 70
     6
  9
$SPLINESEGS
 70
     8
  9
$HANDSEED
  5
659
  9
$SURFTAB1
 70
     6
  9
$SURFTAB2
 70
     6
  9
$SURFTYPE
 70
     6
  9
$SURFU
 70
     6
  9
$SURFV
 70
     6
  9
$UCSBASE
  2

  9
$UCSNAME
  2

  9
$UCSORG
 10
0.0
 20
0.0
 30
0.0
  9
$UCSXDIR
 10
1.0
 20
0.0
 30
0.0
  9
$UCSYDIR
 10
0.0
 20
1.0
 30
0.0
  9
$UCSORTHOREF
  2

  9
$UCSORTHOVIEW
 70
     0
  9
$UCSORGTOP
 10
0.0
 20
0.0
 30
0.0
  9
$UCSORGBOTTOM
 10
0.0
 20
0.0
 30
0.0
  9
$UCSORGLEFT
 10
0.0
 20
0.0
 30
0.0
  9
$UCSORGRIGHT
 10
0.0
 20
0.0
 30
0.0
  9
$UCSORGFRONT
 10
0.0
 20
0.0
 30
0.0
  9
$UCSORGBACK
 10
0.0
 20
0.0
 30
0.0
  9
$PUCSBASE
  2

  9
$PUCSNAME
  2

  9
$PUCSORG
 10
0.0
 20
0.0
 30
0.0
  9
$PUCSXDIR
 10
1.0
 20
0.0
 30
0.0
  9
$PUCSYDIR
 10
0.0
 20
1.0
 30
0.0
  9
$PUCSORTHOREF
  2

  9
$PUCSORTHOVIEW
 70
     0
  9
$PUCSORGTOP
 10
0.0
 20
0.0
 30
0.0
  9
$PUCSORGBOTTOM
 10
0.0
 20
0.0
 30
0.0
  9
$PUCSORGLEFT
 10
0.0
 20
0.0
 30
0.0
  9
$PUCSORGRIGHT
 10
0.0
 20
0.0
 30
0.0
  9
$PUCSORGFRONT
 10
0.0
 20
0.0
 30
0.0
  9
$PUCSORGBACK
 10
0.0
 20
0.0
 30
0.0
  9
$USERI1
 70
     0
  9
$USERI2
 70
     0
  9
$USERI3
 70
     0
  9
$USERI4
 70
     0
  9
$USERI5
 70
     0
  9
$USERR1
 40
0.0
  9
$USERR2
 40
0.0
  9
$USERR3
 40
0.0
  9
$USERR4
 40
0.0
  9
$USERR5
 40
0.0
  9
$WORLDVIEW
 70
     1
  9
$SHADEDGE
 70
     3
  9
$SHADEDIF
 70
    70
  9
$TILEMODE
 70
     0
  9
$MAXACTVP
 70
    64
  9
$PINSBASE
 10
0.0
 20
0.0
 30
0.0
  9
$PLIMCHECK
 70
     0
  9
$PEXTMIN
 10
0.0
 20
0.0
 30
0.0
  9
$PEXTMAX
 10
420.0
 20
297.0
 30
0.0
  9
$PLIMMIN
 10
-8.667315175097276
 20
-23.11284046692607
  9
$PLIMMAX
 10
476.7023346303502
 20
320.1128404669261
  9
$UNITMODE
 70
     0
  9
$VISRETAIN
 70
     1
  9
$PLINEGEN
 70
     0
  9
$PSLTSCALE
 70
     1
  9
$TREEDEPTH
 70
  3020
  9
$CMLSTYLE
  2
STANDARD
  9
$CMLJUST
 70
     0
  9
$CMLSCALE
 40
1.0
  9
$PROXYGRAPHICS
 70
     1
  9
$MEASUREMENT
 70
     1
  9
$CELWEIGHT
370
    -1
  9
$ENDCAPS
280
     0
  9
$JOINSTYLE
280
     0
  9
$LWDISPLAY
290
     0
  9
$INSUNITS
 70
     0
  9
$HYPERLINKBASE
  1

  9
$STYLESHEET
  1

  9
$XEDIT
290
     1
  9
$CEPSNTYPE
380
     0
  9
$PSTYLEMODE
290
     1
  9
$FINGERPRINTGUID
  2
{B26E1B4C-39F0-45F6-965E-6A4220BC6415}
  9
$VERSIONGUID
  2
{FAEB1C32-E019-11D5-929B-00C0DF256EC4}
  9
$EXTNAMES
290
     1
  9
$PSVPSCALE
 40
0.0
  9
$OLESTARTUP
290
     0
  9
$SORTENTS
280
   127
  9
$INDEXCTL
280
     0
  9
$HIDETEXT
280
     1
  9
$XCLIPFRAME
280
     2
  9
$HALOGAP
280
     0
  9
$OBSCOLOR
 70
   257
  9
$OBSLTYPE
280
     0
  9
$INTERSECTIONDISPLAY
280
     0
  9
$INTERSECTIONCOLOR
 70
   257
  9
$DIMASSOC
280
     2
  9
$PROJECTNAME
  1

  9
$CAMERADISPLAY
290
     0
  9
$LENSLENGTH
 40
50.0
  9
$CAMERAHEIGHT
 40
0.0
  9
$STEPSPERSEC
 40
2.0
  9
$STEPSIZE
 40
6.0
  9
$3DDWFPREC
 40
2.0
  9
$PSOLWIDTH
 40
0.25
  9
$PSOLHEIGHT
 40
4.0
  9
$LOFTANG1
 40
1.570796326794897
  9
$LOFTANG2
 40
1.570796326794897
  9
$LOFTMAG1
 40
0.0
  9
$LOFTMAG2
 40
0.0
  9
$LOFTPARAM
 70
     7
  9
$LOFTNORMALS
280
     1
  9
$LATITUDE
 40
37.795
  9
$LONGITUDE
 40
-122.394
  9
$NORTHDIRECTION
 40
0.0
  9
$TIMEZONE
 70
 -8000
  9
$LIGHTGLYPHDISPLAY
280
     1
  9
$TILEMODELIGHTSYNCH
280
     1
  9
$SOLIDHIST
280
     0
  9
$SHOWHIST
280
     1
  9
$DWFFRAME
280
     2
  9
$DGNFRAME
280
     2
  9
$REALWORLDSCALE
290
     1
  9
$INTERFERECOLOR
 62
   256
  9
$CSHADOW
280
     0
  9
$SHADOWPLANELOCATION
 40
0.0
  0
ENDSEC
  0
SECTION
  2
CLASSES
  0
CLASS
  1
ACDBDICTIONARYWDFLT
  2
AcDbDictionaryWithDefault
  3
ObjectDBX Classes
 90
        0
 91
        4
280
     0
281
     0
  0
CLASS
  1
SCALE
  2
AcDbScale
  3
ObjectDBX Classes
 90
     1153
 91
        4
280
     0
281
     0
  0
CLASS
  1
VISUALSTYLE
  2
AcDbVisualStyle
  3
ObjectDBX Classes
 90
     4095
 91
        4
280
     0
281
     0
  0
CLASS
  1
MATERIAL
  2
AcDbMaterial
  3
ObjectDBX Classes
 90
     1153
 91
        4
280
     0
281
     0
  0
CLASS
  1
TABLESTYLE
  2
AcDbTableStyle
  3
ObjectDBX Classes
 90
     4095
 91
        4
280
     0
281
     0
  0
CLASS
  1
MLEADERSTYLE
  2
AcDbMLeaderStyle
  3
ACDB_MLEADERSTYLE_CLASS
 90
     4095
 91
        4
280
     0
281
     0
  0
CLASS
  1
DICTIONARYVAR
  2
AcDbDictionaryVar
  3
ObjectDBX Classes
 90
        0
 91
        4
280
     0
281
     0
  0
CLASS
  1
CELLSTYLEMAP
  2
AcDbCellStyleMap
  3
ObjectDBX Classes
 90
     1152
 91
        4
280
     0
281
     0
  0
ENDSEC
  0
SECTION
  2
TABLES
  0
TABLE
  2
VPORT
  5
8
330
0
100
AcDbSymbolTable
 70
     1
  0
VPORT
  5
1F4
330
8
100
AcDbSymbolTableRecord
100
AcDbViewportTableRecord
  2
*ACTIVE
 70
     0
 10
0.0
 20
0.0
 11
1.0
 21
1.0
 12
210.0
 22
148.5
 13
0.0
 23
0.0
 14
1.0
 24
1.0
 15
0.0
 25
0.0
 16
0.0
 26
0.0
 36
1.0
 17
0.0
 27
0.0
 37
0.0
 40
297.0
 41
1.4141414141
 42
50.0
 43
0.0
 44
0.0
 50
0.0
 51
0.0
 71
     0
 72
   100
 73
     1
 74
     1
 75
     0
 76
     0
 77
     0
 78
     0
281
     0
 65
     1
110
0.0
120
0.0
130
0.0
111
1.0
121
0.0
131
0.0
112
0.0
122
1.0
132
0.0
 79
     0
146
0.0
348
632
 60
     3
 61
     5
292
     1
282
     1
141
0.0
142
0.0
 63
   256
  0
ENDTAB
  0
TABLE
  2
LTYPE
  5
5
330
0
100
AcDbSymbolTable
 70
     6
  0
LTYPE
  5
14
330
5
100
AcDbSymbolTableRecord
100
AcDbLinetypeTableRecord
  2
BYBLOCK
 70
     0
  3

 72
    65
 73
     0
 40
0.0
  0
LTYPE
  5
15
330
5
100
AcDbSymbolTableRecord
100
AcDbLinetypeTableRecord
  2
BYLAYER
 70
     0
  3

 72
    65
 73
     0
 40
0.0
  0
LTYPE
  5
16
330
5
100
AcDbSymbolTableRecord
100
AcDbLinetypeTableRecord
  2
CONTINUOUS
 70
     0
  3
Solid line
 72
    65
 73
     0
 40
0.0
  0
LTYPE
  5
1F5
330
5
100
AcDbSymbolTableRecord
100
AcDbLinetypeTableRecord
  2
CENTER
 70
     0
  3
____ _ ____ _ ____ _ ____ _ ____ _ ____ _ ____
 72
    65
 73
     4
 40
0.6
 49
0.375
 74
     0
 49
-0.075
 74
     0
 49
0.075
 74
     0
 49
-0.075
 74
     0
  0
LTYPE
  5
1F6
330
5
100
AcDbSymbolTableRecord
100
AcDbLinetypeTableRecord
  2
HIDDEN
 70
     0
  3
- - - - - - - - - - - - - - - - - - - -
 72
    65
 73
     2
 40
0.2
 49
0.1
 74
     0
 49
-0.1
 74
     0
  0
LTYPE
  5
1F7
330
5
100
AcDbSymbolTableRecord
100
AcDbLinetypeTableRecord
  2
PHANTOM
 70
     0
  3
_____ _ _ _____ _ _ _____ _ _ _____
 72
    65
 73
     6
 40
0.8
 49
0.45
 74
     0
 49
-0.05
 74
     0
 49
0.1
 74
     0
 49
-0.05
 74
     0
 49
0.1
 74
     0
 49
-0.05
 74
     0
  0
LTYPE
  5
1F8
330
5
100
AcDbSymbolTableRecord
100
AcDbLinetypeTableRecord
  2
DOT
 70
     0
  3
. . . . . . . . . . . . . . . . . . . .
 72
    65
 73
     2
 40
0.2
 49
0.1
 74
     0
 49
-0.1
 74
     0
  0
LTYPE
  5
1F9
330
5
100
AcDbSymbolTableRecord
100
AcDbLinetypeTableRecord
  2
DASHED
 70
     0
  3
- - - - - - - - - - - - - - - - - - - -
 72
    65
 73
     2
 40
0.2
 49
0.1
 74
     0
 49
-0.1
 74
     0
  0
ENDTAB
  0
TABLE
  2
LAYER
  5
2
330
0
100
AcDbSymbolTable
 70
    35
  0
LAYER
  5
10
330
2
100
AcDbSymbolTableRecord
100
AcDbLayerTableRecord
  2
0
 70
     0
 62
     7
  6
CONTINUOUS
370
    -3
390
607
347
649
348
0
  0
LAYER
  5
1FA
330
2
100
AcDbSymbolTableRecord
100
AcDbLayerTableRecord
  2
DEFAULT_1
 70
     0
 62
     7
  6
CENTER
370
    -3
390
607
347
649
348
0
  0
LAYER
  5
1FB
330
2
100
AcDbSymbolTableRecord
100
AcDbLayerTableRecord
  2
DEFAULT_2
 70
     0
 62
     8
  6
HIDDEN
370
    -3
390
607
347
649
348
0
  0
LAYER
  5
1FC
330
2
100
AcDbSymbolTableRecord
100
AcDbLayerTableRecord
  2
DEFAULT_3
 70
     0
 62
     7
  6
PHANTOM
370
    -3
390
607
347
649
348
0
  0
LAYER
  5
1FD
330
2
100
AcDbSymbolTableRecord
100
AcDbLayerTableRecord
  2
01_ALL_DTM_PLN
 70
     0
 62
     7
  6
CONTINUOUS
370
    -3
390
607
347
649
348
0
  0
LAYER
  5
1FE
330
2
100
AcDbSymbolTableRecord
100
AcDbLayerTableRecord
  2
01__ASM_ALL_DTM_PLN
 70
     0
 62
     7
  6
CONTINUOUS
370
    -3
390
607
347
649
348
0
  0
LAYER
  5
1FF
330
2
100
AcDbSymbolTableRecord
100
AcDbLayerTableRecord
  2
01__ASM_DEF_DTM_PLN
 70
     0
 62
     7
  6
CONTINUOUS
370
    -3
390
607
347
649
348
0
  0
LAYER
  5
200
330
2
100
AcDbSymbolTableRecord
100
AcDbLayerTableRecord
  2
01___PRT_ALL_DTM_PLN
 70
     0
 62
     7
  6
CONTINUOUS
370
    -3
390
607
347
649
348
0
  0
LAYER
  5
201
330
2
100
AcDbSymbolTableRecord
100
AcDbLayerTableRecord
  2
01___PRT_DEF_DTM_PLN
 70
     0
 62
     7
  6
CONTINUOUS
370
    -3
390
607
347
649
348
0
  0
LAYER
  5
202
330
2
100
AcDbSymbolTableRecord
100
AcDbLayerTableRecord
  2
02_ALL_AXES
 70
     0
 62
     7
  6
CONTINUOUS
370
    -3
390
607
347
649
348
0
  0
LAYER
  5
203
330
2
100
AcDbSymbolTableRecord
100
AcDbLayerTableRecord
  2
02__ASM_ALL_AXES
 70
     0
 62
     7
  6
CONTINUOUS
370
    -3
390
607
347
649
348
0
  0
LAYER
  5
204
330
2
100
AcDbSymbolTableRecord
100
AcDbLayerTableRecord
  2
02___PRT_ALL_AXES
 70
     0
 62
     7
  6
CONTINUOUS
370
    -3
390
607
347
649
348
0
  0
LAYER
  5
205
330
2
100
AcDbSymbolTableRecord
100
AcDbLayerTableRecord
  2
03_ALL_CURVES
 70
     0
 62
     7
  6
CONTINUOUS
370
    -3
390
607
347
649
348
0
  0
LAYER
  5
206
330
2
100
AcDbSymbolTableRecord
100
AcDbLayerTableRecord
  2
03__ASM_ALL_CURVES
 70
     0
 62
     7
  6
CONTINUOUS
370
    -3
390
607
347
649
348
0
  0
LAYER
  5
207
330
2
100
AcDbSymbolTableRecord
100
AcDbLayerTableRecord
  2
03___PRT_ALL_CURVES
 70
     0
 62
     7
  6
CONTINUOUS
370
    -3
390
607
347
649
348
0
  0
LAYER
  5
208
330
2
100
AcDbSymbolTableRecord
100
AcDbLayerTableRecord
  2
04_ALL_DTM_PNT
 70
     0
 62
     7
  6
CONTINUOUS
370
    -3
390
607
347
649
348
0
  0
LAYER
  5
209
330
2
100
AcDbSymbolTableRecord
100
AcDbLayerTableRecord
  2
04__ASM_ALL_DTM_PNT
 70
     0
 62
     7
  6
CONTINUOUS
370
    -3
390
607
347
649
348
0
  0
LAYER
  5
20A
330
2
100
AcDbSymbolTableRecord
100
AcDbLayerTableRecord
  2
04___PRT_ALL_DTM_PNT
 70
     0
 62
     7
  6
CONTINUOUS
370
    -3
390
607
347
649
348
0
  0
LAYER
  5
20B
330
2
100
AcDbSymbolTableRecord
100
AcDbLayerTableRecord
  2
05_ALL_DTM_CSYS
 70
     0
 62
     7
  6
CONTINUOUS
370
    -3
390
607
347
649
348
0
  0
LAYER
  5
20C
330
2
100
AcDbSymbolTableRecord
100
AcDbLayerTableRecord
  2
05__ASM_ALL_DTM_CSYS
 70
     0
 62
     7
  6
CONTINUOUS
370
    -3
390
607
347
649
348
0
  0
LAYER
  5
20D
330
2
100
AcDbSymbolTableRecord
100
AcDbLayerTableRecord
  2
05__ASM_DEF_DTM_CSYS
 70
     0
 62
     7
  6
CONTINUOUS
370
    -3
390
607
347
649
348
0
  0
LAYER
  5
20E
330
2
100
AcDbSymbolTableRecord
100
AcDbLayerTableRecord
  2
05___PRT_ALL_DTM_CSYS
 70
     0
 62
     7
  6
CONTINUOUS
370
    -3
390
607
347
649
348
0
  0
LAYER
  5
20F
330
2
100
AcDbSymbolTableRecord
100
AcDbLayerTableRecord
  2
05___PRT_DEF_DTM_CSYS
 70
     0
 62
     7
  6
CONTINUOUS
370
    -3
390
607
347
649
348
0
  0
LAYER
  5
210
330
2
100
AcDbSymbolTableRecord
100
AcDbLayerTableRecord
  2
06_ALL_SURFS
 70
     0
 62
     7
  6
CONTINUOUS
370
    -3
390
607
347
649
348
0
  0
LAYER
  5
211
330
2
100
AcDbSymbolTableRecord
100
AcDbLayerTableRecord
  2
06__ASM_ALL_SURFS
 70
     0
 62
     7
  6
CONTINUOUS
370
    -3
390
607
347
649
348
0
  0
LAYER
  5
212
330
2
100
AcDbSymbolTableRecord
100
AcDbLayerTableRecord
  2
06___PRT_ALL_SURFS
 70
     0
 62
     7
  6
CONTINUOUS
370
    -3
390
607
347
649
348
0
  0
LAYER
  5
213
330
2
100
AcDbSymbolTableRecord
100
AcDbLayerTableRecord
  2
07__ASM_ALL_SKELETONS
 70
     0
 62
     7
  6
CONTINUOUS
370
    -3
390
607
347
649
348
0
  0
LAYER
  5
214
330
2
100
AcDbSymbolTableRecord
100
AcDbLayerTableRecord
  2
1_ALL_PLANES
 70
     0
 62
     7
  6
CONTINUOUS
370
    -3
390
607
347
649
348
0
  0
LAYER
  5
215
330
2
100
AcDbSymbolTableRecord
100
AcDbLayerTableRecord
  2
2_ALL_CSYS
 70
     0
 62
     7
  6
CONTINUOUS
370
    -3
390
607
347
649
348
0
  0
LAYER
  5
216
330
2
100
AcDbSymbolTableRecord
100
AcDbLayerTableRecord
  2
3_ALL_AXES
 70
     0
 62
     7
  6
CONTINUOUS
370
    -3
390
607
347
649
348
0
  0
LAYER
  5
217
330
2
100
AcDbSymbolTableRecord
100
AcDbLayerTableRecord
  2
4_ALL_POINTS
 70
     0
 62
     7
  6
CONTINUOUS
370
    -3
390
607
347
649
348
0
  0
LAYER
  5
218
330
2
100
AcDbSymbolTableRecord
100
AcDbLayerTableRecord
  2
5_ALL_CURVES
 70
     0
 62
     7
  6
CONTINUOUS
370
    -3
390
607
347
649
348
0
  0
LAYER
  5
219
330
2
100
AcDbSymbolTableRecord
100
AcDbLayerTableRecord
  2
6_ALL_SURFS
 70
     0
 62
     7
  6
CONTINUOUS
370
    -3
390
607
347
649
348
0
  0
LAYER
  5
21A
330
2
100
AcDbSymbolTableRecord
100
AcDbLayerTableRecord
  2
7_ALL_FEATURES
 70
     0
 62
     7
  6
CONTINUOUS
370
    -3
390
607
347
649
348
0
  0
LAYER
  5
21B
330
2
100
AcDbSymbolTableRecord
100
AcDbLayerTableRecord
  2
9_SOLID
 70
     0
 62
     7
  6
CONTINUOUS
370
    -3
390
607
347
649
348
0
  0
ENDTAB
  0
TABLE
  2
STYLE
  5
3
330
0
100
AcDbSymbolTable
 70
     6
  0
STYLE
  5
11
330
3
100
AcDbSymbolTableRecord
100
AcDbTextStyleTableRecord
  2
STANDARD
 70
     0
 40
0.0
 41
1.0
 50
0.0
 71
     0
 42
0.2
  3
arial.ttf
  4

  0
STYLE
  5
21C
330
3
100
AcDbSymbolTableRecord
100
AcDbTextStyleTableRecord
  2
TEXTSTYLE_1
 70
     0
 40
0.0
 41
0.8
 50
0.0
 71
     0
 42
0.2
  3
gdt
  4

  0
STYLE
  5
21D
330
3
100
AcDbSymbolTableRecord
100
AcDbTextStyleTableRecord
  2
TEXTSTYLE_2
 70
     0
 40
0.0
 41
0.9
 50
0.0
 71
     0
 42
0.2
  3
txt
  4

  0
STYLE
  5
21E
330
3
100
AcDbSymbolTableRecord
100
AcDbTextStyleTableRecord
  2
TEXTSTYLE_3
 70
     0
 40
0.0
 41
0.9
 50
0.0
 71
     0
 42
0.2
  3
txt
  4

  0
STYLE
  5
21F
330
3
100
AcDbSymbolTableRecord
100
AcDbTextStyleTableRecord
  2
TEXTSTYLE_4
 70
     0
 40
0.0
 41
2.0
 50
0.0
 71
     0
 42
0.2
  3
txt
  4

  0
STYLE
  5
220
330
3
100
AcDbSymbolTableRecord
100
AcDbTextStyleTableRecord
  2
TEXTSTYLE_5
 70
     0
 40
0.0
 41
0.85
 50
0.0
 71
     0
 42
0.2
  3
txt
  4

  0
ENDTAB
  0
TABLE
  2
VIEW
  5
6
330
0
100
AcDbSymbolTable
 70
     0
  0
ENDTAB
  0
TABLE
  2
UCS
  5
7
330
0
100
AcDbSymbolTable
 70
     0
  0
ENDTAB
  0
TABLE
  2
APPID
  5
9
330
0
100
AcDbSymbolTable
 70
     1
  0
APPID
  5
221
330
9
100
AcDbSymbolTableRecord
100
AcDbRegAppTableRecord
  2
ACAD
 70
     0
  0
ENDTAB
  0
TABLE
  2
DIMSTYLE
  5
A
330
0
100
AcDbSymbolTable
 70
     3
100
AcDbDimStyleTable
  0
DIMSTYLE
105
22A
330
A
100
AcDbSymbolTableRecord
100
AcDbDimStyleTableRecord
  2
STANDARD
 70
     0
 41
2.5
 42
0.75
 44
0.75
 47
0.01
 48
0.01
 71
     1
 73
     0
 74
     0
 77
     1
 78
     8
 79
     2
140
3.0
147
0.625
171
     1
178
     0
179
     2
271
     2
272
     2
284
     8
340
11
341
222
342
222
343
222
344
222
  0
DIMSTYLE
105
22B
330
A
100
AcDbSymbolTableRecord
100
AcDbDimStyleTableRecord
  2
DIMSTYLE_1
 70
     0
 41
2.5
 42
0.75
 44
0.75
 47
0.3
 48
0.3
 73
     0
 74
     0
 77
     1
 78
     8
 79
     2
140
3.0
147
0.75
171
     1
178
     0
179
     2
271
     2
272
     2
284
     8
340
11
341
222
342
222
343
222
344
222
  0
DIMSTYLE
105
22C
330
A
100
AcDbSymbolTableRecord
100
AcDbDimStyleTableRecord
  2
DIMSTYLE_2
 70
     0
 41
2.5
 42
0.75
 44
0.75
 47
0.2
 48
0.2
 73
     0
 74
     0
 77
     1
 78
     8
 79
     2
140
3.0
147
0.75
171
     1
178
     0
179
     2
271
     2
272
     2
284
     8
340
11
341
222
342
222
343
222
344
222
  0
ENDTAB
  0
TABLE
  2
BLOCK_RECORD
  5
1
330
0
100
AcDbSymbolTable
 70
     8
  0
BLOCK_RECORD
  5
1F
330
1
100
AcDbSymbolTableRecord
100
AcDbBlockTableRecord
  2
*MODEL_SPACE
340
62B
 70
     0
280
     1
281
     0
  0
BLOCK_RECORD
  5
1B
330
1
100
AcDbSymbolTableRecord
100
AcDbBlockTableRecord
  2
*PAPER_SPACE
340
62C
 70
     0
280
     1
281
     0
  0
BLOCK_RECORD
  5
222
330
1
100
AcDbSymbolTableRecord
100
AcDbBlockTableRecord
  2
_CLOSED
340
0
102
{BLKREFS
331
27F
331
280
331
288
331
289
331
291
331
292
331
29A
331
29B
331
2A3
331
2A4
102
}
 70
     0
280
     1
281
     0
  0
BLOCK_RECORD
  5
223
330
1
100
AcDbSymbolTableRecord
100
AcDbBlockTableRecord
  2
*D1
340
0
 70
     0
280
     1
281
     0
  0
BLOCK_RECORD
  5
224
330
1
100
AcDbSymbolTableRecord
100
AcDbBlockTableRecord
  2
*D2
340
0
 70
     0
280
     1
281
     0
  0
BLOCK_RECORD
  5
225
330
1
100
AcDbSymbolTableRecord
100
AcDbBlockTableRecord
  2
*D3
340
0
 70
     0
280
     1
281
     0
  0
BLOCK_RECORD
  5
226
330
1
100
AcDbSymbolTableRecord
100
AcDbBlockTableRecord
  2
*D4
340
0
 70
     0
280
     1
281
     0
  0
BLOCK_RECORD
  5
227
330
1
100
AcDbSymbolTableRecord
100
AcDbBlockTableRecord
  2
*D5
340
0
 70
     0
280
     1
281
     0
  0
BLOCK_RECORD
  5
228
330
1
100
AcDbSymbolTableRecord
100
AcDbBlockTableRecord
  2
LOGO2_BL1
340
0
102
{BLKREFS
331
5EF
102
}
 70
     0
280
     1
281
     0
  0
BLOCK_RECORD
  5
229
330
1
100
AcDbSymbolTableRecord
100
AcDbBlockTableRecord
  2
PROIEZIONE_EU_BL0
340
0
102
{BLKREFS
331
5EC
102
}
 70
     0
280
     1
281
     0
  0
ENDTAB
  0
ENDSEC
  0
SECTION
  2
BLOCKS
  0
BLOCK
  5
20
330
1F
100
AcDbEntity
  8
0
100
AcDbBlockBegin
  2
*MODEL_SPACE
 70
     0
 10
0.0
 20
0.0
 30
0.0
  3
*MODEL_SPACE
  1

  0
ENDBLK
  5
21
330
1F
100
AcDbEntity
  8
0
100
AcDbBlockEnd
  0
BLOCK
  5
1C
330
1B
100
AcDbEntity
 67
     1
  8
0
100
AcDbBlockBegin
  2
*PAPER_SPACE
 70
     0
 10
0.0
 20
0.0
 30
0.0
  3
*PAPER_SPACE
  1

  0
ENDBLK
  5
1D
330
1B
100
AcDbEntity
 67
     1
  8
0
100
AcDbBlockEnd
  0
BLOCK
  5
273
330
222
100
AcDbEntity
  8
0
100
AcDbBlockBegin
  2
_CLOSED
 70
     0
 10
0.0
 20
0.0
 30
0.0
  3
_CLOSED
  1

  0
LINE
  5
274
330
222
100
AcDbEntity
  8
0
  6
ByBlock
 62
     0
100
AcDbLine
 10
0.0
 20
0.0
 30
0.0
 11
-1.0
 21
0.2
 31
0.0
  0
LINE
  5
275
330
222
100
AcDbEntity
  8
0
  6
ByBlock
 62
     0
100
AcDbLine
 10
-1.0
 20
0.2
 30
0.0
 11
-1.0
 21
-0.2
 31
0.0
  0
LINE
  5
276
330
222
100
AcDbEntity
  8
0
  6
ByBlock
 62
     0
100
AcDbLine
 10
-1.0
 20
-0.2
 30
0.0
 11
0.0
 21
0.0
 31
0.0
  0
LINE
  5
277
330
222
100
AcDbEntity
  8
0
  6
ByBlock
 62
     0
100
AcDbLine
 10
-1.0
 20
0.0
 30
0.0
 11
0.0
 21
0.0
 31
0.0
  0
ENDBLK
  5
278
330
222
100
AcDbEntity
  8
0
  6
ByBlock
 62
     0
100
AcDbBlockEnd
  0
BLOCK
  5
279
330
223
100
AcDbEntity
  8
0
100
AcDbBlockBegin
  2
*D1
 70
     1
 10
0.0
 20
0.0
 30
0.0
  3
*D1
  1

  0
MTEXT
  5
27A
330
223
100
AcDbEntity
  8
0
  6
Continuous
 62
     2
100
AcDbMText
 10
331.635547475
 20
223.0181169077
 30
0.0
 40
3.0
 41
4.6617100372
 46
0.0
 71
     2
 72
     1
  1
62
 11
0.0
 21
1.0
 31
0.0
 73
     1
 44
1.0
  0
LINE
  5
27B
330
223
100
AcDbEntity
  8
0
  6
Continuous
 62
     2
100
AcDbLine
 10
320.6940422692
 20
254.0181169077
 30
0.0
 11
336.135547475
 21
254.0181169077
 31
0.0
  0
LINE
  5
27C
330
223
100
AcDbEntity
  8
0
  6
Continuous
 62
     2
100
AcDbLine
 10
320.1366941046
 20
192.0181169077
 30
0.0
 11
336.135547475
 21
192.0181169077
 31
0.0
  0
LINE
  5
27D
330
223
100
AcDbEntity
  8
0
  6
Continuous
 62
     2
100
AcDbLine
 10
335.385547475
 20
254.0181169077
 30
0.0
 11
335.385547475
 21
223.0181169077
 31
0.0
  0
LINE
  5
27E
330
223
100
AcDbEntity
  8
0
  6
Continuous
 62
     2
100
AcDbLine
 10
335.385547475
 20
192.0181169077
 30
0.0
 11
335.385547475
 21
223.0181169077
 31
0.0
  0
INSERT
  5
27F
330
223
100
AcDbEntity
  8
0
  6
Continuous
 62
     2
100
AcDbBlockReference
  2
_CLOSED
 10
335.385547475
 20
254.0181169077
 30
0.0
 41
2.5
 42
2.5
 43
2.5
 50
90.0
  0
INSERT
  5
280
330
223
100
AcDbEntity
  8
0
  6
Continuous
 62
     2
100
AcDbBlockReference
  2
_CLOSED
 10
335.385547475
 20
192.0181169077
 30
0.0
 41
2.5
 42
2.5
 43
2.5
 50
270.0
  0
ENDBLK
  5
281
330
223
100
AcDbEntity
  8
0
  6
ByBlock
 62
     0
100
AcDbBlockEnd
  0
BLOCK
  5
282
330
224
100
AcDbEntity
  8
0
100
AcDbBlockBegin
  2
*D2
 70
     1
 10
0.0
 20
0.0
 30
0.0
  3
*D2
  1

  0
MTEXT
  5
283
330
224
100
AcDbEntity
  8
0
  6
Continuous
 62
     2
100
AcDbMText
 10
283.3189655172
 20
177.472600812
 30
0.0
 40
3.0
 41
4.6617100372
 46
0.0
 71
     2
 72
     1
  1
70
 73
     1
 44
1.0
  0
LINE
  5
284
330
224
100
AcDbEntity
  8
0
  6
Continuous
 62
     2
100
AcDbLine
 10
248.3189655172
 20
190.2993605117
 30
0.0
 11
248.3189655172
 21
172.972600812
 31
0.0
  0
LINE
  5
285
330
224
100
AcDbEntity
  8
0
  6
Continuous
 62
     2
100
AcDbLine
 10
318.3189655172
 20
190.1379011123
 30
0.0
 11
318.3189655172
 21
172.972600812
 31
0.0
  0
LINE
  5
286
330
224
100
AcDbEntity
  8
0
  6
Continuous
 62
     2
100
AcDbLine
 10
248.3189655172
 20
173.722600812
 30
0.0
 11
283.3189655172
 21
173.722600812
 31
0.0
  0
LINE
  5
287
330
224
100
AcDbEntity
  8
0
  6
Continuous
 62
     2
100
AcDbLine
 10
318.3189655172
 20
173.722600812
 30
0.0
 11
283.3189655172
 21
173.722600812
 31
0.0
  0
INSERT
  5
288
330
224
100
AcDbEntity
  8
0
  6
Continuous
 62
     2
100
AcDbBlockReference
  2
_CLOSED
 10
248.3189655172
 20
173.722600812
 30
0.0
 41
2.5
 42
2.5
 43
2.5
 50
180.0
  0
INSERT
  5
289
330
224
100
AcDbEntity
  8
0
  6
Continuous
 62
     2
100
AcDbBlockReference
  2
_CLOSED
 10
318.3189655172
 20
173.722600812
 30
0.0
 41
2.5
 42
2.5
 43
2.5
  0
ENDBLK
  5
28A
330
224
100
AcDbEntity
  8
0
  6
ByBlock
 62
     0
100
AcDbBlockEnd
  0
BLOCK
  5
28B
330
225
100
AcDbEntity
  8
0
100
AcDbBlockBegin
  2
*D3
 70
     1
 10
0.0
 20
0.0
 30
0.0
  3
*D3
  1

  0
MTEXT
  5
28C
330
225
100
AcDbEntity
  8
0
  6
Continuous
 62
     2
100
AcDbMText
 10
126.2350528365
 20
171.8134660189
 30
0.0
 40
3.0
 41
6.9925650558
 46
0.0
 71
     2
 72
     1
  1
110
 73
     1
 44
1.0
  0
LINE
  5
28D
330
225
100
AcDbEntity
  8
0
  6
Continuous
 62
     2
100
AcDbLine
 10
71.2350528365
 20
203.7681169077
 30
0.0
 11
71.2350528365
 21
167.3134660189
 31
0.0
  0
LINE
  5
28E
330
225
100
AcDbEntity
  8
0
  6
Continuous
 62
     2
100
AcDbLine
 10
181.2350528365
 20
203.7681169077
 30
0.0
 11
181.2350528365
 21
167.3134660189
 31
0.0
  0
LINE
  5
28F
330
225
100
AcDbEntity
  8
0
  6
Continuous
 62
     2
100
AcDbLine
 10
71.2350528365
 20
168.0634660189
 30
0.0
 11
126.2350528365
 21
168.0634660189
 31
0.0
  0
LINE
  5
290
330
225
100
AcDbEntity
  8
0
  6
Continuous
 62
     2
100
AcDbLine
 10
181.2350528365
 20
168.0634660189
 30
0.0
 11
126.2350528365
 21
168.0634660189
 31
0.0
  0
INSERT
  5
291
330
225
100
AcDbEntity
  8
0
  6
Continuous
 62
     2
100
AcDbBlockReference
  2
_CLOSED
 10
71.2350528365
 20
168.0634660189
 30
0.0
 41
2.5
 42
2.5
 43
2.5
 50
180.0
  0
INSERT
  5
292
330
225
100
AcDbEntity
  8
0
  6
Continuous
 62
     2
100
AcDbBlockReference
  2
_CLOSED
 10
181.2350528365
 20
168.0634660189
 30
0.0
 41
2.5
 42
2.5
 43
2.5
  0
ENDBLK
  5
293
330
225
100
AcDbEntity
  8
0
  6
ByBlock
 62
     0
100
AcDbBlockEnd
  0
BLOCK
  5
294
330
226
100
AcDbEntity
  8
0
100
AcDbBlockBegin
  2
*D4
 70
     1
 10
0.0
 20
0.0
 30
0.0
  3
*D4
  1

  0
MTEXT
  5
295
330
226
100
AcDbEntity
  8
0
  6
Continuous
 62
     2
100
AcDbMText
 10
126.2350528365
 20
183.4476361642
 30
0.0
 40
3.0
 41
4.6617100372
 46
0.0
 71
     2
 72
     1
  1
70
 73
     1
 44
1.0
  0
LINE
  5
296
330
226
100
AcDbEntity
  8
0
  6
Continuous
 62
     2
100
AcDbLine
 10
91.2350528365
 20
191.2681169077
 30
0.0
 11
91.2350528365
 21
178.9476361642
 31
0.0
  0
LINE
  5
297
330
226
100
AcDbEntity
  8
0
  6
Continuous
 62
     2
100
AcDbLine
 10
161.2350528365
 20
191.2681169077
 30
0.0
 11
161.2350528365
 21
178.9476361642
 31
0.0
  0
LINE
  5
298
330
226
100
AcDbEntity
  8
0
  6
Continuous
 62
     2
100
AcDbLine
 10
91.2350528365
 20
179.6976361642
 30
0.0
 11
126.2350528365
 21
179.6976361642
 31
0.0
  0
LINE
  5
299
330
226
100
AcDbEntity
  8
0
  6
Continuous
 62
     2
100
AcDbLine
 10
161.2350528365
 20
179.6976361642
 30
0.0
 11
126.2350528365
 21
179.6976361642
 31
0.0
  0
INSERT
  5
29A
330
226
100
AcDbEntity
  8
0
  6
Continuous
 62
     2
100
AcDbBlockReference
  2
_CLOSED
 10
91.2350528365
 20
179.6976361642
 30
0.0
 41
2.5
 42
2.5
 43
2.5
 50
180.0
  0
INSERT
  5
29B
330
226
100
AcDbEntity
  8
0
  6
Continuous
 62
     2
100
AcDbBlockReference
  2
_CLOSED
 10
161.2350528365
 20
179.6976361642
 30
0.0
 41
2.5
 42
2.5
 43
2.5
  0
ENDBLK
  5
29C
330
226
100
AcDbEntity
  8
0
  6
ByBlock
 62
     0
100
AcDbBlockEnd
  0
BLOCK
  5
29D
330
227
100
AcDbEntity
  8
0
100
AcDbBlockBegin
  2
*D5
 70
     1
 10
0.0
 20
0.0
 30
0.0
  3
*D5
  1

  0
MTEXT
  5
29E
330
227
100
AcDbEntity
  8
0
  6
Continuous
 62
     2
100
AcDbMText
 10
192.0376306862
 20
198.2681169077
 30
0.0
 40
3.0
 41
8.1524163569
 46
0.0
 71
     2
 72
     1
  1
12,5
 11
0.0
 21
1.0
 31
0.0
 73
     1
 44
1.0
  0
LINE
  5
29F
330
227
100
AcDbEntity
  8
0
  6
Continuous
 62
     2
100
AcDbLine
 10
182.5446618456
 20
192.0181169077
 30
0.0
 11
196.5376306862
 21
192.0181169077
 31
0.0
  0
LINE
  5
2A0
330
227
100
AcDbEntity
  8
0
  6
Continuous
 62
     2
100
AcDbLine
 10
182.3871502845
 20
204.5181169077
 30
0.0
 11
196.5376306862
 21
204.5181169077
 31
0.0
  0
LINE
  5
2A1
330
227
100
AcDbEntity
  8
0
  6
Continuous
 62
     2
100
AcDbLine
 10
195.7876306862
 20
192.0181169077
 30
0.0
 11
195.7876306862
 21
198.2681169077
 31
0.0
  0
LINE
  5
2A2
330
227
100
AcDbEntity
  8
0
  6
Continuous
 62
     2
100
AcDbLine
 10
195.7876306862
 20
204.5181169077
 30
0.0
 11
195.7876306862
 21
198.2681169077
 31
0.0
  0
INSERT
  5
2A3
330
227
100
AcDbEntity
  8
0
  6
Continuous
 62
     2
100
AcDbBlockReference
  2
_CLOSED
 10
195.7876306862
 20
192.0181169077
 30
0.0
 41
2.5
 42
2.5
 43
2.5
 50
270.0
  0
INSERT
  5
2A4
330
227
100
AcDbEntity
  8
0
  6
Continuous
 62
     2
100
AcDbBlockReference
  2
_CLOSED
 10
195.7876306862
 20
204.5181169077
 30
0.0
 41
2.5
 42
2.5
 43
2.5
 50
90.0
  0
ENDBLK
  5
2A5
330
227
100
AcDbEntity
  8
0
  6
ByBlock
 62
     0
100
AcDbBlockEnd
  0
BLOCK
  5
22D
330
228
100
AcDbEntity
  8
0
100
AcDbBlockBegin
  2
LOGO2_BL1
 70
     0
 10
293.8414894261
 20
42.0331558006
 30
0.0
  3
LOGO2_BL1
  1

  0
LINE
  5
22E
330
228
100
AcDbEntity
  8
0
  6
Continuous
 62
     7
100
AcDbLine
 10
285.5844146543
 20
45.2286471394
 30
0.0
 11
284.2800737249
 21
45.2286471394
 31
0.0
  0
LINE
  5
22F
330
228
100
AcDbEntity
  8
0
  6
Continuous
 62
     7
100
AcDbLine
 10
284.2800737249
 20
45.2286471394
 30
0.0
 11
284.2800737249
 21
34.7695810796
 31
0.0
  0
LINE
  5
230
330
228
100
AcDbEntity
  8
0
  6
Continuous
 62
     7
100
AcDbLine
 10
284.2800737249
 20
34.7695810796
 30
0.0
 11
288.7611286132
 21
34.7695810796
 31
0.0
  0
LINE
  5
231
330
228
100
AcDbEntity
  8
0
  6
Continuous
 62
     7
100
AcDbLine
 10
288.7611286132
 20
34.7695810796
 30
0.0
 11
288.7611286132
 21
35.9624354046
 31
0.0
  0
LINE
  5
232
330
228
100
AcDbEntity
  8
0
  6
Continuous
 62
     7
100
AcDbLine
 10
288.7611286132
 20
35.9624354046
 30
0.0
 11
285.5844146543
 21
35.9624354046
 31
0.0
  0
LINE
  5
233
330
228
100
AcDbEntity
  8
0
  6
Continuous
 62
     7
100
AcDbLine
 10
285.5844146543
 20
35.9624354046
 30
0.0
 11
285.5844146543
 21
45.2286471394
 31
0.0
  0
LINE
  5
234
330
228
100
AcDbEntity
  8
0
  6
Continuous
 62
     7
100
AcDbLine
 10
300.5207408706
 20
45.2286471394
 30
0.0
 11
299.2169233525
 21
45.2286471394
 31
0.0
  0
LINE
  5
235
330
228
100
AcDbEntity
  8
0
  6
Continuous
 62
     7
100
AcDbLine
 10
299.2169233525
 20
45.2286471394
 30
0.0
 11
299.2169233525
 21
34.7695810796
 31
0.0
  0
LINE
  5
236
330
228
100
AcDbEntity
  8
0
  6
Continuous
 62
     7
100
AcDbLine
 10
299.2169233525
 20
34.7695810796
 30
0.0
 11
303.6981090936
 21
34.7695810796
 31
0.0
  0
LINE
  5
237
330
228
100
AcDbEntity
  8
0
  6
Continuous
 62
     7
100
AcDbLine
 10
303.6981090936
 20
34.7695810796
 30
0.0
 11
303.6981090936
 21
35.9624354046
 31
0.0
  0
LINE
  5
238
330
228
100
AcDbEntity
  8
0
  6
Continuous
 62
     7
100
AcDbLine
 10
303.6981090936
 20
35.9624354046
 30
0.0
 11
300.5207408706
 21
35.9624354046
 31
0.0
  0
LINE
  5
239
330
228
100
AcDbEntity
  8
0
  6
Continuous
 62
     7
100
AcDbLine
 10
300.5207408706
 20
35.9624354046
 30
0.0
 11
300.5207408706
 21
45.2286471394
 31
0.0
  0
LWPOLYLINE
  5
23A
330
228
100
AcDbEntity
  8
0
  6
Continuous
 62
     7
100
AcDbPolyline
 90
        2
 70
     0
 43
0.2
 10
282.6344686359
 20
31.4260297726
 10
282.6344686359
 20
29.5689665233
  0
LWPOLYLINE
  5
23B
330
228
100
AcDbEntity
  8
0
  6
Continuous
 62
     7
100
AcDbPolyline
 90
        2
 70
     0
 43
0.2
 10
282.6344686359
 20
29.5689665233
 10
283.4301846463
 20
29.5689665233
  0
LWPOLYLINE
  5
23C
330
228
100
AcDbEntity
  8
0
  6
Continuous
 62
     7
100
AcDbPolyline
 90
        2
 70
     0
 43
0.2
 10
283.4301846463
 20
29.5689665233
 10
283.4301846463
 20
29.7809480949
  0
LWPOLYLINE
  5
23D
330
228
100
AcDbEntity
  8
0
  6
Continuous
 62
     7
100
AcDbPolyline
 90
        2
 70
     0
 43
0.2
 10
283.4301846463
 20
29.7809480949
 10
282.8660781308
 20
29.7809480949
  0
LWPOLYLINE
  5
23E
330
228
100
AcDbEntity
  8
0
  6
Continuous
 62
     7
100
AcDbPolyline
 90
        2
 70
     0
 43
0.2
 10
282.8660781308
 20
29.7809480949
 10
282.8660781308
 20
31.4260297726
  0
LWPOLYLINE
  5
23F
330
228
100
AcDbEntity
  8
0
  6
Continuous
 62
     7
100
AcDbPolyline
 90
        2
 70
     0
 43
0.2
 10
282.8660781308
 20
31.4260297726
 10
282.6344686359
 20
31.4260297726
  0
SPLINE
  5
240
330
228
100
AcDbEntity
  8
0
  6
Continuous
 62
     7
100
AcDbSpline
 70
     3
 71
     3
 72
    35
 73
    31
 74
     0
 42
0.000000001
 43
0.0000001
 40
0.0
 40
0.0
 40
0.0
 40
0.0
 40
1.0
 40
1.0
 40
1.0
 40
2.0
 40
2.0
 40
2.0
 40
3.0
 40
3.0
 40
3.0
 40
4.0
 40
4.0
 40
4.0
 40
5.0
 40
5.0
 40
5.0
 40
6.0
 40
6.0
 40
6.0
 40
7.0
 40
7.0
 40
7.0
 40
8.0
 40
8.0
 40
8.0
 40
9.0
 40
9.0
 40
9.0
 40
10.0
 40
10.0
 40
10.0
 40
10.0
 10
284.8284779018
 20
30.7215181792
 30
0.0
 10
284.8284779018
 20
30.7215181792
 30
0.0
 10
284.8284779018
 20
30.0594029
 30
0.0
 10
284.8284779018
 20
30.0594029
 30
0.0
 10
284.8284779018
 20
29.7443093047
 30
0.0
 10
284.9763415906
 20
29.5297106767
 30
0.0
 10
285.3164280749
 20
29.5297106767
 30
0.0
 10
285.6559911479
 20
29.5297106767
 30
0.0
 10
285.8041165424
 20
29.7443093047
 30
0.0
 10
285.8041165424
 20
30.0594029
 30
0.0
 10
285.8041165424
 20
30.0594029
 30
0.0
 10
285.8041165424
 20
30.7215181792
 30
0.0
 10
285.8041165424
 20
30.7215181792
 30
0.0
 10
285.8041165424
 20
30.7215181792
 30
0.0
 10
285.5820593035
 20
30.7215181792
 30
0.0
 10
285.5820593035
 20
30.7215181792
 30
0.0
 10
285.5820593035
 20
30.7215181792
 30
0.0
 10
285.5820593035
 20
30.0845266418
 30
0.0
 10
285.5820593035
 20
30.0845266418
 30
0.0
 10
285.5820593035
 20
29.8987156346
 30
0.0
 10
285.5353448461
 20
29.7359347241
 30
0.0
 10
285.3164280749
 20
29.7359347241
 30
0.0
 10
285.0969878925
 20
29.7359347241
 30
0.0
 10
285.050273435
 20
29.8987156346
 30
0.0
 10
285.050273435
 20
30.0845266418
 30
0.0
 10
285.050273435
 20
30.0845266418
 30
0.0
 10
285.050273435
 20
30.7215181792
 30
0.0
 10
285.050273435
 20
30.7215181792
 30
0.0
 10
285.050273435
 20
30.7215181792
 30
0.0
 10
284.8284779018
 20
30.7215181792
 30
0.0
 10
284.8284779018
 20
30.7215181792
 30
0.0
  0
SPLINE
  5
241
330
228
100
AcDbEntity
  8
0
  6
Continuous
 62
     7
100
AcDbSpline
 70
     3
 71
     3
 72
    35
 73
    31
 74
     0
 42
0.000000001
 43
0.0000001
 40
0.0
 40
0.0
 40
0.0
 40
0.0
 40
1.0
 40
1.0
 40
1.0
 40
2.0
 40
2.0
 40
2.0
 40
3.0
 40
3.0
 40
3.0
 40
4.0
 40
4.0
 40
4.0
 40
5.0
 40
5.0
 40
5.0
 40
6.0
 40
6.0
 40
6.0
 40
7.0
 40
7.0
 40
7.0
 40
8.0
 40
8.0
 40
8.0
 40
9.0
 40
9.0
 40
9.0
 40
10.0
 40
10.0
 40
10.0
 40
10.0
 10
288.2272490996
 20
30.6801686874
 30
0.0
 10
288.1387925919
 20
30.7314629936
 30
0.0
 10
288.0253431953
 20
30.7565867355
 30
0.0
 10
287.9217077603
 20
30.7565867355
 30
0.0
 10
287.5668349071
 20
30.7565867355
 30
0.0
 10
287.2913897169
 20
30.4927874464
 30
0.0
 10
287.2913897169
 20
30.1352975367
 30
0.0
 10
287.2913897169
 20
29.790369498
 30
0.0
 10
287.569844522
 20
29.530234088
 30
0.0
 10
287.909407595
 20
29.530234088
 30
0.0
 10
288.0253431953
 20
29.530234088
 30
0.0
 10
288.1260998682
 20
29.5522173621
 30
0.0
 10
288.2272490996
 20
29.6061287247
 30
0.0
 10
288.2272490996
 20
29.6061287247
 30
0.0
 10
288.2272490996
 20
29.8887708202
 30
0.0
 10
288.2272490996
 20
29.8887708202
 30
0.0
 10
288.1433724407
 20
29.7956036109
 30
0.0
 10
288.0398678585
 20
29.7364581354
 30
0.0
 10
287.9117629458
 20
29.7364581354
 30
0.0
 10
287.6780598058
 20
29.7364581354
 30
0.0
 10
287.5127926917
 20
29.9086604491
 30
0.0
 10
287.5127926917
 20
30.1452423512
 30
0.0
 10
287.5127926917
 20
30.3572239228
 30
0.0
 10
287.6805460094
 20
30.5493158655
 30
0.0
 10
287.8973691354
 20
30.5493158655
 30
0.0
 10
288.0301847497
 20
30.5493158655
 30
0.0
 10
288.1387925919
 20
30.4954045028
 30
0.0
 10
288.2272490996
 20
30.3943861242
 30
0.0
 10
288.2272490996
 20
30.3943861242
 30
0.0
 10
288.2272490996
 20
30.6801686874
 30
0.0
 10
288.2272490996
 20
30.6801686874
 30
0.0
  0
SPLINE
  5
242
330
228
100
AcDbEntity
  8
0
  6
Continuous
 62
     7
100
AcDbSpline
 70
     3
 71
     3
 72
    32
 73
    28
 74
     0
 42
0.000000001
 43
0.0000001
 40
0.0
 40
0.0
 40
0.0
 40
0.0
 40
1.0
 40
1.0
 40
1.0
 40
2.0
 40
2.0
 40
2.0
 40
3.0
 40
3.0
 40
3.0
 40
4.0
 40
4.0
 40
4.0
 40
5.0
 40
5.0
 40
5.0
 40
6.0
 40
6.0
 40
6.0
 40
7.0
 40
7.0
 40
7.0
 40
8.0
 40
8.0
 40
8.0
 40
9.0
 40
9.0
 40
9.0
 40
9.0
 10
290.7591203518
 20
30.1086035611
 30
0.0
 10
290.7591203518
 20
30.1086035611
 30
0.0
 10
290.7591203518
 20
30.1426252948
 30
0.0
 10
290.7591203518
 20
30.1426252948
 30
0.0
 10
290.7591203518
 20
30.484936277
 30
0.0
 10
290.586263774
 20
30.7565867355
 30
0.0
 10
290.2196141669
 20
30.7565867355
 30
0.0
 10
289.8479921525
 20
30.7565867355
 30
0.0
 10
289.6582555606
 20
30.4901703899
 30
0.0
 10
289.6582555606
 20
30.1352975367
 30
0.0
 10
289.6582555606
 20
29.7956036109
 30
0.0
 10
289.8723307774
 20
29.5297106767
 30
0.0
 10
290.2244557213
 20
29.5297106767
 30
0.0
 10
290.4484757525
 20
29.5297106767
 30
0.0
 10
290.6506433624
 20
29.6453845713
 30
0.0
 10
290.7591203518
 20
29.844804272
 30
0.0
 10
290.7591203518
 20
29.844804272
 30
0.0
 10
290.5714774051
 20
29.9515801747
 30
0.0
 10
290.5714774051
 20
29.9515801747
 30
0.0
 10
290.4879933047
 20
29.8128761834
 30
0.0
 10
290.3967888878
 20
29.7270367322
 30
0.0
 10
290.2272036305
 20
29.7270367322
 30
0.0
 10
290.015222059
 20
29.7270367322
 30
0.0
 10
289.8822755918
 20
29.9118009168
 30
0.0
 10
289.879920241
 20
30.1086035611
 30
0.0
 10
289.879920241
 20
30.1086035611
 30
0.0
 10
290.7591203518
 20
30.1086035611
 30
0.0
 10
290.7591203518
 20
30.1086035611
 30
0.0
  0
SPLINE
  5
243
330
228
100
AcDbEntity
  8
0
  6
Continuous
 62
     7
100
AcDbSpline
 70
     3
 71
     3
 72
    14
 73
    10
 74
     0
 42
0.000000001
 43
0.0000001
 40
0.0
 40
0.0
 40
0.0
 40
0.0
 40
1.0
 40
1.0
 40
1.0
 40
2.0
 40
2.0
 40
2.0
 40
3.0
 40
3.0
 40
3.0
 40
3.0
 10
289.8919587007
 20
30.2760951732
 30
0.0
 10
289.9195686461
 20
30.4409697289
 30
0.0
 10
290.0474118532
 20
30.5639713815
 30
0.0
 10
290.2196141669
 20
30.5639713815
 30
0.0
 10
290.3967888878
 20
30.5639713815
 30
0.0
 10
290.5102382845
 20
30.4482974869
 30
0.0
 10
290.5374556714
 20
30.2760951732
 30
0.0
 10
290.5374556714
 20
30.2760951732
 30
0.0
 10
289.8919587007
 20
30.2760951732
 30
0.0
 10
289.8919587007
 20
30.2760951732
 30
0.0
  0
SPLINE
  5
244
330
228
100
AcDbEntity
  8
0
  6
Continuous
 62
     7
100
AcDbSpline
 70
     3
 71
     3
 72
    20
 73
    16
 74
     0
 42
0.000000001
 43
0.0000001
 40
0.0
 40
0.0
 40
0.0
 40
0.0
 40
1.0
 40
1.0
 40
1.0
 40
2.0
 40
2.0
 40
2.0
 40
3.0
 40
3.0
 40
3.0
 40
4.0
 40
4.0
 40
4.0
 40
5.0
 40
5.0
 40
5.0
 40
5.0
 10
292.783151802
 20
30.4854596883
 30
0.0
 10
292.783151802
 20
30.4854596883
 30
0.0
 10
293.1942913687
 20
29.982984852
 30
0.0
 10
293.1942913687
 20
29.982984852
 30
0.0
 10
293.0782249156
 20
29.8673109574
 30
0.0
 10
292.940436894
 20
29.7369815467
 30
0.0
 10
292.768496286
 20
29.7369815467
 30
0.0
 10
292.5910598594
 20
29.7369815467
 30
0.0
 10
292.4235682473
 20
29.9013326911
 30
0.0
 10
292.4235682473
 20
30.0782457064
 30
0.0
 10
292.4235682473
 20
30.2562055442
 30
0.0
 10
292.6333253209
 20
30.3823476646
 30
0.0
 10
292.7609068223
 20
30.470280761
 30
0.0
 10
292.7609068223
 20
30.470280761
 30
0.0
 10
292.783151802
 20
30.4854596883
 30
0.0
 10
292.783151802
 20
30.4854596883
 30
0.0
  0
SPLINE
  5
245
330
228
100
AcDbEntity
  8
0
  6
Continuous
 62
     7
100
AcDbSpline
 70
     3
 71
     3
 72
    23
 73
    19
 74
     0
 42
0.000000001
 43
0.0000001
 40
0.0
 40
0.0
 40
0.0
 40
0.0
 40
1.0
 40
1.0
 40
1.0
 40
2.0
 40
2.0
 40
2.0
 40
3.0
 40
3.0
 40
3.0
 40
4.0
 40
4.0
 40
4.0
 40
5.0
 40
5.0
 40
5.0
 40
6.0
 40
6.0
 40
6.0
 40
6.0
 10
292.8324833159
 20
30.7764763644
 30
0.0
 10
292.8324833159
 20
30.7764763644
 30
0.0
 10
292.7708516368
 20
30.8549880576
 30
0.0
 10
292.7708516368
 20
30.8549880576
 30
0.0
 10
292.7169402741
 20
30.9235549363
 30
0.0
 10
292.6601501494
 20
30.9926452263
 30
0.0
 10
292.6601501494
 20
31.0863358468
 30
0.0
 10
292.6601501494
 20
31.2051502092
 30
0.0
 10
292.7560652679
 20
31.2826150798
 30
0.0
 10
292.8670284609
 20
31.2826150798
 30
0.0
 10
292.9902918192
 20
31.2826150798
 30
0.0
 10
293.0835898813
 20
31.2114311446
 30
0.0
 10
293.0835898813
 20
31.0811017339
 30
0.0
 10
293.0835898813
 20
30.9460616217
 30
0.0
 10
292.9554849686
 20
30.8696435736
 30
0.0
 10
292.8619252009
 20
30.795842582
 30
0.0
 10
292.8619252009
 20
30.795842582
 30
0.0
 10
292.8324833159
 20
30.7764763644
 30
0.0
 10
292.8324833159
 20
30.7764763644
 30
0.0
  0
SPLINE
  5
246
330
228
100
AcDbEntity
  8
0
  6
Continuous
 62
     7
100
AcDbSpline
 70
     3
 71
     3
 72
    50
 73
    46
 74
     0
 42
0.000000001
 43
0.0000001
 40
0.0
 40
0.0
 40
0.0
 40
0.0
 40
1.0
 40
1.0
 40
1.0
 40
2.0
 40
2.0
 40
2.0
 40
3.0
 40
3.0
 40
3.0
 40
4.0
 40
4.0
 40
4.0
 40
5.0
 40
5.0
 40
5.0
 40
6.0
 40
6.0
 40
6.0
 40
7.0
 40
7.0
 40
7.0
 40
8.0
 40
8.0
 40
8.0
 40
9.0
 40
9.0
 40
9.0
 40
10.0
 40
10.0
 40
10.0
 40
11.0
 40
11.0
 40
11.0
 40
12.0
 40
12.0
 40
12.0
 40
13.0
 40
13.0
 40
13.0
 40
14.0
 40
14.0
 40
14.0
 40
15.0
 40
15.0
 40
15.0
 40
15.0
 10
293.5346395586
 20
29.5694899346
 30
0.0
 10
293.5346395586
 20
29.5694899346
 30
0.0
 10
293.8200295633
 20
29.5694899346
 30
0.0
 10
293.8200295633
 20
29.5694899346
 30
0.0
 10
293.8200295633
 20
29.5694899346
 30
0.0
 10
293.4876633955
 20
29.9803677955
 30
0.0
 10
293.4876633955
 20
29.9803677955
 30
0.0
 10
293.4876633955
 20
29.9803677955
 30
0.0
 10
293.7141696303
 20
30.2462607298
 30
0.0
 10
293.7141696303
 20
30.2462607298
 30
0.0
 10
293.7141696303
 20
30.2462607298
 30
0.0
 10
293.565913383
 20
30.3990968258
 30
0.0
 10
293.565913383
 20
30.3990968258
 30
0.0
 10
293.565913383
 20
30.3990968258
 30
0.0
 10
293.3500062268
 20
30.1478594077
 30
0.0
 10
293.3500062268
 20
30.1478594077
 30
0.0
 10
293.3500062268
 20
30.1478594077
 30
0.0
 10
292.9629435794
 20
30.615789099
 30
0.0
 10
292.9629435794
 20
30.615789099
 30
0.0
 10
293.1183967319
 20
30.7298927598
 30
0.0
 10
293.3006747129
 20
30.8696435736
 30
0.0
 10
293.3006747129
 20
31.0790080888
 30
0.0
 10
293.3006747129
 20
31.3229177489
 30
0.0
 10
293.0986379558
 20
31.4663324418
 30
0.0
 10
292.872131721
 20
31.4663324418
 30
0.0
 10
292.6279603552
 20
31.4663324418
 30
0.0
 10
292.443588729
 20
31.3155899909
 30
0.0
 10
292.443588729
 20
31.0591184598
 30
0.0
 10
292.443588729
 20
30.9015716622
 30
0.0
 10
292.5422517568
 20
30.7639144935
 30
0.0
 10
292.6475882785
 20
30.6529513005
 30
0.0
 10
292.6475882785
 20
30.6529513005
 30
0.0
 10
292.5320452367
 20
30.5692054944
 30
0.0
 10
292.5320452367
 20
30.5692054944
 30
0.0
 10
292.3543471045
 20
30.4409697289
 30
0.0
 10
292.2070068269
 20
30.3132573746
 30
0.0
 10
292.2070068269
 20
30.0761520612
 30
0.0
 10
292.2070068269
 20
29.755824353
 30
0.0
 10
292.4655720031
 20
29.5297106767
 30
0.0
 10
292.7759548968
 20
29.5297106767
 30
0.0
 10
292.994871668
 20
29.5297106767
 30
0.0
 10
293.1920668707
 20
29.6548059745
 30
0.0
 10
293.3323410958
 20
29.8207273527
 30
0.0
 10
293.3323410958
 20
29.8207273527
 30
0.0
 10
293.5346395586
 20
29.5694899346
 30
0.0
 10
293.5346395586
 20
29.5694899346
 30
0.0
  0
LWPOLYLINE
  5
247
330
228
100
AcDbEntity
  8
0
  6
Continuous
 62
     7
100
AcDbPolyline
 90
        2
 70
     0
 43
0.2
 10
295.4700836483
 20
31.4260297726
 10
295.2387358591
 20
31.4260297726
  0
LWPOLYLINE
  5
248
330
228
100
AcDbEntity
  8
0
  6
Continuous
 62
     7
100
AcDbPolyline
 90
        2
 70
     0
 43
0.2
 10
295.2387358591
 20
31.4260297726
 10
295.2387358591
 20
29.5689665233
  0
LWPOLYLINE
  5
249
330
228
100
AcDbEntity
  8
0
  6
Continuous
 62
     7
100
AcDbPolyline
 90
        2
 70
     0
 43
0.2
 10
295.2387358591
 20
29.5689665233
 10
296.034059311
 20
29.5689665233
  0
LWPOLYLINE
  5
24A
330
228
100
AcDbEntity
  8
0
  6
Continuous
 62
     7
100
AcDbPolyline
 90
        2
 70
     0
 43
0.2
 10
296.034059311
 20
29.5689665233
 10
296.034059311
 20
29.7809480949
  0
LWPOLYLINE
  5
24B
330
228
100
AcDbEntity
  8
0
  6
Continuous
 62
     7
100
AcDbPolyline
 90
        2
 70
     0
 43
0.2
 10
296.034059311
 20
29.7809480949
 10
295.4700836483
 20
29.7809480949
  0
LWPOLYLINE
  5
24C
330
228
100
AcDbEntity
  8
0
  6
Continuous
 62
     7
100
AcDbPolyline
 90
        2
 70
     0
 43
0.2
 10
295.4700836483
 20
29.7809480949
 10
295.4700836483
 20
31.4260297726
  0
LWPOLYLINE
  5
24D
330
228
100
AcDbEntity
  8
0
  6
Continuous
 62
     7
100
AcDbPolyline
 90
        2
 70
     0
 43
0.2
 10
297.7131627225
 20
30.7215181792
 10
297.4920214534
 20
30.7215181792
  0
LWPOLYLINE
  5
24E
330
228
100
AcDbEntity
  8
0
  6
Continuous
 62
     7
100
AcDbPolyline
 90
        2
 70
     0
 43
0.2
 10
297.4920214534
 20
30.7215181792
 10
297.4920214534
 20
29.5694899346
  0
LWPOLYLINE
  5
24F
330
228
100
AcDbEntity
  8
0
  6
Continuous
 62
     7
100
AcDbPolyline
 90
        2
 70
     0
 43
0.2
 10
297.4920214534
 20
29.5694899346
 10
297.7131627225
 20
29.5694899346
  0
LWPOLYLINE
  5
250
330
228
100
AcDbEntity
  8
0
  6
Continuous
 62
     7
100
AcDbPolyline
 90
        2
 70
     0
 43
0.2
 10
297.7131627225
 20
29.5694899346
 10
297.7131627225
 20
30.7215181792
  0
LWPOLYLINE
  5
251
330
228
100
AcDbEntity
  8
0
  6
Continuous
 62
     7
100
AcDbPolyline
 90
        2
 70
     1
 43
0.2
 10
297.4501394453
 20
31.2514721081
 42
1.0
 10
297.7553064362
 20
31.2514721081
 42
1.0
  0
SPLINE
  5
252
330
228
100
AcDbEntity
  8
0
  6
Continuous
 62
     7
100
AcDbSpline
 70
     3
 71
     3
 72
    17
 73
    13
 74
     0
 42
0.000000001
 43
0.0000001
 40
0.0
 40
0.0
 40
0.0
 40
0.0
 40
1.0
 40
1.0
 40
1.0
 40
2.0
 40
2.0
 40
2.0
 40
3.0
 40
3.0
 40
3.0
 40
4.0
 40
4.0
 40
4.0
 40
4.0
 10
299.8434466641
 20
29.7270367322
 30
0.0
 10
299.6094818184
 20
29.7270367322
 30
0.0
 10
299.4791524078
 20
29.9290734893
 30
0.0
 10
299.4791524078
 20
30.1452423512
 30
0.0
 10
299.4791524078
 20
30.3598409792
 30
0.0
 10
299.614977637
 20
30.5587372686
 30
0.0
 10
299.8434466641
 20
30.5587372686
 30
0.0
 10
300.0829073283
 20
30.5587372686
 30
0.0
 10
300.2184708519
 20
30.3697857937
 30
0.0
 10
300.2184708519
 20
30.1452423512
 30
0.0
 10
300.2184708519
 20
29.9191286749
 30
0.0
 10
300.0852626791
 20
29.7270367322
 30
0.0
 10
299.8434466641
 20
29.7270367322
 30
0.0
  0
SPLINE
  5
253
330
228
100
AcDbEntity
  8
0
  6
Continuous
 62
     7
100
AcDbSpline
 70
     3
 71
     3
 72
    50
 73
    46
 74
     0
 42
0.000000001
 43
0.0000001
 40
0.0
 40
0.0
 40
0.0
 40
0.0
 40
1.0
 40
1.0
 40
1.0
 40
2.0
 40
2.0
 40
2.0
 40
3.0
 40
3.0
 40
3.0
 40
4.0
 40
4.0
 40
4.0
 40
5.0
 40
5.0
 40
5.0
 40
6.0
 40
6.0
 40
6.0
 40
7.0
 40
7.0
 40
7.0
 40
8.0
 40
8.0
 40
8.0
 40
9.0
 40
9.0
 40
9.0
 40
10.0
 40
10.0
 40
10.0
 40
11.0
 40
11.0
 40
11.0
 40
12.0
 40
12.0
 40
12.0
 40
13.0
 40
13.0
 40
13.0
 40
14.0
 40
14.0
 40
14.0
 40
15.0
 40
15.0
 40
15.0
 40
15.0
 10
300.4275736614
 20
30.7220415905
 30
0.0
 10
300.4275736614
 20
30.7220415905
 30
0.0
 10
300.205908981
 20
30.7220415905
 30
0.0
 10
300.205908981
 20
30.7220415905
 30
0.0
 10
300.205908981
 20
30.7220415905
 30
0.0
 10
300.205908981
 20
30.5247155349
 30
0.0
 10
300.205908981
 20
30.5247155349
 30
0.0
 10
300.205908981
 20
30.5247155349
 30
0.0
 10
300.2011982794
 20
30.5247155349
 30
0.0
 10
300.2011982794
 20
30.5247155349
 30
0.0
 10
300.1098630096
 20
30.6676068165
 30
0.0
 10
299.9719441353
 20
30.7560633242
 30
0.0
 10
299.7992184103
 20
30.7560633242
 30
0.0
 10
299.4668522425
 20
30.7560633242
 30
0.0
 10
299.257749433
 20
30.4681871158
 30
0.0
 10
299.257749433
 20
30.1525701092
 30
0.0
 10
299.257749433
 20
29.8228209979
 30
0.0
 10
299.4548137829
 20
29.5297106767
 30
0.0
 10
299.8096866361
 20
29.5297106767
 30
0.0
 10
299.9719441353
 20
29.5297106767
 30
0.0
 10
300.1119566548
 20
29.6181671843
 30
0.0
 10
300.2011982794
 20
29.7490200063
 30
0.0
 10
300.2011982794
 20
29.7490200063
 30
0.0
 10
300.205908981
 20
29.7490200063
 30
0.0
 10
300.205908981
 20
29.7490200063
 30
0.0
 10
300.205908981
 20
29.7490200063
 30
0.0
 10
300.205908981
 20
29.5297106767
 30
0.0
 10
300.205908981
 20
29.5297106767
 30
0.0
 10
300.205908981
 20
29.2931287746
 30
0.0
 10
300.1493805619
 20
29.1062709448
 30
0.0
 10
299.8761598696
 20
29.1062709448
 30
0.0
 10
299.6738614068
 20
29.1062709448
 30
0.0
 10
299.5312318309
 20
29.2245618959
 30
0.0
 10
299.5312318309
 20
29.4307859433
 30
0.0
 10
299.5312318309
 20
29.4307859433
 30
0.0
 10
299.3095671505
 20
29.4307859433
 30
0.0
 10
299.3095671505
 20
29.4307859433
 30
0.0
 10
299.3145395577
 20
29.1062709448
 30
0.0
 10
299.5456256413
 20
28.9094683006
 30
0.0
 10
299.8659533495
 20
28.9094683006
 30
0.0
 10
300.3139934119
 20
28.9094683006
 30
0.0
 10
300.4275736614
 20
29.1947274524
 30
0.0
 10
300.4275736614
 20
29.5914732087
 30
0.0
 10
300.4275736614
 20
29.5914732087
 30
0.0
 10
300.4275736614
 20
30.7220415905
 30
0.0
 10
300.4275736614
 20
30.7220415905
 30
0.0
  0
SPLINE
  5
254
330
228
100
AcDbEntity
  8
0
  6
Continuous
 62
     7
100
AcDbSpline
 70
     3
 71
     3
 72
    44
 73
    40
 74
     0
 42
0.000000001
 43
0.0000001
 40
0.0
 40
0.0
 40
0.0
 40
0.0
 40
1.0
 40
1.0
 40
1.0
 40
2.0
 40
2.0
 40
2.0
 40
3.0
 40
3.0
 40
3.0
 40
4.0
 40
4.0
 40
4.0
 40
5.0
 40
5.0
 40
5.0
 40
6.0
 40
6.0
 40
6.0
 40
7.0
 40
7.0
 40
7.0
 40
8.0
 40
8.0
 40
8.0
 40
9.0
 40
9.0
 40
9.0
 40
10.0
 40
10.0
 40
10.0
 40
11.0
 40
11.0
 40
11.0
 40
12.0
 40
12.0
 40
12.0
 40
13.0
 40
13.0
 40
13.0
 40
13.0
 10
301.9964989968
 20
31.7071016342
 30
0.0
 10
301.9964989968
 20
31.7071016342
 30
0.0
 10
301.9964989968
 20
29.5689665233
 30
0.0
 10
301.9964989968
 20
29.5689665233
 30
0.0
 10
301.9964989968
 20
29.5689665233
 30
0.0
 10
302.2179019715
 20
29.5689665233
 30
0.0
 10
302.2179019715
 20
29.5689665233
 30
0.0
 10
302.2179019715
 20
29.5689665233
 30
0.0
 10
302.2179019715
 20
30.0986587466
 30
0.0
 10
302.2179019715
 20
30.0986587466
 30
0.0
 10
302.2179019715
 20
30.308546673
 30
0.0
 10
302.2179019715
 20
30.5592606799
 30
0.0
 10
302.5031611234
 20
30.5592606799
 30
0.0
 10
302.7300599167
 20
30.5592606799
 30
0.0
 10
302.757015598
 20
30.4263142128
 30
0.0
 10
302.757015598
 20
30.2300349799
 30
0.0
 10
302.757015598
 20
30.2300349799
 30
0.0
 10
302.757015598
 20
29.5689665233
 30
0.0
 10
302.757015598
 20
29.5689665233
 30
0.0
 10
302.757015598
 20
29.5689665233
 30
0.0
 10
302.9789419841
 20
29.5689665233
 30
0.0
 10
302.9789419841
 20
29.5689665233
 30
0.0
 10
302.9789419841
 20
29.5689665233
 30
0.0
 10
302.9789419841
 20
30.2562055442
 30
0.0
 10
302.9789419841
 20
30.2562055442
 30
0.0
 10
302.9789419841
 20
30.5367539945
 30
0.0
 10
302.8949344724
 20
30.7565867355
 30
0.0
 10
302.5698960626
 20
30.7565867355
 30
0.0
 10
302.4301452488
 20
30.7565867355
 30
0.0
 10
302.2919646688
 20
30.6901135019
 30
0.0
 10
302.2226126731
 20
30.5671118492
 30
0.0
 10
302.2226126731
 20
30.5671118492
 30
0.0
 10
302.2179019715
 20
30.5671118492
 30
0.0
 10
302.2179019715
 20
30.5671118492
 30
0.0
 10
302.2179019715
 20
30.5671118492
 30
0.0
 10
302.2179019715
 20
31.7071016342
 30
0.0
 10
302.2179019715
 20
31.7071016342
 30
0.0
 10
302.2179019715
 20
31.7071016342
 30
0.0
 10
301.9964989968
 20
31.7071016342
 30
0.0
 10
301.9964989968
 20
31.7071016342
 30
0.0
  0
LWPOLYLINE
  5
255
330
228
100
AcDbEntity
  8
0
  6
Continuous
 62
     7
100
AcDbPolyline
 90
        2
 70
     0
 43
0.2
 10
304.818732661
 20
30.5147707205
 10
305.0351632285
 20
30.5147707205
  0
LWPOLYLINE
  5
256
330
228
100
AcDbEntity
  8
0
  6
Continuous
 62
     7
100
AcDbPolyline
 90
        2
 70
     0
 43
0.2
 10
305.0351632285
 20
30.5147707205
 10
305.0351632285
 20
30.7215181792
  0
LWPOLYLINE
  5
257
330
228
100
AcDbEntity
  8
0
  6
Continuous
 62
     7
100
AcDbPolyline
 90
        2
 70
     0
 43
0.2
 10
305.0351632285
 20
30.7215181792
 10
304.818732661
 20
30.7215181792
  0
LWPOLYLINE
  5
258
330
228
100
AcDbEntity
  8
0
  6
Continuous
 62
     7
100
AcDbPolyline
 90
        2
 70
     0
 43
0.2
 10
304.818732661
 20
30.7215181792
 10
304.818732661
 20
31.1622304836
  0
LWPOLYLINE
  5
259
330
228
100
AcDbEntity
  8
0
  6
Continuous
 62
     7
100
AcDbPolyline
 90
        2
 70
     0
 43
0.2
 10
304.818732661
 20
31.1622304836
 10
304.5970679806
 20
31.1622304836
  0
LWPOLYLINE
  5
25A
330
228
100
AcDbEntity
  8
0
  6
Continuous
 62
     7
100
AcDbPolyline
 90
        2
 70
     0
 43
0.2
 10
304.5970679806
 20
31.1622304836
 10
304.5970679806
 20
30.7215181792
  0
LWPOLYLINE
  5
25B
330
228
100
AcDbEntity
  8
0
  6
Continuous
 62
     7
100
AcDbPolyline
 90
        2
 70
     0
 43
0.2
 10
304.5970679806
 20
30.7215181792
 10
304.4764216787
 20
30.7215181792
  0
LWPOLYLINE
  5
25C
330
228
100
AcDbEntity
  8
0
  6
Continuous
 62
     7
100
AcDbPolyline
 90
        2
 70
     0
 43
0.2
 10
304.4764216787
 20
30.7215181792
 10
304.4764216787
 20
30.5147707205
  0
LWPOLYLINE
  5
25D
330
228
100
AcDbEntity
  8
0
  6
Continuous
 62
     7
100
AcDbPolyline
 90
        2
 70
     0
 43
0.2
 10
304.4764216787
 20
30.5147707205
 10
304.5970679806
 20
30.5147707205
  0
LWPOLYLINE
  5
25E
330
228
100
AcDbEntity
  8
0
  6
Continuous
 62
     7
100
AcDbPolyline
 90
        2
 70
     0
 43
0.2
 10
304.5970679806
 20
30.5147707205
 10
304.5970679806
 20
29.5689665233
  0
LWPOLYLINE
  5
25F
330
228
100
AcDbEntity
  8
0
  6
Continuous
 62
     7
100
AcDbPolyline
 90
        2
 70
     0
 43
0.2
 10
304.5970679806
 20
29.5689665233
 10
304.818732661
 20
29.5689665233
  0
LWPOLYLINE
  5
260
330
228
100
AcDbEntity
  8
0
  6
Continuous
 62
     7
100
AcDbPolyline
 90
        2
 70
     0
 43
0.2
 10
304.818732661
 20
29.5689665233
 10
304.818732661
 20
30.5147707205
  0
SPLINE
  5
261
330
228
100
AcDbEntity
  8
0
  6
Continuous
 62
     7
100
AcDbSpline
 70
     3
 71
     3
 72
    20
 73
    16
 74
     0
 42
0.000000001
 43
0.0000001
 40
0.0
 40
0.0
 40
0.0
 40
0.0
 40
1.0
 40
1.0
 40
1.0
 40
2.0
 40
2.0
 40
2.0
 40
3.0
 40
3.0
 40
3.0
 40
4.0
 40
4.0
 40
4.0
 40
5.0
 40
5.0
 40
5.0
 40
5.0
 10
292.6007429682
 20
39.9298929667
 30
0.0
 10
292.6007429682
 20
39.9298929667
 30
0.0
 10
294.9170996227
 20
37.1003315444
 30
0.0
 10
294.9170996227
 20
37.1003315444
 30
0.0
 10
294.2654525693
 20
36.4481610798
 30
0.0
 10
293.4885793653
 20
35.712244809
 30
0.0
 10
292.5173897206
 20
35.712244809
 30
0.0
 10
291.5188518362
 20
35.712244809
 30
0.0
 10
290.5755338426
 20
36.6418232563
 30
0.0
 10
290.5755338426
 20
37.6410154048
 30
0.0
 10
290.5755338426
 20
38.6402075534
 30
0.0
 10
291.7543869157
 20
39.346812792
 30
0.0
 10
292.4759093761
 20
39.8466705719
 30
0.0
 10
292.4759093761
 20
39.8466705719
 30
0.0
 10
292.6007429682
 20
39.9298929667
 30
0.0
 10
292.6007429682
 20
39.9298929667
 30
0.0
  0
SPLINE
  5
262
330
228
100
AcDbEntity
  8
0
  6
Continuous
 62
     7
100
AcDbSpline
 70
     3
 71
     3
 72
    23
 73
    19
 74
     0
 42
0.000000001
 43
0.0000001
 40
0.0
 40
0.0
 40
0.0
 40
0.0
 40
1.0
 40
1.0
 40
1.0
 40
2.0
 40
2.0
 40
2.0
 40
3.0
 40
3.0
 40
3.0
 40
4.0
 40
4.0
 40
4.0
 40
5.0
 40
5.0
 40
5.0
 40
6.0
 40
6.0
 40
6.0
 40
6.0
 10
292.8781509508
 20
41.5676468864
 30
0.0
 10
292.8781509508
 20
41.5676468864
 30
0.0
 10
292.5316526782
 20
42.0109762472
 30
0.0
 10
292.5316526782
 20
42.0109762472
 30
0.0
 10
292.2258496333
 20
42.3990857172
 30
0.0
 10
291.9069613061
 20
42.7875877456
 30
0.0
 10
291.9069613061
 20
43.3145320597
 30
0.0
 10
291.9069613061
 20
43.9807037763
 30
0.0
 10
292.4482994306
 20
44.4244256956
 30
0.0
 10
293.0722056858
 20
44.4244256956
 30
0.0
 10
293.7659873478
 20
44.4244256956
 30
0.0
 10
294.2931933675
 20
44.0221841209
 30
0.0
 10
294.2931933675
 20
43.2871838199
 30
0.0
 10
294.2931933675
 20
42.5239193093
 30
0.0
 10
293.5719326129
 20
42.0938060835
 30
0.0
 10
293.044857446
 20
41.6780866681
 30
0.0
 10
293.044857446
 20
41.6780866681
 30
0.0
 10
292.8781509508
 20
41.5676468864
 30
0.0
 10
292.8781509508
 20
41.5676468864
 30
0.0
  0
SPLINE
  5
263
330
228
100
AcDbEntity
  8
0
  6
Continuous
 62
     7
100
AcDbSpline
 70
     3
 71
     3
 72
    50
 73
    46
 74
     0
 42
0.000000001
 43
0.0000001
 40
0.0
 40
0.0
 40
0.0
 40
0.0
 40
1.0
 40
1.0
 40
1.0
 40
2.0
 40
2.0
 40
2.0
 40
3.0
 40
3.0
 40
3.0
 40
4.0
 40
4.0
 40
4.0
 40
5.0
 40
5.0
 40
5.0
 40
6.0
 40
6.0
 40
6.0
 40
7.0
 40
7.0
 40
7.0
 40
8.0
 40
8.0
 40
8.0
 40
9.0
 40
9.0
 40
9.0
 40
10.0
 40
10.0
 40
10.0
 40
11.0
 40
11.0
 40
11.0
 40
12.0
 40
12.0
 40
12.0
 40
13.0
 40
13.0
 40
13.0
 40
14.0
 40
14.0
 40
14.0
 40
15.0
 40
15.0
 40
15.0
 40
15.0
 10
296.8317381137
 20
34.7690576683
 30
0.0
 10
296.8317381137
 20
34.7690576683
 30
0.0
 10
298.4409661183
 20
34.7690576683
 30
0.0
 10
298.4409661183
 20
34.7690576683
 30
0.0
 10
298.4409661183
 20
34.7690576683
 30
0.0
 10
296.5679388246
 20
37.0861994397
 30
0.0
 10
296.5679388246
 20
37.0861994397
 30
0.0
 10
296.5679388246
 20
37.0861994397
 30
0.0
 10
297.8442772501
 20
38.5836791343
 30
0.0
 10
297.8442772501
 20
38.5836791343
 30
0.0
 10
297.8442772501
 20
38.5836791343
 30
0.0
 10
297.0120533024
 20
39.4446907028
 30
0.0
 10
297.0120533024
 20
39.4446907028
 30
0.0
 10
297.0120533024
 20
39.4446907028
 30
0.0
 10
295.7914581791
 20
38.0293865804
 30
0.0
 10
295.7914581791
 20
38.0293865804
 30
0.0
 10
295.7914581791
 20
38.0293865804
 30
0.0
 10
293.6135438102
 20
40.6647624148
 30
0.0
 10
293.6135438102
 20
40.6647624148
 30
0.0
 10
294.4871172497
 20
41.3028007747
 30
0.0
 10
295.5137884909
 20
42.0938060835
 30
0.0
 10
295.5137884909
 20
43.2726591566
 30
0.0
 10
295.5137884909
 20
44.6463520817
 30
0.0
 10
294.375892351
 20
45.4508352311
 30
0.0
 10
293.1006007481
 20
45.4508352311
 30
0.0
 10
291.7271695288
 20
45.4508352311
 30
0.0
 10
290.68623533
 20
44.6046100315
 30
0.0
 10
290.68623533
 20
43.1619576693
 30
0.0
 10
290.68623533
 20
42.2743829779
 30
0.0
 10
291.2415747064
 20
41.4975097738
 30
0.0
 10
291.8377401633
 20
40.8730801074
 30
0.0
 10
291.8377401633
 20
40.8730801074
 30
0.0
 10
291.1858314043
 20
40.401486537
 30
0.0
 10
291.1858314043
 20
40.401486537
 30
0.0
 10
290.1872935198
 20
39.6802257823
 30
0.0
 10
289.354415308
 20
38.9589650277
 30
0.0
 10
289.354415308
 20
37.6274067113
 30
0.0
 10
289.354415308
 20
35.8237314133
 30
0.0
 10
290.8114614806
 20
34.5471312822
 30
0.0
 10
292.559000918
 20
34.5471312822
 30
0.0
 10
293.7938589989
 20
34.5471312822
 30
0.0
 10
294.9032292236
 20
35.2553067547
 30
0.0
 10
295.6941036795
 20
36.1838383794
 30
0.0
 10
295.6941036795
 20
36.1838383794
 30
0.0
 10
296.8317381137
 20
34.7690576683
 30
0.0
 10
296.8317381137
 20
34.7690576683
 30
0.0
  0
LINE
  5
264
330
228
100
AcDbEntity
  8
0
  6
Continuous
 62
     7
100
AcDbLine
 10
282.6345994887
 20
32.7429325729
 30
0.0
 11
305.0485102163
 21
32.7429325729
 31
0.0
  0
LINE
  5
265
330
228
100
AcDbEntity
  8
0
  6
Continuous
 62
     7
100
AcDbLine
 10
305.0485102163
 20
32.7429325729
 30
0.0
 11
305.0485102163
 21
55.1568433006
 31
0.0
  0
LINE
  5
266
330
228
100
AcDbEntity
  8
0
  6
Continuous
 62
     7
100
AcDbLine
 10
305.0485102163
 20
55.1568433006
 30
0.0
 11
282.6345994887
 21
55.1568433006
 31
0.0
  0
LINE
  5
267
330
228
100
AcDbEntity
  8
0
  6
Continuous
 62
     7
100
AcDbLine
 10
282.6345994887
 20
55.1568433006
 30
0.0
 11
282.6345994887
 21
32.7429325729
 31
0.0
  0
ENDBLK
  5
268
330
228
100
AcDbEntity
  8
0
  6
ByBlock
 62
     0
100
AcDbBlockEnd
  0
BLOCK
  5
269
330
229
100
AcDbEntity
  8
0
100
AcDbBlockBegin
  2
PROIEZIONE_EU_BL0
 70
     0
 10
295.0154423813
 20
67.6581558006
 30
0.0
  3
PROIEZIONE_EU_BL0
  1

  0
LWPOLYLINE
  5
26A
330
229
100
AcDbEntity
  8
DEFAULT_1
  6
CENTER
 62
     7
100
AcDbPolyline
 90
        2
 70
     0
 43
0.25
 10
301.142063043
 20
72.6578499324
 10
301.1421040254
 20
62.6584616687
  0
LWPOLYLINE
  5
26B
330
229
100
AcDbEntity
  8
DEFAULT_1
  6
CENTER
 62
     7
100
AcDbPolyline
 90
        2
 70
     0
 43
0.25
 10
307.1420928681
 20
67.6584269357
 10
282.8887918946
 20
67.6581562753
  0
LWPOLYLINE
  5
26C
330
229
100
AcDbEntity
  8
0
  6
Continuous
 62
     7
100
AcDbPolyline
 90
        2
 70
     1
 43
0.25
 10
297.5949528672
 20
67.6396080464
 42
1.0
 10
304.7012819658
 20
67.6396080464
 42
1.0
  0
LWPOLYLINE
  5
26D
330
229
100
AcDbEntity
  8
0
  6
Continuous
 62
     7
100
AcDbPolyline
 90
        2
 70
     1
 43
0.25
 10
299.1446966956
 20
67.657506091
 42
1.0
 10
303.1564484456
 20
67.657506091
 42
1.0
  0
LWPOLYLINE
  5
26E
330
229
100
AcDbEntity
  8
0
  6
Continuous
 62
     7
100
AcDbPolyline
 90
        2
 70
     0
 43
0.25
 10
295.1420906621
 20
71.2333592958
 10
295.1420903075
 20
64.1331563875
  0
LWPOLYLINE
  5
26F
330
229
100
AcDbEntity
  8
0
  6
Continuous
 62
     7
100
AcDbPolyline
 90
        2
 70
     0
 43
0.25
 10
295.1421187439
 20
64.1331279511
 10
285.1475614727
 20
65.653221364
  0
LWPOLYLINE
  5
270
330
229
100
AcDbEntity
  8
0
  6
Continuous
 62
     7
100
AcDbPolyline
 90
        2
 70
     0
 43
0.25
 10
285.1452514871
 20
65.6525438224
 10
285.142584583
 20
69.6581824338
  0
LWPOLYLINE
  5
271
330
229
100
AcDbEntity
  8
0
  6
Continuous
 62
     7
100
AcDbPolyline
 90
        2
 70
     0
 43
0.25
 10
285.1425763069
 20
69.6581741578
 10
295.1423195442
 20
71.2333313778
  0
ENDBLK
  5
272
330
229
100
AcDbEntity
  8
0
  6
ByBlock
 62
     0
100
AcDbBlockEnd
  0
ENDSEC
  0
SECTION
  2
ENTITIES
  0
LINE
  5
2A6
330
1B
100
AcDbEntity
 67
     1
  8
0
  6
Continuous
 62
     7
100
AcDbLine
 10
0.0
 20
0.0
 30
0.0
 11
420.0
 21
0.0
 31
0.0
  0
LINE
  5
2A7
330
1B
100
AcDbEntity
 67
     1
  8
0
  6
Continuous
 62
     7
100
AcDbLine
 10
420.0
 20
0.0
 30
0.0
 11
420.0
 21
297.0
 31
0.0
  0
LINE
  5
2A8
330
1B
100
AcDbEntity
 67
     1
  8
0
  6
Continuous
 62
     7
100
AcDbLine
 10
0.0
 20
297.0
 30
0.0
 11
420.0
 21
297.0
 31
0.0
  0
LINE
  5
2A9
330
1B
100
AcDbEntity
 67
     1
  8
0
  6
Continuous
 62
     7
100
AcDbLine
 10
0.0
 20
0.0
 30
0.0
 11
0.0
 21
297.0
 31
0.0
  0
LWPOLYLINE
  5
2AA
330
1B
100
AcDbEntity
 67
     1
  8
0
  6
Continuous
 62
     7
100
AcDbPolyline
 90
        2
 70
     0
 43
0.5
 10
410.0
 20
10.0318435754
 10
410.0
 20
287.0
  0
LWPOLYLINE
  5
2AB
330
1B
100
AcDbEntity
 67
     1
  8
0
  6
Continuous
 62
     7
100
AcDbPolyline
 90
        2
 70
     0
 43
0.5
 10
10.0536312849
 20
10.0318435754
 10
10.0536312849
 20
287.0
  0
LWPOLYLINE
  5
2AC
330
1B
100
AcDbEntity
 67
     1
  8
0
  6
Continuous
 62
     7
100
AcDbPolyline
 90
        2
 70
     0
 43
0.5
 10
10.0536312849
 20
10.0318435754
 10
410.0
 20
10.0318435754
  0
LWPOLYLINE
  5
2AD
330
1B
100
AcDbEntity
 67
     1
  8
0
  6
Continuous
 62
     7
100
AcDbPolyline
 90
        2
 70
     0
 43
0.1
 10
210.0
 20
10.0
 10
210.0
 20
0.0
  0
LWPOLYLINE
  5
2AE
330
1B
100
AcDbEntity
 67
     1
  8
0
  6
Continuous
 62
     7
100
AcDbPolyline
 90
        2
 70
     0
 43
0.1
 10
210.0
 20
287.0
 10
210.0
 20
297.0
  0
LWPOLYLINE
  5
2AF
330
1B
100
AcDbEntity
 67
     1
  8
0
  6
Continuous
 62
     7
100
AcDbPolyline
 90
        2
 70
     0
 43
0.1
 10
410.0
 20
148.5
 10
420.0
 20
148.5
  0
LWPOLYLINE
  5
2B0
330
1B
100
AcDbEntity
 67
     1
  8
0
  6
Continuous
 62
     7
100
AcDbPolyline
 90
        2
 70
     0
 43
0.1
 10
10.0
 20
148.5
 10
0.0
 20
148.5
  0
LWPOLYLINE
  5
2B1
330
1B
100
AcDbEntity
 67
     1
  8
0
  6
Continuous
 62
     7
100
AcDbPolyline
 90
        2
 70
     0
 43
0.5
 10
10.0536312849
 20
287.0
 10
410.0
 20
287.0
  0
LWPOLYLINE
  5
2B2
330
1B
100
AcDbEntity
 67
     1
  8
0
  6
Continuous
 62
     7
100
AcDbPolyline
 90
        2
 70
     0
 43
0.1
 10
0.0
 20
290.0
 10
420.0
 20
290.0
  0
LWPOLYLINE
  5
2B3
330
1B
100
AcDbEntity
 67
     1
  8
0
  6
Continuous
 62
     7
100
AcDbPolyline
 90
        2
 70
     0
 43
0.1
 10
7.0536312849
 20
0.0
 10
7.0536312849
 20
297.0
  0
LWPOLYLINE
  5
2B4
330
1B
100
AcDbEntity
 67
     1
  8
0
  6
Continuous
 62
     7
100
AcDbPolyline
 90
        2
 70
     0
 43
0.1
 10
413.0
 20
0.0
 10
413.0
 20
297.0
  0
LWPOLYLINE
  5
2B5
330
1B
100
AcDbEntity
 67
     1
  8
0
  6
Continuous
 62
     7
100
AcDbPolyline
 90
        2
 70
     0
 43
0.1
 10
0.0
 20
7.0318435754
 10
420.0
 20
7.0318435754
  0
LWPOLYLINE
  5
2B6
330
1B
100
AcDbEntity
 67
     1
  8
0
  6
Continuous
 62
     7
100
AcDbPolyline
 90
        2
 70
     0
 43
0.1
 10
10.0
 20
202.9681564246
 10
0.0
 20
202.9681564246
  0
LINE
  5
2B7
330
1B
100
AcDbEntity
 67
     1
  8
0
  6
Continuous
 62
     7
100
AcDbLine
 10
0.0
 20
99.9681564246
 30
0.0
 11
7.0
 21
99.9681564246
 31
0.0
  0
LINE
  5
2B8
330
1B
100
AcDbEntity
 67
     1
  8
0
  6
Continuous
 62
     7
100
AcDbLine
 10
0.0
 20
199.9681564246
 30
0.0
 11
7.0
 21
199.9681564246
 31
0.0
  0
LWPOLYLINE
  5
2B9
330
1B
100
AcDbEntity
 67
     1
  8
0
  6
Continuous
 62
     7
100
AcDbPolyline
 90
        2
 70
     0
 43
0.1
 10
410.0
 20
210.0
 10
420.0
 20
210.0
  0
LINE
  5
2BA
330
1B
100
AcDbEntity
 67
     1
  8
0
  6
Continuous
 62
     7
100
AcDbLine
 10
413.0
 20
107.0
 30
0.0
 11
420.0
 21
107.0
 31
0.0
  0
LWPOLYLINE
  5
2BB
330
1B
100
AcDbEntity
 67
     1
  8
0
  6
Continuous
 62
     7
100
AcDbPolyline
 90
        2
 70
     0
 43
0.1
 10
123.0
 20
10.0
 10
123.0
 20
0.0
  0
LINE
  5
2BC
330
1B
100
AcDbEntity
 67
     1
  8
0
  6
Continuous
 62
     7
100
AcDbLine
 10
210.0
 20
0.0
 30
0.0
 11
210.0
 21
10.0
 31
0.0
  0
LINE
  5
2BD
330
1B
100
AcDbEntity
 67
     1
  8
0
  6
Continuous
 62
     7
100
AcDbLine
 10
313.0
 20
7.0
 30
0.0
 11
313.0
 21
0.0
 31
0.0
  0
LINE
  5
2BE
330
1B
100
AcDbEntity
 67
     1
  8
0
  6
Continuous
 62
     7
100
AcDbLine
 10
113.0
 20
7.0
 30
0.0
 11
113.0
 21
0.0
 31
0.0
  0
LWPOLYLINE
  5
2BF
330
1B
100
AcDbEntity
 67
     1
  8
0
  6
Continuous
 62
     7
100
AcDbPolyline
 90
        2
 70
     0
 43
0.1
 10
123.0
 20
287.0
 10
123.0
 20
297.0
  0
LINE
  5
2C0
330
1B
100
AcDbEntity
 67
     1
  8
0
  6
Continuous
 62
     7
100
AcDbLine
 10
210.0
 20
287.0
 30
0.0
 11
210.0
 21
297.0
 31
0.0
  0
LINE
  5
2C1
330
1B
100
AcDbEntity
 67
     1
  8
0
  6
Continuous
 62
     7
100
AcDbLine
 10
313.0
 20
297.0
 30
0.0
 11
313.0
 21
290.0
 31
0.0
  0
LINE
  5
2C2
330
1B
100
AcDbEntity
 67
     1
  8
0
  6
Continuous
 62
     7
100
AcDbLine
 10
113.0
 20
297.0
 30
0.0
 11
113.0
 21
290.0
 31
0.0
  0
MTEXT
  5
2C3
330
1B
100
AcDbEntity
 67
     1
  8
0
  6
Continuous
 62
     2
100
AcDbMText
 10
1.6467220993
 20
53.595027386
 30
0.0
 40
4.0
 41
3.4285714286
 46
0.0
 71
     1
 72
     1
  1
1
  7
TEXTSTYLE_2
 73
     1
 44
1.0
  0
MTEXT
  5
2C4
330
1B
100
AcDbEntity
 67
     1
  8
0
  6
Continuous
 62
     2
100
AcDbMText
 10
1.6467220993
 20
153.595027386
 30
0.0
 40
4.0
 41
4.7142857143
 46
0.0
 71
     1
 72
     1
  1
2
  7
TEXTSTYLE_2
 73
     1
 44
1.0
  0
MTEXT
  5
2C5
330
1B
100
AcDbEntity
 67
     1
  8
0
  6
Continuous
 62
     2
100
AcDbMText
 10
1.6467220993
 20
253.595027386
 30
0.0
 40
4.0
 41
4.2857142857
 46
0.0
 71
     1
 72
     1
  1
3
  7
TEXTSTYLE_2
 73
     1
 44
1.0
  0
MTEXT
  5
2C6
330
1B
100
AcDbEntity
 67
     1
  8
0
  6
Continuous
 62
     2
100
AcDbMText
 10
414.6467220993
 20
60.6268709614
 30
0.0
 40
4.0
 41
3.4285714286
 46
0.0
 71
     1
 72
     1
  1
1
  7
TEXTSTYLE_2
 73
     1
 44
1.0
  0
MTEXT
  5
2C7
330
1B
100
AcDbEntity
 67
     1
  8
0
  6
Continuous
 62
     2
100
AcDbMText
 10
414.6467220993
 20
160.6268709614
 30
0.0
 40
4.0
 41
4.7142857143
 46
0.0
 71
     1
 72
     1
  1
2
  7
TEXTSTYLE_2
 73
     1
 44
1.0
  0
MTEXT
  5
2C8
330
1B
100
AcDbEntity
 67
     1
  8
0
  6
Continuous
 62
     2
100
AcDbMText
 10
414.6467220993
 20
260.6268709614
 30
0.0
 40
4.0
 41
4.2857142857
 46
0.0
 71
     1
 72
     1
  1
3
  7
TEXTSTYLE_2
 73
     1
 44
1.0
  0
MTEXT
  5
2C9
330
1B
100
AcDbEntity
 67
     1
  8
0
  6
Continuous
 62
     2
100
AcDbMText
 10
362.154890719
 20
5.35876025
 30
0.0
 40
4.0
 41
3.6
 46
0.0
 71
     1
 72
     1
  1
A
  7
TEXTSTYLE_3
 73
     1
 44
1.0
  0
MTEXT
  5
2CA
330
1B
100
AcDbEntity
 67
     1
  8
0
  6
Continuous
 62
     2
100
AcDbMText
 10
262.154890719
 20
5.35876025
 30
0.0
 40
4.0
 41
3.6
 46
0.0
 71
     1
 72
     1
  1
B
  7
TEXTSTYLE_3
 73
     1
 44
1.0
  0
MTEXT
  5
2CB
330
1B
100
AcDbEntity
 67
     1
  8
0
  6
Continuous
 62
     2
100
AcDbMText
 10
162.154890719
 20
5.35876025
 30
0.0
 40
4.0
 41
3.6
 46
0.0
 71
     1
 72
     1
  1
C
  7
TEXTSTYLE_3
 73
     1
 44
1.0
  0
MTEXT
  5
2CC
330
1B
100
AcDbEntity
 67
     1
  8
0
  6
Continuous
 62
     2
100
AcDbMText
 10
55.7978688212
 20
5.5353441916
 30
0.0
 40
4.0
 41
3.6
 46
0.0
 71
     1
 72
     1
  1
D
  7
TEXTSTYLE_3
 73
     1
 44
1.0
  0
MTEXT
  5
2CD
330
1B
100
AcDbEntity
 67
     1
  8
0
  6
Continuous
 62
     2
100
AcDbMText
 10
362.154890719
 20
295.35876025
 30
0.0
 40
4.0
 41
3.6
 46
0.0
 71
     1
 72
     1
  1
A
  7
TEXTSTYLE_3
 73
     1
 44
1.0
  0
MTEXT
  5
2CE
330
1B
100
AcDbEntity
 67
     1
  8
0
  6
Continuous
 62
     2
100
AcDbMText
 10
262.154890719
 20
295.35876025
 30
0.0
 40
4.0
 41
3.6
 46
0.0
 71
     1
 72
     1
  1
B
  7
TEXTSTYLE_3
 73
     1
 44
1.0
  0
MTEXT
  5
2CF
330
1B
100
AcDbEntity
 67
     1
  8
0
  6
Continuous
 62
     2
100
AcDbMText
 10
162.154890719
 20
295.35876025
 30
0.0
 40
4.0
 41
3.6
 46
0.0
 71
     1
 72
     1
  1
C
  7
TEXTSTYLE_3
 73
     1
 44
1.0
  0
MTEXT
  5
2D0
330
1B
100
AcDbEntity
 67
     1
  8
0
  6
Continuous
 62
     2
100
AcDbMText
 10
53.9878834197
 20
295.579490177
 30
0.0
 40
4.0
 41
3.6
 46
0.0
 71
     1
 72
     1
  1
D
  7
TEXTSTYLE_3
 73
     1
 44
1.0
  0
VIEWPORT
  5
2D1
330
1B
100
AcDbEntity
 67
     1
  8
0
100
AcDbViewport
 10
0.0
 20
0.0
 30
0.0
 40
495.0770428015564
 41
350.0901945525292
 68
     1
 69
     1
 12
234.0175097276264
 22
148.5
 13
0.0
 23
0.0
 14
1.0
 24
1.0
 15
0.0
 25
0.0
 16
0.0
 26
0.0
 36
1.0
 17
0.0
 27
0.0
 37
0.0
 42
50.0
 43
0.0
 44
0.0
 45
350.0901945525292
 50
0.0
 51
0.0
 72
   100
 90
   557216
  1

281
     0
 71
     1
 74
     0
110
0.0
120
0.0
130
0.0
111
1.0
121
0.0
131
0.0
112
0.0
122
1.0
132
0.0
 79
     0
146
0.0
170
     0
 61
     5
348
632
292
     1
282
     1
141
0.0
142
0.0
 63
   256
  0
LINE
  5
2D2
330
1B
100
AcDbEntity
 67
     1
  8
7_ALL_FEATURES
  6
Continuous
 62
     7
100
AcDbLine
 10
86.4850528365
 20
85.3473767553
 30
0.0
 11
86.4850528365
 21
86.9350899956
 31
0.0
  0
LINE
  5
2D3
330
1B
100
AcDbEntity
 67
     1
  8
7_ALL_FEATURES
  6
Continuous
 62
     7
100
AcDbLine
 10
86.4850528365
 20
82.1719502747
 30
0.0
 11
86.4850528365
 21
85.3473767553
 31
0.0
  0
LINE
  5
2D4
330
1B
100
AcDbEntity
 67
     1
  8
7_ALL_FEATURES
  6
Continuous
 62
     7
100
AcDbLine
 10
86.4850528365
 20
80.5842370345
 30
0.0
 11
86.4850528365
 21
82.1719502747
 31
0.0
  0
LINE
  5
2D5
330
1B
100
AcDbEntity
 67
     1
  8
7_ALL_FEATURES
  6
Continuous
 62
     7
100
AcDbLine
 10
89.3089850931
 20
86.9350899956
 30
0.0
 11
86.4850528365
 21
86.9350899956
 31
0.0
  0
LINE
  5
2D6
330
1B
100
AcDbEntity
 67
     1
  8
7_ALL_FEATURES
  6
Continuous
 62
     7
100
AcDbLine
 10
89.7850528365
 20
79.759663515
 30
0.0
 11
89.3089850931
 21
80.5842370345
 31
0.0
  0
LINE
  5
2D7
330
1B
100
AcDbEntity
 67
     1
  8
7_ALL_FEATURES
  6
Continuous
 62
     7
100
AcDbLine
 10
90.4350528365
 20
79.759663515
 30
0.0
 11
89.7850528365
 21
79.759663515
 31
0.0
  0
LINE
  5
2D8
330
1B
100
AcDbEntity
 67
     1
  8
7_ALL_FEATURES
  6
Continuous
 62
     7
100
AcDbLine
 10
89.7850528365
 20
87.759663515
 30
0.0
 11
89.3089850931
 21
86.9350899956
 31
0.0
  0
LINE
  5
2D9
330
1B
100
AcDbEntity
 67
     1
  8
7_ALL_FEATURES
  6
Continuous
 62
     7
100
AcDbLine
 10
89.3089850931
 20
80.5842370345
 30
0.0
 11
86.4850528365
 21
80.5842370345
 31
0.0
  0
LINE
  5
2DA
330
1B
100
AcDbEntity
 67
     1
  8
7_ALL_FEATURES
  6
Continuous
 62
     7
100
AcDbLine
 10
90.4350528365
 20
87.759663515
 30
0.0
 11
89.7850528365
 21
87.759663515
 31
0.0
  0
LINE
  5
2DB
330
1B
100
AcDbEntity
 67
     1
  8
7_ALL_FEATURES
  6
Continuous
 62
     7
100
AcDbLine
 10
89.3089850931
 20
82.1719502747
 30
0.0
 11
86.4850528365
 21
82.1719502747
 31
0.0
  0
LINE
  5
2DC
330
1B
100
AcDbEntity
 67
     1
  8
7_ALL_FEATURES
  6
Continuous
 62
     7
100
AcDbLine
 10
89.3089850931
 20
85.3473767553
 30
0.0
 11
86.4850528365
 21
85.3473767553
 31
0.0
  0
SPLINE
  5
2DD
330
1B
100
AcDbEntity
 67
     1
  8
7_ALL_FEATURES
  6
Continuous
 62
     7
100
AcDbSpline
 70
     0
 71
     3
 72
    15
 73
    11
 74
     0
 42
0.000000001
 43
0.0000001
 40
0.0
 40
0.0
 40
0.0
 40
0.0
 40
0.1308200034
 40
0.2572466744
 40
0.3797969791
 40
0.5
 40
0.6202030209
 40
0.7427533256
 40
0.8691799966
 40
1.0
 40
1.0
 40
1.0
 40
1.0
 10
89.3089850931
 20
86.9350899956
 30
0.0
 10
89.2723470232
 20
86.8716309971
 30
0.0
 10
89.2050626028
 20
86.7439608976
 30
0.0
 10
89.1258096735
 20
86.5460171479
 30
0.0
 10
89.075105524
 20
86.3447540891
 30
0.0
 10
89.0575588949
 20
86.1412333754
 30
0.0
 10
89.075105524
 20
85.9377126618
 30
0.0
 10
89.1258096735
 20
85.736449603
 30
0.0
 10
89.2050626028
 20
85.5385058533
 30
0.0
 10
89.2723470232
 20
85.4108357537
 30
0.0
 10
89.3089850931
 20
85.3473767553
 30
0.0
  0
SPLINE
  5
2DE
330
1B
100
AcDbEntity
 67
     1
  8
7_ALL_FEATURES
  6
Continuous
 62
     7
100
AcDbSpline
 70
     0
 71
     3
 72
    15
 73
    11
 74
     0
 42
0.000000001
 43
0.0000001
 40
0.0
 40
0.0
 40
0.0
 40
0.0
 40
0.1308200034
 40
0.2572466744
 40
0.3797969791
 40
0.5
 40
0.6202030209
 40
0.7427533256
 40
0.8691799966
 40
1.0
 40
1.0
 40
1.0
 40
1.0
 10
89.3089850931
 20
82.1719502747
 30
0.0
 10
89.2723470232
 20
82.1084912763
 30
0.0
 10
89.2050626028
 20
81.9808211768
 30
0.0
 10
89.1258096735
 20
81.7828774271
 30
0.0
 10
89.075105524
 20
81.5816143683
 30
0.0
 10
89.0575588949
 20
81.3780936546
 30
0.0
 10
89.075105524
 20
81.174572941
 30
0.0
 10
89.1258096735
 20
80.9733098822
 30
0.0
 10
89.2050626028
 20
80.7753661324
 30
0.0
 10
89.2723470232
 20
80.6476960329
 30
0.0
 10
89.3089850931
 20
80.5842370345
 30
0.0
  0
SPLINE
  5
2DF
330
1B
100
AcDbEntity
 67
     1
  8
7_ALL_FEATURES
  6
Continuous
 62
     7
100
AcDbSpline
 70
     0
 71
     3
 72
    10
 73
     6
 74
     0
 42
0.000000001
 43
0.0000001
 40
0.0
 40
0.0
 40
0.0
 40
0.0
 40
0.2500490245
 40
0.5000997496
 40
1.0
 40
1.0
 40
1.0
 40
1.0
 10
89.063365
 20
83.759663515
 30
0.0
 10
89.063365
 20
83.8939672236
 30
0.0
 10
89.0748265791
 20
84.162717885
 30
0.0
 10
89.141420096
 20
84.6961300321
 30
0.0
 10
89.234516265
 20
85.0894091679
 30
0.0
 10
89.3089850931
 20
85.3473767553
 30
0.0
  0
LINE
  5
2E0
330
1B
100
AcDbEntity
 67
     1
  8
7_ALL_FEATURES
  6
Continuous
 62
     7
100
AcDbLine
 10
89.7850528365
 20
83.759663515
 30
0.0
 11
89.7850528365
 21
87.759663515
 31
0.0
  0
SPLINE
  5
2E1
330
1B
100
AcDbEntity
 67
     1
  8
7_ALL_FEATURES
  6
Continuous
 62
     7
100
AcDbSpline
 70
     0
 71
     3
 72
    10
 73
     6
 74
     0
 42
0.000000001
 43
0.0000001
 40
0.0
 40
0.0
 40
0.0
 40
0.0
 40
0.4999007773
 40
0.7499513849
 40
1.0
 40
1.0
 40
1.0
 40
1.0
 10
89.3089850931
 20
82.1719502747
 30
0.0
 10
89.2345161868
 20
82.4299181333
 30
0.0
 10
89.1414199612
 20
82.8231974894
 30
0.0
 10
89.0748266087
 20
83.3566096529
 30
0.0
 10
89.063365
 20
83.6253600266
 30
0.0
 10
89.063365
 20
83.759663515
 30
0.0
  0
LINE
  5
2E2
330
1B
100
AcDbEntity
 67
     1
  8
7_ALL_FEATURES
  6
Continuous
 62
     7
100
AcDbLine
 10
89.7850528365
 20
83.759663515
 30
0.0
 11
89.7850528365
 21
79.759663515
 31
0.0
  0
LINE
  5
2E3
330
1B
100
AcDbEntity
 67
     1
  8
7_ALL_FEATURES
  6
Continuous
 62
     7
100
AcDbLine
 10
86.4850528365
 20
125.3473767553
 30
0.0
 11
86.4850528365
 21
126.9350899956
 31
0.0
  0
LINE
  5
2E4
330
1B
100
AcDbEntity
 67
     1
  8
7_ALL_FEATURES
  6
Continuous
 62
     7
100
AcDbLine
 10
86.4850528365
 20
122.1719502747
 30
0.0
 11
86.4850528365
 21
125.3473767553
 31
0.0
  0
LINE
  5
2E5
330
1B
100
AcDbEntity
 67
     1
  8
7_ALL_FEATURES
  6
Continuous
 62
     7
100
AcDbLine
 10
86.4850528365
 20
120.5842370345
 30
0.0
 11
86.4850528365
 21
122.1719502747
 31
0.0
  0
LINE
  5
2E6
330
1B
100
AcDbEntity
 67
     1
  8
7_ALL_FEATURES
  6
Continuous
 62
     7
100
AcDbLine
 10
89.3089850931
 20
126.9350899956
 30
0.0
 11
86.4850528365
 21
126.9350899956
 31
0.0
  0
LINE
  5
2E7
330
1B
100
AcDbEntity
 67
     1
  8
7_ALL_FEATURES
  6
Continuous
 62
     7
100
AcDbLine
 10
89.7850528365
 20
119.759663515
 30
0.0
 11
89.3089850931
 21
120.5842370345
 31
0.0
  0
LINE
  5
2E8
330
1B
100
AcDbEntity
 67
     1
  8
7_ALL_FEATURES
  6
Continuous
 62
     7
100
AcDbLine
 10
90.4350528365
 20
119.759663515
 30
0.0
 11
89.7850528365
 21
119.759663515
 31
0.0
  0
LINE
  5
2E9
330
1B
100
AcDbEntity
 67
     1
  8
7_ALL_FEATURES
  6
Continuous
 62
     7
100
AcDbLine
 10
89.7850528365
 20
127.759663515
 30
0.0
 11
89.3089850931
 21
126.9350899956
 31
0.0
  0
LINE
  5
2EA
330
1B
100
AcDbEntity
 67
     1
  8
7_ALL_FEATURES
  6
Continuous
 62
     7
100
AcDbLine
 10
89.3089850931
 20
120.5842370345
 30
0.0
 11
86.4850528365
 21
120.5842370345
 31
0.0
  0
LINE
  5
2EB
330
1B
100
AcDbEntity
 67
     1
  8
7_ALL_FEATURES
  6
Continuous
 62
     7
100
AcDbLine
 10
90.4350528365
 20
127.759663515
 30
0.0
 11
89.7850528365
 21
127.759663515
 31
0.0
  0
LINE
  5
2EC
330
1B
100
AcDbEntity
 67
     1
  8
7_ALL_FEATURES
  6
Continuous
 62
     7
100
AcDbLine
 10
89.3089850931
 20
122.1719502747
 30
0.0
 11
86.4850528365
 21
122.1719502747
 31
0.0
  0
LINE
  5
2ED
330
1B
100
AcDbEntity
 67
     1
  8
7_ALL_FEATURES
  6
Continuous
 62
     7
100
AcDbLine
 10
89.3089850931
 20
125.3473767553
 30
0.0
 11
86.4850528365
 21
125.3473767553
 31
0.0
  0
SPLINE
  5
2EE
330
1B
100
AcDbEntity
 67
     1
  8
7_ALL_FEATURES
  6
Continuous
 62
     7
100
AcDbSpline
 70
     0
 71
     3
 72
    15
 73
    11
 74
     0
 42
0.000000001
 43
0.0000001
 40
0.0
 40
0.0
 40
0.0
 40
0.0
 40
0.1308200034
 40
0.2572466744
 40
0.3797969791
 40
0.5
 40
0.6202030209
 40
0.7427533256
 40
0.8691799966
 40
1.0
 40
1.0
 40
1.0
 40
1.0
 10
89.3089850931
 20
126.9350899956
 30
0.0
 10
89.2723470232
 20
126.8716309971
 30
0.0
 10
89.2050626028
 20
126.7439608976
 30
0.0
 10
89.1258096735
 20
126.5460171479
 30
0.0
 10
89.075105524
 20
126.3447540891
 30
0.0
 10
89.0575588949
 20
126.1412333754
 30
0.0
 10
89.075105524
 20
125.9377126618
 30
0.0
 10
89.1258096735
 20
125.736449603
 30
0.0
 10
89.2050626028
 20
125.5385058533
 30
0.0
 10
89.2723470232
 20
125.4108357537
 30
0.0
 10
89.3089850931
 20
125.3473767553
 30
0.0
  0
SPLINE
  5
2EF
330
1B
100
AcDbEntity
 67
     1
  8
7_ALL_FEATURES
  6
Continuous
 62
     7
100
AcDbSpline
 70
     0
 71
     3
 72
    15
 73
    11
 74
     0
 42
0.000000001
 43
0.0000001
 40
0.0
 40
0.0
 40
0.0
 40
0.0
 40
0.1308200034
 40
0.2572466744
 40
0.3797969791
 40
0.5
 40
0.6202030209
 40
0.7427533256
 40
0.8691799966
 40
1.0
 40
1.0
 40
1.0
 40
1.0
 10
89.3089850931
 20
122.1719502747
 30
0.0
 10
89.2723470232
 20
122.1084912763
 30
0.0
 10
89.2050626028
 20
121.9808211768
 30
0.0
 10
89.1258096735
 20
121.7828774271
 30
0.0
 10
89.075105524
 20
121.5816143683
 30
0.0
 10
89.0575588949
 20
121.3780936546
 30
0.0
 10
89.075105524
 20
121.174572941
 30
0.0
 10
89.1258096735
 20
120.9733098822
 30
0.0
 10
89.2050626028
 20
120.7753661324
 30
0.0
 10
89.2723470232
 20
120.6476960329
 30
0.0
 10
89.3089850931
 20
120.5842370345
 30
0.0
  0
SPLINE
  5
2F0
330
1B
100
AcDbEntity
 67
     1
  8
7_ALL_FEATURES
  6
Continuous
 62
     7
100
AcDbSpline
 70
     0
 71
     3
 72
    10
 73
     6
 74
     0
 42
0.000000001
 43
0.0000001
 40
0.0
 40
0.0
 40
0.0
 40
0.0
 40
0.2500490245
 40
0.5000997496
 40
1.0
 40
1.0
 40
1.0
 40
1.0
 10
89.063365
 20
123.759663515
 30
0.0
 10
89.063365
 20
123.8939672236
 30
0.0
 10
89.0748265791
 20
124.162717885
 30
0.0
 10
89.141420096
 20
124.6961300321
 30
0.0
 10
89.234516265
 20
125.0894091679
 30
0.0
 10
89.3089850931
 20
125.3473767553
 30
0.0
  0
LINE
  5
2F1
330
1B
100
AcDbEntity
 67
     1
  8
7_ALL_FEATURES
  6
Continuous
 62
     7
100
AcDbLine
 10
89.7850528365
 20
123.759663515
 30
0.0
 11
89.7850528365
 21
127.759663515
 31
0.0
  0
SPLINE
  5
2F2
330
1B
100
AcDbEntity
 67
     1
  8
7_ALL_FEATURES
  6
Continuous
 62
     7
100
AcDbSpline
 70
     0
 71
     3
 72
    10
 73
     6
 74
     0
 42
0.000000001
 43
0.0000001
 40
0.0
 40
0.0
 40
0.0
 40
0.0
 40
0.4999007773
 40
0.7499513849
 40
1.0
 40
1.0
 40
1.0
 40
1.0
 10
89.3089850931
 20
122.1719502747
 30
0.0
 10
89.2345161868
 20
122.4299181333
 30
0.0
 10
89.1414199612
 20
122.8231974894
 30
0.0
 10
89.0748266087
 20
123.3566096529
 30
0.0
 10
89.063365
 20
123.6253600266
 30
0.0
 10
89.063365
 20
123.759663515
 30
0.0
  0
LINE
  5
2F3
330
1B
100
AcDbEntity
 67
     1
  8
7_ALL_FEATURES
  6
Continuous
 62
     7
100
AcDbLine
 10
89.7850528365
 20
123.759663515
 30
0.0
 11
89.7850528365
 21
119.759663515
 31
0.0
  0
LINE
  5
2F4
330
1B
100
AcDbEntity
 67
     1
  8
7_ALL_FEATURES
  6
Continuous
 62
     7
100
AcDbLine
 10
165.9850528365
 20
82.1719502747
 30
0.0
 11
165.9850528365
 21
80.5842370345
 31
0.0
  0
LINE
  5
2F5
330
1B
100
AcDbEntity
 67
     1
  8
7_ALL_FEATURES
  6
Continuous
 62
     7
100
AcDbLine
 10
165.9850528365
 20
85.3473767553
 30
0.0
 11
165.9850528365
 21
82.1719502747
 31
0.0
  0
LINE
  5
2F6
330
1B
100
AcDbEntity
 67
     1
  8
7_ALL_FEATURES
  6
Continuous
 62
     7
100
AcDbLine
 10
165.9850528365
 20
86.9350899956
 30
0.0
 11
165.9850528365
 21
85.3473767553
 31
0.0
  0
LINE
  5
2F7
330
1B
100
AcDbEntity
 67
     1
  8
7_ALL_FEATURES
  6
Continuous
 62
     7
100
AcDbLine
 10
163.1611205799
 20
86.9350899956
 30
0.0
 11
165.9850528365
 21
86.9350899956
 31
0.0
  0
LINE
  5
2F8
330
1B
100
AcDbEntity
 67
     1
  8
7_ALL_FEATURES
  6
Continuous
 62
     7
100
AcDbLine
 10
163.1611205799
 20
80.5842370345
 30
0.0
 11
165.9850528365
 21
80.5842370345
 31
0.0
  0
LINE
  5
2F9
330
1B
100
AcDbEntity
 67
     1
  8
7_ALL_FEATURES
  6
Continuous
 62
     7
100
AcDbLine
 10
162.6850528365
 20
79.759663515
 30
0.0
 11
163.1611205799
 21
80.5842370345
 31
0.0
  0
LINE
  5
2FA
330
1B
100
AcDbEntity
 67
     1
  8
7_ALL_FEATURES
  6
Continuous
 62
     7
100
AcDbLine
 10
162.0350528365
 20
79.759663515
 30
0.0
 11
162.6850528365
 21
79.759663515
 31
0.0
  0
LINE
  5
2FB
330
1B
100
AcDbEntity
 67
     1
  8
7_ALL_FEATURES
  6
Continuous
 62
     7
100
AcDbLine
 10
162.6850528365
 20
87.759663515
 30
0.0
 11
163.1611205799
 21
86.9350899956
 31
0.0
  0
LINE
  5
2FC
330
1B
100
AcDbEntity
 67
     1
  8
7_ALL_FEATURES
  6
Continuous
 62
     7
100
AcDbLine
 10
162.0350528365
 20
87.759663515
 30
0.0
 11
162.6850528365
 21
87.759663515
 31
0.0
  0
SPLINE
  5
2FD
330
1B
100
AcDbEntity
 67
     1
  8
7_ALL_FEATURES
  6
Continuous
 62
     7
100
AcDbSpline
 70
     0
 71
     3
 72
    15
 73
    11
 74
     0
 42
0.000000001
 43
0.0000001
 40
0.0
 40
0.0
 40
0.0
 40
0.0
 40
0.1308200034
 40
0.2572466744
 40
0.3797969791
 40
0.5
 40
0.6202030209
 40
0.7427533256
 40
0.8691799966
 40
1.0
 40
1.0
 40
1.0
 40
1.0
 10
163.1611205799
 20
85.3473767553
 30
0.0
 10
163.1977586497
 20
85.4108357537
 30
0.0
 10
163.2650430701
 20
85.5385058532
 30
0.0
 10
163.3442959994
 20
85.736449603
 30
0.0
 10
163.395000149
 20
85.9377126617
 30
0.0
 10
163.4125467781
 20
86.1412333754
 30
0.0
 10
163.395000149
 20
86.3447540891
 30
0.0
 10
163.3442959995
 20
86.5460171478
 30
0.0
 10
163.2650430701
 20
86.7439608976
 30
0.0
 10
163.1977586497
 20
86.8716309971
 30
0.0
 10
163.1611205799
 20
86.9350899956
 30
0.0
  0
LINE
  5
2FE
330
1B
100
AcDbEntity
 67
     1
  8
7_ALL_FEATURES
  6
Continuous
 62
     7
100
AcDbLine
 10
163.1611205799
 20
85.3473767553
 30
0.0
 11
165.9850528365
 21
85.3473767553
 31
0.0
  0
SPLINE
  5
2FF
330
1B
100
AcDbEntity
 67
     1
  8
7_ALL_FEATURES
  6
Continuous
 62
     7
100
AcDbSpline
 70
     0
 71
     3
 72
    10
 73
     6
 74
     0
 42
0.000000001
 43
0.0000001
 40
0.0
 40
0.0
 40
0.0
 40
0.0
 40
0.2500490245
 40
0.5000997496
 40
1.0
 40
1.0
 40
1.0
 40
1.0
 10
163.406740673
 20
83.7596635151
 30
0.0
 10
163.406740673
 20
83.6253598064
 30
0.0
 10
163.3952790938
 20
83.356609145
 30
0.0
 10
163.3286855769
 20
82.823196998
 30
0.0
 10
163.2355894079
 20
82.4299178621
 30
0.0
 10
163.1611205799
 20
82.1719502747
 30
0.0
  0
SPLINE
  5
300
330
1B
100
AcDbEntity
 67
     1
  8
7_ALL_FEATURES
  6
Continuous
 62
     7
100
AcDbSpline
 70
     0
 71
     3
 72
    10
 73
     6
 74
     0
 42
0.000000001
 43
0.0000001
 40
0.0
 40
0.0
 40
0.0
 40
0.0
 40
0.4999007773
 40
0.7499513849
 40
1.0
 40
1.0
 40
1.0
 40
1.0
 10
163.1611205799
 20
85.3473767553
 30
0.0
 10
163.2355894862
 20
85.0894088967
 30
0.0
 10
163.3286857117
 20
84.6961295406
 30
0.0
 10
163.3952790643
 20
84.1627173771
 30
0.0
 10
163.406740673
 20
83.8939670034
 30
0.0
 10
163.406740673
 20
83.7596635151
 30
0.0
  0
LINE
  5
301
330
1B
100
AcDbEntity
 67
     1
  8
7_ALL_FEATURES
  6
Continuous
 62
     7
100
AcDbLine
 10
162.6850528365
 20
87.759663515
 30
0.0
 11
162.6850528365
 21
83.759663515
 31
0.0
  0
LINE
  5
302
330
1B
100
AcDbEntity
 67
     1
  8
7_ALL_FEATURES
  6
Continuous
 62
     7
100
AcDbLine
 10
163.1611205799
 20
82.1719502747
 30
0.0
 11
165.9850528365
 21
82.1719502747
 31
0.0
  0
SPLINE
  5
303
330
1B
100
AcDbEntity
 67
     1
  8
7_ALL_FEATURES
  6
Continuous
 62
     7
100
AcDbSpline
 70
     0
 71
     3
 72
    15
 73
    11
 74
     0
 42
0.000000001
 43
0.0000001
 40
0.0
 40
0.0
 40
0.0
 40
0.0
 40
0.1308200034
 40
0.2572466744
 40
0.3797969791
 40
0.5
 40
0.6202030209
 40
0.7427533256
 40
0.8691799966
 40
1.0
 40
1.0
 40
1.0
 40
1.0
 10
163.1611205799
 20
80.5842370345
 30
0.0
 10
163.1977586497
 20
80.6476960329
 30
0.0
 10
163.2650430701
 20
80.7753661324
 30
0.0
 10
163.3442959994
 20
80.9733098822
 30
0.0
 10
163.395000149
 20
81.1745729409
 30
0.0
 10
163.4125467781
 20
81.3780936546
 30
0.0
 10
163.395000149
 20
81.5816143683
 30
0.0
 10
163.3442959995
 20
81.782877427
 30
0.0
 10
163.2650430701
 20
81.9808211768
 30
0.0
 10
163.1977586497
 20
82.1084912763
 30
0.0
 10
163.1611205799
 20
82.1719502747
 30
0.0
  0
LINE
  5
304
330
1B
100
AcDbEntity
 67
     1
  8
7_ALL_FEATURES
  6
Continuous
 62
     7
100
AcDbLine
 10
162.6850528365
 20
79.759663515
 30
0.0
 11
162.6850528365
 21
83.759663515
 31
0.0
  0
LINE
  5
305
330
1B
100
AcDbEntity
 67
     1
  8
7_ALL_FEATURES
  6
Continuous
 62
     7
100
AcDbLine
 10
165.9850528365
 20
122.1719502747
 30
0.0
 11
165.9850528365
 21
120.5842370345
 31
0.0
  0
LINE
  5
306
330
1B
100
AcDbEntity
 67
     1
  8
7_ALL_FEATURES
  6
Continuous
 62
     7
100
AcDbLine
 10
165.9850528365
 20
125.3473767553
 30
0.0
 11
165.9850528365
 21
122.1719502747
 31
0.0
  0
LINE
  5
307
330
1B
100
AcDbEntity
 67
     1
  8
7_ALL_FEATURES
  6
Continuous
 62
     7
100
AcDbLine
 10
165.9850528365
 20
126.9350899956
 30
0.0
 11
165.9850528365
 21
125.3473767553
 31
0.0
  0
LINE
  5
308
330
1B
100
AcDbEntity
 67
     1
  8
7_ALL_FEATURES
  6
Continuous
 62
     7
100
AcDbLine
 10
163.1611205799
 20
126.9350899956
 30
0.0
 11
165.9850528365
 21
126.9350899956
 31
0.0
  0
LINE
  5
309
330
1B
100
AcDbEntity
 67
     1
  8
7_ALL_FEATURES
  6
Continuous
 62
     7
100
AcDbLine
 10
163.1611205799
 20
120.5842370345
 30
0.0
 11
165.9850528365
 21
120.5842370345
 31
0.0
  0
LINE
  5
30A
330
1B
100
AcDbEntity
 67
     1
  8
7_ALL_FEATURES
  6
Continuous
 62
     7
100
AcDbLine
 10
162.6850528365
 20
119.759663515
 30
0.0
 11
163.1611205799
 21
120.5842370345
 31
0.0
  0
LINE
  5
30B
330
1B
100
AcDbEntity
 67
     1
  8
7_ALL_FEATURES
  6
Continuous
 62
     7
100
AcDbLine
 10
162.0350528365
 20
119.759663515
 30
0.0
 11
162.6850528365
 21
119.759663515
 31
0.0
  0
LINE
  5
30C
330
1B
100
AcDbEntity
 67
     1
  8
7_ALL_FEATURES
  6
Continuous
 62
     7
100
AcDbLine
 10
162.6850528365
 20
127.759663515
 30
0.0
 11
163.1611205799
 21
126.9350899956
 31
0.0
  0
LINE
  5
30D
330
1B
100
AcDbEntity
 67
     1
  8
7_ALL_FEATURES
  6
Continuous
 62
     7
100
AcDbLine
 10
162.0350528365
 20
127.759663515
 30
0.0
 11
162.6850528365
 21
127.759663515
 31
0.0
  0
SPLINE
  5
30E
330
1B
100
AcDbEntity
 67
     1
  8
7_ALL_FEATURES
  6
Continuous
 62
     7
100
AcDbSpline
 70
     0
 71
     3
 72
    15
 73
    11
 74
     0
 42
0.000000001
 43
0.0000001
 40
0.0
 40
0.0
 40
0.0
 40
0.0
 40
0.1308200034
 40
0.2572466744
 40
0.3797969791
 40
0.5
 40
0.6202030209
 40
0.7427533256
 40
0.8691799966
 40
1.0
 40
1.0
 40
1.0
 40
1.0
 10
163.1611205799
 20
125.3473767553
 30
0.0
 10
163.1977586497
 20
125.4108357537
 30
0.0
 10
163.2650430701
 20
125.5385058532
 30
0.0
 10
163.3442959994
 20
125.736449603
 30
0.0
 10
163.395000149
 20
125.9377126617
 30
0.0
 10
163.4125467781
 20
126.1412333754
 30
0.0
 10
163.395000149
 20
126.3447540891
 30
0.0
 10
163.3442959995
 20
126.5460171478
 30
0.0
 10
163.2650430701
 20
126.7439608976
 30
0.0
 10
163.1977586497
 20
126.8716309971
 30
0.0
 10
163.1611205799
 20
126.9350899956
 30
0.0
  0
LINE
  5
30F
330
1B
100
AcDbEntity
 67
     1
  8
7_ALL_FEATURES
  6
Continuous
 62
     7
100
AcDbLine
 10
163.1611205799
 20
125.3473767553
 30
0.0
 11
165.9850528365
 21
125.3473767553
 31
0.0
  0
SPLINE
  5
310
330
1B
100
AcDbEntity
 67
     1
  8
7_ALL_FEATURES
  6
Continuous
 62
     7
100
AcDbSpline
 70
     0
 71
     3
 72
    10
 73
     6
 74
     0
 42
0.000000001
 43
0.0000001
 40
0.0
 40
0.0
 40
0.0
 40
0.0
 40
0.2500490245
 40
0.5000997496
 40
1.0
 40
1.0
 40
1.0
 40
1.0
 10
163.406740673
 20
123.7596635151
 30
0.0
 10
163.406740673
 20
123.6253598064
 30
0.0
 10
163.3952790938
 20
123.356609145
 30
0.0
 10
163.3286855769
 20
122.823196998
 30
0.0
 10
163.2355894079
 20
122.4299178621
 30
0.0
 10
163.1611205799
 20
122.1719502747
 30
0.0
  0
SPLINE
  5
311
330
1B
100
AcDbEntity
 67
     1
  8
7_ALL_FEATURES
  6
Continuous
 62
     7
100
AcDbSpline
 70
     0
 71
     3
 72
    10
 73
     6
 74
     0
 42
0.000000001
 43
0.0000001
 40
0.0
 40
0.0
 40
0.0
 40
0.0
 40
0.4999007773
 40
0.7499513849
 40
1.0
 40
1.0
 40
1.0
 40
1.0
 10
163.1611205799
 20
125.3473767553
 30
0.0
 10
163.2355894862
 20
125.0894088967
 30
0.0
 10
163.3286857117
 20
124.6961295406
 30
0.0
 10
163.3952790643
 20
124.1627173771
 30
0.0
 10
163.406740673
 20
123.8939670034
 30
0.0
 10
163.406740673
 20
123.7596635151
 30
0.0
  0
LINE
  5
312
330
1B
100
AcDbEntity
 67
     1
  8
7_ALL_FEATURES
  6
Continuous
 62
     7
100
AcDbLine
 10
162.6850528365
 20
127.759663515
 30
0.0
 11
162.6850528365
 21
123.759663515
 31
0.0
  0
LINE
  5
313
330
1B
100
AcDbEntity
 67
     1
  8
7_ALL_FEATURES
  6
Continuous
 62
     7
100
AcDbLine
 10
163.1611205799
 20
122.1719502747
 30
0.0
 11
165.9850528365
 21
122.1719502747
 31
0.0
  0
SPLINE
  5
314
330
1B
100
AcDbEntity
 67
     1
  8
7_ALL_FEATURES
  6
Continuous
 62
     7
100
AcDbSpline
 70
     0
 71
     3
 72
    15
 73
    11
 74
     0
 42
0.000000001
 43
0.0000001
 40
0.0
 40
0.0
 40
0.0
 40
0.0
 40
0.1308200034
 40
0.2572466744
 40
0.3797969791
 40
0.5
 40
0.6202030209
 40
0.7427533256
 40
0.8691799966
 40
1.0
 40
1.0
 40
1.0
 40
1.0
 10
163.1611205799
 20
120.5842370345
 30
0.0
 10
163.1977586497
 20
120.6476960329
 30
0.0
 10
163.2650430701
 20
120.7753661324
 30
0.0
 10
163.3442959994
 20
120.9733098822
 30
0.0
 10
163.395000149
 20
121.1745729409
 30
0.0
 10
163.4125467781
 20
121.3780936546
 30
0.0
 10
163.395000149
 20
121.5816143683
 30
0.0
 10
163.3442959995
 20
121.782877427
 30
0.0
 10
163.2650430701
 20
121.9808211768
 30
0.0
 10
163.1977586497
 20
122.1084912763
 30
0.0
 10
163.1611205799
 20
122.1719502747
 30
0.0
  0
LINE
  5
315
330
1B
100
AcDbEntity
 67
     1
  8
7_ALL_FEATURES
  6
Continuous
 62
     7
100
AcDbLine
 10
162.6850528365
 20
119.759663515
 30
0.0
 11
162.6850528365
 21
123.759663515
 31
0.0
  0
LINE
  5
316
330
1B
100
AcDbEntity
 67
     1
  8
7_ALL_FEATURES
  6
Continuous
 62
     7
100
AcDbLine
 10
154.0176692464
 20
115.109663515
 30
0.0
 11
154.0176692464
 21
92.409663515
 31
0.0
  0
LINE
  5
317
330
1B
100
AcDbEntity
 67
     1
  8
7_ALL_FEATURES
  6
Continuous
 62
     7
100
AcDbLine
 10
159.7350528365
 20
117.509663515
 30
0.0
 11
159.7350528365
 21
115.109663515
 31
0.0
  0
LINE
  5
318
330
1B
100
AcDbEntity
 67
     1
  8
7_ALL_FEATURES
  6
Continuous
 62
     7
100
AcDbLine
 10
159.7350528365
 20
92.409663515
 30
0.0
 11
159.7350528365
 21
90.009663515
 31
0.0
  0
LINE
  5
319
330
1B
100
AcDbEntity
 67
     1
  8
7_ALL_FEATURES
  6
Continuous
 62
     7
100
AcDbLine
 10
154.2745244209
 20
92.409663515
 30
0.0
 11
154.8918975948
 21
92.409663515
 31
0.0
  0
LINE
  5
31A
330
1B
100
AcDbEntity
 67
     1
  8
7_ALL_FEATURES
  6
Continuous
 62
     7
100
AcDbLine
 10
154.8918975948
 20
115.109663515
 30
0.0
 11
154.2745244209
 21
115.109663515
 31
0.0
  0
LINE
  5
31B
330
1B
100
AcDbEntity
 67
     1
  8
7_ALL_FEATURES
  6
Continuous
 62
     7
100
AcDbLine
 10
154.2745244209
 20
92.409663515
 30
0.0
 11
154.0177143638
 21
92.409663515
 31
0.0
  0
LINE
  5
31C
330
1B
100
AcDbEntity
 67
     1
  8
7_ALL_FEATURES
  6
Continuous
 62
     7
100
AcDbLine
 10
154.2745244209
 20
115.109663515
 30
0.0
 11
154.0177377358
 21
115.109663515
 31
0.0
  0
LINE
  5
31D
330
1B
100
AcDbEntity
 67
     1
  8
7_ALL_FEATURES
  6
Continuous
 62
     7
100
AcDbLine
 10
155.2634700075
 20
92.409663515
 30
0.0
 11
154.8918975948
 21
92.409663515
 31
0.0
  0
LINE
  5
31E
330
1B
100
AcDbEntity
 67
     1
  8
7_ALL_FEATURES
  6
Continuous
 62
     7
100
AcDbLine
 10
155.2634700075
 20
115.109663515
 30
0.0
 11
154.8918975948
 21
115.109663515
 31
0.0
  0
LINE
  5
31F
330
1B
100
AcDbEntity
 67
     1
  8
7_ALL_FEATURES
  6
Continuous
 62
     7
100
AcDbLine
 10
156.1595168098
 20
114.1624499195
 30
0.0
 11
154.8918975948
 21
115.109663515
 31
0.0
  0
SPLINE
  5
320
330
1B
100
AcDbEntity
 67
     1
  8
7_ALL_FEATURES
  6
Continuous
 62
     7
100
AcDbSpline
 70
     0
 71
     3
 72
    11
 73
     7
 74
     0
 42
0.000000001
 43
0.0000001
 40
0.0
 40
0.0
 40
0.0
 40
0.0
 40
0.2751214549
 40
0.4747413148
 40
0.6639742247
 40
1.0
 40
1.0
 40
1.0
 40
1.0
 10
156.8992894138
 20
112.3735955375
 30
0.0
 10
156.8992894138
 20
112.5565739311
 30
0.0
 10
156.8705251668
 20
112.8732048496
 30
0.0
 10
156.7569959773
 20
113.3018907582
 30
0.0
 10
156.5631486518
 20
113.7437559774
 30
0.0
 10
156.3385416705
 20
114.0286756914
 30
0.0
 10
156.1595168098
 20
114.1624499195
 30
0.0
  0
LINE
  5
321
330
1B
100
AcDbEntity
 67
     1
  8
7_ALL_FEATURES
  6
Continuous
 62
     7
100
AcDbLine
 10
156.8992894138
 20
95.1457314925
 30
0.0
 11
156.8992894138
 21
112.3735955375
 31
0.0
  0
LINE
  5
322
330
1B
100
AcDbEntity
 67
     1
  8
7_ALL_FEATURES
  6
Continuous
 62
     9
100
AcDbLine
 10
154.2745244209
 20
115.109663515
 30
0.0
 11
154.2745244209
 21
92.409663515
 31
0.0
  0
LINE
  5
323
330
1B
100
AcDbEntity
 67
     1
  8
7_ALL_FEATURES
  6
Continuous
 62
     9
100
AcDbLine
 10
156.5310892225
 20
114.1624499195
 30
0.0
 11
156.1595168098
 21
114.1624499195
 31
0.0
  0
SPLINE
  5
324
330
1B
100
AcDbEntity
 67
     1
  8
7_ALL_FEATURES
  6
Continuous
 62
     7
100
AcDbSpline
 70
     0
 71
     3
 72
    11
 73
     7
 74
     0
 42
0.000000001
 43
0.0000001
 40
0.0
 40
0.0
 40
0.0
 40
0.0
 40
0.2184882754
 40
0.3989919374
 40
0.5919494216
 40
1.0
 40
1.0
 40
1.0
 40
1.0
 10
156.1595168098
 20
93.3568771105
 30
0.0
 10
156.2759968229
 20
93.4439154346
 30
0.0
 10
156.4614543179
 20
93.6406332059
 30
0.0
 10
156.6610985843
 20
93.9821577428
 30
0.0
 10
156.845352355
 20
94.4705355064
 30
0.0
 10
156.8992894138
 20
94.8741676967
 30
0.0
 10
156.8992894138
 20
95.1457314925
 30
0.0
  0
LINE
  5
325
330
1B
100
AcDbEntity
 67
     1
  8
7_ALL_FEATURES
  6
Continuous
 62
     7
100
AcDbLine
 10
154.8918975948
 20
92.409663515
 30
0.0
 11
156.1595168098
 21
93.3568771105
 31
0.0
  0
LINE
  5
326
330
1B
100
AcDbEntity
 67
     1
  8
7_ALL_FEATURES
  6
Continuous
 62
     9
100
AcDbLine
 10
156.8992894138
 20
95.1457314925
 30
0.0
 11
157.2708618266
 21
95.1457314925
 31
0.0
  0
LINE
  5
327
330
1B
100
AcDbEntity
 67
     1
  8
7_ALL_FEATURES
  6
Continuous
 62
     9
100
AcDbLine
 10
157.2708618266
 20
112.3735955375
 30
0.0
 11
156.8992894138
 21
112.3735955375
 31
0.0
  0
LINE
  5
328
330
1B
100
AcDbEntity
 67
     1
  8
7_ALL_FEATURES
  6
Continuous
 62
     9
100
AcDbLine
 10
156.1595168098
 20
93.3568771105
 30
0.0
 11
156.5310892225
 21
93.3568771105
 31
0.0
  0
LINE
  5
329
330
1B
100
AcDbEntity
 67
     1
  8
7_ALL_FEATURES
  6
Continuous
 62
     7
100
AcDbLine
 10
98.4524364266
 20
92.409663515
 30
0.0
 11
98.4524364266
 21
115.109663515
 31
0.0
  0
LINE
  5
32A
330
1B
100
AcDbEntity
 67
     1
  8
7_ALL_FEATURES
  6
Continuous
 62
     7
100
AcDbLine
 10
92.7350528365
 20
90.009663515
 30
0.0
 11
92.7350528365
 21
92.409663515
 31
0.0
  0
LINE
  5
32B
330
1B
100
AcDbEntity
 67
     1
  8
7_ALL_FEATURES
  6
Continuous
 62
     7
100
AcDbLine
 10
92.7350528365
 20
115.109663515
 30
0.0
 11
92.7350528365
 21
117.509663515
 31
0.0
  0
LINE
  5
32C
330
1B
100
AcDbEntity
 67
     1
  8
7_ALL_FEATURES
  6
Continuous
 62
     7
100
AcDbLine
 10
98.1955812521
 20
115.109663515
 30
0.0
 11
97.5782080782
 21
115.109663515
 31
0.0
  0
LINE
  5
32D
330
1B
100
AcDbEntity
 67
     1
  8
7_ALL_FEATURES
  6
Continuous
 62
     7
100
AcDbLine
 10
97.5782080782
 20
92.409663515
 30
0.0
 11
98.1955812521
 21
92.409663515
 31
0.0
  0
LINE
  5
32E
330
1B
100
AcDbEntity
 67
     1
  8
7_ALL_FEATURES
  6
Continuous
 62
     7
100
AcDbLine
 10
98.1955812521
 20
115.109663515
 30
0.0
 11
98.4523913092
 21
115.109663515
 31
0.0
  0
LINE
  5
32F
330
1B
100
AcDbEntity
 67
     1
  8
7_ALL_FEATURES
  6
Continuous
 62
     7
100
AcDbLine
 10
98.1955812521
 20
92.409663515
 30
0.0
 11
98.4523679371
 21
92.409663515
 31
0.0
  0
LINE
  5
330
330
1B
100
AcDbEntity
 67
     1
  8
7_ALL_FEATURES
  6
Continuous
 62
     7
100
AcDbLine
 10
97.2066356655
 20
115.109663515
 30
0.0
 11
97.5782080782
 21
115.109663515
 31
0.0
  0
LINE
  5
331
330
1B
100
AcDbEntity
 67
     1
  8
7_ALL_FEATURES
  6
Continuous
 62
     7
100
AcDbLine
 10
97.2066356655
 20
92.409663515
 30
0.0
 11
97.5782080782
 21
92.409663515
 31
0.0
  0
LINE
  5
332
330
1B
100
AcDbEntity
 67
     1
  8
7_ALL_FEATURES
  6
Continuous
 62
     7
100
AcDbLine
 10
96.3105888632
 20
93.3568771105
 30
0.0
 11
97.5782080782
 21
92.409663515
 31
0.0
  0
SPLINE
  5
333
330
1B
100
AcDbEntity
 67
     1
  8
7_ALL_FEATURES
  6
Continuous
 62
     7
100
AcDbSpline
 70
     0
 71
     3
 72
    11
 73
     7
 74
     0
 42
0.000000001
 43
0.0000001
 40
0.0
 40
0.0
 40
0.0
 40
0.0
 40
0.2751214549
 40
0.4747413148
 40
0.6639742247
 40
1.0
 40
1.0
 40
1.0
 40
1.0
 10
95.5708162591
 20
95.1457314925
 30
0.0
 10
95.5708162591
 20
94.9627530989
 30
0.0
 10
95.5995805062
 20
94.6461221805
 30
0.0
 10
95.7131096957
 20
94.2174362718
 30
0.0
 10
95.9069570212
 20
93.7755710526
 30
0.0
 10
96.1315640025
 20
93.4906513386
 30
0.0
 10
96.3105888632
 20
93.3568771105
 30
0.0
  0
LINE
  5
334
330
1B
100
AcDbEntity
 67
     1
  8
7_ALL_FEATURES
  6
Continuous
 62
     7
100
AcDbLine
 10
95.5708162591
 20
112.3735955375
 30
0.0
 11
95.5708162591
 21
95.1457314925
 31
0.0
  0
LINE
  5
335
330
1B
100
AcDbEntity
 67
     1
  8
7_ALL_FEATURES
  6
Continuous
 62
     9
100
AcDbLine
 10
98.1955812521
 20
92.409663515
 30
0.0
 11
98.1955812521
 21
115.109663515
 31
0.0
  0
LINE
  5
336
330
1B
100
AcDbEntity
 67
     1
  8
7_ALL_FEATURES
  6
Continuous
 62
     9
100
AcDbLine
 10
95.9390164505
 20
93.3568771105
 30
0.0
 11
96.3105888632
 21
93.3568771105
 31
0.0
  0
SPLINE
  5
337
330
1B
100
AcDbEntity
 67
     1
  8
7_ALL_FEATURES
  6
Continuous
 62
     7
100
AcDbSpline
 70
     0
 71
     3
 72
    11
 73
     7
 74
     0
 42
0.000000001
 43
0.0000001
 40
0.0
 40
0.0
 40
0.0
 40
0.0
 40
0.2184882754
 40
0.3989919374
 40
0.5919494216
 40
1.0
 40
1.0
 40
1.0
 40
1.0
 10
96.3105888632
 20
114.1624499195
 30
0.0
 10
96.1941088501
 20
114.0754115954
 30
0.0
 10
96.0086513551
 20
113.8786938242
 30
0.0
 10
95.8090070887
 20
113.5371692872
 30
0.0
 10
95.624753318
 20
113.0487915236
 30
0.0
 10
95.5708162591
 20
112.6451593333
 30
0.0
 10
95.5708162591
 20
112.3735955375
 30
0.0
  0
LINE
  5
338
330
1B
100
AcDbEntity
 67
     1
  8
7_ALL_FEATURES
  6
Continuous
 62
     7
100
AcDbLine
 10
97.5782080782
 20
115.109663515
 30
0.0
 11
96.3105888632
 21
114.1624499195
 31
0.0
  0
LINE
  5
339
330
1B
100
AcDbEntity
 67
     1
  8
7_ALL_FEATURES
  6
Continuous
 62
     9
100
AcDbLine
 10
95.5708162591
 20
112.3735955375
 30
0.0
 11
95.1992438464
 21
112.3735955375
 31
0.0
  0
LINE
  5
33A
330
1B
100
AcDbEntity
 67
     1
  8
7_ALL_FEATURES
  6
Continuous
 62
     9
100
AcDbLine
 10
95.1992438464
 20
95.1457314925
 30
0.0
 11
95.5708162591
 21
95.1457314925
 31
0.0
  0
LINE
  5
33B
330
1B
100
AcDbEntity
 67
     1
  8
7_ALL_FEATURES
  6
Continuous
 62
     9
100
AcDbLine
 10
96.3105888632
 20
114.1624499195
 30
0.0
 11
95.9390164505
 21
114.1624499195
 31
0.0
  0
LINE
  5
33C
330
1B
100
AcDbEntity
 67
     1
  8
7_ALL_FEATURES
  6
Continuous
 62
     7
100
AcDbLine
 10
161.2350528365
 20
74.759663515
 30
0.0
 11
162.0350528365
 21
74.759663515
 31
0.0
  0
LINE
  5
33D
330
1B
100
AcDbEntity
 67
     1
  8
7_ALL_FEATURES
  6
Continuous
 62
     7
100
AcDbLine
 10
161.2350528365
 20
132.759663515
 30
0.0
 11
162.0350528365
 21
132.759663515
 31
0.0
  0
LINE
  5
33E
330
1B
100
AcDbEntity
 67
     1
  8
7_ALL_FEATURES
  6
Continuous
 62
     7
100
AcDbLine
 10
161.2350528365
 20
76.759663515
 30
0.0
 11
162.0350528365
 21
76.759663515
 31
0.0
  0
LINE
  5
33F
330
1B
100
AcDbEntity
 67
     1
  8
7_ALL_FEATURES
  6
Continuous
 62
     7
100
AcDbLine
 10
161.2350528365
 20
130.759663515
 30
0.0
 11
162.0350528365
 21
130.759663515
 31
0.0
  0
LINE
  5
340
330
1B
100
AcDbEntity
 67
     1
  8
03___PRT_ALL_CURVES
  6
Continuous
 62
    40
100
AcDbLine
 10
171.8197661736
 20
77.6438843284
 30
0.0
 11
170.4675411106
 21
77.4450277015
 31
0.0
  0
LINE
  5
341
330
1B
100
AcDbEntity
 67
     1
  8
03___PRT_ALL_CURVES
  6
Continuous
 62
    40
100
AcDbLine
 10
176.2335284545
 20
113.2700293126
 30
0.0
 11
176.5539728649
 21
113.3171534906
 31
0.0
  0
LINE
  5
342
330
1B
100
AcDbEntity
 67
     1
  8
03___PRT_ALL_CURVES
  6
Continuous
 62
    40
100
AcDbLine
 10
167.7757438441
 20
112.0262374582
 30
0.0
 11
169.2891095384
 21
112.2487912367
 31
0.0
  0
LINE
  5
343
330
1B
100
AcDbEntity
 67
     1
  8
03___PRT_ALL_CURVES
  6
Continuous
 62
    40
100
AcDbLine
 10
171.8197661736
 20
129.8754427016
 30
0.0
 11
170.4675411106
 21
130.0742993285
 31
0.0
  0
LINE
  5
344
330
1B
100
AcDbEntity
 67
     1
  8
03___PRT_ALL_CURVES
  6
Continuous
 62
    40
100
AcDbLine
 10
179.4850528365
 20
124.0148372256
 30
0.0
 11
179.4850528365
 21
125.5044898044
 31
0.0
  0
LINE
  5
345
330
1B
100
AcDbEntity
 67
     1
  8
03___PRT_ALL_CURVES
  6
Continuous
 62
    40
100
AcDbLine
 10
179.4850528365
 20
121.0148372256
 30
0.0
 11
179.4850528365
 21
122.5044898044
 31
0.0
  0
LINE
  5
346
330
1B
100
AcDbEntity
 67
     1
  8
03___PRT_ALL_CURVES
  6
Continuous
 62
    40
100
AcDbLine
 10
179.4850528365
 20
118.0148372256
 30
0.0
 11
179.4850528365
 21
119.5044898044
 31
0.0
  0
LINE
  5
347
330
1B
100
AcDbEntity
 67
     1
  8
03___PRT_ALL_CURVES
  6
Continuous
 62
    40
100
AcDbLine
 10
179.4850528365
 20
115.0148372256
 30
0.0
 11
179.4850528365
 21
116.5044898044
 31
0.0
  0
LINE
  5
348
330
1B
100
AcDbEntity
 67
     1
  8
03___PRT_ALL_CURVES
  6
Continuous
 62
    40
100
AcDbLine
 10
179.4850528365
 20
92.5044898044
 30
0.0
 11
179.4850528365
 21
91.0148372256
 31
0.0
  0
LINE
  5
349
330
1B
100
AcDbEntity
 67
     1
  8
03___PRT_ALL_CURVES
  6
Continuous
 62
    40
100
AcDbLine
 10
179.4850528365
 20
89.5044898044
 30
0.0
 11
179.4850528365
 21
88.0148372256
 31
0.0
  0
LINE
  5
34A
330
1B
100
AcDbEntity
 67
     1
  8
03___PRT_ALL_CURVES
  6
Continuous
 62
    40
100
AcDbLine
 10
179.4850528365
 20
86.5044898044
 30
0.0
 11
179.4850528365
 21
85.0148372256
 31
0.0
  0
LINE
  5
34B
330
1B
100
AcDbEntity
 67
     1
  8
03___PRT_ALL_CURVES
  6
Continuous
 62
    40
100
AcDbLine
 10
179.4850528365
 20
83.5044898044
 30
0.0
 11
179.4850528365
 21
82.0148372256
 31
0.0
  0
LINE
  5
34C
330
1B
100
AcDbEntity
 67
     1
  8
03___PRT_ALL_CURVES
  6
Continuous
 62
    40
100
AcDbLine
 10
167.7757438441
 20
95.4930895719
 30
0.0
 11
169.2891095384
 21
95.2705357933
 31
0.0
  0
LINE
  5
34D
330
1B
100
AcDbEntity
 67
     1
  8
03___PRT_ALL_CURVES
  6
Continuous
 62
    40
100
AcDbLine
 10
176.198640801
 20
94.2544282547
 30
0.0
 11
176.2335284545
 21
94.2492977174
 31
0.0
  0
LINE
  5
34E
330
1B
100
AcDbEntity
 67
     1
  8
03___PRT_ALL_CURVES
  6
Continuous
 62
    40
100
AcDbLine
 10
176.2335284545
 20
94.2492977174
 30
0.0
 11
176.5539728649
 21
94.2021735394
 31
0.0
  0
LINE
  5
34F
330
1B
100
AcDbEntity
 67
     1
  8
7_ALL_FEATURES
  6
Continuous
 62
     7
100
AcDbLine
 10
91.2350528365
 20
132.759663515
 30
0.0
 11
90.4350528365
 21
132.759663515
 31
0.0
  0
LINE
  5
350
330
1B
100
AcDbEntity
 67
     1
  8
7_ALL_FEATURES
  6
Continuous
 62
     7
100
AcDbLine
 10
91.2350528365
 20
74.759663515
 30
0.0
 11
90.4350528365
 21
74.759663515
 31
0.0
  0
LINE
  5
351
330
1B
100
AcDbEntity
 67
     1
  8
7_ALL_FEATURES
  6
Continuous
 62
     7
100
AcDbLine
 10
91.2350528365
 20
130.759663515
 30
0.0
 11
90.4350528365
 21
130.759663515
 31
0.0
  0
LINE
  5
352
330
1B
100
AcDbEntity
 67
     1
  8
7_ALL_FEATURES
  6
Continuous
 62
     7
100
AcDbLine
 10
91.2350528365
 20
76.759663515
 30
0.0
 11
90.4350528365
 21
76.759663515
 31
0.0
  0
LINE
  5
353
330
1B
100
AcDbEntity
 67
     1
  8
03___PRT_ALL_CURVES
  6
Continuous
 62
    40
100
AcDbLine
 10
80.6503394994
 20
129.8754427016
 30
0.0
 11
82.0025645623
 21
130.0742993285
 31
0.0
  0
LINE
  5
354
330
1B
100
AcDbEntity
 67
     1
  8
03___PRT_ALL_CURVES
  6
Continuous
 62
    40
100
AcDbLine
 10
76.2365772185
 20
94.2492977174
 30
0.0
 11
75.916132808
 21
94.2021735394
 31
0.0
  0
LINE
  5
355
330
1B
100
AcDbEntity
 67
     1
  8
03___PRT_ALL_CURVES
  6
Continuous
 62
    40
100
AcDbLine
 10
84.6943618289
 20
95.4930895719
 30
0.0
 11
83.1809961346
 21
95.2705357933
 31
0.0
  0
LINE
  5
356
330
1B
100
AcDbEntity
 67
     1
  8
03___PRT_ALL_CURVES
  6
Continuous
 62
    40
100
AcDbLine
 10
80.6503394994
 20
77.6438843284
 30
0.0
 11
82.0025645623
 21
77.4450277015
 31
0.0
  0
LINE
  5
357
330
1B
100
AcDbEntity
 67
     1
  8
03___PRT_ALL_CURVES
  6
Continuous
 62
    40
100
AcDbLine
 10
72.9850528365
 20
83.5044898044
 30
0.0
 11
72.9850528365
 21
82.0148372256
 31
0.0
  0
LINE
  5
358
330
1B
100
AcDbEntity
 67
     1
  8
03___PRT_ALL_CURVES
  6
Continuous
 62
    40
100
AcDbLine
 10
72.9850528365
 20
86.5044898044
 30
0.0
 11
72.9850528365
 21
85.0148372256
 31
0.0
  0
LINE
  5
359
330
1B
100
AcDbEntity
 67
     1
  8
03___PRT_ALL_CURVES
  6
Continuous
 62
    40
100
AcDbLine
 10
72.9850528365
 20
89.5044898044
 30
0.0
 11
72.9850528365
 21
88.0148372256
 31
0.0
  0
LINE
  5
35A
330
1B
100
AcDbEntity
 67
     1
  8
03___PRT_ALL_CURVES
  6
Continuous
 62
    40
100
AcDbLine
 10
72.9850528365
 20
92.5044898044
 30
0.0
 11
72.9850528365
 21
91.0148372256
 31
0.0
  0
LINE
  5
35B
330
1B
100
AcDbEntity
 67
     1
  8
03___PRT_ALL_CURVES
  6
Continuous
 62
    40
100
AcDbLine
 10
72.9850528365
 20
115.0148372256
 30
0.0
 11
72.9850528365
 21
116.5044898044
 31
0.0
  0
LINE
  5
35C
330
1B
100
AcDbEntity
 67
     1
  8
03___PRT_ALL_CURVES
  6
Continuous
 62
    40
100
AcDbLine
 10
72.9850528365
 20
118.0148372256
 30
0.0
 11
72.9850528365
 21
119.5044898044
 31
0.0
  0
LINE
  5
35D
330
1B
100
AcDbEntity
 67
     1
  8
03___PRT_ALL_CURVES
  6
Continuous
 62
    40
100
AcDbLine
 10
72.9850528365
 20
121.0148372256
 30
0.0
 11
72.9850528365
 21
122.5044898044
 31
0.0
  0
LINE
  5
35E
330
1B
100
AcDbEntity
 67
     1
  8
03___PRT_ALL_CURVES
  6
Continuous
 62
    40
100
AcDbLine
 10
72.9850528365
 20
124.0148372256
 30
0.0
 11
72.9850528365
 21
125.5044898044
 31
0.0
  0
LINE
  5
35F
330
1B
100
AcDbEntity
 67
     1
  8
03___PRT_ALL_CURVES
  6
Continuous
 62
    40
100
AcDbLine
 10
84.6943618289
 20
112.0262374582
 30
0.0
 11
83.1809961346
 21
112.2487912367
 31
0.0
  0
LINE
  5
360
330
1B
100
AcDbEntity
 67
     1
  8
03___PRT_ALL_CURVES
  6
Continuous
 62
    40
100
AcDbLine
 10
76.271464872
 20
113.2648987754
 30
0.0
 11
76.2365772185
 21
113.2700293126
 31
0.0
  0
LINE
  5
361
330
1B
100
AcDbEntity
 67
     1
  8
03___PRT_ALL_CURVES
  6
Continuous
 62
    40
100
AcDbLine
 10
76.2365772185
 20
113.2700293126
 30
0.0
 11
75.916132808
 21
113.3171534906
 31
0.0
  0
LINE
  5
362
330
1B
100
AcDbEntity
 67
     1
  8
7_ALL_FEATURES
  6
Continuous
 62
     7
100
AcDbLine
 10
160.2350528365
 20
68.759663515
 30
0.0
 11
160.2350528365
 21
69.759663515
 31
0.0
  0
LINE
  5
363
330
1B
100
AcDbEntity
 67
     1
  8
7_ALL_FEATURES
  6
Continuous
 62
     7
100
AcDbLine
 10
160.2350528365
 20
69.759663515
 30
0.0
 11
93.2350528365
 21
69.759663515
 31
0.0
  0
LINE
  5
364
330
1B
100
AcDbEntity
 67
     1
  8
7_ALL_FEATURES
  6
Continuous
 62
     7
100
AcDbLine
 10
160.2350528365
 20
136.759663515
 30
0.0
 11
160.2350528365
 21
128.759663515
 31
0.0
  0
LINE
  5
365
330
1B
100
AcDbEntity
 67
     1
  8
7_ALL_FEATURES
  6
Continuous
 62
     7
100
AcDbLine
 10
160.2350528365
 20
117.509663515
 30
0.0
 11
160.2350528365
 21
90.009663515
 31
0.0
  0
LINE
  5
366
330
1B
100
AcDbEntity
 67
     1
  8
7_ALL_FEATURES
  6
Continuous
 62
     7
100
AcDbLine
 10
160.2350528365
 20
78.759663515
 30
0.0
 11
160.2350528365
 21
69.759663515
 31
0.0
  0
LINE
  5
367
330
1B
100
AcDbEntity
 67
     1
  8
7_ALL_FEATURES
  6
Continuous
 62
     7
100
AcDbLine
 10
160.2350528365
 20
69.759663515
 30
0.0
 11
160.2350528365
 21
68.759663515
 31
0.0
  0
ARC
  5
368
330
1B
100
AcDbEntity
 67
     1
  8
7_ALL_FEATURES
  6
Continuous
 62
     7
100
AcDbCircle
 10
93.2350528365
 20
70.759663515
 30
0.0
 40
1.0
100
AcDbArc
 50
180.0
 51
270.0
  0
LINE
  5
369
330
1B
100
AcDbEntity
 67
     1
  8
7_ALL_FEATURES
  6
Continuous
 62
     7
100
AcDbLine
 10
92.2350528365
 20
70.759663515
 30
0.0
 11
92.2350528365
 21
78.759663515
 31
0.0
  0
LINE
  5
36A
330
1B
100
AcDbEntity
 67
     1
  8
7_ALL_FEATURES
  6
Continuous
 62
     7
100
AcDbLine
 10
92.2350528365
 20
90.009663515
 30
0.0
 11
92.2350528365
 21
117.509663515
 31
0.0
  0
LINE
  5
36B
330
1B
100
AcDbEntity
 67
     1
  8
7_ALL_FEATURES
  6
Continuous
 62
     7
100
AcDbLine
 10
92.2350528365
 20
128.759663515
 30
0.0
 11
92.2350528365
 21
136.759663515
 31
0.0
  0
LINE
  5
36C
330
1B
100
AcDbEntity
 67
     1
  8
7_ALL_FEATURES
  6
Continuous
 62
     7
100
AcDbLine
 10
93.2350528365
 20
137.759663515
 30
0.0
 11
159.2350528365
 21
137.759663515
 31
0.0
  0
LINE
  5
36D
330
1B
100
AcDbEntity
 67
     1
  8
7_ALL_FEATURES
  6
Continuous
 62
     7
100
AcDbLine
 10
161.2350528365
 20
68.759663515
 30
0.0
 11
160.2350528365
 21
68.759663515
 31
0.0
  0
ARC
  5
36E
330
1B
100
AcDbEntity
 67
     1
  8
7_ALL_FEATURES
  6
Continuous
 62
     7
100
AcDbCircle
 10
93.2350528365
 20
136.759663515
 30
0.0
 40
1.0
100
AcDbArc
 50
90.0
 51
180.0
  0
ARC
  5
36F
330
1B
100
AcDbEntity
 67
     1
  8
7_ALL_FEATURES
  6
Continuous
 62
     7
100
AcDbCircle
 10
159.2350528365
 20
136.759663515
 30
0.0
 40
1.0
100
AcDbArc
 50
0.0
 51
90.0
  0
LINE
  5
370
330
1B
100
AcDbEntity
 67
     1
  8
7_ALL_FEATURES
  6
Continuous
 62
     9
100
AcDbLine
 10
159.2350528365
 20
138.759663515
 30
0.0
 11
159.2350528365
 21
137.759663515
 31
0.0
  0
LINE
  5
371
330
1B
100
AcDbEntity
 67
     1
  8
7_ALL_FEATURES
  6
Continuous
 62
     9
100
AcDbLine
 10
91.2350528365
 20
70.759663515
 30
0.0
 11
92.2350528365
 21
70.759663515
 31
0.0
  0
LINE
  5
372
330
1B
100
AcDbEntity
 67
     1
  8
7_ALL_FEATURES
  6
Continuous
 62
     9
100
AcDbLine
 10
91.2350528365
 20
136.759663515
 30
0.0
 11
92.2350528365
 21
136.759663515
 31
0.0
  0
LINE
  5
373
330
1B
100
AcDbEntity
 67
     1
  8
7_ALL_FEATURES
  6
Continuous
 62
     9
100
AcDbLine
 10
93.2350528365
 20
68.759663515
 30
0.0
 11
93.2350528365
 21
69.759663515
 31
0.0
  0
LINE
  5
374
330
1B
100
AcDbEntity
 67
     1
  8
7_ALL_FEATURES
  6
Continuous
 62
     9
100
AcDbLine
 10
161.2350528365
 20
136.759663515
 30
0.0
 11
160.2350528365
 21
136.759663515
 31
0.0
  0
LINE
  5
375
330
1B
100
AcDbEntity
 67
     1
  8
7_ALL_FEATURES
  6
Continuous
 62
     9
100
AcDbLine
 10
93.2350528365
 20
138.759663515
 30
0.0
 11
93.2350528365
 21
137.759663515
 31
0.0
  0
LINE
  5
376
330
1B
100
AcDbEntity
 67
     1
  8
7_ALL_FEATURES
  6
Continuous
 62
     3
100
AcDbLine
 10
159.2350528365
 20
78.759663515
 30
0.0
 11
159.7350528365
 21
78.759663515
 31
0.0
  0
LINE
  5
377
330
1B
100
AcDbEntity
 67
     1
  8
7_ALL_FEATURES
  6
Continuous
 62
     3
100
AcDbLine
 10
159.7350528365
 20
78.759663515
 30
0.0
 11
160.2350528365
 21
78.759663515
 31
0.0
  0
LINE
  5
378
330
1B
100
AcDbEntity
 67
     1
  8
7_ALL_FEATURES
  6
Continuous
 62
     3
100
AcDbLine
 10
160.2350528365
 20
78.759663515
 30
0.0
 11
160.2350528365
 21
90.009663515
 31
0.0
  0
LINE
  5
379
330
1B
100
AcDbEntity
 67
     1
  8
7_ALL_FEATURES
  6
Continuous
 62
     3
100
AcDbLine
 10
159.415263653
 20
90.009663515
 30
0.0
 11
159.7350528365
 21
90.009663515
 31
0.0
  0
LINE
  5
37A
330
1B
100
AcDbEntity
 67
     1
  8
7_ALL_FEATURES
  6
Continuous
 62
     3
100
AcDbLine
 10
159.7350528365
 20
90.009663515
 30
0.0
 11
160.2350528365
 21
90.009663515
 31
0.0
  0
LINE
  5
37B
330
1B
100
AcDbEntity
 67
     1
  8
7_ALL_FEATURES
  6
Continuous
 62
     3
100
AcDbLine
 10
159.2350528365
 20
90.009663515
 30
0.0
 11
159.415263653
 21
90.009663515
 31
0.0
  0
LINE
  5
37C
330
1B
100
AcDbEntity
 67
     1
  8
7_ALL_FEATURES
  6
Continuous
 62
     3
100
AcDbLine
 10
155.2350528365
 20
78.759663515
 30
0.0
 11
159.2350528365
 21
78.759663515
 31
0.0
  0
LINE
  5
37D
330
1B
100
AcDbEntity
 67
     1
  8
7_ALL_FEATURES
  6
Continuous
 62
     3
100
AcDbLine
 10
159.2350528365
 20
90.009663515
 30
0.0
 11
155.2350528365
 21
90.009663515
 31
0.0
  0
ARC
  5
37E
330
1B
100
AcDbEntity
 67
     1
  8
7_ALL_FEATURES
  6
Continuous
 62
     3
100
AcDbCircle
 10
155.2350528365
 20
88.009663515
 30
0.0
 40
2.0
100
AcDbArc
 50
90.0
 51
180.0
  0
LINE
  5
37F
330
1B
100
AcDbEntity
 67
     1
  8
7_ALL_FEATURES
  6
Continuous
 62
     3
100
AcDbLine
 10
153.2350528365
 20
88.009663515
 30
0.0
 11
153.2350528365
 21
80.759663515
 31
0.0
  0
ARC
  5
380
330
1B
100
AcDbEntity
 67
     1
  8
7_ALL_FEATURES
  6
Continuous
 62
     3
100
AcDbCircle
 10
155.2350528365
 20
80.759663515
 30
0.0
 40
2.0
100
AcDbArc
 50
180.0
 51
270.0
  0
LINE
  5
381
330
1B
100
AcDbEntity
 67
     1
  8
7_ALL_FEATURES
  6
Continuous
 62
     3
100
AcDbLine
 10
159.2350528365
 20
117.509663515
 30
0.0
 11
159.7350528365
 21
117.509663515
 31
0.0
  0
LINE
  5
382
330
1B
100
AcDbEntity
 67
     1
  8
7_ALL_FEATURES
  6
Continuous
 62
     3
100
AcDbLine
 10
159.7350528365
 20
117.509663515
 30
0.0
 11
160.2350528365
 21
117.509663515
 31
0.0
  0
LINE
  5
383
330
1B
100
AcDbEntity
 67
     1
  8
7_ALL_FEATURES
  6
Continuous
 62
     3
100
AcDbLine
 10
160.2350528365
 20
117.509663515
 30
0.0
 11
160.2350528365
 21
128.759663515
 31
0.0
  0
LINE
  5
384
330
1B
100
AcDbEntity
 67
     1
  8
7_ALL_FEATURES
  6
Continuous
 62
     3
100
AcDbLine
 10
159.2350528365
 20
128.759663515
 30
0.0
 11
159.7350528365
 21
128.759663515
 31
0.0
  0
LINE
  5
385
330
1B
100
AcDbEntity
 67
     1
  8
7_ALL_FEATURES
  6
Continuous
 62
     3
100
AcDbLine
 10
159.7350528365
 20
128.759663515
 30
0.0
 11
160.2350528365
 21
128.759663515
 31
0.0
  0
LINE
  5
386
330
1B
100
AcDbEntity
 67
     1
  8
7_ALL_FEATURES
  6
Continuous
 62
     3
100
AcDbLine
 10
155.2350528365
 20
117.509663515
 30
0.0
 11
159.2350528365
 21
117.509663515
 31
0.0
  0
LINE
  5
387
330
1B
100
AcDbEntity
 67
     1
  8
7_ALL_FEATURES
  6
Continuous
 62
     3
100
AcDbLine
 10
159.2350528365
 20
128.759663515
 30
0.0
 11
155.2350528365
 21
128.759663515
 31
0.0
  0
ARC
  5
388
330
1B
100
AcDbEntity
 67
     1
  8
7_ALL_FEATURES
  6
Continuous
 62
     3
100
AcDbCircle
 10
155.2350528365
 20
126.759663515
 30
0.0
 40
2.0
100
AcDbArc
 50
90.0
 51
180.0
  0
LINE
  5
389
330
1B
100
AcDbEntity
 67
     1
  8
7_ALL_FEATURES
  6
Continuous
 62
     3
100
AcDbLine
 10
153.2350528365
 20
126.759663515
 30
0.0
 11
153.2350528365
 21
119.509663515
 31
0.0
  0
ARC
  5
38A
330
1B
100
AcDbEntity
 67
     1
  8
7_ALL_FEATURES
  6
Continuous
 62
     3
100
AcDbCircle
 10
155.2350528365
 20
119.509663515
 30
0.0
 40
2.0
100
AcDbArc
 50
180.0
 51
270.0
  0
LINE
  5
38B
330
1B
100
AcDbEntity
 67
     1
  8
7_ALL_FEATURES
  6
Continuous
 62
     3
100
AcDbLine
 10
160.1958980495
 20
115.109663515
 30
0.0
 11
155.2634700075
 21
115.109663515
 31
0.0
  0
LINE
  5
38C
330
1B
100
AcDbEntity
 67
     1
  8
7_ALL_FEATURES
  6
Continuous
 62
     3
100
AcDbLine
 10
155.2634700075
 20
92.409663515
 30
0.0
 11
160.1958980495
 21
92.409663515
 31
0.0
  0
LINE
  5
38D
330
1B
100
AcDbEntity
 67
     1
  8
7_ALL_FEATURES
  6
Continuous
 62
     3
100
AcDbLine
 10
160.1958980495
 20
115.109663515
 30
0.0
 11
160.2350528365
 21
115.109663515
 31
0.0
  0
LINE
  5
38E
330
1B
100
AcDbEntity
 67
     1
  8
7_ALL_FEATURES
  6
Continuous
 62
     3
100
AcDbLine
 10
160.1958980495
 20
92.409663515
 30
0.0
 11
160.2350528365
 21
92.409663515
 31
0.0
  0
LINE
  5
38F
330
1B
100
AcDbEntity
 67
     1
  8
7_ALL_FEATURES
  6
Continuous
 62
     3
100
AcDbLine
 10
156.5310892225
 20
93.3568771105
 30
0.0
 11
155.2634700075
 21
92.409663515
 31
0.0
  0
LINE
  5
390
330
1B
100
AcDbEntity
 67
     1
  8
7_ALL_FEATURES
  6
Continuous
 62
     3
100
AcDbLine
 10
155.2634700075
 20
115.109663515
 30
0.0
 11
156.5310892225
 21
114.1624499195
 31
0.0
  0
SPLINE
  5
391
330
1B
100
AcDbEntity
 67
     1
  8
7_ALL_FEATURES
  6
Continuous
 62
     3
100
AcDbSpline
 70
     0
 71
     3
 72
    11
 73
     7
 74
     0
 42
0.000000001
 43
0.0000001
 40
0.0
 40
0.0
 40
0.0
 40
0.0
 40
0.2184882754
 40
0.3989919374
 40
0.5919494216
 40
1.0
 40
1.0
 40
1.0
 40
1.0
 10
156.5310892225
 20
114.1624499195
 30
0.0
 10
156.6475692356
 20
114.0754115954
 30
0.0
 10
156.8330267306
 20
113.8786938242
 30
0.0
 10
157.032670997
 20
113.5371692872
 30
0.0
 10
157.2169247677
 20
113.0487915236
 30
0.0
 10
157.2708618266
 20
112.6451593333
 30
0.0
 10
157.2708618266
 20
112.3735955375
 30
0.0
  0
LINE
  5
392
330
1B
100
AcDbEntity
 67
     1
  8
7_ALL_FEATURES
  6
Continuous
 62
     3
100
AcDbLine
 10
157.2708618266
 20
95.1457314925
 30
0.0
 11
157.2708618266
 21
112.3735955375
 31
0.0
  0
SPLINE
  5
393
330
1B
100
AcDbEntity
 67
     1
  8
7_ALL_FEATURES
  6
Continuous
 62
     3
100
AcDbSpline
 70
     0
 71
     3
 72
    11
 73
     7
 74
     0
 42
0.000000001
 43
0.0000001
 40
0.0
 40
0.0
 40
0.0
 40
0.0
 40
0.2751214549
 40
0.4747413148
 40
0.6639742247
 40
1.0
 40
1.0
 40
1.0
 40
1.0
 10
157.2708618266
 20
95.1457314925
 30
0.0
 10
157.2708618266
 20
94.9627530989
 30
0.0
 10
157.2420975795
 20
94.6461221805
 30
0.0
 10
157.12856839
 20
94.2174362718
 30
0.0
 10
156.9347210646
 20
93.7755710526
 30
0.0
 10
156.7101140832
 20
93.4906513386
 30
0.0
 10
156.5310892225
 20
93.3568771105
 30
0.0
  0
LINE
  5
394
330
1B
100
AcDbEntity
 67
     1
  8
7_ALL_FEATURES
  6
Continuous
 62
     9
100
AcDbLine
 10
159.2350528365
 20
117.509663515
 30
0.0
 11
159.2350528365
 21
128.759663515
 31
0.0
  0
LINE
  5
395
330
1B
100
AcDbEntity
 67
     1
  8
7_ALL_FEATURES
  6
Continuous
 62
     9
100
AcDbLine
 10
159.2350528365
 20
78.759663515
 30
0.0
 11
159.2350528365
 21
90.009663515
 31
0.0
  0
LINE
  5
396
330
1B
100
AcDbEntity
 67
     1
  8
7_ALL_FEATURES
  6
Continuous
 62
     9
100
AcDbLine
 10
160.1958980495
 20
92.409663515
 30
0.0
 11
160.1958980495
 21
115.109663515
 31
0.0
  0
LINE
  5
397
330
1B
100
AcDbEntity
 67
     1
  8
7_ALL_FEATURES
  6
Continuous
 62
     3
100
AcDbLine
 10
93.2350528365
 20
128.759663515
 30
0.0
 11
92.7350528365
 21
128.759663515
 31
0.0
  0
LINE
  5
398
330
1B
100
AcDbEntity
 67
     1
  8
7_ALL_FEATURES
  6
Continuous
 62
     3
100
AcDbLine
 10
92.7350528365
 20
128.759663515
 30
0.0
 11
92.2350528365
 21
128.759663515
 31
0.0
  0
LINE
  5
399
330
1B
100
AcDbEntity
 67
     1
  8
7_ALL_FEATURES
  6
Continuous
 62
     3
100
AcDbLine
 10
92.2350528365
 20
128.759663515
 30
0.0
 11
92.2350528365
 21
117.509663515
 31
0.0
  0
LINE
  5
39A
330
1B
100
AcDbEntity
 67
     1
  8
7_ALL_FEATURES
  6
Continuous
 62
     3
100
AcDbLine
 10
93.05484202
 20
117.509663515
 30
0.0
 11
92.7350528365
 21
117.509663515
 31
0.0
  0
LINE
  5
39B
330
1B
100
AcDbEntity
 67
     1
  8
7_ALL_FEATURES
  6
Continuous
 62
     3
100
AcDbLine
 10
92.7350528365
 20
117.509663515
 30
0.0
 11
92.2350528365
 21
117.509663515
 31
0.0
  0
LINE
  5
39C
330
1B
100
AcDbEntity
 67
     1
  8
7_ALL_FEATURES
  6
Continuous
 62
     3
100
AcDbLine
 10
93.2350528365
 20
117.509663515
 30
0.0
 11
93.05484202
 21
117.509663515
 31
0.0
  0
LINE
  5
39D
330
1B
100
AcDbEntity
 67
     1
  8
7_ALL_FEATURES
  6
Continuous
 62
     3
100
AcDbLine
 10
97.2350528365
 20
128.759663515
 30
0.0
 11
93.2350528365
 21
128.759663515
 31
0.0
  0
LINE
  5
39E
330
1B
100
AcDbEntity
 67
     1
  8
7_ALL_FEATURES
  6
Continuous
 62
     3
100
AcDbLine
 10
93.2350528365
 20
117.509663515
 30
0.0
 11
97.2350528365
 21
117.509663515
 31
0.0
  0
ARC
  5
39F
330
1B
100
AcDbEntity
 67
     1
  8
7_ALL_FEATURES
  6
Continuous
 62
     3
100
AcDbCircle
 10
97.2350528365
 20
119.509663515
 30
0.0
 40
2.0
100
AcDbArc
 50
270.0
 51
360.0
  0
LINE
  5
3A0
330
1B
100
AcDbEntity
 67
     1
  8
7_ALL_FEATURES
  6
Continuous
 62
     3
100
AcDbLine
 10
99.2350528365
 20
119.509663515
 30
0.0
 11
99.2350528365
 21
126.759663515
 31
0.0
  0
ARC
  5
3A1
330
1B
100
AcDbEntity
 67
     1
  8
7_ALL_FEATURES
  6
Continuous
 62
     3
100
AcDbCircle
 10
97.2350528365
 20
126.759663515
 30
0.0
 40
2.0
100
AcDbArc
 50
0.0
 51
90.0
  0
LINE
  5
3A2
330
1B
100
AcDbEntity
 67
     1
  8
7_ALL_FEATURES
  6
Continuous
 62
     3
100
AcDbLine
 10
93.2350528365
 20
90.009663515
 30
0.0
 11
92.7350528365
 21
90.009663515
 31
0.0
  0
LINE
  5
3A3
330
1B
100
AcDbEntity
 67
     1
  8
7_ALL_FEATURES
  6
Continuous
 62
     3
100
AcDbLine
 10
92.7350528365
 20
90.009663515
 30
0.0
 11
92.2350528365
 21
90.009663515
 31
0.0
  0
LINE
  5
3A4
330
1B
100
AcDbEntity
 67
     1
  8
7_ALL_FEATURES
  6
Continuous
 62
     3
100
AcDbLine
 10
92.2350528365
 20
90.009663515
 30
0.0
 11
92.2350528365
 21
78.759663515
 31
0.0
  0
LINE
  5
3A5
330
1B
100
AcDbEntity
 67
     1
  8
7_ALL_FEATURES
  6
Continuous
 62
     3
100
AcDbLine
 10
93.2350528365
 20
78.759663515
 30
0.0
 11
92.7350528365
 21
78.759663515
 31
0.0
  0
LINE
  5
3A6
330
1B
100
AcDbEntity
 67
     1
  8
7_ALL_FEATURES
  6
Continuous
 62
     3
100
AcDbLine
 10
92.7350528365
 20
78.759663515
 30
0.0
 11
92.2350528365
 21
78.759663515
 31
0.0
  0
LINE
  5
3A7
330
1B
100
AcDbEntity
 67
     1
  8
7_ALL_FEATURES
  6
Continuous
 62
     3
100
AcDbLine
 10
97.2350528365
 20
90.009663515
 30
0.0
 11
93.2350528365
 21
90.009663515
 31
0.0
  0
LINE
  5
3A8
330
1B
100
AcDbEntity
 67
     1
  8
7_ALL_FEATURES
  6
Continuous
 62
     3
100
AcDbLine
 10
93.2350528365
 20
78.759663515
 30
0.0
 11
97.2350528365
 21
78.759663515
 31
0.0
  0
ARC
  5
3A9
330
1B
100
AcDbEntity
 67
     1
  8
7_ALL_FEATURES
  6
Continuous
 62
     3
100
AcDbCircle
 10
97.2350528365
 20
80.759663515
 30
0.0
 40
2.0
100
AcDbArc
 50
270.0
 51
360.0
  0
LINE
  5
3AA
330
1B
100
AcDbEntity
 67
     1
  8
7_ALL_FEATURES
  6
Continuous
 62
     3
100
AcDbLine
 10
99.2350528365
 20
80.759663515
 30
0.0
 11
99.2350528365
 21
88.009663515
 31
0.0
  0
ARC
  5
3AB
330
1B
100
AcDbEntity
 67
     1
  8
7_ALL_FEATURES
  6
Continuous
 62
     3
100
AcDbCircle
 10
97.2350528365
 20
88.009663515
 30
0.0
 40
2.0
100
AcDbArc
 50
0.0
 51
90.0
  0
LINE
  5
3AC
330
1B
100
AcDbEntity
 67
     1
  8
7_ALL_FEATURES
  6
Continuous
 62
     3
100
AcDbLine
 10
92.2742076234
 20
92.409663515
 30
0.0
 11
97.2066356655
 21
92.409663515
 31
0.0
  0
LINE
  5
3AD
330
1B
100
AcDbEntity
 67
     1
  8
7_ALL_FEATURES
  6
Continuous
 62
     3
100
AcDbLine
 10
97.2066356655
 20
115.109663515
 30
0.0
 11
92.2742076234
 21
115.109663515
 31
0.0
  0
LINE
  5
3AE
330
1B
100
AcDbEntity
 67
     1
  8
7_ALL_FEATURES
  6
Continuous
 62
     3
100
AcDbLine
 10
92.2742076234
 20
92.409663515
 30
0.0
 11
92.2350528365
 21
92.409663515
 31
0.0
  0
LINE
  5
3AF
330
1B
100
AcDbEntity
 67
     1
  8
7_ALL_FEATURES
  6
Continuous
 62
     3
100
AcDbLine
 10
92.2742076234
 20
115.109663515
 30
0.0
 11
92.2350528365
 21
115.109663515
 31
0.0
  0
LINE
  5
3B0
330
1B
100
AcDbEntity
 67
     1
  8
7_ALL_FEATURES
  6
Continuous
 62
     3
100
AcDbLine
 10
95.9390164505
 20
114.1624499195
 30
0.0
 11
97.2066356655
 21
115.109663515
 31
0.0
  0
LINE
  5
3B1
330
1B
100
AcDbEntity
 67
     1
  8
7_ALL_FEATURES
  6
Continuous
 62
     3
100
AcDbLine
 10
97.2066356655
 20
92.409663515
 30
0.0
 11
95.9390164505
 21
93.3568771105
 31
0.0
  0
SPLINE
  5
3B2
330
1B
100
AcDbEntity
 67
     1
  8
7_ALL_FEATURES
  6
Continuous
 62
     3
100
AcDbSpline
 70
     0
 71
     3
 72
    11
 73
     7
 74
     0
 42
0.000000001
 43
0.0000001
 40
0.0
 40
0.0
 40
0.0
 40
0.0
 40
0.2184882754
 40
0.3989919374
 40
0.5919494216
 40
1.0
 40
1.0
 40
1.0
 40
1.0
 10
95.9390164505
 20
93.3568771105
 30
0.0
 10
95.8225364373
 20
93.4439154346
 30
0.0
 10
95.6370789424
 20
93.6406332059
 30
0.0
 10
95.437434676
 20
93.9821577428
 30
0.0
 10
95.2531809052
 20
94.4705355064
 30
0.0
 10
95.1992438464
 20
94.8741676967
 30
0.0
 10
95.1992438464
 20
95.1457314925
 30
0.0
  0
LINE
  5
3B3
330
1B
100
AcDbEntity
 67
     1
  8
7_ALL_FEATURES
  6
Continuous
 62
     3
100
AcDbLine
 10
95.1992438464
 20
112.3735955375
 30
0.0
 11
95.1992438464
 21
95.1457314925
 31
0.0
  0
SPLINE
  5
3B4
330
1B
100
AcDbEntity
 67
     1
  8
7_ALL_FEATURES
  6
Continuous
 62
     3
100
AcDbSpline
 70
     0
 71
     3
 72
    11
 73
     7
 74
     0
 42
0.000000001
 43
0.0000001
 40
0.0
 40
0.0
 40
0.0
 40
0.0
 40
0.2751214549
 40
0.4747413148
 40
0.6639742247
 40
1.0
 40
1.0
 40
1.0
 40
1.0
 10
95.1992438464
 20
112.3735955375
 30
0.0
 10
95.1992438464
 20
112.5565739311
 30
0.0
 10
95.2280080934
 20
112.8732048496
 30
0.0
 10
95.341537283
 20
113.3018907582
 30
0.0
 10
95.5353846084
 20
113.7437559774
 30
0.0
 10
95.7599915898
 20
114.0286756914
 30
0.0
 10
95.9390164505
 20
114.1624499195
 30
0.0
  0
LINE
  5
3B5
330
1B
100
AcDbEntity
 67
     1
  8
7_ALL_FEATURES
  6
Continuous
 62
     9
100
AcDbLine
 10
93.2350528365
 20
90.009663515
 30
0.0
 11
93.2350528365
 21
78.759663515
 31
0.0
  0
LINE
  5
3B6
330
1B
100
AcDbEntity
 67
     1
  8
7_ALL_FEATURES
  6
Continuous
 62
     9
100
AcDbLine
 10
93.2350528365
 20
128.759663515
 30
0.0
 11
93.2350528365
 21
117.509663515
 31
0.0
  0
LINE
  5
3B7
330
1B
100
AcDbEntity
 67
     1
  8
7_ALL_FEATURES
  6
Continuous
 62
     9
100
AcDbLine
 10
92.2742076234
 20
115.109663515
 30
0.0
 11
92.2742076234
 21
92.409663515
 31
0.0
  0
LINE
  5
3B8
330
1B
100
AcDbEntity
 67
     1
  8
7_ALL_FEATURES
  6
Continuous
 62
     3
100
AcDbLine
 10
162.0350528365
 20
76.759663515
 30
0.0
 11
162.0350528365
 21
74.759663515
 31
0.0
  0
LINE
  5
3B9
330
1B
100
AcDbEntity
 67
     1
  8
7_ALL_FEATURES
  6
Continuous
 62
     3
100
AcDbLine
 10
162.0350528365
 20
130.759663515
 30
0.0
 11
162.0350528365
 21
76.759663515
 31
0.0
  0
LINE
  5
3BA
330
1B
100
AcDbEntity
 67
     1
  8
7_ALL_FEATURES
  6
Continuous
 62
     3
100
AcDbLine
 10
162.0350528365
 20
132.759663515
 30
0.0
 11
162.0350528365
 21
130.759663515
 31
0.0
  0
LINE
  5
3BB
330
1B
100
AcDbEntity
 67
     1
  8
7_ALL_FEATURES
  6
Continuous
 62
     3
100
AcDbLine
 10
162.8350528365
 20
132.759663515
 30
0.0
 11
162.0350528365
 21
132.759663515
 31
0.0
  0
LINE
  5
3BC
330
1B
100
AcDbEntity
 67
     1
  8
7_ALL_FEATURES
  6
Continuous
 62
     3
100
AcDbLine
 10
162.8350528365
 20
74.759663515
 30
0.0
 11
162.0350528365
 21
74.759663515
 31
0.0
  0
LINE
  5
3BD
330
1B
100
AcDbEntity
 67
     1
  8
7_ALL_FEATURES
  6
Continuous
 62
     3
100
AcDbLine
 10
179.2563345658
 20
130.550651496
 30
0.0
 11
164.2350528365
 21
132.759663515
 31
0.0
  0
LINE
  5
3BE
330
1B
100
AcDbEntity
 67
     1
  8
7_ALL_FEATURES
  6
Continuous
 62
     3
100
AcDbLine
 10
162.8350528365
 20
132.759663515
 30
0.0
 11
164.2350528365
 21
132.759663515
 31
0.0
  0
LINE
  5
3BF
330
1B
100
AcDbEntity
 67
     1
  8
7_ALL_FEATURES
  6
Continuous
 62
     3
100
AcDbLine
 10
164.2350528365
 20
74.759663515
 30
0.0
 11
162.8350528365
 21
74.759663515
 31
0.0
  0
LINE
  5
3C0
330
1B
100
AcDbEntity
 67
     1
  8
7_ALL_FEATURES
  6
Continuous
 62
     3
100
AcDbLine
 10
164.2350528365
 20
74.759663515
 30
0.0
 11
179.2563345658
 21
76.968675534
 31
0.0
  0
LINE
  5
3C1
330
1B
100
AcDbEntity
 67
     1
  8
7_ALL_FEATURES
  6
Continuous
 62
     3
100
AcDbLine
 10
179.2563345658
 20
76.968675534
 30
0.0
 11
181.2350528365
 21
79.259663515
 31
0.0
  0
LINE
  5
3C2
330
1B
100
AcDbEntity
 67
     1
  8
7_ALL_FEATURES
  6
Continuous
 62
     3
100
AcDbLine
 10
181.2350528365
 20
128.259663515
 30
0.0
 11
181.2350528365
 21
79.259663515
 31
0.0
  0
LINE
  5
3C3
330
1B
100
AcDbEntity
 67
     1
  8
7_ALL_FEATURES
  6
Continuous
 62
     3
100
AcDbLine
 10
181.2350528365
 20
128.259663515
 30
0.0
 11
179.2563345658
 21
130.550651496
 31
0.0
  0
ARC
  5
3C4
330
1B
100
AcDbEntity
 67
     1
  8
02___PRT_ALL_AXES
  6
Continuous
 62
     3
100
AcDbCircle
 10
165.8427479911
 20
129.259663515
 30
0.0
 40
1.0
100
AcDbArc
 50
90.0
 51
270.0
  0
ARC
  5
3C5
330
1B
100
AcDbEntity
 67
     1
  8
02___PRT_ALL_AXES
  6
Continuous
 62
     3
100
AcDbCircle
 10
165.8427479911
 20
129.259663515
 30
0.0
 40
1.0
100
AcDbArc
 50
270.0
 51
90.0
  0
ARC
  5
3C6
330
1B
100
AcDbEntity
 67
     1
  8
02___PRT_ALL_AXES
  6
Continuous
 62
     3
100
AcDbCircle
 10
171.0389004138
 20
129.259663515
 30
0.0
 40
1.0
100
AcDbArc
 50
90.0
 51
270.0
  0
ARC
  5
3C7
330
1B
100
AcDbEntity
 67
     1
  8
02___PRT_ALL_AXES
  6
Continuous
 62
     3
100
AcDbCircle
 10
171.0389004138
 20
129.259663515
 30
0.0
 40
1.0
100
AcDbArc
 50
270.0
 51
90.0
  0
ARC
  5
3C8
330
1B
100
AcDbEntity
 67
     1
  8
02___PRT_ALL_AXES
  6
Continuous
 62
     3
100
AcDbCircle
 10
168.4408242024
 20
127.759663515
 30
0.0
 40
1.0
100
AcDbArc
 50
90.0
 51
270.0
  0
ARC
  5
3C9
330
1B
100
AcDbEntity
 67
     1
  8
02___PRT_ALL_AXES
  6
Continuous
 62
     3
100
AcDbCircle
 10
168.4408242024
 20
127.759663515
 30
0.0
 40
1.0
100
AcDbArc
 50
270.0
 51
90.0
  0
ARC
  5
3CA
330
1B
100
AcDbEntity
 67
     1
  8
02___PRT_ALL_AXES
  6
Continuous
 62
     3
100
AcDbCircle
 10
165.8427479911
 20
126.259663515
 30
0.0
 40
1.0
100
AcDbArc
 50
90.0
 51
137.302448779
  0
ARC
  5
3CB
330
1B
100
AcDbEntity
 67
     1
  8
02___PRT_ALL_AXES
  6
Continuous
 62
     3
100
AcDbCircle
 10
165.8427479911
 20
126.259663515
 30
0.0
 40
1.0
100
AcDbArc
 50
278.3476803428
 51
278.8956673559
  0
ARC
  5
3CC
330
1B
100
AcDbEntity
 67
     1
  8
02___PRT_ALL_AXES
  6
Continuous
 62
     3
100
AcDbCircle
 10
165.8427479911
 20
126.259663515
 30
0.0
 40
1.0
100
AcDbArc
 50
278.8956673559
 51
90.0
  0
ARC
  5
3CD
330
1B
100
AcDbEntity
 67
     1
  8
02___PRT_ALL_AXES
  6
Continuous
 62
     3
100
AcDbCircle
 10
173.6369766251
 20
127.759663515
 30
0.0
 40
1.0
100
AcDbArc
 50
90.0
 51
270.0
  0
ARC
  5
3CE
330
1B
100
AcDbEntity
 67
     1
  8
02___PRT_ALL_AXES
  6
Continuous
 62
     3
100
AcDbCircle
 10
173.6369766251
 20
127.759663515
 30
0.0
 40
1.0
100
AcDbArc
 50
270.0
 51
90.0
  0
ARC
  5
3CF
330
1B
100
AcDbEntity
 67
     1
  8
02___PRT_ALL_AXES
  6
Continuous
 62
     3
100
AcDbCircle
 10
171.0389004138
 20
126.259663515
 30
0.0
 40
1.0
100
AcDbArc
 50
90.0
 51
270.0
  0
ARC
  5
3D0
330
1B
100
AcDbEntity
 67
     1
  8
02___PRT_ALL_AXES
  6
Continuous
 62
     3
100
AcDbCircle
 10
171.0389004138
 20
126.259663515
 30
0.0
 40
1.0
100
AcDbArc
 50
270.0
 51
90.0
  0
ARC
  5
3D1
330
1B
100
AcDbEntity
 67
     1
  8
02___PRT_ALL_AXES
  6
Continuous
 62
     3
100
AcDbCircle
 10
168.4408242024
 20
124.759663515
 30
0.0
 40
1.0
100
AcDbArc
 50
90.0
 51
270.0
  0
ARC
  5
3D2
330
1B
100
AcDbEntity
 67
     1
  8
02___PRT_ALL_AXES
  6
Continuous
 62
     3
100
AcDbCircle
 10
168.4408242024
 20
124.759663515
 30
0.0
 40
1.0
100
AcDbArc
 50
270.0
 51
90.0
  0
ARC
  5
3D3
330
1B
100
AcDbEntity
 67
     1
  8
02___PRT_ALL_AXES
  6
Continuous
 62
     3
100
AcDbCircle
 10
165.8427479911
 20
123.259663515
 30
0.0
 40
1.0
100
AcDbArc
 50
278.3476803428
 51
81.6523196572
  0
ARC
  5
3D4
330
1B
100
AcDbEntity
 67
     1
  8
02___PRT_ALL_AXES
  6
Continuous
 62
     3
100
AcDbCircle
 10
173.6369766251
 20
124.759663515
 30
0.0
 40
1.0
100
AcDbArc
 50
90.0
 51
270.0
  0
ARC
  5
3D5
330
1B
100
AcDbEntity
 67
     1
  8
02___PRT_ALL_AXES
  6
Continuous
 62
     3
100
AcDbCircle
 10
173.6369766251
 20
124.759663515
 30
0.0
 40
1.0
100
AcDbArc
 50
270.0
 51
90.0
  0
ARC
  5
3D6
330
1B
100
AcDbEntity
 67
     1
  8
02___PRT_ALL_AXES
  6
Continuous
 62
     3
100
AcDbCircle
 10
171.0389004138
 20
123.259663515
 30
0.0
 40
1.0
100
AcDbArc
 50
90.0
 51
270.0
  0
ARC
  5
3D7
330
1B
100
AcDbEntity
 67
     1
  8
02___PRT_ALL_AXES
  6
Continuous
 62
     3
100
AcDbCircle
 10
171.0389004138
 20
123.259663515
 30
0.0
 40
1.0
100
AcDbArc
 50
270.0
 51
90.0
  0
ARC
  5
3D8
330
1B
100
AcDbEntity
 67
     1
  8
02___PRT_ALL_AXES
  6
Continuous
 62
     3
100
AcDbCircle
 10
168.4408242024
 20
121.759663515
 30
0.0
 40
1.0
100
AcDbArc
 50
90.0
 51
270.0
  0
ARC
  5
3D9
330
1B
100
AcDbEntity
 67
     1
  8
02___PRT_ALL_AXES
  6
Continuous
 62
     3
100
AcDbCircle
 10
168.4408242024
 20
121.759663515
 30
0.0
 40
1.0
100
AcDbArc
 50
270.0
 51
90.0
  0
ARC
  5
3DA
330
1B
100
AcDbEntity
 67
     1
  8
02___PRT_ALL_AXES
  6
Continuous
 62
     3
100
AcDbCircle
 10
165.8427479911
 20
120.259663515
 30
0.0
 40
1.0
100
AcDbArc
 50
160.8809496938
 51
270.0
  0
ARC
  5
3DB
330
1B
100
AcDbEntity
 67
     1
  8
02___PRT_ALL_AXES
  6
Continuous
 62
     3
100
AcDbCircle
 10
165.8427479911
 20
120.259663515
 30
0.0
 40
1.0
100
AcDbArc
 50
270.0
 51
81.6523196572
  0
ARC
  5
3DC
330
1B
100
AcDbEntity
 67
     1
  8
02___PRT_ALL_AXES
  6
Continuous
 62
     3
100
AcDbCircle
 10
178.8331290478
 20
124.759663515
 30
0.0
 40
1.0
100
AcDbArc
 50
90.0
 51
270.0
  0
ARC
  5
3DD
330
1B
100
AcDbEntity
 67
     1
  8
02___PRT_ALL_AXES
  6
Continuous
 62
     3
100
AcDbCircle
 10
178.8331290478
 20
124.759663515
 30
0.0
 40
1.0
100
AcDbArc
 50
270.0
 51
90.0
  0
ARC
  5
3DE
330
1B
100
AcDbEntity
 67
     1
  8
02___PRT_ALL_AXES
  6
Continuous
 62
     3
100
AcDbCircle
 10
176.2350528365
 20
126.259663515
 30
0.0
 40
1.0
100
AcDbArc
 50
90.0
 51
270.0
  0
ARC
  5
3DF
330
1B
100
AcDbEntity
 67
     1
  8
02___PRT_ALL_AXES
  6
Continuous
 62
     3
100
AcDbCircle
 10
176.2350528365
 20
126.259663515
 30
0.0
 40
1.0
100
AcDbArc
 50
270.0
 51
90.0
  0
ARC
  5
3E0
330
1B
100
AcDbEntity
 67
     1
  8
02___PRT_ALL_AXES
  6
Continuous
 62
     3
100
AcDbCircle
 10
173.6369766251
 20
121.759663515
 30
0.0
 40
1.0
100
AcDbArc
 50
90.0
 51
270.0
  0
ARC
  5
3E1
330
1B
100
AcDbEntity
 67
     1
  8
02___PRT_ALL_AXES
  6
Continuous
 62
     3
100
AcDbCircle
 10
173.6369766251
 20
121.759663515
 30
0.0
 40
1.0
100
AcDbArc
 50
270.0
 51
90.0
  0
ARC
  5
3E2
330
1B
100
AcDbEntity
 67
     1
  8
02___PRT_ALL_AXES
  6
Continuous
 62
     3
100
AcDbCircle
 10
171.0389004138
 20
120.259663515
 30
0.0
 40
1.0
100
AcDbArc
 50
90.0
 51
270.0
  0
ARC
  5
3E3
330
1B
100
AcDbEntity
 67
     1
  8
02___PRT_ALL_AXES
  6
Continuous
 62
     3
100
AcDbCircle
 10
171.0389004138
 20
120.259663515
 30
0.0
 40
1.0
100
AcDbArc
 50
270.0
 51
90.0
  0
ARC
  5
3E4
330
1B
100
AcDbEntity
 67
     1
  8
02___PRT_ALL_AXES
  6
Continuous
 62
     3
100
AcDbCircle
 10
168.4408242024
 20
118.759663515
 30
0.0
 40
1.0
100
AcDbArc
 50
90.0
 51
270.0
  0
ARC
  5
3E5
330
1B
100
AcDbEntity
 67
     1
  8
02___PRT_ALL_AXES
  6
Continuous
 62
     3
100
AcDbCircle
 10
168.4408242024
 20
118.759663515
 30
0.0
 40
1.0
100
AcDbArc
 50
270.0
 51
90.0
  0
ARC
  5
3E6
330
1B
100
AcDbEntity
 67
     1
  8
02___PRT_ALL_AXES
  6
Continuous
 62
     3
100
AcDbCircle
 10
165.8427479911
 20
117.259663515
 30
0.0
 40
1.0
100
AcDbArc
 50
90.0
 51
270.0
  0
ARC
  5
3E7
330
1B
100
AcDbEntity
 67
     1
  8
02___PRT_ALL_AXES
  6
Continuous
 62
     3
100
AcDbCircle
 10
165.8427479911
 20
117.259663515
 30
0.0
 40
1.0
100
AcDbArc
 50
270.0
 51
90.0
  0
ARC
  5
3E8
330
1B
100
AcDbEntity
 67
     1
  8
02___PRT_ALL_AXES
  6
Continuous
 62
     3
100
AcDbCircle
 10
178.8331290478
 20
121.759663515
 30
0.0
 40
1.0
100
AcDbArc
 50
90.0
 51
270.0
  0
ARC
  5
3E9
330
1B
100
AcDbEntity
 67
     1
  8
02___PRT_ALL_AXES
  6
Continuous
 62
     3
100
AcDbCircle
 10
178.8331290478
 20
121.759663515
 30
0.0
 40
1.0
100
AcDbArc
 50
270.0
 51
90.0
  0
ARC
  5
3EA
330
1B
100
AcDbEntity
 67
     1
  8
02___PRT_ALL_AXES
  6
Continuous
 62
     3
100
AcDbCircle
 10
176.2350528365
 20
123.259663515
 30
0.0
 40
1.0
100
AcDbArc
 50
90.0
 51
270.0
  0
ARC
  5
3EB
330
1B
100
AcDbEntity
 67
     1
  8
02___PRT_ALL_AXES
  6
Continuous
 62
     3
100
AcDbCircle
 10
176.2350528365
 20
123.259663515
 30
0.0
 40
1.0
100
AcDbArc
 50
270.0
 51
90.0
  0
ARC
  5
3EC
330
1B
100
AcDbEntity
 67
     1
  8
02___PRT_ALL_AXES
  6
Continuous
 62
     3
100
AcDbCircle
 10
173.6369766251
 20
118.759663515
 30
0.0
 40
1.0
100
AcDbArc
 50
90.0
 51
270.0
  0
ARC
  5
3ED
330
1B
100
AcDbEntity
 67
     1
  8
02___PRT_ALL_AXES
  6
Continuous
 62
     3
100
AcDbCircle
 10
173.6369766251
 20
118.759663515
 30
0.0
 40
1.0
100
AcDbArc
 50
270.0
 51
90.0
  0
ARC
  5
3EE
330
1B
100
AcDbEntity
 67
     1
  8
02___PRT_ALL_AXES
  6
Continuous
 62
     3
100
AcDbCircle
 10
171.0389004138
 20
117.259663515
 30
0.0
 40
1.0
100
AcDbArc
 50
90.0
 51
270.0
  0
ARC
  5
3EF
330
1B
100
AcDbEntity
 67
     1
  8
02___PRT_ALL_AXES
  6
Continuous
 62
     3
100
AcDbCircle
 10
171.0389004138
 20
117.259663515
 30
0.0
 40
1.0
100
AcDbArc
 50
270.0
 51
90.0
  0
ARC
  5
3F0
330
1B
100
AcDbEntity
 67
     1
  8
02___PRT_ALL_AXES
  6
Continuous
 62
     3
100
AcDbCircle
 10
168.4408242024
 20
115.759663515
 30
0.0
 40
1.0
100
AcDbArc
 50
90.0
 51
270.0
  0
ARC
  5
3F1
330
1B
100
AcDbEntity
 67
     1
  8
02___PRT_ALL_AXES
  6
Continuous
 62
     3
100
AcDbCircle
 10
168.4408242024
 20
115.759663515
 30
0.0
 40
1.0
100
AcDbArc
 50
270.0
 51
90.0
  0
ARC
  5
3F2
330
1B
100
AcDbEntity
 67
     1
  8
02___PRT_ALL_AXES
  6
Continuous
 62
     3
100
AcDbCircle
 10
165.8427479911
 20
114.259663515
 30
0.0
 40
1.0
100
AcDbArc
 50
90.0
 51
270.0
  0
ARC
  5
3F3
330
1B
100
AcDbEntity
 67
     1
  8
02___PRT_ALL_AXES
  6
Continuous
 62
     3
100
AcDbCircle
 10
165.8427479911
 20
114.259663515
 30
0.0
 40
1.0
100
AcDbArc
 50
270.0
 51
90.0
  0
ARC
  5
3F4
330
1B
100
AcDbEntity
 67
     1
  8
02___PRT_ALL_AXES
  6
Continuous
 62
     3
100
AcDbCircle
 10
178.8331290478
 20
118.759663515
 30
0.0
 40
1.0
100
AcDbArc
 50
90.0
 51
270.0
  0
ARC
  5
3F5
330
1B
100
AcDbEntity
 67
     1
  8
02___PRT_ALL_AXES
  6
Continuous
 62
     3
100
AcDbCircle
 10
178.8331290478
 20
118.759663515
 30
0.0
 40
1.0
100
AcDbArc
 50
270.0
 51
90.0
  0
ARC
  5
3F6
330
1B
100
AcDbEntity
 67
     1
  8
02___PRT_ALL_AXES
  6
Continuous
 62
     3
100
AcDbCircle
 10
176.2350528365
 20
120.259663515
 30
0.0
 40
1.0
100
AcDbArc
 50
90.0
 51
270.0
  0
ARC
  5
3F7
330
1B
100
AcDbEntity
 67
     1
  8
02___PRT_ALL_AXES
  6
Continuous
 62
     3
100
AcDbCircle
 10
176.2350528365
 20
120.259663515
 30
0.0
 40
1.0
100
AcDbArc
 50
270.0
 51
90.0
  0
ARC
  5
3F8
330
1B
100
AcDbEntity
 67
     1
  8
02___PRT_ALL_AXES
  6
Continuous
 62
     3
100
AcDbCircle
 10
173.6369766251
 20
115.759663515
 30
0.0
 40
1.0
100
AcDbArc
 50
90.0
 51
270.0
  0
ARC
  5
3F9
330
1B
100
AcDbEntity
 67
     1
  8
02___PRT_ALL_AXES
  6
Continuous
 62
     3
100
AcDbCircle
 10
173.6369766251
 20
115.759663515
 30
0.0
 40
1.0
100
AcDbArc
 50
270.0
 51
90.0
  0
ARC
  5
3FA
330
1B
100
AcDbEntity
 67
     1
  8
02___PRT_ALL_AXES
  6
Continuous
 62
     3
100
AcDbCircle
 10
171.0389004138
 20
114.259663515
 30
0.0
 40
1.0
100
AcDbArc
 50
90.0
 51
270.0
  0
ARC
  5
3FB
330
1B
100
AcDbEntity
 67
     1
  8
02___PRT_ALL_AXES
  6
Continuous
 62
     3
100
AcDbCircle
 10
171.0389004138
 20
114.259663515
 30
0.0
 40
1.0
100
AcDbArc
 50
270.0
 51
90.0
  0
ARC
  5
3FC
330
1B
100
AcDbEntity
 67
     1
  8
02___PRT_ALL_AXES
  6
Continuous
 62
     3
100
AcDbCircle
 10
168.4408242024
 20
112.759663515
 30
0.0
 40
1.0
100
AcDbArc
 50
90.0
 51
270.0
  0
ARC
  5
3FD
330
1B
100
AcDbEntity
 67
     1
  8
02___PRT_ALL_AXES
  6
Continuous
 62
     3
100
AcDbCircle
 10
168.4408242024
 20
112.759663515
 30
0.0
 40
1.0
100
AcDbArc
 50
270.0
 51
90.0
  0
ARC
  5
3FE
330
1B
100
AcDbEntity
 67
     1
  8
02___PRT_ALL_AXES
  6
Continuous
 62
     3
100
AcDbCircle
 10
178.8331290478
 20
115.759663515
 30
0.0
 40
1.0
100
AcDbArc
 50
90.0
 51
270.0
  0
ARC
  5
3FF
330
1B
100
AcDbEntity
 67
     1
  8
02___PRT_ALL_AXES
  6
Continuous
 62
     3
100
AcDbCircle
 10
178.8331290478
 20
115.759663515
 30
0.0
 40
1.0
100
AcDbArc
 50
270.0
 51
90.0
  0
ARC
  5
400
330
1B
100
AcDbEntity
 67
     1
  8
02___PRT_ALL_AXES
  6
Continuous
 62
     3
100
AcDbCircle
 10
176.2350528365
 20
117.259663515
 30
0.0
 40
1.0
100
AcDbArc
 50
90.0
 51
270.0
  0
ARC
  5
401
330
1B
100
AcDbEntity
 67
     1
  8
02___PRT_ALL_AXES
  6
Continuous
 62
     3
100
AcDbCircle
 10
176.2350528365
 20
117.259663515
 30
0.0
 40
1.0
100
AcDbArc
 50
270.0
 51
90.0
  0
ARC
  5
402
330
1B
100
AcDbEntity
 67
     1
  8
02___PRT_ALL_AXES
  6
Continuous
 62
     3
100
AcDbCircle
 10
176.2350528365
 20
114.259663515
 30
0.0
 40
1.0
100
AcDbArc
 50
90.0
 51
270.0
  0
ARC
  5
403
330
1B
100
AcDbEntity
 67
     1
  8
02___PRT_ALL_AXES
  6
Continuous
 62
     3
100
AcDbCircle
 10
176.2350528365
 20
114.259663515
 30
0.0
 40
1.0
100
AcDbArc
 50
270.0
 51
90.0
  0
ARC
  5
404
330
1B
100
AcDbEntity
 67
     1
  8
02___PRT_ALL_AXES
  6
Continuous
 62
     3
100
AcDbCircle
 10
168.4408242024
 20
94.759663515
 30
0.0
 40
1.0
100
AcDbArc
 50
90.0
 51
270.0
  0
ARC
  5
405
330
1B
100
AcDbEntity
 67
     1
  8
02___PRT_ALL_AXES
  6
Continuous
 62
     3
100
AcDbCircle
 10
168.4408242024
 20
94.759663515
 30
0.0
 40
1.0
100
AcDbArc
 50
270.0
 51
90.0
  0
ARC
  5
406
330
1B
100
AcDbEntity
 67
     1
  8
02___PRT_ALL_AXES
  6
Continuous
 62
     3
100
AcDbCircle
 10
165.8427479911
 20
93.259663515
 30
0.0
 40
1.0
100
AcDbArc
 50
90.0
 51
270.0
  0
ARC
  5
407
330
1B
100
AcDbEntity
 67
     1
  8
02___PRT_ALL_AXES
  6
Continuous
 62
     3
100
AcDbCircle
 10
165.8427479911
 20
93.259663515
 30
0.0
 40
1.0
100
AcDbArc
 50
270.0
 51
90.0
  0
ARC
  5
408
330
1B
100
AcDbEntity
 67
     1
  8
02___PRT_ALL_AXES
  6
Continuous
 62
     3
100
AcDbCircle
 10
171.0389004138
 20
93.259663515
 30
0.0
 40
1.0
100
AcDbArc
 50
90.0
 51
270.0
  0
ARC
  5
409
330
1B
100
AcDbEntity
 67
     1
  8
02___PRT_ALL_AXES
  6
Continuous
 62
     3
100
AcDbCircle
 10
171.0389004138
 20
93.259663515
 30
0.0
 40
1.0
100
AcDbArc
 50
270.0
 51
90.0
  0
ARC
  5
40A
330
1B
100
AcDbEntity
 67
     1
  8
02___PRT_ALL_AXES
  6
Continuous
 62
     3
100
AcDbCircle
 10
168.4408242024
 20
91.759663515
 30
0.0
 40
1.0
100
AcDbArc
 50
90.0
 51
270.0
  0
ARC
  5
40B
330
1B
100
AcDbEntity
 67
     1
  8
02___PRT_ALL_AXES
  6
Continuous
 62
     3
100
AcDbCircle
 10
168.4408242024
 20
91.759663515
 30
0.0
 40
1.0
100
AcDbArc
 50
270.0
 51
90.0
  0
ARC
  5
40C
330
1B
100
AcDbEntity
 67
     1
  8
02___PRT_ALL_AXES
  6
Continuous
 62
     3
100
AcDbCircle
 10
165.8427479911
 20
90.259663515
 30
0.0
 40
1.0
100
AcDbArc
 50
90.0
 51
270.0
  0
ARC
  5
40D
330
1B
100
AcDbEntity
 67
     1
  8
02___PRT_ALL_AXES
  6
Continuous
 62
     3
100
AcDbCircle
 10
165.8427479911
 20
90.259663515
 30
0.0
 40
1.0
100
AcDbArc
 50
270.0
 51
90.0
  0
ARC
  5
40E
330
1B
100
AcDbEntity
 67
     1
  8
02___PRT_ALL_AXES
  6
Continuous
 62
     3
100
AcDbCircle
 10
173.6369766251
 20
91.759663515
 30
0.0
 40
1.0
100
AcDbArc
 50
90.0
 51
270.0
  0
ARC
  5
40F
330
1B
100
AcDbEntity
 67
     1
  8
02___PRT_ALL_AXES
  6
Continuous
 62
     3
100
AcDbCircle
 10
173.6369766251
 20
91.759663515
 30
0.0
 40
1.0
100
AcDbArc
 50
270.0
 51
90.0
  0
ARC
  5
410
330
1B
100
AcDbEntity
 67
     1
  8
02___PRT_ALL_AXES
  6
Continuous
 62
     3
100
AcDbCircle
 10
171.0389004138
 20
90.259663515
 30
0.0
 40
1.0
100
AcDbArc
 50
90.0
 51
270.0
  0
ARC
  5
411
330
1B
100
AcDbEntity
 67
     1
  8
02___PRT_ALL_AXES
  6
Continuous
 62
     3
100
AcDbCircle
 10
171.0389004138
 20
90.259663515
 30
0.0
 40
1.0
100
AcDbArc
 50
270.0
 51
90.0
  0
ARC
  5
412
330
1B
100
AcDbEntity
 67
     1
  8
02___PRT_ALL_AXES
  6
Continuous
 62
     3
100
AcDbCircle
 10
168.4408242024
 20
88.759663515
 30
0.0
 40
1.0
100
AcDbArc
 50
90.0
 51
270.0
  0
ARC
  5
413
330
1B
100
AcDbEntity
 67
     1
  8
02___PRT_ALL_AXES
  6
Continuous
 62
     3
100
AcDbCircle
 10
168.4408242024
 20
88.759663515
 30
0.0
 40
1.0
100
AcDbArc
 50
270.0
 51
90.0
  0
ARC
  5
414
330
1B
100
AcDbEntity
 67
     1
  8
02___PRT_ALL_AXES
  6
Continuous
 62
     3
100
AcDbCircle
 10
165.8427479911
 20
87.259663515
 30
0.0
 40
1.0
100
AcDbArc
 50
90.0
 51
199.1190503063
  0
ARC
  5
415
330
1B
100
AcDbEntity
 67
     1
  8
02___PRT_ALL_AXES
  6
Continuous
 62
     3
100
AcDbCircle
 10
165.8427479911
 20
87.259663515
 30
0.0
 40
1.0
100
AcDbArc
 50
278.3476803428
 51
90.0
  0
ARC
  5
416
330
1B
100
AcDbEntity
 67
     1
  8
02___PRT_ALL_AXES
  6
Continuous
 62
     3
100
AcDbCircle
 10
165.8427479911
 20
84.259663515
 30
0.0
 40
1.0
100
AcDbArc
 50
278.3476803428
 51
81.6523196572
  0
ARC
  5
417
330
1B
100
AcDbEntity
 67
     1
  8
02___PRT_ALL_AXES
  6
Continuous
 62
     3
100
AcDbCircle
 10
165.8427479911
 20
81.259663515
 30
0.0
 40
1.0
100
AcDbArc
 50
222.697551221
 51
270.0
  0
ARC
  5
418
330
1B
100
AcDbEntity
 67
     1
  8
02___PRT_ALL_AXES
  6
Continuous
 62
     3
100
AcDbCircle
 10
165.8427479911
 20
81.259663515
 30
0.0
 40
1.0
100
AcDbArc
 50
270.0
 51
81.10433264410001
  0
ARC
  5
419
330
1B
100
AcDbEntity
 67
     1
  8
02___PRT_ALL_AXES
  6
Continuous
 62
     3
100
AcDbCircle
 10
165.8427479911
 20
81.259663515
 30
0.0
 40
1.0
100
AcDbArc
 50
81.10433264410001
 51
81.6523196572
  0
ARC
  5
41A
330
1B
100
AcDbEntity
 67
     1
  8
02___PRT_ALL_AXES
  6
Continuous
 62
     3
100
AcDbCircle
 10
165.8427479911
 20
78.259663515
 30
0.0
 40
1.0
100
AcDbArc
 50
90.0
 51
270.0
  0
ARC
  5
41B
330
1B
100
AcDbEntity
 67
     1
  8
02___PRT_ALL_AXES
  6
Continuous
 62
     3
100
AcDbCircle
 10
165.8427479911
 20
78.259663515
 30
0.0
 40
1.0
100
AcDbArc
 50
270.0
 51
90.0
  0
ARC
  5
41C
330
1B
100
AcDbEntity
 67
     1
  8
02___PRT_ALL_AXES
  6
Continuous
 62
     3
100
AcDbCircle
 10
178.8331290478
 20
91.759663515
 30
0.0
 40
1.0
100
AcDbArc
 50
90.0
 51
270.0
  0
ARC
  5
41D
330
1B
100
AcDbEntity
 67
     1
  8
02___PRT_ALL_AXES
  6
Continuous
 62
     3
100
AcDbCircle
 10
178.8331290478
 20
91.759663515
 30
0.0
 40
1.0
100
AcDbArc
 50
270.0
 51
90.0
  0
ARC
  5
41E
330
1B
100
AcDbEntity
 67
     1
  8
02___PRT_ALL_AXES
  6
Continuous
 62
     3
100
AcDbCircle
 10
176.2350528365
 20
93.259663515
 30
0.0
 40
1.0
100
AcDbArc
 50
90.0
 51
270.0
  0
ARC
  5
41F
330
1B
100
AcDbEntity
 67
     1
  8
02___PRT_ALL_AXES
  6
Continuous
 62
     3
100
AcDbCircle
 10
176.2350528365
 20
93.259663515
 30
0.0
 40
1.0
100
AcDbArc
 50
270.0
 51
90.0
  0
ARC
  5
420
330
1B
100
AcDbEntity
 67
     1
  8
02___PRT_ALL_AXES
  6
Continuous
 62
     3
100
AcDbCircle
 10
173.6369766251
 20
88.759663515
 30
0.0
 40
1.0
100
AcDbArc
 50
90.0
 51
270.0
  0
ARC
  5
421
330
1B
100
AcDbEntity
 67
     1
  8
02___PRT_ALL_AXES
  6
Continuous
 62
     3
100
AcDbCircle
 10
173.6369766251
 20
88.759663515
 30
0.0
 40
1.0
100
AcDbArc
 50
270.0
 51
90.0
  0
ARC
  5
422
330
1B
100
AcDbEntity
 67
     1
  8
02___PRT_ALL_AXES
  6
Continuous
 62
     3
100
AcDbCircle
 10
171.0389004138
 20
87.259663515
 30
0.0
 40
1.0
100
AcDbArc
 50
90.0
 51
270.0
  0
ARC
  5
423
330
1B
100
AcDbEntity
 67
     1
  8
02___PRT_ALL_AXES
  6
Continuous
 62
     3
100
AcDbCircle
 10
171.0389004138
 20
87.259663515
 30
0.0
 40
1.0
100
AcDbArc
 50
270.0
 51
90.0
  0
ARC
  5
424
330
1B
100
AcDbEntity
 67
     1
  8
02___PRT_ALL_AXES
  6
Continuous
 62
     3
100
AcDbCircle
 10
168.4408242024
 20
85.759663515
 30
0.0
 40
1.0
100
AcDbArc
 50
90.0
 51
270.0
  0
ARC
  5
425
330
1B
100
AcDbEntity
 67
     1
  8
02___PRT_ALL_AXES
  6
Continuous
 62
     3
100
AcDbCircle
 10
168.4408242024
 20
85.759663515
 30
0.0
 40
1.0
100
AcDbArc
 50
270.0
 51
90.0
  0
ARC
  5
426
330
1B
100
AcDbEntity
 67
     1
  8
02___PRT_ALL_AXES
  6
Continuous
 62
     3
100
AcDbCircle
 10
168.4408242024
 20
82.759663515
 30
0.0
 40
1.0
100
AcDbArc
 50
90.0
 51
270.0
  0
ARC
  5
427
330
1B
100
AcDbEntity
 67
     1
  8
02___PRT_ALL_AXES
  6
Continuous
 62
     3
100
AcDbCircle
 10
168.4408242024
 20
82.759663515
 30
0.0
 40
1.0
100
AcDbArc
 50
270.0
 51
90.0
  0
ARC
  5
428
330
1B
100
AcDbEntity
 67
     1
  8
02___PRT_ALL_AXES
  6
Continuous
 62
     3
100
AcDbCircle
 10
168.4408242024
 20
79.759663515
 30
0.0
 40
1.0
100
AcDbArc
 50
90.0
 51
270.0
  0
ARC
  5
429
330
1B
100
AcDbEntity
 67
     1
  8
02___PRT_ALL_AXES
  6
Continuous
 62
     3
100
AcDbCircle
 10
168.4408242024
 20
79.759663515
 30
0.0
 40
1.0
100
AcDbArc
 50
270.0
 51
90.0
  0
ARC
  5
42A
330
1B
100
AcDbEntity
 67
     1
  8
02___PRT_ALL_AXES
  6
Continuous
 62
     3
100
AcDbCircle
 10
178.8331290478
 20
88.759663515
 30
0.0
 40
1.0
100
AcDbArc
 50
90.0
 51
270.0
  0
ARC
  5
42B
330
1B
100
AcDbEntity
 67
     1
  8
02___PRT_ALL_AXES
  6
Continuous
 62
     3
100
AcDbCircle
 10
178.8331290478
 20
88.759663515
 30
0.0
 40
1.0
100
AcDbArc
 50
270.0
 51
90.0
  0
ARC
  5
42C
330
1B
100
AcDbEntity
 67
     1
  8
02___PRT_ALL_AXES
  6
Continuous
 62
     3
100
AcDbCircle
 10
176.2350528365
 20
81.259663515
 30
0.0
 40
1.0
100
AcDbArc
 50
270.0
 51
90.0
  0
ARC
  5
42D
330
1B
100
AcDbEntity
 67
     1
  8
02___PRT_ALL_AXES
  6
Continuous
 62
     3
100
AcDbCircle
 10
176.2350528365
 20
81.259663515
 30
0.0
 40
1.0
100
AcDbArc
 50
90.0
 51
270.0
  0
ARC
  5
42E
330
1B
100
AcDbEntity
 67
     1
  8
02___PRT_ALL_AXES
  6
Continuous
 62
     3
100
AcDbCircle
 10
176.2350528365
 20
84.259663515
 30
0.0
 40
1.0
100
AcDbArc
 50
270.0
 51
90.0
  0
ARC
  5
42F
330
1B
100
AcDbEntity
 67
     1
  8
02___PRT_ALL_AXES
  6
Continuous
 62
     3
100
AcDbCircle
 10
176.2350528365
 20
84.259663515
 30
0.0
 40
1.0
100
AcDbArc
 50
90.0
 51
270.0
  0
ARC
  5
430
330
1B
100
AcDbEntity
 67
     1
  8
02___PRT_ALL_AXES
  6
Continuous
 62
     3
100
AcDbCircle
 10
178.8331290478
 20
82.759663515
 30
0.0
 40
1.0
100
AcDbArc
 50
270.0
 51
90.0
  0
ARC
  5
431
330
1B
100
AcDbEntity
 67
     1
  8
02___PRT_ALL_AXES
  6
Continuous
 62
     3
100
AcDbCircle
 10
178.8331290478
 20
82.759663515
 30
0.0
 40
1.0
100
AcDbArc
 50
90.0
 51
270.0
  0
ARC
  5
432
330
1B
100
AcDbEntity
 67
     1
  8
02___PRT_ALL_AXES
  6
Continuous
 62
     3
100
AcDbCircle
 10
173.6369766251
 20
79.759663515
 30
0.0
 40
1.0
100
AcDbArc
 50
270.0
 51
90.0
  0
ARC
  5
433
330
1B
100
AcDbEntity
 67
     1
  8
02___PRT_ALL_AXES
  6
Continuous
 62
     3
100
AcDbCircle
 10
173.6369766251
 20
79.759663515
 30
0.0
 40
1.0
100
AcDbArc
 50
90.0
 51
270.0
  0
ARC
  5
434
330
1B
100
AcDbEntity
 67
     1
  8
02___PRT_ALL_AXES
  6
Continuous
 62
     3
100
AcDbCircle
 10
173.6369766251
 20
82.759663515
 30
0.0
 40
1.0
100
AcDbArc
 50
270.0
 51
90.0
  0
ARC
  5
435
330
1B
100
AcDbEntity
 67
     1
  8
02___PRT_ALL_AXES
  6
Continuous
 62
     3
100
AcDbCircle
 10
173.6369766251
 20
82.759663515
 30
0.0
 40
1.0
100
AcDbArc
 50
90.0
 51
270.0
  0
ARC
  5
436
330
1B
100
AcDbEntity
 67
     1
  8
02___PRT_ALL_AXES
  6
Continuous
 62
     3
100
AcDbCircle
 10
176.2350528365
 20
87.259663515
 30
0.0
 40
1.0
100
AcDbArc
 50
270.0
 51
90.0
  0
ARC
  5
437
330
1B
100
AcDbEntity
 67
     1
  8
02___PRT_ALL_AXES
  6
Continuous
 62
     3
100
AcDbCircle
 10
176.2350528365
 20
87.259663515
 30
0.0
 40
1.0
100
AcDbArc
 50
90.0
 51
270.0
  0
ARC
  5
438
330
1B
100
AcDbEntity
 67
     1
  8
02___PRT_ALL_AXES
  6
Continuous
 62
     3
100
AcDbCircle
 10
178.8331290478
 20
85.759663515
 30
0.0
 40
1.0
100
AcDbArc
 50
270.0
 51
90.0
  0
ARC
  5
439
330
1B
100
AcDbEntity
 67
     1
  8
02___PRT_ALL_AXES
  6
Continuous
 62
     3
100
AcDbCircle
 10
178.8331290478
 20
85.759663515
 30
0.0
 40
1.0
100
AcDbArc
 50
90.0
 51
270.0
  0
ARC
  5
43A
330
1B
100
AcDbEntity
 67
     1
  8
02___PRT_ALL_AXES
  6
Continuous
 62
     3
100
AcDbCircle
 10
171.0389004138
 20
78.259663515
 30
0.0
 40
1.0
100
AcDbArc
 50
270.0
 51
90.0
  0
ARC
  5
43B
330
1B
100
AcDbEntity
 67
     1
  8
02___PRT_ALL_AXES
  6
Continuous
 62
     3
100
AcDbCircle
 10
171.0389004138
 20
78.259663515
 30
0.0
 40
1.0
100
AcDbArc
 50
90.0
 51
270.0
  0
ARC
  5
43C
330
1B
100
AcDbEntity
 67
     1
  8
02___PRT_ALL_AXES
  6
Continuous
 62
     3
100
AcDbCircle
 10
171.0389004138
 20
81.259663515
 30
0.0
 40
1.0
100
AcDbArc
 50
270.0
 51
90.0
  0
ARC
  5
43D
330
1B
100
AcDbEntity
 67
     1
  8
02___PRT_ALL_AXES
  6
Continuous
 62
     3
100
AcDbCircle
 10
171.0389004138
 20
81.259663515
 30
0.0
 40
1.0
100
AcDbArc
 50
90.0
 51
270.0
  0
ARC
  5
43E
330
1B
100
AcDbEntity
 67
     1
  8
02___PRT_ALL_AXES
  6
Continuous
 62
     3
100
AcDbCircle
 10
171.0389004138
 20
84.259663515
 30
0.0
 40
1.0
100
AcDbArc
 50
270.0
 51
90.0
  0
ARC
  5
43F
330
1B
100
AcDbEntity
 67
     1
  8
02___PRT_ALL_AXES
  6
Continuous
 62
     3
100
AcDbCircle
 10
171.0389004138
 20
84.259663515
 30
0.0
 40
1.0
100
AcDbArc
 50
90.0
 51
270.0
  0
ARC
  5
440
330
1B
100
AcDbEntity
 67
     1
  8
02___PRT_ALL_AXES
  6
Continuous
 62
     3
100
AcDbCircle
 10
173.6369766251
 20
85.759663515
 30
0.0
 40
1.0
100
AcDbArc
 50
270.0
 51
90.0
  0
ARC
  5
441
330
1B
100
AcDbEntity
 67
     1
  8
02___PRT_ALL_AXES
  6
Continuous
 62
     3
100
AcDbCircle
 10
173.6369766251
 20
85.759663515
 30
0.0
 40
1.0
100
AcDbArc
 50
90.0
 51
270.0
  0
ARC
  5
442
330
1B
100
AcDbEntity
 67
     1
  8
02___PRT_ALL_AXES
  6
Continuous
 62
     3
100
AcDbCircle
 10
176.2350528365
 20
90.259663515
 30
0.0
 40
1.0
100
AcDbArc
 50
270.0
 51
90.0
  0
ARC
  5
443
330
1B
100
AcDbEntity
 67
     1
  8
02___PRT_ALL_AXES
  6
Continuous
 62
     3
100
AcDbCircle
 10
176.2350528365
 20
90.259663515
 30
0.0
 40
1.0
100
AcDbArc
 50
90.0
 51
270.0
  0
LINE
  5
444
330
1B
100
AcDbEntity
 67
     1
  8
7_ALL_FEATURES
  6
Continuous
 62
     9
100
AcDbLine
 10
162.8350528365
 20
74.759663515
 30
0.0
 11
162.8350528365
 21
80.0194711362
 31
0.0
  0
LINE
  5
445
330
1B
100
AcDbEntity
 67
     1
  8
7_ALL_FEATURES
  6
Continuous
 62
     9
100
AcDbLine
 10
162.8350528365
 20
87.4998558939
 30
0.0
 11
162.8350528365
 21
120.0194711362
 31
0.0
  0
LINE
  5
446
330
1B
100
AcDbEntity
 67
     1
  8
7_ALL_FEATURES
  6
Continuous
 62
     9
100
AcDbLine
 10
162.8350528365
 20
127.4998558939
 30
0.0
 11
162.8350528365
 21
132.759663515
 31
0.0
  0
LINE
  5
447
330
1B
100
AcDbEntity
 67
     1
  8
7_ALL_FEATURES
  6
Continuous
 62
     3
100
AcDbLine
 10
90.4350528365
 20
130.759663515
 30
0.0
 11
90.4350528365
 21
132.759663515
 31
0.0
  0
LINE
  5
448
330
1B
100
AcDbEntity
 67
     1
  8
7_ALL_FEATURES
  6
Continuous
 62
     3
100
AcDbLine
 10
90.4350528365
 20
76.759663515
 30
0.0
 11
90.4350528365
 21
130.759663515
 31
0.0
  0
LINE
  5
449
330
1B
100
AcDbEntity
 67
     1
  8
7_ALL_FEATURES
  6
Continuous
 62
     3
100
AcDbLine
 10
90.4350528365
 20
74.759663515
 30
0.0
 11
90.4350528365
 21
76.759663515
 31
0.0
  0
LINE
  5
44A
330
1B
100
AcDbEntity
 67
     1
  8
7_ALL_FEATURES
  6
Continuous
 62
     3
100
AcDbLine
 10
89.6350528365
 20
74.759663515
 30
0.0
 11
90.4350528365
 21
74.759663515
 31
0.0
  0
LINE
  5
44B
330
1B
100
AcDbEntity
 67
     1
  8
7_ALL_FEATURES
  6
Continuous
 62
     3
100
AcDbLine
 10
89.6350528365
 20
132.759663515
 30
0.0
 11
90.4350528365
 21
132.759663515
 31
0.0
  0
LINE
  5
44C
330
1B
100
AcDbEntity
 67
     1
  8
7_ALL_FEATURES
  6
Continuous
 62
     3
100
AcDbLine
 10
73.2137711072
 20
76.968675534
 30
0.0
 11
88.2350528365
 21
74.759663515
 31
0.0
  0
LINE
  5
44D
330
1B
100
AcDbEntity
 67
     1
  8
7_ALL_FEATURES
  6
Continuous
 62
     3
100
AcDbLine
 10
89.6350528365
 20
74.759663515
 30
0.0
 11
88.2350528365
 21
74.759663515
 31
0.0
  0
LINE
  5
44E
330
1B
100
AcDbEntity
 67
     1
  8
7_ALL_FEATURES
  6
Continuous
 62
     3
100
AcDbLine
 10
88.2350528365
 20
132.759663515
 30
0.0
 11
89.6350528365
 21
132.759663515
 31
0.0
  0
LINE
  5
44F
330
1B
100
AcDbEntity
 67
     1
  8
7_ALL_FEATURES
  6
Continuous
 62
     3
100
AcDbLine
 10
88.2350528365
 20
132.759663515
 30
0.0
 11
73.2137711072
 21
130.550651496
 31
0.0
  0
LINE
  5
450
330
1B
100
AcDbEntity
 67
     1
  8
7_ALL_FEATURES
  6
Continuous
 62
     3
100
AcDbLine
 10
73.2137711072
 20
130.550651496
 30
0.0
 11
71.2350528365
 21
128.259663515
 31
0.0
  0
LINE
  5
451
330
1B
100
AcDbEntity
 67
     1
  8
7_ALL_FEATURES
  6
Continuous
 62
     3
100
AcDbLine
 10
71.2350528365
 20
79.259663515
 30
0.0
 11
71.2350528365
 21
128.259663515
 31
0.0
  0
LINE
  5
452
330
1B
100
AcDbEntity
 67
     1
  8
7_ALL_FEATURES
  6
Continuous
 62
     3
100
AcDbLine
 10
71.2350528365
 20
79.259663515
 30
0.0
 11
73.2137711072
 21
76.968675534
 31
0.0
  0
ARC
  5
453
330
1B
100
AcDbEntity
 67
     1
  8
02___PRT_ALL_AXES
  6
Continuous
 62
     3
100
AcDbCircle
 10
86.6273576819
 20
78.259663515
 30
0.0
 40
1.0
100
AcDbArc
 50
270.0
 51
90.0
  0
ARC
  5
454
330
1B
100
AcDbEntity
 67
     1
  8
02___PRT_ALL_AXES
  6
Continuous
 62
     3
100
AcDbCircle
 10
86.6273576819
 20
78.259663515
 30
0.0
 40
1.0
100
AcDbArc
 50
90.0
 51
270.0
  0
ARC
  5
455
330
1B
100
AcDbEntity
 67
     1
  8
02___PRT_ALL_AXES
  6
Continuous
 62
     3
100
AcDbCircle
 10
81.4312052592
 20
78.259663515
 30
0.0
 40
1.0
100
AcDbArc
 50
270.0
 51
90.0
  0
ARC
  5
456
330
1B
100
AcDbEntity
 67
     1
  8
02___PRT_ALL_AXES
  6
Continuous
 62
     3
100
AcDbCircle
 10
81.4312052592
 20
78.259663515
 30
0.0
 40
1.0
100
AcDbArc
 50
90.0
 51
270.0
  0
ARC
  5
457
330
1B
100
AcDbEntity
 67
     1
  8
02___PRT_ALL_AXES
  6
Continuous
 62
     3
100
AcDbCircle
 10
84.0292814705
 20
79.759663515
 30
0.0
 40
1.0
100
AcDbArc
 50
270.0
 51
90.0
  0
ARC
  5
458
330
1B
100
AcDbEntity
 67
     1
  8
02___PRT_ALL_AXES
  6
Continuous
 62
     3
100
AcDbCircle
 10
84.0292814705
 20
79.759663515
 30
0.0
 40
1.0
100
AcDbArc
 50
90.0
 51
270.0
  0
ARC
  5
459
330
1B
100
AcDbEntity
 67
     1
  8
02___PRT_ALL_AXES
  6
Continuous
 62
     3
100
AcDbCircle
 10
86.6273576819
 20
81.259663515
 30
0.0
 40
1.0
100
AcDbArc
 50
270.0
 51
317.302448779
  0
ARC
  5
45A
330
1B
100
AcDbEntity
 67
     1
  8
02___PRT_ALL_AXES
  6
Continuous
 62
     3
100
AcDbCircle
 10
86.6273576819
 20
81.259663515
 30
0.0
 40
1.0
100
AcDbArc
 50
98.3476803428
 51
98.8956673559
  0
ARC
  5
45B
330
1B
100
AcDbEntity
 67
     1
  8
02___PRT_ALL_AXES
  6
Continuous
 62
     3
100
AcDbCircle
 10
86.6273576819
 20
81.259663515
 30
0.0
 40
1.0
100
AcDbArc
 50
98.8956673559
 51
270.0
  0
ARC
  5
45C
330
1B
100
AcDbEntity
 67
     1
  8
02___PRT_ALL_AXES
  6
Continuous
 62
     3
100
AcDbCircle
 10
78.8331290478
 20
79.759663515
 30
0.0
 40
1.0
100
AcDbArc
 50
270.0
 51
90.0
  0
ARC
  5
45D
330
1B
100
AcDbEntity
 67
     1
  8
02___PRT_ALL_AXES
  6
Continuous
 62
     3
100
AcDbCircle
 10
78.8331290478
 20
79.759663515
 30
0.0
 40
1.0
100
AcDbArc
 50
90.0
 51
270.0
  0
ARC
  5
45E
330
1B
100
AcDbEntity
 67
     1
  8
02___PRT_ALL_AXES
  6
Continuous
 62
     3
100
AcDbCircle
 10
81.4312052592
 20
81.259663515
 30
0.0
 40
1.0
100
AcDbArc
 50
270.0
 51
90.0
  0
ARC
  5
45F
330
1B
100
AcDbEntity
 67
     1
  8
02___PRT_ALL_AXES
  6
Continuous
 62
     3
100
AcDbCircle
 10
81.4312052592
 20
81.259663515
 30
0.0
 40
1.0
100
AcDbArc
 50
90.0
 51
270.0
  0
ARC
  5
460
330
1B
100
AcDbEntity
 67
     1
  8
02___PRT_ALL_AXES
  6
Continuous
 62
     3
100
AcDbCircle
 10
84.0292814705
 20
82.759663515
 30
0.0
 40
1.0
100
AcDbArc
 50
270.0
 51
90.0
  0
ARC
  5
461
330
1B
100
AcDbEntity
 67
     1
  8
02___PRT_ALL_AXES
  6
Continuous
 62
     3
100
AcDbCircle
 10
84.0292814705
 20
82.759663515
 30
0.0
 40
1.0
100
AcDbArc
 50
90.0
 51
270.0
  0
ARC
  5
462
330
1B
100
AcDbEntity
 67
     1
  8
02___PRT_ALL_AXES
  6
Continuous
 62
     3
100
AcDbCircle
 10
86.6273576819
 20
84.259663515
 30
0.0
 40
1.0
100
AcDbArc
 50
98.3476803428
 51
261.6523196572
  0
ARC
  5
463
330
1B
100
AcDbEntity
 67
     1
  8
02___PRT_ALL_AXES
  6
Continuous
 62
     3
100
AcDbCircle
 10
78.8331290478
 20
82.759663515
 30
0.0
 40
1.0
100
AcDbArc
 50
270.0
 51
90.0
  0
ARC
  5
464
330
1B
100
AcDbEntity
 67
     1
  8
02___PRT_ALL_AXES
  6
Continuous
 62
     3
100
AcDbCircle
 10
78.8331290478
 20
82.759663515
 30
0.0
 40
1.0
100
AcDbArc
 50
90.0
 51
270.0
  0
ARC
  5
465
330
1B
100
AcDbEntity
 67
     1
  8
02___PRT_ALL_AXES
  6
Continuous
 62
     3
100
AcDbCircle
 10
81.4312052592
 20
84.259663515
 30
0.0
 40
1.0
100
AcDbArc
 50
270.0
 51
90.0
  0
ARC
  5
466
330
1B
100
AcDbEntity
 67
     1
  8
02___PRT_ALL_AXES
  6
Continuous
 62
     3
100
AcDbCircle
 10
81.4312052592
 20
84.259663515
 30
0.0
 40
1.0
100
AcDbArc
 50
90.0
 51
270.0
  0
ARC
  5
467
330
1B
100
AcDbEntity
 67
     1
  8
02___PRT_ALL_AXES
  6
Continuous
 62
     3
100
AcDbCircle
 10
84.0292814705
 20
85.759663515
 30
0.0
 40
1.0
100
AcDbArc
 50
270.0
 51
90.0
  0
ARC
  5
468
330
1B
100
AcDbEntity
 67
     1
  8
02___PRT_ALL_AXES
  6
Continuous
 62
     3
100
AcDbCircle
 10
84.0292814705
 20
85.759663515
 30
0.0
 40
1.0
100
AcDbArc
 50
90.0
 51
270.0
  0
ARC
  5
469
330
1B
100
AcDbEntity
 67
     1
  8
02___PRT_ALL_AXES
  6
Continuous
 62
     3
100
AcDbCircle
 10
86.6273576819
 20
87.259663515
 30
0.0
 40
1.0
100
AcDbArc
 50
340.8809496937001
 51
90.0
  0
ARC
  5
46A
330
1B
100
AcDbEntity
 67
     1
  8
02___PRT_ALL_AXES
  6
Continuous
 62
     3
100
AcDbCircle
 10
86.6273576819
 20
87.259663515
 30
0.0
 40
1.0
100
AcDbArc
 50
90.0
 51
261.6523196572
  0
ARC
  5
46B
330
1B
100
AcDbEntity
 67
     1
  8
02___PRT_ALL_AXES
  6
Continuous
 62
     3
100
AcDbCircle
 10
73.6369766251
 20
82.759663515
 30
0.0
 40
1.0
100
AcDbArc
 50
270.0
 51
90.0
  0
ARC
  5
46C
330
1B
100
AcDbEntity
 67
     1
  8
02___PRT_ALL_AXES
  6
Continuous
 62
     3
100
AcDbCircle
 10
73.6369766251
 20
82.759663515
 30
0.0
 40
1.0
100
AcDbArc
 50
90.0
 51
270.0
  0
ARC
  5
46D
330
1B
100
AcDbEntity
 67
     1
  8
02___PRT_ALL_AXES
  6
Continuous
 62
     3
100
AcDbCircle
 10
76.2350528365
 20
81.259663515
 30
0.0
 40
1.0
100
AcDbArc
 50
270.0
 51
90.0
  0
ARC
  5
46E
330
1B
100
AcDbEntity
 67
     1
  8
02___PRT_ALL_AXES
  6
Continuous
 62
     3
100
AcDbCircle
 10
76.2350528365
 20
81.259663515
 30
0.0
 40
1.0
100
AcDbArc
 50
90.0
 51
270.0
  0
ARC
  5
46F
330
1B
100
AcDbEntity
 67
     1
  8
02___PRT_ALL_AXES
  6
Continuous
 62
     3
100
AcDbCircle
 10
78.8331290478
 20
85.759663515
 30
0.0
 40
1.0
100
AcDbArc
 50
270.0
 51
90.0
  0
ARC
  5
470
330
1B
100
AcDbEntity
 67
     1
  8
02___PRT_ALL_AXES
  6
Continuous
 62
     3
100
AcDbCircle
 10
78.8331290478
 20
85.759663515
 30
0.0
 40
1.0
100
AcDbArc
 50
90.0
 51
270.0
  0
ARC
  5
471
330
1B
100
AcDbEntity
 67
     1
  8
02___PRT_ALL_AXES
  6
Continuous
 62
     3
100
AcDbCircle
 10
81.4312052592
 20
87.259663515
 30
0.0
 40
1.0
100
AcDbArc
 50
270.0
 51
90.0
  0
ARC
  5
472
330
1B
100
AcDbEntity
 67
     1
  8
02___PRT_ALL_AXES
  6
Continuous
 62
     3
100
AcDbCircle
 10
81.4312052592
 20
87.259663515
 30
0.0
 40
1.0
100
AcDbArc
 50
90.0
 51
270.0
  0
ARC
  5
473
330
1B
100
AcDbEntity
 67
     1
  8
02___PRT_ALL_AXES
  6
Continuous
 62
     3
100
AcDbCircle
 10
84.0292814705
 20
88.759663515
 30
0.0
 40
1.0
100
AcDbArc
 50
270.0
 51
90.0
  0
ARC
  5
474
330
1B
100
AcDbEntity
 67
     1
  8
02___PRT_ALL_AXES
  6
Continuous
 62
     3
100
AcDbCircle
 10
84.0292814705
 20
88.759663515
 30
0.0
 40
1.0
100
AcDbArc
 50
90.0
 51
270.0
  0
ARC
  5
475
330
1B
100
AcDbEntity
 67
     1
  8
02___PRT_ALL_AXES
  6
Continuous
 62
     3
100
AcDbCircle
 10
86.6273576819
 20
90.259663515
 30
0.0
 40
1.0
100
AcDbArc
 50
270.0
 51
90.0
  0
ARC
  5
476
330
1B
100
AcDbEntity
 67
     1
  8
02___PRT_ALL_AXES
  6
Continuous
 62
     3
100
AcDbCircle
 10
86.6273576819
 20
90.259663515
 30
0.0
 40
1.0
100
AcDbArc
 50
90.0
 51
270.0
  0
ARC
  5
477
330
1B
100
AcDbEntity
 67
     1
  8
02___PRT_ALL_AXES
  6
Continuous
 62
     3
100
AcDbCircle
 10
73.6369766251
 20
85.759663515
 30
0.0
 40
1.0
100
AcDbArc
 50
270.0
 51
90.0
  0
ARC
  5
478
330
1B
100
AcDbEntity
 67
     1
  8
02___PRT_ALL_AXES
  6
Continuous
 62
     3
100
AcDbCircle
 10
73.6369766251
 20
85.759663515
 30
0.0
 40
1.0
100
AcDbArc
 50
90.0
 51
270.0
  0
ARC
  5
479
330
1B
100
AcDbEntity
 67
     1
  8
02___PRT_ALL_AXES
  6
Continuous
 62
     3
100
AcDbCircle
 10
76.2350528365
 20
84.259663515
 30
0.0
 40
1.0
100
AcDbArc
 50
270.0
 51
90.0
  0
ARC
  5
47A
330
1B
100
AcDbEntity
 67
     1
  8
02___PRT_ALL_AXES
  6
Continuous
 62
     3
100
AcDbCircle
 10
76.2350528365
 20
84.259663515
 30
0.0
 40
1.0
100
AcDbArc
 50
90.0
 51
270.0
  0
ARC
  5
47B
330
1B
100
AcDbEntity
 67
     1
  8
02___PRT_ALL_AXES
  6
Continuous
 62
     3
100
AcDbCircle
 10
78.8331290478
 20
88.759663515
 30
0.0
 40
1.0
100
AcDbArc
 50
270.0
 51
90.0
  0
ARC
  5
47C
330
1B
100
AcDbEntity
 67
     1
  8
02___PRT_ALL_AXES
  6
Continuous
 62
     3
100
AcDbCircle
 10
78.8331290478
 20
88.759663515
 30
0.0
 40
1.0
100
AcDbArc
 50
90.0
 51
270.0
  0
ARC
  5
47D
330
1B
100
AcDbEntity
 67
     1
  8
02___PRT_ALL_AXES
  6
Continuous
 62
     3
100
AcDbCircle
 10
81.4312052592
 20
90.259663515
 30
0.0
 40
1.0
100
AcDbArc
 50
270.0
 51
90.0
  0
ARC
  5
47E
330
1B
100
AcDbEntity
 67
     1
  8
02___PRT_ALL_AXES
  6
Continuous
 62
     3
100
AcDbCircle
 10
81.4312052592
 20
90.259663515
 30
0.0
 40
1.0
100
AcDbArc
 50
90.0
 51
270.0
  0
ARC
  5
47F
330
1B
100
AcDbEntity
 67
     1
  8
02___PRT_ALL_AXES
  6
Continuous
 62
     3
100
AcDbCircle
 10
84.0292814705
 20
91.759663515
 30
0.0
 40
1.0
100
AcDbArc
 50
270.0
 51
90.0
  0
ARC
  5
480
330
1B
100
AcDbEntity
 67
     1
  8
02___PRT_ALL_AXES
  6
Continuous
 62
     3
100
AcDbCircle
 10
84.0292814705
 20
91.759663515
 30
0.0
 40
1.0
100
AcDbArc
 50
90.0
 51
270.0
  0
ARC
  5
481
330
1B
100
AcDbEntity
 67
     1
  8
02___PRT_ALL_AXES
  6
Continuous
 62
     3
100
AcDbCircle
 10
86.6273576819
 20
93.259663515
 30
0.0
 40
1.0
100
AcDbArc
 50
270.0
 51
90.0
  0
ARC
  5
482
330
1B
100
AcDbEntity
 67
     1
  8
02___PRT_ALL_AXES
  6
Continuous
 62
     3
100
AcDbCircle
 10
86.6273576819
 20
93.259663515
 30
0.0
 40
1.0
100
AcDbArc
 50
90.0
 51
270.0
  0
ARC
  5
483
330
1B
100
AcDbEntity
 67
     1
  8
02___PRT_ALL_AXES
  6
Continuous
 62
     3
100
AcDbCircle
 10
73.6369766251
 20
88.759663515
 30
0.0
 40
1.0
100
AcDbArc
 50
270.0
 51
90.0
  0
ARC
  5
484
330
1B
100
AcDbEntity
 67
     1
  8
02___PRT_ALL_AXES
  6
Continuous
 62
     3
100
AcDbCircle
 10
73.6369766251
 20
88.759663515
 30
0.0
 40
1.0
100
AcDbArc
 50
90.0
 51
270.0
  0
ARC
  5
485
330
1B
100
AcDbEntity
 67
     1
  8
02___PRT_ALL_AXES
  6
Continuous
 62
     3
100
AcDbCircle
 10
76.2350528365
 20
87.259663515
 30
0.0
 40
1.0
100
AcDbArc
 50
270.0
 51
90.0
  0
ARC
  5
486
330
1B
100
AcDbEntity
 67
     1
  8
02___PRT_ALL_AXES
  6
Continuous
 62
     3
100
AcDbCircle
 10
76.2350528365
 20
87.259663515
 30
0.0
 40
1.0
100
AcDbArc
 50
90.0
 51
270.0
  0
ARC
  5
487
330
1B
100
AcDbEntity
 67
     1
  8
02___PRT_ALL_AXES
  6
Continuous
 62
     3
100
AcDbCircle
 10
78.8331290478
 20
91.759663515
 30
0.0
 40
1.0
100
AcDbArc
 50
270.0
 51
90.0
  0
ARC
  5
488
330
1B
100
AcDbEntity
 67
     1
  8
02___PRT_ALL_AXES
  6
Continuous
 62
     3
100
AcDbCircle
 10
78.8331290478
 20
91.759663515
 30
0.0
 40
1.0
100
AcDbArc
 50
90.0
 51
270.0
  0
ARC
  5
489
330
1B
100
AcDbEntity
 67
     1
  8
02___PRT_ALL_AXES
  6
Continuous
 62
     3
100
AcDbCircle
 10
81.4312052592
 20
93.259663515
 30
0.0
 40
1.0
100
AcDbArc
 50
270.0
 51
90.0
  0
ARC
  5
48A
330
1B
100
AcDbEntity
 67
     1
  8
02___PRT_ALL_AXES
  6
Continuous
 62
     3
100
AcDbCircle
 10
81.4312052592
 20
93.259663515
 30
0.0
 40
1.0
100
AcDbArc
 50
90.0
 51
270.0
  0
ARC
  5
48B
330
1B
100
AcDbEntity
 67
     1
  8
02___PRT_ALL_AXES
  6
Continuous
 62
     3
100
AcDbCircle
 10
84.0292814705
 20
94.759663515
 30
0.0
 40
1.0
100
AcDbArc
 50
270.0
 51
90.0
  0
ARC
  5
48C
330
1B
100
AcDbEntity
 67
     1
  8
02___PRT_ALL_AXES
  6
Continuous
 62
     3
100
AcDbCircle
 10
84.0292814705
 20
94.759663515
 30
0.0
 40
1.0
100
AcDbArc
 50
90.0
 51
270.0
  0
ARC
  5
48D
330
1B
100
AcDbEntity
 67
     1
  8
02___PRT_ALL_AXES
  6
Continuous
 62
     3
100
AcDbCircle
 10
73.6369766251
 20
91.759663515
 30
0.0
 40
1.0
100
AcDbArc
 50
270.0
 51
90.0
  0
ARC
  5
48E
330
1B
100
AcDbEntity
 67
     1
  8
02___PRT_ALL_AXES
  6
Continuous
 62
     3
100
AcDbCircle
 10
73.6369766251
 20
91.759663515
 30
0.0
 40
1.0
100
AcDbArc
 50
90.0
 51
270.0
  0
ARC
  5
48F
330
1B
100
AcDbEntity
 67
     1
  8
02___PRT_ALL_AXES
  6
Continuous
 62
     3
100
AcDbCircle
 10
76.2350528365
 20
90.259663515
 30
0.0
 40
1.0
100
AcDbArc
 50
270.0
 51
90.0
  0
ARC
  5
490
330
1B
100
AcDbEntity
 67
     1
  8
02___PRT_ALL_AXES
  6
Continuous
 62
     3
100
AcDbCircle
 10
76.2350528365
 20
90.259663515
 30
0.0
 40
1.0
100
AcDbArc
 50
90.0
 51
270.0
  0
ARC
  5
491
330
1B
100
AcDbEntity
 67
     1
  8
02___PRT_ALL_AXES
  6
Continuous
 62
     3
100
AcDbCircle
 10
76.2350528365
 20
93.259663515
 30
0.0
 40
1.0
100
AcDbArc
 50
270.0
 51
90.0
  0
ARC
  5
492
330
1B
100
AcDbEntity
 67
     1
  8
02___PRT_ALL_AXES
  6
Continuous
 62
     3
100
AcDbCircle
 10
76.2350528365
 20
93.259663515
 30
0.0
 40
1.0
100
AcDbArc
 50
90.0
 51
270.0
  0
ARC
  5
493
330
1B
100
AcDbEntity
 67
     1
  8
02___PRT_ALL_AXES
  6
Continuous
 62
     3
100
AcDbCircle
 10
84.0292814705
 20
112.759663515
 30
0.0
 40
1.0
100
AcDbArc
 50
270.0
 51
90.0
  0
ARC
  5
494
330
1B
100
AcDbEntity
 67
     1
  8
02___PRT_ALL_AXES
  6
Continuous
 62
     3
100
AcDbCircle
 10
84.0292814705
 20
112.759663515
 30
0.0
 40
1.0
100
AcDbArc
 50
90.0
 51
270.0
  0
ARC
  5
495
330
1B
100
AcDbEntity
 67
     1
  8
02___PRT_ALL_AXES
  6
Continuous
 62
     3
100
AcDbCircle
 10
86.6273576819
 20
114.259663515
 30
0.0
 40
1.0
100
AcDbArc
 50
270.0
 51
90.0
  0
ARC
  5
496
330
1B
100
AcDbEntity
 67
     1
  8
02___PRT_ALL_AXES
  6
Continuous
 62
     3
100
AcDbCircle
 10
86.6273576819
 20
114.259663515
 30
0.0
 40
1.0
100
AcDbArc
 50
90.0
 51
270.0
  0
ARC
  5
497
330
1B
100
AcDbEntity
 67
     1
  8
02___PRT_ALL_AXES
  6
Continuous
 62
     3
100
AcDbCircle
 10
81.4312052592
 20
114.259663515
 30
0.0
 40
1.0
100
AcDbArc
 50
270.0
 51
90.0
  0
ARC
  5
498
330
1B
100
AcDbEntity
 67
     1
  8
02___PRT_ALL_AXES
  6
Continuous
 62
     3
100
AcDbCircle
 10
81.4312052592
 20
114.259663515
 30
0.0
 40
1.0
100
AcDbArc
 50
90.0
 51
270.0
  0
ARC
  5
499
330
1B
100
AcDbEntity
 67
     1
  8
02___PRT_ALL_AXES
  6
Continuous
 62
     3
100
AcDbCircle
 10
84.0292814705
 20
115.759663515
 30
0.0
 40
1.0
100
AcDbArc
 50
270.0
 51
90.0
  0
ARC
  5
49A
330
1B
100
AcDbEntity
 67
     1
  8
02___PRT_ALL_AXES
  6
Continuous
 62
     3
100
AcDbCircle
 10
84.0292814705
 20
115.759663515
 30
0.0
 40
1.0
100
AcDbArc
 50
90.0
 51
270.0
  0
ARC
  5
49B
330
1B
100
AcDbEntity
 67
     1
  8
02___PRT_ALL_AXES
  6
Continuous
 62
     3
100
AcDbCircle
 10
86.6273576819
 20
117.259663515
 30
0.0
 40
1.0
100
AcDbArc
 50
270.0
 51
90.0
  0
ARC
  5
49C
330
1B
100
AcDbEntity
 67
     1
  8
02___PRT_ALL_AXES
  6
Continuous
 62
     3
100
AcDbCircle
 10
86.6273576819
 20
117.259663515
 30
0.0
 40
1.0
100
AcDbArc
 50
90.0
 51
270.0
  0
ARC
  5
49D
330
1B
100
AcDbEntity
 67
     1
  8
02___PRT_ALL_AXES
  6
Continuous
 62
     3
100
AcDbCircle
 10
78.8331290478
 20
115.759663515
 30
0.0
 40
1.0
100
AcDbArc
 50
270.0
 51
90.0
  0
ARC
  5
49E
330
1B
100
AcDbEntity
 67
     1
  8
02___PRT_ALL_AXES
  6
Continuous
 62
     3
100
AcDbCircle
 10
78.8331290478
 20
115.759663515
 30
0.0
 40
1.0
100
AcDbArc
 50
90.0
 51
270.0
  0
ARC
  5
49F
330
1B
100
AcDbEntity
 67
     1
  8
02___PRT_ALL_AXES
  6
Continuous
 62
     3
100
AcDbCircle
 10
81.4312052592
 20
117.259663515
 30
0.0
 40
1.0
100
AcDbArc
 50
270.0
 51
90.0
  0
ARC
  5
4A0
330
1B
100
AcDbEntity
 67
     1
  8
02___PRT_ALL_AXES
  6
Continuous
 62
     3
100
AcDbCircle
 10
81.4312052592
 20
117.259663515
 30
0.0
 40
1.0
100
AcDbArc
 50
90.0
 51
270.0
  0
ARC
  5
4A1
330
1B
100
AcDbEntity
 67
     1
  8
02___PRT_ALL_AXES
  6
Continuous
 62
     3
100
AcDbCircle
 10
84.0292814705
 20
118.759663515
 30
0.0
 40
1.0
100
AcDbArc
 50
270.0
 51
90.0
  0
ARC
  5
4A2
330
1B
100
AcDbEntity
 67
     1
  8
02___PRT_ALL_AXES
  6
Continuous
 62
     3
100
AcDbCircle
 10
84.0292814705
 20
118.759663515
 30
0.0
 40
1.0
100
AcDbArc
 50
90.0
 51
270.0
  0
ARC
  5
4A3
330
1B
100
AcDbEntity
 67
     1
  8
02___PRT_ALL_AXES
  6
Continuous
 62
     3
100
AcDbCircle
 10
86.6273576819
 20
120.259663515
 30
0.0
 40
1.0
100
AcDbArc
 50
270.0
 51
19.1190503063
  0
ARC
  5
4A4
330
1B
100
AcDbEntity
 67
     1
  8
02___PRT_ALL_AXES
  6
Continuous
 62
     3
100
AcDbCircle
 10
86.6273576819
 20
120.259663515
 30
0.0
 40
1.0
100
AcDbArc
 50
98.3476803428
 51
270.0
  0
ARC
  5
4A5
330
1B
100
AcDbEntity
 67
     1
  8
02___PRT_ALL_AXES
  6
Continuous
 62
     3
100
AcDbCircle
 10
86.6273576819
 20
123.259663515
 30
0.0
 40
1.0
100
AcDbArc
 50
98.3476803428
 51
261.6523196572
  0
ARC
  5
4A6
330
1B
100
AcDbEntity
 67
     1
  8
02___PRT_ALL_AXES
  6
Continuous
 62
     3
100
AcDbCircle
 10
86.6273576819
 20
126.259663515
 30
0.0
 40
1.0
100
AcDbArc
 50
42.697551221
 51
90.0
  0
ARC
  5
4A7
330
1B
100
AcDbEntity
 67
     1
  8
02___PRT_ALL_AXES
  6
Continuous
 62
     3
100
AcDbCircle
 10
86.6273576819
 20
126.259663515
 30
0.0
 40
1.0
100
AcDbArc
 50
90.0
 51
261.1043326441
  0
ARC
  5
4A8
330
1B
100
AcDbEntity
 67
     1
  8
02___PRT_ALL_AXES
  6
Continuous
 62
     3
100
AcDbCircle
 10
86.6273576819
 20
126.259663515
 30
0.0
 40
1.0
100
AcDbArc
 50
261.1043326441
 51
261.6523196572
  0
ARC
  5
4A9
330
1B
100
AcDbEntity
 67
     1
  8
02___PRT_ALL_AXES
  6
Continuous
 62
     3
100
AcDbCircle
 10
86.6273576819
 20
129.259663515
 30
0.0
 40
1.0
100
AcDbArc
 50
270.0
 51
90.0
  0
ARC
  5
4AA
330
1B
100
AcDbEntity
 67
     1
  8
02___PRT_ALL_AXES
  6
Continuous
 62
     3
100
AcDbCircle
 10
86.6273576819
 20
129.259663515
 30
0.0
 40
1.0
100
AcDbArc
 50
90.0
 51
270.0
  0
ARC
  5
4AB
330
1B
100
AcDbEntity
 67
     1
  8
02___PRT_ALL_AXES
  6
Continuous
 62
     3
100
AcDbCircle
 10
73.6369766251
 20
115.759663515
 30
0.0
 40
1.0
100
AcDbArc
 50
270.0
 51
90.0
  0
ARC
  5
4AC
330
1B
100
AcDbEntity
 67
     1
  8
02___PRT_ALL_AXES
  6
Continuous
 62
     3
100
AcDbCircle
 10
73.6369766251
 20
115.759663515
 30
0.0
 40
1.0
100
AcDbArc
 50
90.0
 51
270.0
  0
ARC
  5
4AD
330
1B
100
AcDbEntity
 67
     1
  8
02___PRT_ALL_AXES
  6
Continuous
 62
     3
100
AcDbCircle
 10
76.2350528365
 20
114.259663515
 30
0.0
 40
1.0
100
AcDbArc
 50
270.0
 51
90.0
  0
ARC
  5
4AE
330
1B
100
AcDbEntity
 67
     1
  8
02___PRT_ALL_AXES
  6
Continuous
 62
     3
100
AcDbCircle
 10
76.2350528365
 20
114.259663515
 30
0.0
 40
1.0
100
AcDbArc
 50
90.0
 51
270.0
  0
ARC
  5
4AF
330
1B
100
AcDbEntity
 67
     1
  8
02___PRT_ALL_AXES
  6
Continuous
 62
     3
100
AcDbCircle
 10
78.8331290478
 20
118.759663515
 30
0.0
 40
1.0
100
AcDbArc
 50
270.0
 51
90.0
  0
ARC
  5
4B0
330
1B
100
AcDbEntity
 67
     1
  8
02___PRT_ALL_AXES
  6
Continuous
 62
     3
100
AcDbCircle
 10
78.8331290478
 20
118.759663515
 30
0.0
 40
1.0
100
AcDbArc
 50
90.0
 51
270.0
  0
ARC
  5
4B1
330
1B
100
AcDbEntity
 67
     1
  8
02___PRT_ALL_AXES
  6
Continuous
 62
     3
100
AcDbCircle
 10
81.4312052592
 20
120.259663515
 30
0.0
 40
1.0
100
AcDbArc
 50
270.0
 51
90.0
  0
ARC
  5
4B2
330
1B
100
AcDbEntity
 67
     1
  8
02___PRT_ALL_AXES
  6
Continuous
 62
     3
100
AcDbCircle
 10
81.4312052592
 20
120.259663515
 30
0.0
 40
1.0
100
AcDbArc
 50
90.0
 51
270.0
  0
ARC
  5
4B3
330
1B
100
AcDbEntity
 67
     1
  8
02___PRT_ALL_AXES
  6
Continuous
 62
     3
100
AcDbCircle
 10
84.0292814705
 20
121.759663515
 30
0.0
 40
1.0
100
AcDbArc
 50
270.0
 51
90.0
  0
ARC
  5
4B4
330
1B
100
AcDbEntity
 67
     1
  8
02___PRT_ALL_AXES
  6
Continuous
 62
     3
100
AcDbCircle
 10
84.0292814705
 20
121.759663515
 30
0.0
 40
1.0
100
AcDbArc
 50
90.0
 51
270.0
  0
ARC
  5
4B5
330
1B
100
AcDbEntity
 67
     1
  8
02___PRT_ALL_AXES
  6
Continuous
 62
     3
100
AcDbCircle
 10
84.0292814705
 20
124.759663515
 30
0.0
 40
1.0
100
AcDbArc
 50
270.0
 51
90.0
  0
ARC
  5
4B6
330
1B
100
AcDbEntity
 67
     1
  8
02___PRT_ALL_AXES
  6
Continuous
 62
     3
100
AcDbCircle
 10
84.0292814705
 20
124.759663515
 30
0.0
 40
1.0
100
AcDbArc
 50
90.0
 51
270.0
  0
ARC
  5
4B7
330
1B
100
AcDbEntity
 67
     1
  8
02___PRT_ALL_AXES
  6
Continuous
 62
     3
100
AcDbCircle
 10
84.0292814705
 20
127.759663515
 30
0.0
 40
1.0
100
AcDbArc
 50
270.0
 51
90.0
  0
ARC
  5
4B8
330
1B
100
AcDbEntity
 67
     1
  8
02___PRT_ALL_AXES
  6
Continuous
 62
     3
100
AcDbCircle
 10
84.0292814705
 20
127.759663515
 30
0.0
 40
1.0
100
AcDbArc
 50
90.0
 51
270.0
  0
ARC
  5
4B9
330
1B
100
AcDbEntity
 67
     1
  8
02___PRT_ALL_AXES
  6
Continuous
 62
     3
100
AcDbCircle
 10
73.6369766251
 20
118.759663515
 30
0.0
 40
1.0
100
AcDbArc
 50
270.0
 51
90.0
  0
ARC
  5
4BA
330
1B
100
AcDbEntity
 67
     1
  8
02___PRT_ALL_AXES
  6
Continuous
 62
     3
100
AcDbCircle
 10
73.6369766251
 20
118.759663515
 30
0.0
 40
1.0
100
AcDbArc
 50
90.0
 51
270.0
  0
ARC
  5
4BB
330
1B
100
AcDbEntity
 67
     1
  8
02___PRT_ALL_AXES
  6
Continuous
 62
     3
100
AcDbCircle
 10
76.2350528365
 20
126.259663515
 30
0.0
 40
1.0
100
AcDbArc
 50
90.0
 51
270.0
  0
ARC
  5
4BC
330
1B
100
AcDbEntity
 67
     1
  8
02___PRT_ALL_AXES
  6
Continuous
 62
     3
100
AcDbCircle
 10
76.2350528365
 20
126.259663515
 30
0.0
 40
1.0
100
AcDbArc
 50
270.0
 51
90.0
  0
ARC
  5
4BD
330
1B
100
AcDbEntity
 67
     1
  8
02___PRT_ALL_AXES
  6
Continuous
 62
     3
100
AcDbCircle
 10
76.2350528365
 20
123.259663515
 30
0.0
 40
1.0
100
AcDbArc
 50
90.0
 51
270.0
  0
ARC
  5
4BE
330
1B
100
AcDbEntity
 67
     1
  8
02___PRT_ALL_AXES
  6
Continuous
 62
     3
100
AcDbCircle
 10
76.2350528365
 20
123.259663515
 30
0.0
 40
1.0
100
AcDbArc
 50
270.0
 51
90.0
  0
ARC
  5
4BF
330
1B
100
AcDbEntity
 67
     1
  8
02___PRT_ALL_AXES
  6
Continuous
 62
     3
100
AcDbCircle
 10
73.6369766251
 20
124.759663515
 30
0.0
 40
1.0
100
AcDbArc
 50
90.0
 51
270.0
  0
ARC
  5
4C0
330
1B
100
AcDbEntity
 67
     1
  8
02___PRT_ALL_AXES
  6
Continuous
 62
     3
100
AcDbCircle
 10
73.6369766251
 20
124.759663515
 30
0.0
 40
1.0
100
AcDbArc
 50
270.0
 51
90.0
  0
ARC
  5
4C1
330
1B
100
AcDbEntity
 67
     1
  8
02___PRT_ALL_AXES
  6
Continuous
 62
     3
100
AcDbCircle
 10
78.8331290478
 20
127.759663515
 30
0.0
 40
1.0
100
AcDbArc
 50
90.0
 51
270.0
  0
ARC
  5
4C2
330
1B
100
AcDbEntity
 67
     1
  8
02___PRT_ALL_AXES
  6
Continuous
 62
     3
100
AcDbCircle
 10
78.8331290478
 20
127.759663515
 30
0.0
 40
1.0
100
AcDbArc
 50
270.0
 51
90.0
  0
ARC
  5
4C3
330
1B
100
AcDbEntity
 67
     1
  8
02___PRT_ALL_AXES
  6
Continuous
 62
     3
100
AcDbCircle
 10
78.8331290478
 20
124.759663515
 30
0.0
 40
1.0
100
AcDbArc
 50
90.0
 51
270.0
  0
ARC
  5
4C4
330
1B
100
AcDbEntity
 67
     1
  8
02___PRT_ALL_AXES
  6
Continuous
 62
     3
100
AcDbCircle
 10
78.8331290478
 20
124.759663515
 30
0.0
 40
1.0
100
AcDbArc
 50
270.0
 51
90.0
  0
ARC
  5
4C5
330
1B
100
AcDbEntity
 67
     1
  8
02___PRT_ALL_AXES
  6
Continuous
 62
     3
100
AcDbCircle
 10
76.2350528365
 20
120.259663515
 30
0.0
 40
1.0
100
AcDbArc
 50
90.0
 51
270.0
  0
ARC
  5
4C6
330
1B
100
AcDbEntity
 67
     1
  8
02___PRT_ALL_AXES
  6
Continuous
 62
     3
100
AcDbCircle
 10
76.2350528365
 20
120.259663515
 30
0.0
 40
1.0
100
AcDbArc
 50
270.0
 51
90.0
  0
ARC
  5
4C7
330
1B
100
AcDbEntity
 67
     1
  8
02___PRT_ALL_AXES
  6
Continuous
 62
     3
100
AcDbCircle
 10
73.6369766251
 20
121.759663515
 30
0.0
 40
1.0
100
AcDbArc
 50
90.0
 51
270.0
  0
ARC
  5
4C8
330
1B
100
AcDbEntity
 67
     1
  8
02___PRT_ALL_AXES
  6
Continuous
 62
     3
100
AcDbCircle
 10
73.6369766251
 20
121.759663515
 30
0.0
 40
1.0
100
AcDbArc
 50
270.0
 51
90.0
  0
ARC
  5
4C9
330
1B
100
AcDbEntity
 67
     1
  8
02___PRT_ALL_AXES
  6
Continuous
 62
     3
100
AcDbCircle
 10
81.4312052592
 20
129.259663515
 30
0.0
 40
1.0
100
AcDbArc
 50
90.0
 51
270.0
  0
ARC
  5
4CA
330
1B
100
AcDbEntity
 67
     1
  8
02___PRT_ALL_AXES
  6
Continuous
 62
     3
100
AcDbCircle
 10
81.4312052592
 20
129.259663515
 30
0.0
 40
1.0
100
AcDbArc
 50
270.0
 51
90.0
  0
ARC
  5
4CB
330
1B
100
AcDbEntity
 67
     1
  8
02___PRT_ALL_AXES
  6
Continuous
 62
     3
100
AcDbCircle
 10
81.4312052592
 20
126.259663515
 30
0.0
 40
1.0
100
AcDbArc
 50
90.0
 51
270.0
  0
ARC
  5
4CC
330
1B
100
AcDbEntity
 67
     1
  8
02___PRT_ALL_AXES
  6
Continuous
 62
     3
100
AcDbCircle
 10
81.4312052592
 20
126.259663515
 30
0.0
 40
1.0
100
AcDbArc
 50
270.0
 51
90.0
  0
ARC
  5
4CD
330
1B
100
AcDbEntity
 67
     1
  8
02___PRT_ALL_AXES
  6
Continuous
 62
     3
100
AcDbCircle
 10
81.4312052592
 20
123.259663515
 30
0.0
 40
1.0
100
AcDbArc
 50
90.0
 51
270.0
  0
ARC
  5
4CE
330
1B
100
AcDbEntity
 67
     1
  8
02___PRT_ALL_AXES
  6
Continuous
 62
     3
100
AcDbCircle
 10
81.4312052592
 20
123.259663515
 30
0.0
 40
1.0
100
AcDbArc
 50
270.0
 51
90.0
  0
ARC
  5
4CF
330
1B
100
AcDbEntity
 67
     1
  8
02___PRT_ALL_AXES
  6
Continuous
 62
     3
100
AcDbCircle
 10
78.8331290478
 20
121.759663515
 30
0.0
 40
1.0
100
AcDbArc
 50
90.0
 51
270.0
  0
ARC
  5
4D0
330
1B
100
AcDbEntity
 67
     1
  8
02___PRT_ALL_AXES
  6
Continuous
 62
     3
100
AcDbCircle
 10
78.8331290478
 20
121.759663515
 30
0.0
 40
1.0
100
AcDbArc
 50
270.0
 51
90.0
  0
ARC
  5
4D1
330
1B
100
AcDbEntity
 67
     1
  8
02___PRT_ALL_AXES
  6
Continuous
 62
     3
100
AcDbCircle
 10
76.2350528365
 20
117.259663515
 30
0.0
 40
1.0
100
AcDbArc
 50
90.0
 51
270.0
  0
ARC
  5
4D2
330
1B
100
AcDbEntity
 67
     1
  8
02___PRT_ALL_AXES
  6
Continuous
 62
     3
100
AcDbCircle
 10
76.2350528365
 20
117.259663515
 30
0.0
 40
1.0
100
AcDbArc
 50
270.0
 51
90.0
  0
LINE
  5
4D3
330
1B
100
AcDbEntity
 67
     1
  8
7_ALL_FEATURES
  6
Continuous
 62
     9
100
AcDbLine
 10
89.6350528365
 20
132.759663515
 30
0.0
 11
89.6350528365
 21
127.4998558939
 31
0.0
  0
LINE
  5
4D4
330
1B
100
AcDbEntity
 67
     1
  8
7_ALL_FEATURES
  6
Continuous
 62
     9
100
AcDbLine
 10
89.6350528365
 20
120.0194711362
 30
0.0
 11
89.6350528365
 21
87.4998558939
 31
0.0
  0
LINE
  5
4D5
330
1B
100
AcDbEntity
 67
     1
  8
7_ALL_FEATURES
  6
Continuous
 62
     9
100
AcDbLine
 10
89.6350528365
 20
80.0194711362
 30
0.0
 11
89.6350528365
 21
74.759663515
 31
0.0
  0
LINE
  5
4D6
330
1B
100
AcDbEntity
 67
     1
  8
7_ALL_FEATURES
  6
Continuous
 62
     3
100
AcDbLine
 10
160.2350528365
 20
68.759663515
 30
0.0
 11
93.2350528365
 21
68.759663515
 31
0.0
  0
LINE
  5
4D7
330
1B
100
AcDbEntity
 67
     1
  8
7_ALL_FEATURES
  6
Continuous
 62
     3
100
AcDbLine
 10
91.2350528365
 20
70.759663515
 30
0.0
 11
91.2350528365
 21
136.759663515
 31
0.0
  0
ARC
  5
4D8
330
1B
100
AcDbEntity
 67
     1
  8
7_ALL_FEATURES
  6
Continuous
 62
     3
100
AcDbCircle
 10
93.2350528365
 20
70.759663515
 30
0.0
 40
2.0
100
AcDbArc
 50
180.0
 51
270.0
  0
LINE
  5
4D9
330
1B
100
AcDbEntity
 67
     1
  8
7_ALL_FEATURES
  6
Continuous
 62
     3
100
AcDbLine
 10
93.2350528365
 20
138.759663515
 30
0.0
 11
159.2350528365
 21
138.759663515
 31
0.0
  0
ARC
  5
4DA
330
1B
100
AcDbEntity
 67
     1
  8
7_ALL_FEATURES
  6
Continuous
 62
     3
100
AcDbCircle
 10
93.2350528365
 20
136.759663515
 30
0.0
 40
2.0
100
AcDbArc
 50
90.0
 51
180.0
  0
LINE
  5
4DB
330
1B
100
AcDbEntity
 67
     1
  8
7_ALL_FEATURES
  6
Continuous
 62
     3
100
AcDbLine
 10
161.2350528365
 20
136.759663515
 30
0.0
 11
161.2350528365
 21
68.759663515
 31
0.0
  0
ARC
  5
4DC
330
1B
100
AcDbEntity
 67
     1
  8
7_ALL_FEATURES
  6
Continuous
 62
     3
100
AcDbCircle
 10
159.2350528365
 20
136.759663515
 30
0.0
 40
2.0
100
AcDbArc
 50
0.0
 51
90.0
  0
LINE
  5
4DD
330
1B
100
AcDbEntity
 67
     1
  8
7_ALL_FEATURES
  6
Continuous
 62
     7
100
AcDbLine
 10
86.4850528365
 20
231.5181169077
 30
0.0
 11
86.4850528365
 21
234.2681169077
 31
0.0
  0
LINE
  5
4DE
330
1B
100
AcDbEntity
 67
     1
  8
7_ALL_FEATURES
  6
Continuous
 62
     7
100
AcDbLine
 10
86.4850528365
 20
228.7681169077
 30
0.0
 11
86.4850528365
 21
231.5181169077
 31
0.0
  0
LINE
  5
4DF
330
1B
100
AcDbEntity
 67
     1
  8
7_ALL_FEATURES
  6
Continuous
 62
     7
100
AcDbLine
 10
89.3089850931
 20
228.7681169077
 30
0.0
 11
86.4850528365
 21
228.7681169077
 31
0.0
  0
LINE
  5
4E0
330
1B
100
AcDbEntity
 67
     1
  8
7_ALL_FEATURES
  6
Continuous
 62
     7
100
AcDbLine
 10
89.7850528365
 20
227.5181169077
 30
0.0
 11
89.063365
 21
228.7681169077
 31
0.0
  0
LINE
  5
4E1
330
1B
100
AcDbEntity
 67
     1
  8
7_ALL_FEATURES
  6
Continuous
 62
     7
100
AcDbLine
 10
89.3089850931
 20
234.2681169077
 30
0.0
 11
86.4850528365
 21
234.2681169077
 31
0.0
  0
LINE
  5
4E2
330
1B
100
AcDbEntity
 67
     1
  8
7_ALL_FEATURES
  6
Continuous
 62
     7
100
AcDbLine
 10
89.7850528365
 20
235.5181169077
 30
0.0
 11
89.063365
 21
234.2681169076
 31
0.0
  0
LINE
  5
4E3
330
1B
100
AcDbEntity
 67
     1
  8
7_ALL_FEATURES
  6
Continuous
 62
     7
100
AcDbLine
 10
90.4350528365
 20
227.5181169077
 30
0.0
 11
89.7850528365
 21
227.5181169077
 31
0.0
  0
LINE
  5
4E4
330
1B
100
AcDbEntity
 67
     1
  8
7_ALL_FEATURES
  6
Continuous
 62
     7
100
AcDbLine
 10
90.4350528365
 20
235.5181169077
 30
0.0
 11
89.7850528365
 21
235.5181169077
 31
0.0
  0
LINE
  5
4E5
330
1B
100
AcDbEntity
 67
     1
  8
7_ALL_FEATURES
  6
Continuous
 62
     7
100
AcDbLine
 10
89.7850528365
 20
235.5181169077
 30
0.0
 11
89.7850528365
 21
227.5181169077
 31
0.0
  0
SPLINE
  5
4E6
330
1B
100
AcDbEntity
 67
     1
  8
7_ALL_FEATURES
  6
Continuous
 62
     7
100
AcDbSpline
 70
     0
 71
     3
 72
    13
 73
     9
 74
     0
 42
0.000000001
 43
0.0000001
 40
0.0
 40
0.0
 40
0.0
 40
0.0
 40
0.2507996353
 40
0.3755376719
 40
0.5
 40
0.6244623281
 40
0.7492003646
 40
1.0
 40
1.0
 40
1.0
 40
1.0
 10
89.3089850931
 20
231.5181169077
 30
0.0
 10
89.2348480437
 20
231.2957057595
 30
0.0
 10
89.1416888133
 20
230.9556907106
 30
0.0
 10
89.0748595296
 20
230.4925499716
 30
0.0
 10
89.0576315098
 20
230.1431169077
 30
0.0
 10
89.0748595295
 20
229.7936838438
 30
0.0
 10
89.1416888133
 20
229.3305431048
 30
0.0
 10
89.2348480437
 20
228.9905280559
 30
0.0
 10
89.3089850931
 20
228.7681169077
 30
0.0
  0
LINE
  5
4E7
330
1B
100
AcDbEntity
 67
     1
  8
7_ALL_FEATURES
  6
Continuous
 62
     7
100
AcDbLine
 10
89.3089850931
 20
231.5181169077
 30
0.0
 11
86.4850528365
 21
231.5181169077
 31
0.0
  0
SPLINE
  5
4E8
330
1B
100
AcDbEntity
 67
     1
  8
7_ALL_FEATURES
  6
Continuous
 62
     7
100
AcDbSpline
 70
     0
 71
     3
 72
    13
 73
     9
 74
     0
 42
0.000000001
 43
0.0000001
 40
0.0
 40
0.0
 40
0.0
 40
0.0
 40
0.2507996353
 40
0.3755376719
 40
0.5
 40
0.6244623281
 40
0.7492003646
 40
1.0
 40
1.0
 40
1.0
 40
1.0
 10
89.3089850931
 20
234.2681169077
 30
0.0
 10
89.2348480437
 20
234.0457057595
 30
0.0
 10
89.1416888133
 20
233.7056907106
 30
0.0
 10
89.0748595296
 20
233.2425499716
 30
0.0
 10
89.0576315098
 20
232.8931169077
 30
0.0
 10
89.0748595295
 20
232.5436838438
 30
0.0
 10
89.1416888133
 20
232.0805431048
 30
0.0
 10
89.2348480437
 20
231.7405280559
 30
0.0
 10
89.3089850931
 20
231.5181169077
 30
0.0
  0
LINE
  5
4E9
330
1B
100
AcDbEntity
 67
     1
  8
7_ALL_FEATURES
  6
Continuous
 62
     7
100
AcDbLine
 10
165.9850528365
 20
231.5181169077
 30
0.0
 11
165.9850528365
 21
228.7681169077
 31
0.0
  0
LINE
  5
4EA
330
1B
100
AcDbEntity
 67
     1
  8
7_ALL_FEATURES
  6
Continuous
 62
     7
100
AcDbLine
 10
165.9850528365
 20
234.2681169077
 30
0.0
 11
165.9850528365
 21
231.5181169077
 31
0.0
  0
LINE
  5
4EB
330
1B
100
AcDbEntity
 67
     1
  8
7_ALL_FEATURES
  6
Continuous
 62
     7
100
AcDbLine
 10
163.1611205799
 20
234.2681169077
 30
0.0
 11
165.9850528365
 21
234.2681169077
 31
0.0
  0
LINE
  5
4EC
330
1B
100
AcDbEntity
 67
     1
  8
7_ALL_FEATURES
  6
Continuous
 62
     7
100
AcDbLine
 10
162.6850528365
 20
235.5181169077
 30
0.0
 11
163.406740673
 21
234.2681169077
 31
0.0
  0
LINE
  5
4ED
330
1B
100
AcDbEntity
 67
     1
  8
7_ALL_FEATURES
  6
Continuous
 62
     7
100
AcDbLine
 10
163.1611205799
 20
228.7681169077
 30
0.0
 11
165.9850528365
 21
228.7681169077
 31
0.0
  0
LINE
  5
4EE
330
1B
100
AcDbEntity
 67
     1
  8
7_ALL_FEATURES
  6
Continuous
 62
     7
100
AcDbLine
 10
162.6850528365
 20
227.5181169077
 30
0.0
 11
163.406740673
 21
228.7681169077
 31
0.0
  0
LINE
  5
4EF
330
1B
100
AcDbEntity
 67
     1
  8
7_ALL_FEATURES
  6
Continuous
 62
     7
100
AcDbLine
 10
162.0350528365
 20
235.5181169077
 30
0.0
 11
162.6850528365
 21
235.5181169077
 31
0.0
  0
LINE
  5
4F0
330
1B
100
AcDbEntity
 67
     1
  8
7_ALL_FEATURES
  6
Continuous
 62
     7
100
AcDbLine
 10
162.0350528365
 20
227.5181169077
 30
0.0
 11
162.6850528365
 21
227.5181169077
 31
0.0
  0
LINE
  5
4F1
330
1B
100
AcDbEntity
 67
     1
  8
7_ALL_FEATURES
  6
Continuous
 62
     7
100
AcDbLine
 10
162.6850528365
 20
227.5181169077
 30
0.0
 11
162.6850528365
 21
235.5181169077
 31
0.0
  0
SPLINE
  5
4F2
330
1B
100
AcDbEntity
 67
     1
  8
7_ALL_FEATURES
  6
Continuous
 62
     7
100
AcDbSpline
 70
     0
 71
     3
 72
    13
 73
     9
 74
     0
 42
0.000000001
 43
0.0000001
 40
0.0
 40
0.0
 40
0.0
 40
0.0
 40
0.2507996353
 40
0.3755376719
 40
0.5
 40
0.6244623281
 40
0.7492003646
 40
1.0
 40
1.0
 40
1.0
 40
1.0
 10
163.1611205799
 20
231.5181169077
 30
0.0
 10
163.2352576293
 20
231.7405280558
 30
0.0
 10
163.3284168597
 20
232.0805431048
 30
0.0
 10
163.3952461434
 20
232.5436838438
 30
0.0
 10
163.4124741631
 20
232.8931169076
 30
0.0
 10
163.3952461434
 20
233.2425499715
 30
0.0
 10
163.3284168597
 20
233.7056907105
 30
0.0
 10
163.2352576293
 20
234.0457057595
 30
0.0
 10
163.1611205799
 20
234.2681169077
 30
0.0
  0
LINE
  5
4F3
330
1B
100
AcDbEntity
 67
     1
  8
7_ALL_FEATURES
  6
Continuous
 62
     7
100
AcDbLine
 10
163.1611205799
 20
231.5181169077
 30
0.0
 11
165.9850528365
 21
231.5181169077
 31
0.0
  0
SPLINE
  5
4F4
330
1B
100
AcDbEntity
 67
     1
  8
7_ALL_FEATURES
  6
Continuous
 62
     7
100
AcDbSpline
 70
     0
 71
     3
 72
    13
 73
     9
 74
     0
 42
0.000000001
 43
0.0000001
 40
0.0
 40
0.0
 40
0.0
 40
0.0
 40
0.2507996353
 40
0.3755376719
 40
0.5
 40
0.6244623281
 40
0.7492003646
 40
1.0
 40
1.0
 40
1.0
 40
1.0
 10
163.1611205799
 20
228.7681169077
 30
0.0
 10
163.2352576293
 20
228.9905280558
 30
0.0
 10
163.3284168597
 20
229.3305431048
 30
0.0
 10
163.3952461434
 20
229.7936838438
 30
0.0
 10
163.4124741631
 20
230.1431169076
 30
0.0
 10
163.3952461434
 20
230.4925499715
 30
0.0
 10
163.3284168597
 20
230.9556907105
 30
0.0
 10
163.2352576293
 20
231.2957057595
 30
0.0
 10
163.1611205799
 20
231.5181169077
 30
0.0
  0
LINE
  5
4F5
330
1B
100
AcDbEntity
 67
     1
  8
7_ALL_FEATURES
  6
Continuous
 62
     7
100
AcDbLine
 10
92.7350528365
 20
247.0181169077
 30
0.0
 11
92.7350528365
 21
253.0181169077
 31
0.0
  0
ARC
  5
4F6
330
1B
100
AcDbEntity
 67
     1
  8
7_ALL_FEATURES
  6
Continuous
 62
     7
100
AcDbCircle
 10
93.2350528365
 20
253.0181169077
 30
0.0
 40
0.5
100
AcDbArc
 50
90.0
 51
180.0
  0
LINE
  5
4F7
330
1B
100
AcDbEntity
 67
     1
  8
7_ALL_FEATURES
  6
Continuous
 62
     7
100
AcDbLine
 10
99.2350528365
 20
253.5181169077
 30
0.0
 11
97.2350528365
 21
253.5181169077
 31
0.0
  0
LINE
  5
4F8
330
1B
100
AcDbEntity
 67
     1
  8
7_ALL_FEATURES
  6
Continuous
 62
     7
100
AcDbLine
 10
93.2350528365
 20
253.5181169077
 30
0.0
 11
97.2350528365
 21
253.5181169077
 31
0.0
  0
LINE
  5
4F9
330
1B
100
AcDbEntity
 67
     1
  8
7_ALL_FEATURES
  6
Continuous
 62
     7
100
AcDbLine
 10
99.2350528365
 20
253.5181169077
 30
0.0
 11
99.2350528365
 21
254.0181169077
 31
0.0
  0
LINE
  5
4FA
330
1B
100
AcDbEntity
 67
     1
  8
7_ALL_FEATURES
  6
Continuous
 62
     7
100
AcDbLine
 10
95.1992438464
 20
248.0699761838
 30
0.0
 11
95.5708162591
 21
248.404541487
 31
0.0
  0
LINE
  5
4FB
330
1B
100
AcDbEntity
 67
     1
  8
7_ALL_FEATURES
  6
Continuous
 62
     7
100
AcDbLine
 10
96.3105888632
 20
247.5829407748
 30
0.0
 11
96.8191585575
 21
247.0181169077
 31
0.0
  0
LINE
  5
4FC
330
1B
100
AcDbEntity
 67
     1
  8
7_ALL_FEATURES
  6
Continuous
 62
     7
100
AcDbLine
 10
95.5708162591
 20
248.404541487
 30
0.0
 11
96.3105888632
 21
247.5829407748
 31
0.0
  0
LINE
  5
4FD
330
1B
100
AcDbEntity
 67
     1
  8
7_ALL_FEATURES
  6
Continuous
 62
     9
100
AcDbLine
 10
92.2350528365
 20
253.0181169077
 30
0.0
 11
92.7350528365
 21
253.0181169077
 31
0.0
  0
LINE
  5
4FE
330
1B
100
AcDbEntity
 67
     1
  8
7_ALL_FEATURES
  6
Continuous
 62
     9
100
AcDbLine
 10
95.9390164505
 20
247.2483754716
 30
0.0
 11
96.3105888632
 21
247.5829407748
 31
0.0
  0
LINE
  5
4FF
330
1B
100
AcDbEntity
 67
     1
  8
7_ALL_FEATURES
  6
Continuous
 62
     9
100
AcDbLine
 10
97.2350528365
 20
253.5181169077
 30
0.0
 11
97.2350528365
 21
254.0181169077
 31
0.0
  0
LINE
  5
500
330
1B
100
AcDbEntity
 67
     1
  8
7_ALL_FEATURES
  6
Continuous
 62
     9
100
AcDbLine
 10
93.2350528365
 20
254.0181169077
 30
0.0
 11
93.2350528365
 21
253.5181169077
 31
0.0
  0
ARC
  5
501
330
1B
100
AcDbEntity
 67
     1
  8
7_ALL_FEATURES
  6
Continuous
 62
     7
100
AcDbCircle
 10
159.2350528365
 20
253.0181169077
 30
0.0
 40
0.5
100
AcDbArc
 50
0.0
 51
90.0
  0
LINE
  5
502
330
1B
100
AcDbEntity
 67
     1
  8
7_ALL_FEATURES
  6
Continuous
 62
     7
100
AcDbLine
 10
155.2350528365
 20
253.5181169077
 30
0.0
 11
159.2350528365
 21
253.5181169077
 31
0.0
  0
LINE
  5
503
330
1B
100
AcDbEntity
 67
     1
  8
7_ALL_FEATURES
  6
Continuous
 62
     7
100
AcDbLine
 10
155.2350528365
 20
253.5181169077
 30
0.0
 11
153.2350528365
 21
253.5181169077
 31
0.0
  0
LINE
  5
504
330
1B
100
AcDbEntity
 67
     1
  8
7_ALL_FEATURES
  6
Continuous
 62
     7
100
AcDbLine
 10
153.2350528365
 20
253.5181169077
 30
0.0
 11
153.2350528365
 21
254.0181169077
 31
0.0
  0
LINE
  5
505
330
1B
100
AcDbEntity
 67
     1
  8
7_ALL_FEATURES
  6
Continuous
 62
     7
100
AcDbLine
 10
159.7350528365
 20
253.0181169077
 30
0.0
 11
159.7350528365
 21
247.0181169077
 31
0.0
  0
LINE
  5
506
330
1B
100
AcDbEntity
 67
     1
  8
7_ALL_FEATURES
  6
Continuous
 62
     7
100
AcDbLine
 10
156.1595168098
 20
247.5829407748
 30
0.0
 11
156.8992894138
 21
248.404541487
 31
0.0
  0
LINE
  5
507
330
1B
100
AcDbEntity
 67
     1
  8
7_ALL_FEATURES
  6
Continuous
 62
     7
100
AcDbLine
 10
155.6509471155
 20
247.0181169077
 30
0.0
 11
156.1595168098
 21
247.5829407748
 31
0.0
  0
LINE
  5
508
330
1B
100
AcDbEntity
 67
     1
  8
7_ALL_FEATURES
  6
Continuous
 62
     7
100
AcDbLine
 10
156.8992894138
 20
248.404541487
 30
0.0
 11
157.2708618266
 21
248.0699761838
 31
0.0
  0
LINE
  5
509
330
1B
100
AcDbEntity
 67
     1
  8
7_ALL_FEATURES
  6
Continuous
 62
     9
100
AcDbLine
 10
159.2350528365
 20
254.0181169077
 30
0.0
 11
159.2350528365
 21
253.5181169077
 31
0.0
  0
LINE
  5
50A
330
1B
100
AcDbEntity
 67
     1
  8
7_ALL_FEATURES
  6
Continuous
 62
     9
100
AcDbLine
 10
160.2350528365
 20
253.0181169077
 30
0.0
 11
159.7350528365
 21
253.0181169077
 31
0.0
  0
LINE
  5
50B
330
1B
100
AcDbEntity
 67
     1
  8
7_ALL_FEATURES
  6
Continuous
 62
     9
100
AcDbLine
 10
155.2350528365
 20
253.5181169077
 30
0.0
 11
155.2350528365
 21
254.0181169077
 31
0.0
  0
LINE
  5
50C
330
1B
100
AcDbEntity
 67
     1
  8
7_ALL_FEATURES
  6
Continuous
 62
     9
100
AcDbLine
 10
156.1595168098
 20
247.5829407748
 30
0.0
 11
156.5310892225
 21
247.2483754716
 31
0.0
  0
LINE
  5
50D
330
1B
100
AcDbEntity
 67
     1
  8
7_ALL_FEATURES
  6
Continuous
 62
     7
100
AcDbLine
 10
164.2350528365
 20
204.5181169077
 30
0.0
 11
162.8350528365
 21
204.5181169077
 31
0.0
  0
LINE
  5
50E
330
1B
100
AcDbEntity
 67
     1
  8
7_ALL_FEATURES
  6
Continuous
 62
     7
100
AcDbLine
 10
179.2563345658
 20
204.5181169077
 30
0.0
 11
164.7350528365
 21
204.5181169077
 31
0.0
  0
LINE
  5
50F
330
1B
100
AcDbEntity
 67
     1
  8
7_ALL_FEATURES
  6
Continuous
 62
     7
100
AcDbLine
 10
164.7350528365
 20
204.5181169077
 30
0.0
 11
164.2350528365
 21
204.5181169077
 31
0.0
  0
LINE
  5
510
330
1B
100
AcDbEntity
 67
     1
  8
7_ALL_FEATURES
  6
Continuous
 62
     7
100
AcDbLine
 10
181.2350528365
 20
204.5181169077
 30
0.0
 11
179.4850528365
 21
204.5181169077
 31
0.0
  0
LINE
  5
511
330
1B
100
AcDbEntity
 67
     1
  8
7_ALL_FEATURES
  6
Continuous
 62
     7
100
AcDbLine
 10
179.4850528365
 20
204.5181169077
 30
0.0
 11
179.2563345658
 21
204.5181169077
 31
0.0
  0
ARC
  5
512
330
1B
100
AcDbEntity
 67
     1
  8
7_ALL_FEATURES
  6
Continuous
 62
     7
100
AcDbCircle
 10
162.8350528365
 20
206.1181169077
 30
0.0
 40
1.6
100
AcDbArc
 50
180.0
 51
270.0
  0
LINE
  5
513
330
1B
100
AcDbEntity
 67
     1
  8
7_ALL_FEATURES
  6
Continuous
 62
     7
100
AcDbLine
 10
181.2350528365
 20
205.3181169077
 30
0.0
 11
181.2350528365
 21
204.5181169077
 31
0.0
  0
LINE
  5
514
330
1B
100
AcDbEntity
 67
     1
  8
7_ALL_FEATURES
  6
Continuous
 62
     7
100
AcDbLine
 10
161.2350528365
 20
240.5181169077
 30
0.0
 11
162.0350528365
 21
240.5181169077
 31
0.0
  0
LINE
  5
515
330
1B
100
AcDbEntity
 67
     1
  8
7_ALL_FEATURES
  6
Continuous
 62
     9
100
AcDbLine
 10
161.2350528365
 20
206.1181169077
 30
0.0
 11
162.0350528365
 21
206.1181169077
 31
0.0
  0
LINE
  5
516
330
1B
100
AcDbEntity
 67
     1
  8
7_ALL_FEATURES
  6
Continuous
 62
     7
100
AcDbLine
 10
164.2350528365
 20
205.3181169077
 30
0.0
 11
164.2350528365
 21
204.5181169077
 31
0.0
  0
LINE
  5
517
330
1B
100
AcDbEntity
 67
     1
  8
7_ALL_FEATURES
  6
Continuous
 62
     7
100
AcDbLine
 10
161.2350528365
 20
238.5181169077
 30
0.0
 11
162.0350528365
 21
238.5181169077
 31
0.0
  0
LINE
  5
518
330
1B
100
AcDbEntity
 67
     1
  8
7_ALL_FEATURES
  6
Continuous
 62
     7
100
AcDbLine
 10
179.2563345658
 20
205.3181169077
 30
0.0
 11
179.2563345658
 21
204.5181169077
 31
0.0
  0
LINE
  5
519
330
1B
100
AcDbEntity
 67
     1
  8
7_ALL_FEATURES
  6
Continuous
 62
     9
100
AcDbLine
 10
162.8350528365
 20
204.5181169077
 30
0.0
 11
162.8350528365
 21
205.3181169077
 31
0.0
  0
LINE
  5
51A
330
1B
100
AcDbEntity
 67
     1
  8
7_ALL_FEATURES
  6
Continuous
 62
     7
100
AcDbLine
 10
73.2137711072
 20
204.5181169077
 30
0.0
 11
72.9850528365
 21
204.5181169077
 31
0.0
  0
LINE
  5
51B
330
1B
100
AcDbEntity
 67
     1
  8
7_ALL_FEATURES
  6
Continuous
 62
     7
100
AcDbLine
 10
72.9850528365
 20
204.5181169077
 30
0.0
 11
71.2350528365
 21
204.5181169077
 31
0.0
  0
LINE
  5
51C
330
1B
100
AcDbEntity
 67
     1
  8
7_ALL_FEATURES
  6
Continuous
 62
     7
100
AcDbLine
 10
88.2350528365
 20
204.5181169077
 30
0.0
 11
87.7350528365
 21
204.5181169077
 31
0.0
  0
LINE
  5
51D
330
1B
100
AcDbEntity
 67
     1
  8
7_ALL_FEATURES
  6
Continuous
 62
     7
100
AcDbLine
 10
87.7350528365
 20
204.5181169077
 30
0.0
 11
73.2137711072
 21
204.5181169077
 31
0.0
  0
LINE
  5
51E
330
1B
100
AcDbEntity
 67
     1
  8
7_ALL_FEATURES
  6
Continuous
 62
     7
100
AcDbLine
 10
89.6350528365
 20
204.5181169077
 30
0.0
 11
88.2350528365
 21
204.5181169077
 31
0.0
  0
ARC
  5
51F
330
1B
100
AcDbEntity
 67
     1
  8
7_ALL_FEATURES
  6
Continuous
 62
     7
100
AcDbCircle
 10
89.6350528365
 20
206.1181169077
 30
0.0
 40
1.6
100
AcDbArc
 50
270.0
 51
360.0
  0
LINE
  5
520
330
1B
100
AcDbEntity
 67
     1
  8
7_ALL_FEATURES
  6
Continuous
 62
     7
100
AcDbLine
 10
71.2350528365
 20
204.5181169077
 30
0.0
 11
71.2350528365
 21
205.3181169077
 31
0.0
  0
LINE
  5
521
330
1B
100
AcDbEntity
 67
     1
  8
7_ALL_FEATURES
  6
Continuous
 62
     7
100
AcDbLine
 10
91.2350528365
 20
240.5181169077
 30
0.0
 11
90.4350528365
 21
240.5181169077
 31
0.0
  0
LINE
  5
522
330
1B
100
AcDbEntity
 67
     1
  8
7_ALL_FEATURES
  6
Continuous
 62
     9
100
AcDbLine
 10
91.2350528365
 20
206.1181169077
 30
0.0
 11
90.4350528365
 21
206.1181169077
 31
0.0
  0
LINE
  5
523
330
1B
100
AcDbEntity
 67
     1
  8
7_ALL_FEATURES
  6
Continuous
 62
     7
100
AcDbLine
 10
73.2137711072
 20
204.5181169077
 30
0.0
 11
73.2137711072
 21
205.3181169077
 31
0.0
  0
LINE
  5
524
330
1B
100
AcDbEntity
 67
     1
  8
7_ALL_FEATURES
  6
Continuous
 62
     7
100
AcDbLine
 10
91.2350528365
 20
238.5181169077
 30
0.0
 11
90.4350528365
 21
238.5181169077
 31
0.0
  0
LINE
  5
525
330
1B
100
AcDbEntity
 67
     1
  8
7_ALL_FEATURES
  6
Continuous
 62
     7
100
AcDbLine
 10
88.2350528365
 20
205.3181169077
 30
0.0
 11
88.2350528365
 21
204.5181169077
 31
0.0
  0
LINE
  5
526
330
1B
100
AcDbEntity
 67
     1
  8
7_ALL_FEATURES
  6
Continuous
 62
     9
100
AcDbLine
 10
89.6350528365
 20
204.5181169077
 30
0.0
 11
89.6350528365
 21
205.3181169077
 31
0.0
  0
LINE
  5
527
330
1B
100
AcDbEntity
 67
     1
  8
7_ALL_FEATURES
  6
Continuous
 62
     7
100
AcDbLine
 10
160.2350528365
 20
204.3181169077
 30
0.0
 11
160.2350528365
 21
192.0181169077
 31
0.0
  0
LINE
  5
528
330
1B
100
AcDbEntity
 67
     1
  8
7_ALL_FEATURES
  6
Continuous
 62
     7
100
AcDbLine
 10
160.2350528365
 20
247.0181169077
 30
0.0
 11
160.2350528365
 21
234.7181169077
 31
0.0
  0
LINE
  5
529
330
1B
100
AcDbEntity
 67
     1
  8
7_ALL_FEATURES
  6
Continuous
 62
     7
100
AcDbLine
 10
161.2350528365
 20
234.7181169077
 30
0.0
 11
160.2350528365
 21
234.7181169077
 31
0.0
  0
LINE
  5
52A
330
1B
100
AcDbEntity
 67
     1
  8
7_ALL_FEATURES
  6
Continuous
 62
     7
100
AcDbLine
 10
161.2350528365
 20
204.3181169077
 30
0.0
 11
160.2350528365
 21
204.3181169077
 31
0.0
  0
LINE
  5
52B
330
1B
100
AcDbEntity
 67
     1
  8
7_ALL_FEATURES
  6
Continuous
 62
     7
100
AcDbLine
 10
161.2350528365
 20
192.0181169077
 30
0.0
 11
160.2350528365
 21
192.0181169077
 31
0.0
  0
LINE
  5
52C
330
1B
100
AcDbEntity
 67
     1
  8
7_ALL_FEATURES
  6
Continuous
 62
     7
100
AcDbLine
 10
161.2350528365
 20
247.0181169077
 30
0.0
 11
160.2350528365
 21
247.0181169077
 31
0.0
  0
LINE
  5
52D
330
1B
100
AcDbEntity
 67
     1
  8
7_ALL_FEATURES
  6
Continuous
 62
     3
100
AcDbLine
 10
92.2350528365
 20
247.0181169077
 30
0.0
 11
92.2350528365
 21
253.0181169077
 31
0.0
  0
ARC
  5
52E
330
1B
100
AcDbEntity
 67
     1
  8
7_ALL_FEATURES
  6
Continuous
 62
     3
100
AcDbCircle
 10
93.2350528365
 20
253.0181169077
 30
0.0
 40
1.0
100
AcDbArc
 50
90.0
 51
180.0
  0
LINE
  5
52F
330
1B
100
AcDbEntity
 67
     1
  8
7_ALL_FEATURES
  6
Continuous
 62
     3
100
AcDbLine
 10
93.2350528365
 20
254.0181169077
 30
0.0
 11
97.2350528365
 21
254.0181169077
 31
0.0
  0
LINE
  5
530
330
1B
100
AcDbEntity
 67
     1
  8
7_ALL_FEATURES
  6
Continuous
 62
     3
100
AcDbLine
 10
97.2350528365
 20
254.0181169077
 30
0.0
 11
99.2350528365
 21
254.0181169077
 31
0.0
  0
LINE
  5
531
330
1B
100
AcDbEntity
 67
     1
  8
7_ALL_FEATURES
  6
Continuous
 62
     3
100
AcDbLine
 10
96.1463421927
 20
247.0181169077
 30
0.0
 11
95.9390164505
 21
247.2483754716
 31
0.0
  0
LINE
  5
532
330
1B
100
AcDbEntity
 67
     1
  8
7_ALL_FEATURES
  6
Continuous
 62
     3
100
AcDbLine
 10
95.9390164505
 20
247.2483754716
 30
0.0
 11
95.1992438464
 21
248.0699761838
 31
0.0
  0
LINE
  5
533
330
1B
100
AcDbEntity
 67
     1
  8
7_ALL_FEATURES
  6
Continuous
 62
     3
100
AcDbLine
 10
160.2350528365
 20
253.0181169077
 30
0.0
 11
160.2350528365
 21
247.0181169077
 31
0.0
  0
ARC
  5
534
330
1B
100
AcDbEntity
 67
     1
  8
7_ALL_FEATURES
  6
Continuous
 62
     3
100
AcDbCircle
 10
159.2350528365
 20
253.0181169077
 30
0.0
 40
1.0
100
AcDbArc
 50
0.0
 51
90.0
  0
LINE
  5
535
330
1B
100
AcDbEntity
 67
     1
  8
7_ALL_FEATURES
  6
Continuous
 62
     3
100
AcDbLine
 10
155.2350528365
 20
254.0181169077
 30
0.0
 11
159.2350528365
 21
254.0181169077
 31
0.0
  0
LINE
  5
536
330
1B
100
AcDbEntity
 67
     1
  8
7_ALL_FEATURES
  6
Continuous
 62
     3
100
AcDbLine
 10
153.2350528365
 20
254.0181169077
 30
0.0
 11
155.2350528365
 21
254.0181169077
 31
0.0
  0
LINE
  5
537
330
1B
100
AcDbEntity
 67
     1
  8
7_ALL_FEATURES
  6
Continuous
 62
     3
100
AcDbLine
 10
156.5310892225
 20
247.2483754716
 30
0.0
 11
156.3237634803
 21
247.0181169077
 31
0.0
  0
LINE
  5
538
330
1B
100
AcDbEntity
 67
     1
  8
7_ALL_FEATURES
  6
Continuous
 62
     3
100
AcDbLine
 10
157.2708618266
 20
248.0699761838
 30
0.0
 11
156.5310892225
 21
247.2483754716
 31
0.0
  0
LINE
  5
539
330
1B
100
AcDbEntity
 67
     1
  8
7_ALL_FEATURES
  6
Continuous
 62
     3
100
AcDbLine
 10
162.0350528365
 20
240.5181169077
 30
0.0
 11
162.0350528365
 21
238.5181169077
 31
0.0
  0
LINE
  5
53A
330
1B
100
AcDbEntity
 67
     1
  8
7_ALL_FEATURES
  6
Continuous
 62
     3
100
AcDbLine
 10
162.0350528365
 20
238.5181169077
 30
0.0
 11
162.0350528365
 21
206.1181169077
 31
0.0
  0
LINE
  5
53B
330
1B
100
AcDbEntity
 67
     1
  8
7_ALL_FEATURES
  6
Continuous
 62
     3
100
AcDbLine
 10
179.2563345658
 20
205.3181169077
 30
0.0
 11
181.2350528365
 21
205.3181169077
 31
0.0
  0
LINE
  5
53C
330
1B
100
AcDbEntity
 67
     1
  8
7_ALL_FEATURES
  6
Continuous
 62
     3
100
AcDbLine
 10
164.2350528365
 20
205.3181169077
 30
0.0
 11
179.2563345658
 21
205.3181169077
 31
0.0
  0
LINE
  5
53D
330
1B
100
AcDbEntity
 67
     1
  8
7_ALL_FEATURES
  6
Continuous
 62
     3
100
AcDbLine
 10
164.2350528365
 20
205.3181169077
 30
0.0
 11
162.8350528365
 21
205.3181169077
 31
0.0
  0
ARC
  5
53E
330
1B
100
AcDbEntity
 67
     1
  8
7_ALL_FEATURES
  6
Continuous
 62
     3
100
AcDbCircle
 10
162.8350528365
 20
206.1181169077
 30
0.0
 40
0.8
100
AcDbArc
 50
180.0
 51
270.0
  0
LINE
  5
53F
330
1B
100
AcDbEntity
 67
     1
  8
7_ALL_FEATURES
  6
Continuous
 62
     3
100
AcDbLine
 10
90.4350528365
 20
238.5181169077
 30
0.0
 11
90.4350528365
 21
240.5181169077
 31
0.0
  0
LINE
  5
540
330
1B
100
AcDbEntity
 67
     1
  8
7_ALL_FEATURES
  6
Continuous
 62
     3
100
AcDbLine
 10
90.4350528365
 20
206.1181169077
 30
0.0
 11
90.4350528365
 21
238.5181169077
 31
0.0
  0
LINE
  5
541
330
1B
100
AcDbEntity
 67
     1
  8
7_ALL_FEATURES
  6
Continuous
 62
     3
100
AcDbLine
 10
71.2350528365
 20
205.3181169077
 30
0.0
 11
73.2137711072
 21
205.3181169077
 31
0.0
  0
LINE
  5
542
330
1B
100
AcDbEntity
 67
     1
  8
7_ALL_FEATURES
  6
Continuous
 62
     3
100
AcDbLine
 10
89.6350528365
 20
205.3181169077
 30
0.0
 11
88.2350528365
 21
205.3181169077
 31
0.0
  0
LINE
  5
543
330
1B
100
AcDbEntity
 67
     1
  8
7_ALL_FEATURES
  6
Continuous
 62
     3
100
AcDbLine
 10
73.2137711072
 20
205.3181169077
 30
0.0
 11
88.2350528365
 21
205.3181169077
 31
0.0
  0
ARC
  5
544
330
1B
100
AcDbEntity
 67
     1
  8
7_ALL_FEATURES
  6
Continuous
 62
     3
100
AcDbCircle
 10
89.6350528365
 20
206.1181169077
 30
0.0
 40
0.8
100
AcDbArc
 50
270.0
 51
360.0
  0
LINE
  5
545
330
1B
100
AcDbEntity
 67
     1
  8
7_ALL_FEATURES
  6
Continuous
 62
     3
100
AcDbLine
 10
93.2350528365
 20
192.0181169077
 30
0.0
 11
160.2350528365
 21
192.0181169077
 31
0.0
  0
LINE
  5
546
330
1B
100
AcDbEntity
 67
     1
  8
7_ALL_FEATURES
  6
Continuous
 62
     3
100
AcDbLine
 10
160.2350528365
 20
247.0181169077
 30
0.0
 11
93.2350528365
 21
247.0181169077
 31
0.0
  0
LINE
  5
547
330
1B
100
AcDbEntity
 67
     1
  8
7_ALL_FEATURES
  6
Continuous
 62
     3
100
AcDbLine
 10
160.2350528365
 20
234.5181169077
 30
0.0
 11
160.2350528365
 21
234.7181169077
 31
0.0
  0
LINE
  5
548
330
1B
100
AcDbEntity
 67
     1
  8
7_ALL_FEATURES
  6
Continuous
 62
     3
100
AcDbLine
 10
160.2350528365
 20
234.7181169077
 30
0.0
 11
160.2350528365
 21
247.0181169077
 31
0.0
  0
LINE
  5
549
330
1B
100
AcDbEntity
 67
     1
  8
7_ALL_FEATURES
  6
Continuous
 62
     3
100
AcDbLine
 10
161.2350528365
 20
234.5181169077
 30
0.0
 11
160.2350528365
 21
234.5181169077
 31
0.0
  0
LINE
  5
54A
330
1B
100
AcDbEntity
 67
     1
  8
7_ALL_FEATURES
  6
Continuous
 62
     3
100
AcDbLine
 10
161.2350528365
 20
204.5181169077
 30
0.0
 11
161.2350528365
 21
234.5181169077
 31
0.0
  0
LINE
  5
54B
330
1B
100
AcDbEntity
 67
     1
  8
7_ALL_FEATURES
  6
Continuous
 62
     3
100
AcDbLine
 10
160.2350528365
 20
204.5181169077
 30
0.0
 11
161.2350528365
 21
204.5181169077
 31
0.0
  0
LINE
  5
54C
330
1B
100
AcDbEntity
 67
     1
  8
7_ALL_FEATURES
  6
Continuous
 62
     3
100
AcDbLine
 10
160.2350528365
 20
192.0181169077
 30
0.0
 11
160.2350528365
 21
204.3181169077
 31
0.0
  0
LINE
  5
54D
330
1B
100
AcDbEntity
 67
     1
  8
7_ALL_FEATURES
  6
Continuous
 62
     3
100
AcDbLine
 10
160.2350528365
 20
204.3181169077
 30
0.0
 11
160.2350528365
 21
204.5181169077
 31
0.0
  0
LINE
  5
54E
330
1B
100
AcDbEntity
 67
     1
  8
7_ALL_FEATURES
  6
Continuous
 62
     3
100
AcDbLine
 10
91.2350528365
 20
192.0181169077
 30
0.0
 11
91.2350528365
 21
247.0181169077
 31
0.0
  0
LINE
  5
54F
330
1B
100
AcDbEntity
 67
     1
  8
7_ALL_FEATURES
  6
Continuous
 62
     3
100
AcDbLine
 10
91.2350528365
 20
247.0181169077
 30
0.0
 11
92.2350528365
 21
247.0181169077
 31
0.0
  0
LINE
  5
550
330
1B
100
AcDbEntity
 67
     1
  8
7_ALL_FEATURES
  6
Continuous
 62
     3
100
AcDbLine
 10
92.2350528365
 20
247.0181169077
 30
0.0
 11
93.2350528365
 21
247.0181169077
 31
0.0
  0
LINE
  5
551
330
1B
100
AcDbEntity
 67
     1
  8
7_ALL_FEATURES
  6
Continuous
 62
     3
100
AcDbLine
 10
91.2350528365
 20
192.0181169077
 30
0.0
 11
92.2350528365
 21
192.0181169077
 31
0.0
  0
LINE
  5
552
330
1B
100
AcDbEntity
 67
     1
  8
7_ALL_FEATURES
  6
Continuous
 62
     3
100
AcDbLine
 10
92.2350528365
 20
192.0181169077
 30
0.0
 11
93.2350528365
 21
192.0181169077
 31
0.0
  0
LINE
  5
553
330
1B
100
AcDbEntity
 67
     1
  8
7_ALL_FEATURES
  6
Continuous
 62
     3
100
AcDbLine
 10
161.2350528365
 20
204.3181169077
 30
0.0
 11
161.2350528365
 21
192.0181169077
 31
0.0
  0
LINE
  5
554
330
1B
100
AcDbEntity
 67
     1
  8
7_ALL_FEATURES
  6
Continuous
 62
     3
100
AcDbLine
 10
161.2350528365
 20
234.7181169077
 30
0.0
 11
161.2350528365
 21
234.5181169077
 31
0.0
  0
LINE
  5
555
330
1B
100
AcDbEntity
 67
     1
  8
7_ALL_FEATURES
  6
Continuous
 62
     3
100
AcDbLine
 10
161.2350528365
 20
204.5181169077
 30
0.0
 11
161.2350528365
 21
204.3181169077
 31
0.0
  0
LINE
  5
556
330
1B
100
AcDbEntity
 67
     1
  8
7_ALL_FEATURES
  6
Continuous
 62
     3
100
AcDbLine
 10
161.2350528365
 20
247.0181169077
 30
0.0
 11
161.2350528365
 21
234.7181169077
 31
0.0
  0
LINE
  5
557
330
1B
100
AcDbEntity
 67
     1
  8
7_ALL_FEATURES
  6
Continuous
 62
     9
100
AcDbLine
 10
93.2350528365
 20
192.0181169077
 30
0.0
 11
93.2350528365
 21
247.0181169077
 31
0.0
  0
ARC
  5
558
330
1B
100
AcDbEntity
 67
     1
  8
7_ALL_FEATURES
  6
Continuous
 62
     7
100
AcDbCircle
 10
263.3189655172
 20
231.5181169077
 30
0.0
 40
1.0
100
AcDbArc
 50
270.0
 51
90.0
  0
ARC
  5
559
330
1B
100
AcDbEntity
 67
     1
  8
7_ALL_FEATURES
  6
Continuous
 62
     7
100
AcDbCircle
 10
263.3189655172
 20
231.5181169077
 30
0.0
 40
1.0
100
AcDbArc
 50
90.0
 51
270.0
  0
ARC
  5
55A
330
1B
100
AcDbEntity
 67
     1
  8
7_ALL_FEATURES
  6
Continuous
 62
     7
100
AcDbCircle
 10
303.3189655172
 20
231.5181169077
 30
0.0
 40
1.0
100
AcDbArc
 50
270.0
 51
90.0
  0
ARC
  5
55B
330
1B
100
AcDbEntity
 67
     1
  8
7_ALL_FEATURES
  6
Continuous
 62
     7
100
AcDbCircle
 10
303.3189655172
 20
231.5181169077
 30
0.0
 40
1.0
100
AcDbArc
 50
90.0
 51
270.0
  0
LINE
  5
55C
330
1B
100
AcDbEntity
 67
     1
  8
7_ALL_FEATURES
  6
Continuous
 62
     7
100
AcDbLine
 10
301.731252277
 20
234.2681169077
 30
0.0
 11
300.1435390367
 21
231.5181169077
 31
0.0
  0
LINE
  5
55D
330
1B
100
AcDbEntity
 67
     1
  8
7_ALL_FEATURES
  6
Continuous
 62
     7
100
AcDbLine
 10
304.9066787575
 20
234.2681169077
 30
0.0
 11
301.731252277
 21
234.2681169077
 31
0.0
  0
LINE
  5
55E
330
1B
100
AcDbEntity
 67
     1
  8
7_ALL_FEATURES
  6
Continuous
 62
     7
100
AcDbLine
 10
306.4943919978
 20
231.5181169077
 30
0.0
 11
304.9066787575
 21
234.2681169077
 31
0.0
  0
LINE
  5
55F
330
1B
100
AcDbEntity
 67
     1
  8
7_ALL_FEATURES
  6
Continuous
 62
     7
100
AcDbLine
 10
304.9066787575
 20
228.7681169077
 30
0.0
 11
306.4943919978
 21
231.5181169077
 31
0.0
  0
LINE
  5
560
330
1B
100
AcDbEntity
 67
     1
  8
7_ALL_FEATURES
  6
Continuous
 62
     7
100
AcDbLine
 10
301.731252277
 20
228.7681169077
 30
0.0
 11
304.9066787575
 21
228.7681169077
 31
0.0
  0
LINE
  5
561
330
1B
100
AcDbEntity
 67
     1
  8
7_ALL_FEATURES
  6
Continuous
 62
     7
100
AcDbLine
 10
300.1435390367
 20
231.5181169077
 30
0.0
 11
301.731252277
 21
228.7681169077
 31
0.0
  0
ARC
  5
562
330
1B
100
AcDbEntity
 67
     1
  8
02___PRT_ALL_AXES
  6
Continuous
 62
     7
100
AcDbCircle
 10
303.3189655172
 20
231.5181169077
 30
0.0
 40
1.5
100
AcDbArc
 50
180.0
 51
360.0
  0
ARC
  5
563
330
1B
100
AcDbEntity
 67
     1
  8
02___PRT_ALL_AXES
  6
Continuous
 62
     7
100
AcDbCircle
 10
303.3189655172
 20
231.5181169077
 30
0.0
 40
1.5
100
AcDbArc
 50
0.0
 51
180.0
  0
ARC
  5
564
330
1B
100
AcDbEntity
 67
     1
  8
7_ALL_FEATURES
  6
Continuous
 62
     7
100
AcDbCircle
 10
303.3189655172
 20
231.5181169077
 30
0.0
 40
4.0
100
AcDbArc
 50
270.0
 51
90.0
  0
ARC
  5
565
330
1B
100
AcDbEntity
 67
     1
  8
7_ALL_FEATURES
  6
Continuous
 62
     7
100
AcDbCircle
 10
303.3189655172
 20
231.5181169077
 30
0.0
 40
4.0
100
AcDbArc
 50
90.0
 51
270.0
  0
LINE
  5
566
330
1B
100
AcDbEntity
 67
     1
  8
7_ALL_FEATURES
  6
Continuous
 62
     7
100
AcDbLine
 10
261.731252277
 20
234.2681169077
 30
0.0
 11
260.1435390367
 21
231.5181169077
 31
0.0
  0
LINE
  5
567
330
1B
100
AcDbEntity
 67
     1
  8
7_ALL_FEATURES
  6
Continuous
 62
     7
100
AcDbLine
 10
264.9066787575
 20
234.2681169077
 30
0.0
 11
261.731252277
 21
234.2681169077
 31
0.0
  0
LINE
  5
568
330
1B
100
AcDbEntity
 67
     1
  8
7_ALL_FEATURES
  6
Continuous
 62
     7
100
AcDbLine
 10
266.4943919978
 20
231.5181169077
 30
0.0
 11
264.9066787575
 21
234.2681169077
 31
0.0
  0
LINE
  5
569
330
1B
100
AcDbEntity
 67
     1
  8
7_ALL_FEATURES
  6
Continuous
 62
     7
100
AcDbLine
 10
264.9066787575
 20
228.7681169077
 30
0.0
 11
266.4943919978
 21
231.5181169077
 31
0.0
  0
LINE
  5
56A
330
1B
100
AcDbEntity
 67
     1
  8
7_ALL_FEATURES
  6
Continuous
 62
     7
100
AcDbLine
 10
261.731252277
 20
228.7681169077
 30
0.0
 11
264.9066787575
 21
228.7681169077
 31
0.0
  0
LINE
  5
56B
330
1B
100
AcDbEntity
 67
     1
  8
7_ALL_FEATURES
  6
Continuous
 62
     7
100
AcDbLine
 10
260.1435390367
 20
231.5181169077
 30
0.0
 11
261.731252277
 21
228.7681169077
 31
0.0
  0
ARC
  5
56C
330
1B
100
AcDbEntity
 67
     1
  8
02___PRT_ALL_AXES
  6
Continuous
 62
     7
100
AcDbCircle
 10
263.3189655172
 20
231.5181169077
 30
0.0
 40
1.5
100
AcDbArc
 50
180.0
 51
360.0
  0
ARC
  5
56D
330
1B
100
AcDbEntity
 67
     1
  8
02___PRT_ALL_AXES
  6
Continuous
 62
     7
100
AcDbCircle
 10
263.3189655172
 20
231.5181169077
 30
0.0
 40
1.5
100
AcDbArc
 50
0.0
 51
180.0
  0
ARC
  5
56E
330
1B
100
AcDbEntity
 67
     1
  8
7_ALL_FEATURES
  6
Continuous
 62
     7
100
AcDbCircle
 10
263.3189655172
 20
231.5181169077
 30
0.0
 40
4.0
100
AcDbArc
 50
270.0
 51
90.0
  0
ARC
  5
56F
330
1B
100
AcDbEntity
 67
     1
  8
7_ALL_FEATURES
  6
Continuous
 62
     7
100
AcDbCircle
 10
263.3189655172
 20
231.5181169077
 30
0.0
 40
4.0
100
AcDbArc
 50
90.0
 51
270.0
  0
LINE
  5
570
330
1B
100
AcDbEntity
 67
     1
  8
7_ALL_FEATURES
  6
Continuous
 62
     7
100
AcDbLine
 10
274.7050334947
 20
248.404541487
 30
0.0
 11
291.9328975397
 21
248.404541487
 31
0.0
  0
SPLINE
  5
571
330
1B
100
AcDbEntity
 67
     1
  8
7_ALL_FEATURES
  6
Continuous
 62
     7
100
AcDbSpline
 70
     0
 71
     3
 72
    11
 73
     7
 74
     0
 42
0.000000001
 43
0.0000001
 40
0.0
 40
0.0
 40
0.0
 40
0.0
 40
0.2693455113
 40
0.5297717776
 40
0.7743525563
 40
1.0
 40
1.0
 40
1.0
 40
1.0
 10
291.9328975397
 20
248.404541487
 30
0.0
 10
292.1160597734
 20
248.404541487
 30
0.0
 10
292.4774621747
 20
248.3678671633
 30
0.0
 10
292.9826275607
 20
248.2052230956
 30
0.0
 10
293.4124033439
 20
247.946513856
 30
0.0
 10
293.6360939284
 20
247.7102533638
 30
0.0
 10
293.7217519217
 20
247.5829407748
 30
0.0
  0
LINE
  5
572
330
1B
100
AcDbEntity
 67
     1
  8
7_ALL_FEATURES
  6
Continuous
 62
     7
100
AcDbLine
 10
293.7217519217
 20
247.5829407748
 30
0.0
 11
294.1017746628
 21
247.0181169077
 31
0.0
  0
SPLINE
  5
573
330
1B
100
AcDbEntity
 67
     1
  8
7_ALL_FEATURES
  6
Continuous
 62
     7
100
AcDbSpline
 70
     0
 71
     3
 72
    11
 73
     7
 74
     0
 42
0.000000001
 43
0.0000001
 40
0.0
 40
0.0
 40
0.0
 40
0.0
 40
0.2256474437
 40
0.4702282224
 40
0.7306544887
 40
1.0
 40
1.0
 40
1.0
 40
1.0
 10
272.9161791127
 20
247.5829407748
 30
0.0
 10
273.001837106
 20
247.7102533638
 30
0.0
 10
273.2255276905
 20
247.946513856
 30
0.0
 10
273.6553034738
 20
248.2052230956
 30
0.0
 10
274.1604688598
 20
248.3678671633
 30
0.0
 10
274.521871261
 20
248.404541487
 30
0.0
 10
274.7050334947
 20
248.404541487
 30
0.0
  0
LINE
  5
574
330
1B
100
AcDbEntity
 67
     1
  8
7_ALL_FEATURES
  6
Continuous
 62
     7
100
AcDbLine
 10
272.5361563717
 20
247.0181169077
 30
0.0
 11
272.9161791127
 21
247.5829407748
 31
0.0
  0
LINE
  5
575
330
1B
100
AcDbEntity
 67
     1
  8
7_ALL_FEATURES
  6
Continuous
 62
     9
100
AcDbLine
 10
293.7217519217
 20
247.2483754716
 30
0.0
 11
293.7217519217
 21
247.5829407748
 31
0.0
  0
LINE
  5
576
330
1B
100
AcDbEntity
 67
     1
  8
7_ALL_FEATURES
  6
Continuous
 62
     9
100
AcDbLine
 10
291.9328975397
 20
248.0699761838
 30
0.0
 11
291.9328975397
 21
248.404541487
 31
0.0
  0
LINE
  5
577
330
1B
100
AcDbEntity
 67
     1
  8
7_ALL_FEATURES
  6
Continuous
 62
     9
100
AcDbLine
 10
274.7050334947
 20
248.404541487
 30
0.0
 11
274.7050334947
 21
248.0699761838
 31
0.0
  0
LINE
  5
578
330
1B
100
AcDbEntity
 67
     1
  8
7_ALL_FEATURES
  6
Continuous
 62
     9
100
AcDbLine
 10
272.9161791127
 20
247.5829407748
 30
0.0
 11
272.9161791127
 21
247.2483754716
 31
0.0
  0
LINE
  5
579
330
1B
100
AcDbEntity
 67
     1
  8
7_ALL_FEATURES
  6
Continuous
 62
     7
100
AcDbLine
 10
310.1099534982
 20
204.5181169077
 30
0.0
 11
308.3074966652
 21
204.5181169077
 31
0.0
  0
LINE
  5
57A
330
1B
100
AcDbEntity
 67
     1
  8
7_ALL_FEATURES
  6
Continuous
 62
     7
100
AcDbLine
 10
308.3074966652
 20
204.5181169077
 30
0.0
 11
307.8189655172
 21
204.5181169077
 31
0.0
  0
LINE
  5
57B
330
1B
100
AcDbEntity
 67
     1
  8
7_ALL_FEATURES
  6
Continuous
 62
     7
100
AcDbLine
 10
312.3189655172
 20
204.5181169077
 30
0.0
 11
310.4766143122
 21
204.5181169077
 31
0.0
  0
LINE
  5
57C
330
1B
100
AcDbEntity
 67
     1
  8
7_ALL_FEATURES
  6
Continuous
 62
     7
100
AcDbLine
 10
310.4766143122
 20
204.5181169077
 30
0.0
 11
310.1099534982
 21
204.5181169077
 31
0.0
  0
LINE
  5
57D
330
1B
100
AcDbEntity
 67
     1
  8
7_ALL_FEATURES
  6
Continuous
 62
     7
100
AcDbLine
 10
256.5279775363
 20
204.5181169077
 30
0.0
 11
256.1613167223
 21
204.5181169077
 31
0.0
  0
LINE
  5
57E
330
1B
100
AcDbEntity
 67
     1
  8
7_ALL_FEATURES
  6
Continuous
 62
     7
100
AcDbLine
 10
256.1613167223
 20
204.5181169077
 30
0.0
 11
254.3189655172
 21
204.5181169077
 31
0.0
  0
LINE
  5
57F
330
1B
100
AcDbEntity
 67
     1
  8
7_ALL_FEATURES
  6
Continuous
 62
     7
100
AcDbLine
 10
258.8189655172
 20
204.5181169077
 30
0.0
 11
258.3304343693
 21
204.5181169077
 31
0.0
  0
LINE
  5
580
330
1B
100
AcDbEntity
 67
     1
  8
7_ALL_FEATURES
  6
Continuous
 62
     7
100
AcDbLine
 10
258.3304343693
 20
204.5181169077
 30
0.0
 11
256.5279775363
 21
204.5181169077
 31
0.0
  0
LINE
  5
581
330
1B
100
AcDbEntity
 67
     1
  8
7_ALL_FEATURES
  6
Continuous
 62
     7
100
AcDbLine
 10
307.8189655172
 20
204.5181169077
 30
0.0
 11
258.8189655172
 21
204.5181169077
 31
0.0
  0
LINE
  5
582
330
1B
100
AcDbEntity
 67
     1
  8
7_ALL_FEATURES
  6
Continuous
 62
     7
100
AcDbLine
 10
312.3189655172
 20
205.3181169077
 30
0.0
 11
312.3189655172
 21
204.5181169077
 31
0.0
  0
LINE
  5
583
330
1B
100
AcDbEntity
 67
     1
  8
7_ALL_FEATURES
  6
Continuous
 62
     7
100
AcDbLine
 10
254.3189655172
 20
205.3181169077
 30
0.0
 11
254.3189655172
 21
204.5181169077
 31
0.0
  0
LINE
  5
584
330
1B
100
AcDbEntity
 67
     1
  8
7_ALL_FEATURES
  6
Continuous
 62
     7
100
AcDbLine
 10
310.1099534982
 20
204.5181169077
 30
0.0
 11
310.1099534982
 21
205.3181169077
 31
0.0
  0
LINE
  5
585
330
1B
100
AcDbEntity
 67
     1
  8
7_ALL_FEATURES
  6
Continuous
 62
     7
100
AcDbLine
 10
307.8189655172
 20
204.5181169077
 30
0.0
 11
307.8189655172
 21
205.3181169077
 31
0.0
  0
LINE
  5
586
330
1B
100
AcDbEntity
 67
     1
  8
7_ALL_FEATURES
  6
Continuous
 62
     7
100
AcDbLine
 10
258.8189655172
 20
205.3181169077
 30
0.0
 11
258.8189655172
 21
204.5181169077
 31
0.0
  0
LINE
  5
587
330
1B
100
AcDbEntity
 67
     1
  8
7_ALL_FEATURES
  6
Continuous
 62
     7
100
AcDbLine
 10
256.5279775363
 20
205.3181169077
 30
0.0
 11
256.5279775363
 21
204.5181169077
 31
0.0
  0
LINE
  5
588
330
1B
100
AcDbEntity
 67
     1
  8
7_ALL_FEATURES
  6
Continuous
 62
     3
100
AcDbLine
 10
258.3189655172
 20
253.0181169077
 30
0.0
 11
258.3189655172
 21
247.0181169077
 31
0.0
  0
LINE
  5
589
330
1B
100
AcDbEntity
 67
     1
  8
7_ALL_FEATURES
  6
Continuous
 62
     3
100
AcDbLine
 10
269.5689655172
 20
247.0181169077
 30
0.0
 11
269.5689655172
 21
253.0181169077
 31
0.0
  0
LINE
  5
58A
330
1B
100
AcDbEntity
 67
     1
  8
7_ALL_FEATURES
  6
Continuous
 62
     3
100
AcDbLine
 10
297.0689655172
 20
253.0181169077
 30
0.0
 11
297.0689655172
 21
247.0181169077
 31
0.0
  0
LINE
  5
58B
330
1B
100
AcDbEntity
 67
     1
  8
7_ALL_FEATURES
  6
Continuous
 62
     3
100
AcDbLine
 10
308.3189655172
 20
247.0181169077
 30
0.0
 11
308.3189655172
 21
253.0181169077
 31
0.0
  0
LINE
  5
58C
330
1B
100
AcDbEntity
 67
     1
  8
7_ALL_FEATURES
  6
Continuous
 62
     3
100
AcDbLine
 10
258.3189655172
 20
254.0181169077
 30
0.0
 11
258.3189655172
 21
253.5181169077
 31
0.0
  0
LINE
  5
58D
330
1B
100
AcDbEntity
 67
     1
  8
7_ALL_FEATURES
  6
Continuous
 62
     3
100
AcDbLine
 10
258.3189655172
 20
253.5181169077
 30
0.0
 11
258.3189655172
 21
253.0181169077
 31
0.0
  0
LINE
  5
58E
330
1B
100
AcDbEntity
 67
     1
  8
7_ALL_FEATURES
  6
Continuous
 62
     3
100
AcDbLine
 10
269.5689655172
 20
254.0017449175
 30
0.0
 11
269.5689655172
 21
253.0181169077
 31
0.0
  0
LINE
  5
58F
330
1B
100
AcDbEntity
 67
     1
  8
7_ALL_FEATURES
  6
Continuous
 62
     3
100
AcDbLine
 10
269.5689655172
 20
254.0181169077
 30
0.0
 11
269.5689655172
 21
254.0017449175
 31
0.0
  0
LINE
  5
590
330
1B
100
AcDbEntity
 67
     1
  8
7_ALL_FEATURES
  6
Continuous
 62
     3
100
AcDbLine
 10
258.3189655172
 20
254.0181169077
 30
0.0
 11
269.5689655172
 21
254.0181169077
 31
0.0
  0
LINE
  5
591
330
1B
100
AcDbEntity
 67
     1
  8
7_ALL_FEATURES
  6
Continuous
 62
     3
100
AcDbLine
 10
297.0689655172
 20
254.0181169077
 30
0.0
 11
297.0689655172
 21
253.5181169077
 31
0.0
  0
LINE
  5
592
330
1B
100
AcDbEntity
 67
     1
  8
7_ALL_FEATURES
  6
Continuous
 62
     3
100
AcDbLine
 10
297.0689655172
 20
253.5181169077
 30
0.0
 11
297.0689655172
 21
253.0181169077
 31
0.0
  0
LINE
  5
593
330
1B
100
AcDbEntity
 67
     1
  8
7_ALL_FEATURES
  6
Continuous
 62
     3
100
AcDbLine
 10
308.3189655172
 20
254.0181169077
 30
0.0
 11
308.3189655172
 21
253.5181169077
 31
0.0
  0
LINE
  5
594
330
1B
100
AcDbEntity
 67
     1
  8
7_ALL_FEATURES
  6
Continuous
 62
     3
100
AcDbLine
 10
308.3189655172
 20
253.5181169077
 30
0.0
 11
308.3189655172
 21
253.0181169077
 31
0.0
  0
LINE
  5
595
330
1B
100
AcDbEntity
 67
     1
  8
7_ALL_FEATURES
  6
Continuous
 62
     3
100
AcDbLine
 10
297.0689655172
 20
254.0181169077
 30
0.0
 11
308.3189655172
 21
254.0181169077
 31
0.0
  0
LINE
  5
596
330
1B
100
AcDbEntity
 67
     1
  8
7_ALL_FEATURES
  6
Continuous
 62
     9
100
AcDbLine
 10
297.0689655172
 20
253.0181169077
 30
0.0
 11
308.3189655172
 21
253.0181169077
 31
0.0
  0
LINE
  5
597
330
1B
100
AcDbEntity
 67
     1
  8
7_ALL_FEATURES
  6
Continuous
 62
     3
100
AcDbLine
 10
272.9161791127
 20
247.2483754716
 30
0.0
 11
272.7612573828
 21
247.0181169077
 31
0.0
  0
LINE
  5
598
330
1B
100
AcDbEntity
 67
     1
  8
7_ALL_FEATURES
  6
Continuous
 62
     3
100
AcDbLine
 10
293.8766736517
 20
247.0181169077
 30
0.0
 11
293.7217519217
 21
247.2483754716
 31
0.0
  0
SPLINE
  5
599
330
1B
100
AcDbEntity
 67
     1
  8
7_ALL_FEATURES
  6
Continuous
 62
     3
100
AcDbSpline
 70
     0
 71
     3
 72
    11
 73
     7
 74
     0
 42
0.000000001
 43
0.0000001
 40
0.0
 40
0.0
 40
0.0
 40
0.0
 40
0.2256474437
 40
0.4702282224
 40
0.7306544887
 40
1.0
 40
1.0
 40
1.0
 40
1.0
 10
293.7217519217
 20
247.2483754716
 30
0.0
 10
293.6360939284
 20
247.3756880606
 30
0.0
 10
293.4124033439
 20
247.6119485529
 30
0.0
 10
292.9826275607
 20
247.8706577924
 30
0.0
 10
292.4774621747
 20
248.0333018601
 30
0.0
 10
292.1160597734
 20
248.0699761838
 30
0.0
 10
291.9328975397
 20
248.0699761838
 30
0.0
  0
LINE
  5
59A
330
1B
100
AcDbEntity
 67
     1
  8
7_ALL_FEATURES
  6
Continuous
 62
     3
100
AcDbLine
 10
274.7050334947
 20
248.0699761838
 30
0.0
 11
291.9328975397
 21
248.0699761838
 31
0.0
  0
SPLINE
  5
59B
330
1B
100
AcDbEntity
 67
     1
  8
7_ALL_FEATURES
  6
Continuous
 62
     3
100
AcDbSpline
 70
     0
 71
     3
 72
    11
 73
     7
 74
     0
 42
0.000000001
 43
0.0000001
 40
0.0
 40
0.0
 40
0.0
 40
0.0
 40
0.2693455113
 40
0.5297717776
 40
0.7743525563
 40
1.0
 40
1.0
 40
1.0
 40
1.0
 10
274.7050334947
 20
248.0699761838
 30
0.0
 10
274.521871261
 20
248.0699761838
 30
0.0
 10
274.1604688598
 20
248.0333018601
 30
0.0
 10
273.6553034738
 20
247.8706577924
 30
0.0
 10
273.2255276905
 20
247.6119485529
 30
0.0
 10
273.001837106
 20
247.3756880606
 30
0.0
 10
272.9161791127
 20
247.2483754716
 30
0.0
  0
LINE
  5
59C
330
1B
100
AcDbEntity
 67
     1
  8
7_ALL_FEATURES
  6
Continuous
 62
     9
100
AcDbLine
 10
258.3189655172
 20
253.0181169077
 30
0.0
 11
269.5689655172
 21
253.0181169077
 31
0.0
  0
ARC
  5
59D
330
1B
100
AcDbEntity
 67
     1
  8
02___PRT_ALL_AXES
  6
Continuous
 62
     3
100
AcDbCircle
 10
259.6189655172
 20
229.0181169077
 30
0.0
 40
1.65
100
AcDbArc
 50
96.9296963762
 51
270.0
  0
LINE
  5
59E
330
1B
100
AcDbEntity
 67
     1
  8
02___PRT_ALL_AXES
  6
Continuous
 62
     3
100
AcDbLine
 10
259.6189655172
 20
227.3681169077
 30
0.0
 11
259.8189655172
 21
227.3681169077
 31
0.0
  0
LINE
  5
59F
330
1B
100
AcDbEntity
 67
     1
  8
02___PRT_ALL_AXES
  6
Continuous
 62
     3
100
AcDbLine
 10
259.8189655172
 20
227.3681169077
 30
0.0
 11
259.8189655172
 21
214.0181169077
 31
0.0
  0
ARC
  5
5A0
330
1B
100
AcDbEntity
 67
     1
  8
02___PRT_ALL_AXES
  6
Continuous
 62
     3
100
AcDbCircle
 10
261.4689655172
 20
214.0181169077
 30
0.0
 40
1.65
100
AcDbArc
 50
180.0
 51
360.0
  0
LINE
  5
5A1
330
1B
100
AcDbEntity
 67
     1
  8
02___PRT_ALL_AXES
  6
Continuous
 62
     3
100
AcDbLine
 10
263.1189655172
 20
214.0181169077
 30
0.0
 11
263.1189655172
 21
227.5312256002
 31
0.0
  0
LINE
  5
5A2
330
1B
100
AcDbEntity
 67
     1
  8
02___PRT_ALL_AXES
  6
Continuous
 62
     3
100
AcDbLine
 10
263.1189655172
 20
235.5050082151
 30
0.0
 11
263.1189655172
 21
236.5181169077
 31
0.0
  0
ARC
  5
5A3
330
1B
100
AcDbEntity
 67
     1
  8
02___PRT_ALL_AXES
  6
Continuous
 62
     3
100
AcDbCircle
 10
261.4689655172
 20
236.5181169077
 30
0.0
 40
1.65
100
AcDbArc
 50
0.0
 51
180.0
  0
LINE
  5
5A4
330
1B
100
AcDbEntity
 67
     1
  8
02___PRT_ALL_AXES
  6
Continuous
 62
     3
100
AcDbLine
 10
259.8189655172
 20
236.5181169077
 30
0.0
 11
259.8189655172
 21
233.4453221843
 31
0.0
  0
ARC
  5
5A5
330
1B
100
AcDbEntity
 67
     1
  8
02___PRT_ALL_AXES
  6
Continuous
 62
     3
100
AcDbCircle
 10
299.5689655172
 20
229.0181169077
 30
0.0
 40
1.675
100
AcDbArc
 50
95.30758995830001
 51
270.0
  0
LINE
  5
5A6
330
1B
100
AcDbEntity
 67
     1
  8
02___PRT_ALL_AXES
  6
Continuous
 62
     3
100
AcDbLine
 10
299.5689655172
 20
227.3431169077
 30
0.0
 11
299.7689655172
 21
227.3431169077
 31
0.0
  0
LINE
  5
5A7
330
1B
100
AcDbEntity
 67
     1
  8
02___PRT_ALL_AXES
  6
Continuous
 62
     3
100
AcDbLine
 10
299.7689655172
 20
227.3431169077
 30
0.0
 11
299.7689655172
 21
214.0181169077
 31
0.0
  0
ARC
  5
5A8
330
1B
100
AcDbEntity
 67
     1
  8
02___PRT_ALL_AXES
  6
Continuous
 62
     3
100
AcDbCircle
 10
301.4439655172
 20
214.0181169077
 30
0.0
 40
1.675
100
AcDbArc
 50
180.0
 51
360.0
  0
LINE
  5
5A9
330
1B
100
AcDbEntity
 67
     1
  8
02___PRT_ALL_AXES
  6
Continuous
 62
     3
100
AcDbLine
 10
303.1189655172
 20
214.0181169077
 30
0.0
 11
303.1189655172
 21
227.5312256002
 31
0.0
  0
LINE
  5
5AA
330
1B
100
AcDbEntity
 67
     1
  8
02___PRT_ALL_AXES
  6
Continuous
 62
     3
100
AcDbLine
 10
303.1189655172
 20
235.5050082151
 30
0.0
 11
303.1189655172
 21
236.5181169077
 31
0.0
  0
ARC
  5
5AB
330
1B
100
AcDbEntity
 67
     1
  8
02___PRT_ALL_AXES
  6
Continuous
 62
     3
100
AcDbCircle
 10
301.4439655172
 20
236.5181169077
 30
0.0
 40
1.675
100
AcDbArc
 50
0.0
 51
180.0
  0
LINE
  5
5AC
330
1B
100
AcDbEntity
 67
     1
  8
02___PRT_ALL_AXES
  6
Continuous
 62
     3
100
AcDbLine
 10
299.7689655172
 20
236.5181169077
 30
0.0
 11
299.7689655172
 21
233.3439322142
 31
0.0
  0
LINE
  5
5AD
330
1B
100
AcDbEntity
 67
     1
  8
7_ALL_FEATURES
  6
Continuous
 62
     3
100
AcDbLine
 10
256.3189655172
 20
240.5181169077
 30
0.0
 11
254.3189655172
 21
238.5181169077
 31
0.0
  0
LINE
  5
5AE
330
1B
100
AcDbEntity
 67
     1
  8
7_ALL_FEATURES
  6
Continuous
 62
     3
100
AcDbLine
 10
310.3189655172
 20
240.5181169077
 30
0.0
 11
256.3189655172
 21
240.5181169077
 31
0.0
  0
LINE
  5
5AF
330
1B
100
AcDbEntity
 67
     1
  8
7_ALL_FEATURES
  6
Continuous
 62
     3
100
AcDbLine
 10
312.3189655172
 20
238.5181169077
 30
0.0
 11
310.3189655172
 21
240.5181169077
 31
0.0
  0
LINE
  5
5B0
330
1B
100
AcDbEntity
 67
     1
  8
7_ALL_FEATURES
  6
Continuous
 62
     3
100
AcDbLine
 10
312.3189655172
 20
206.1181169077
 30
0.0
 11
312.3189655172
 21
238.5181169077
 31
0.0
  0
LINE
  5
5B1
330
1B
100
AcDbEntity
 67
     1
  8
7_ALL_FEATURES
  6
Continuous
 62
     3
100
AcDbLine
 10
254.3189655172
 20
238.5181169077
 30
0.0
 11
254.3189655172
 21
206.1181169077
 31
0.0
  0
ARC
  5
5B2
330
1B
100
AcDbEntity
 67
     1
  8
02___PRT_ALL_AXES
  6
Continuous
 62
     3
100
AcDbCircle
 10
266.9689655172
 20
231.5181169077
 30
0.0
 40
1.0
100
AcDbArc
 50
0.0
 51
76.71806356609999
  0
ARC
  5
5B3
330
1B
100
AcDbEntity
 67
     1
  8
02___PRT_ALL_AXES
  6
Continuous
 62
     3
100
AcDbCircle
 10
266.9689655172
 20
231.5181169077
 30
0.0
 40
1.0
100
AcDbArc
 50
283.2819364339
 51
360.0
  0
ARC
  5
5B4
330
1B
100
AcDbEntity
 67
     1
  8
02___PRT_ALL_AXES
  6
Continuous
 62
     3
100
AcDbCircle
 10
306.9689655172
 20
231.5181169077
 30
0.0
 40
1.0
100
AcDbArc
 50
0.0
 51
76.71806356609999
  0
ARC
  5
5B5
330
1B
100
AcDbEntity
 67
     1
  8
02___PRT_ALL_AXES
  6
Continuous
 62
     3
100
AcDbCircle
 10
306.9689655172
 20
231.5181169077
 30
0.0
 40
1.0
100
AcDbArc
 50
283.2819364339
 51
360.0
  0
LINE
  5
5B6
330
1B
100
AcDbEntity
 67
     1
  8
7_ALL_FEATURES
  6
Continuous
 62
     3
100
AcDbLine
 10
312.3189655172
 20
205.3181169077
 30
0.0
 11
312.3189655172
 21
206.1181169077
 31
0.0
  0
LINE
  5
5B7
330
1B
100
AcDbEntity
 67
     1
  8
7_ALL_FEATURES
  6
Continuous
 62
     3
100
AcDbLine
 10
254.3189655172
 20
205.3181169077
 30
0.0
 11
254.3189655172
 21
206.1181169077
 31
0.0
  0
LINE
  5
5B8
330
1B
100
AcDbEntity
 67
     1
  8
7_ALL_FEATURES
  6
Continuous
 62
     3
100
AcDbLine
 10
310.1099534982
 20
205.3181169077
 30
0.0
 11
312.3189655172
 21
205.3181169077
 31
0.0
  0
LINE
  5
5B9
330
1B
100
AcDbEntity
 67
     1
  8
7_ALL_FEATURES
  6
Continuous
 62
     3
100
AcDbLine
 10
254.3189655172
 20
205.3181169077
 30
0.0
 11
256.5279775363
 21
205.3181169077
 31
0.0
  0
LINE
  5
5BA
330
1B
100
AcDbEntity
 67
     1
  8
7_ALL_FEATURES
  6
Continuous
 62
     3
100
AcDbLine
 10
256.5279775363
 20
205.3181169077
 30
0.0
 11
258.8189655172
 21
205.3181169077
 31
0.0
  0
LINE
  5
5BB
330
1B
100
AcDbEntity
 67
     1
  8
7_ALL_FEATURES
  6
Continuous
 62
     3
100
AcDbLine
 10
307.8189655172
 20
205.3181169077
 30
0.0
 11
258.8189655172
 21
205.3181169077
 31
0.0
  0
LINE
  5
5BC
330
1B
100
AcDbEntity
 67
     1
  8
7_ALL_FEATURES
  6
Continuous
 62
     3
100
AcDbLine
 10
307.8189655172
 20
205.3181169077
 30
0.0
 11
310.1099534982
 21
205.3181169077
 31
0.0
  0
LINE
  5
5BD
330
1B
100
AcDbEntity
 67
     1
  8
7_ALL_FEATURES
  6
Continuous
 62
     9
100
AcDbLine
 10
254.3189655172
 20
206.1181169077
 30
0.0
 11
312.3189655172
 21
206.1181169077
 31
0.0
  0
LINE
  5
5BE
330
1B
100
AcDbEntity
 67
     1
  8
7_ALL_FEATURES
  6
Continuous
 62
     3
100
AcDbLine
 10
316.3189655172
 20
247.0181169077
 30
0.0
 11
250.3189655172
 21
247.0181169077
 31
0.0
  0
LINE
  5
5BF
330
1B
100
AcDbEntity
 67
     1
  8
7_ALL_FEATURES
  6
Continuous
 62
     3
100
AcDbLine
 10
250.3189655172
 20
192.0181169077
 30
0.0
 11
316.3189655172
 21
192.0181169077
 31
0.0
  0
ARC
  5
5C0
330
1B
100
AcDbEntity
 67
     1
  8
02___PRT_ALL_AXES
  6
Continuous
 62
     3
100
AcDbCircle
 10
303.3189655172
 20
243.0181169077
 30
0.0
 40
1.0
100
AcDbArc
 50
270.0
 51
90.0
  0
ARC
  5
5C1
330
1B
100
AcDbEntity
 67
     1
  8
02___PRT_ALL_AXES
  6
Continuous
 62
     3
100
AcDbCircle
 10
303.3189655172
 20
243.0181169077
 30
0.0
 40
1.0
100
AcDbArc
 50
90.0
 51
270.0
  0
ARC
  5
5C2
330
1B
100
AcDbEntity
 67
     1
  8
02___PRT_ALL_AXES
  6
Continuous
 62
     3
100
AcDbCircle
 10
263.3189655172
 20
243.0181169077
 30
0.0
 40
1.0
100
AcDbArc
 50
90.0
 51
270.0
  0
ARC
  5
5C3
330
1B
100
AcDbEntity
 67
     1
  8
02___PRT_ALL_AXES
  6
Continuous
 62
     3
100
AcDbCircle
 10
263.3189655172
 20
243.0181169077
 30
0.0
 40
1.0
100
AcDbArc
 50
270.0
 51
90.0
  0
LINE
  5
5C4
330
1B
100
AcDbEntity
 67
     1
  8
7_ALL_FEATURES
  6
Continuous
 62
     3
100
AcDbLine
 10
299.7689655172
 20
217.0181169077
 30
0.0
 11
303.1189655172
 21
217.0181169077
 31
0.0
  0
LINE
  5
5C5
330
1B
100
AcDbEntity
 67
     1
  8
7_ALL_FEATURES
  6
Continuous
 62
     3
100
AcDbLine
 10
259.8189655172
 20
217.0181169077
 30
0.0
 11
263.1189655172
 21
217.0181169077
 31
0.0
  0
LINE
  5
5C6
330
1B
100
AcDbEntity
 67
     1
  8
7_ALL_FEATURES
  6
Continuous
 62
     3
100
AcDbLine
 10
316.3189655172
 20
247.0181169077
 30
0.0
 11
317.3189655172
 21
247.0181169077
 31
0.0
  0
LINE
  5
5C7
330
1B
100
AcDbEntity
 67
     1
  8
7_ALL_FEATURES
  6
Continuous
 62
     3
100
AcDbLine
 10
317.3189655172
 20
247.0181169077
 30
0.0
 11
318.3189655172
 21
247.0181169077
 31
0.0
  0
LINE
  5
5C8
330
1B
100
AcDbEntity
 67
     1
  8
7_ALL_FEATURES
  6
Continuous
 62
     3
100
AcDbLine
 10
318.3189655172
 20
192.0181169077
 30
0.0
 11
318.3189655172
 21
247.0181169077
 31
0.0
  0
LINE
  5
5C9
330
1B
100
AcDbEntity
 67
     1
  8
7_ALL_FEATURES
  6
Continuous
 62
     3
100
AcDbLine
 10
316.3189655172
 20
192.0181169077
 30
0.0
 11
317.3189655172
 21
192.0181169077
 31
0.0
  0
LINE
  5
5CA
330
1B
100
AcDbEntity
 67
     1
  8
7_ALL_FEATURES
  6
Continuous
 62
     3
100
AcDbLine
 10
317.3189655172
 20
192.0181169077
 30
0.0
 11
318.3189655172
 21
192.0181169077
 31
0.0
  0
LINE
  5
5CB
330
1B
100
AcDbEntity
 67
     1
  8
7_ALL_FEATURES
  6
Continuous
 62
     3
100
AcDbLine
 10
248.3189655172
 20
192.0181169077
 30
0.0
 11
248.3189655172
 21
247.0181169077
 31
0.0
  0
LINE
  5
5CC
330
1B
100
AcDbEntity
 67
     1
  8
7_ALL_FEATURES
  6
Continuous
 62
     3
100
AcDbLine
 10
248.3189655172
 20
247.0181169077
 30
0.0
 11
249.3189655172
 21
247.0181169077
 31
0.0
  0
LINE
  5
5CD
330
1B
100
AcDbEntity
 67
     1
  8
7_ALL_FEATURES
  6
Continuous
 62
     3
100
AcDbLine
 10
249.3189655172
 20
247.0181169077
 30
0.0
 11
250.3189655172
 21
247.0181169077
 31
0.0
  0
LINE
  5
5CE
330
1B
100
AcDbEntity
 67
     1
  8
7_ALL_FEATURES
  6
Continuous
 62
     3
100
AcDbLine
 10
248.3189655172
 20
192.0181169077
 30
0.0
 11
249.3189655172
 21
192.0181169077
 31
0.0
  0
LINE
  5
5CF
330
1B
100
AcDbEntity
 67
     1
  8
7_ALL_FEATURES
  6
Continuous
 62
     3
100
AcDbLine
 10
249.3189655172
 20
192.0181169077
 30
0.0
 11
250.3189655172
 21
192.0181169077
 31
0.0
  0
LINE
  5
5D0
330
1B
100
AcDbEntity
 67
     1
  8
7_ALL_FEATURES
  6
Continuous
 62
     9
100
AcDbLine
 10
250.3189655172
 20
192.0181169077
 30
0.0
 11
250.3189655172
 21
247.0181169077
 31
0.0
  0
LINE
  5
5D1
330
1B
100
AcDbEntity
 67
     1
  8
7_ALL_FEATURES
  6
Continuous
 62
     9
100
AcDbLine
 10
316.3189655172
 20
192.0181169077
 30
0.0
 11
316.3189655172
 21
247.0181169077
 31
0.0
  0
DIMENSION
  5
5D2
330
1B
100
AcDbEntity
 67
     1
  8
0
  6
Continuous
 62
     2
100
AcDbDimension
280
     0
  2
*D1
 10
335.385547475
 20
192.0181169077
 30
0.0
 11
335.385547475
 21
222.9821923194
 31
0.0
 70
   160
 71
     5
 42
-1.0
 73
     0
 74
     0
 75
     0
  3
DIMSTYLE_1
100
AcDbAlignedDimension
 13
319.9440422692
 23
254.0181169077
 33
0.0
 14
319.3866941046
 24
192.0181169077
 34
0.0
 50
270.0
100
AcDbRotatedDimension
  0
DIMENSION
  5
5D3
330
1B
100
AcDbEntity
 67
     1
  8
0
  6
Continuous
 62
     2
100
AcDbDimension
280
     0
  2
*D2
 10
318.3189655172
 20
173.722600812
 30
0.0
 11
283.3220690918
 21
173.722600812
 31
0.0
 70
   160
 71
     5
 42
-1.0
 73
     0
 74
     0
 75
     0
  3
DIMSTYLE_1
100
AcDbAlignedDimension
 13
248.3189655172
 23
191.0493605117
 33
0.0
 14
318.3189655172
 24
190.8879011123
 34
0.0
100
AcDbRotatedDimension
  0
DIMENSION
  5
5D4
330
1B
100
AcDbEntity
 67
     1
  8
0
  6
Continuous
 62
     2
100
AcDbDimension
280
     0
  2
*D3
 10
181.2350528365
 20
168.0634660189
 30
0.0
 11
126.3639431763
 21
168.0634660189
 31
0.0
 70
   160
 71
     5
 42
-1.0
 73
     0
 74
     0
 75
     0
  3
DIMSTYLE_1
100
AcDbAlignedDimension
 13
71.2350528365
 23
204.5181169077
 33
0.0
 14
181.2350528365
 24
204.5181169077
 34
0.0
100
AcDbRotatedDimension
  0
DIMENSION
  5
5D5
330
1B
100
AcDbEntity
 67
     1
  8
0
  6
Continuous
 62
     2
100
AcDbDimension
280
     0
  2
*D4
 10
161.2350528365
 20
179.6976361642
 30
0.0
 11
126.23815979
 21
179.6976361642
 31
0.0
 70
   160
 71
     5
 42
-1.0
 73
     0
 74
     0
 75
     0
  3
DIMSTYLE_1
100
AcDbAlignedDimension
 13
91.2350528365
 23
192.0181169077
 33
0.0
 14
161.2350528365
 24
192.0181169077
 34
0.0
100
AcDbRotatedDimension
  0
DIMENSION
  5
5D6
330
1B
100
AcDbEntity
 67
     1
  8
0
  6
Continuous
 62
     2
100
AcDbDimension
280
     0
  2
*D5
 10
195.7876306862
 20
204.5181169077
 30
0.0
 11
195.7876306862
 21
198.4091968663
 31
0.0
 70
   160
 71
     5
 42
-1.0
 73
     0
 74
     0
 75
     0
  3
DIMSTYLE_2
100
AcDbAlignedDimension
 13
181.7946618456
 23
192.0181169077
 33
0.0
 14
181.6371502845
 24
204.5181169077
 34
0.0
 50
90.0
100
AcDbRotatedDimension
  0
LINE
  5
5D7
330
1B
100
AcDbEntity
 67
     1
  8
0
  6
Continuous
 62
     2
100
AcDbLine
 10
280.0154423813
 20
76.0331558006
 30
0.0
 11
410.0154423813
 21
76.0331558006
 31
0.0
  0
LINE
  5
5D8
330
1B
100
AcDbEntity
 67
     1
  8
0
  6
Continuous
 62
     2
100
AcDbLine
 10
280.0154423813
 20
76.0331558006
 30
0.0
 11
280.0154423813
 21
10.0331558006
 31
0.0
  0
LINE
  5
5D9
330
1B
100
AcDbEntity
 67
     1
  8
0
  6
Continuous
 62
     2
100
AcDbLine
 10
310.0154423813
 20
68.0331558006
 30
0.0
 11
410.0154423813
 21
68.0331558006
 31
0.0
  0
LINE
  5
5DA
330
1B
100
AcDbEntity
 67
     1
  8
0
  6
Continuous
 62
     2
100
AcDbLine
 10
280.0154423813
 20
60.0331558006
 30
0.0
 11
410.0154423813
 21
60.0331558006
 31
0.0
  0
LINE
  5
5DB
330
1B
100
AcDbEntity
 67
     1
  8
0
  6
Continuous
 62
     2
100
AcDbLine
 10
310.0154423813
 20
54.0331558006
 30
0.0
 11
410.0154423813
 21
54.0331558006
 31
0.0
  0
LINE
  5
5DC
330
1B
100
AcDbEntity
 67
     1
  8
0
  6
Continuous
 62
     2
100
AcDbLine
 10
310.0154423813
 20
48.0331558006
 30
0.0
 11
410.0154423813
 21
48.0331558006
 31
0.0
  0
LINE
  5
5DD
330
1B
100
AcDbEntity
 67
     1
  8
0
  6
Continuous
 62
     2
100
AcDbLine
 10
310.0154423813
 20
42.0331558006
 30
0.0
 11
410.0154423813
 21
42.0331558006
 31
0.0
  0
LINE
  5
5DE
330
1B
100
AcDbEntity
 67
     1
  8
0
  6
Continuous
 62
     2
100
AcDbLine
 10
310.0154423813
 20
36.0331558006
 30
0.0
 11
410.0154423813
 21
36.0331558006
 31
0.0
  0
LINE
  5
5DF
330
1B
100
AcDbEntity
 67
     1
  8
0
  6
Continuous
 62
     2
100
AcDbLine
 10
310.0154423813
 20
30.0331558006
 30
0.0
 11
410.0154423813
 21
30.0331558006
 31
0.0
  0
LINE
  5
5E0
330
1B
100
AcDbEntity
 67
     1
  8
0
  6
Continuous
 62
     2
100
AcDbLine
 10
280.0154423813
 20
24.0331558006
 30
0.0
 11
410.0154423813
 21
24.0331558006
 31
0.0
  0
LINE
  5
5E1
330
1B
100
AcDbEntity
 67
     1
  8
0
  6
Continuous
 62
     2
100
AcDbLine
 10
280.0154423813
 20
18.0331558006
 30
0.0
 11
410.0154423813
 21
18.0331558006
 31
0.0
  0
LINE
  5
5E2
330
1B
100
AcDbEntity
 67
     1
  8
0
  6
Continuous
 62
     2
100
AcDbLine
 10
280.0154423813
 20
14.0331558006
 30
0.0
 11
410.0154423813
 21
14.0331558006
 31
0.0
  0
LINE
  5
5E3
330
1B
100
AcDbEntity
 67
     1
  8
0
  6
Continuous
 62
     2
100
AcDbLine
 10
280.0154423813
 20
10.0331558006
 30
0.0
 11
410.0154423813
 21
10.0331558006
 31
0.0
  0
LINE
  5
5E4
330
1B
100
AcDbEntity
 67
     1
  8
0
  6
Continuous
 62
     2
100
AcDbLine
 10
310.0154423813
 20
76.0331558006
 30
0.0
 11
310.0154423813
 21
18.0331558006
 31
0.0
  0
LINE
  5
5E5
330
1B
100
AcDbEntity
 67
     1
  8
0
  6
Continuous
 62
     2
100
AcDbLine
 10
330.0154423813
 20
60.0331558006
 30
0.0
 11
330.0154423813
 21
54.0331558006
 31
0.0
  0
LINE
  5
5E6
330
1B
100
AcDbEntity
 67
     1
  8
0
  6
Continuous
 62
     2
100
AcDbLine
 10
360.0154423813
 20
30.0331558006
 30
0.0
 11
360.0154423813
 21
18.0331558006
 31
0.0
  0
LINE
  5
5E7
330
1B
100
AcDbEntity
 67
     1
  8
0
  6
Continuous
 62
     2
100
AcDbLine
 10
370.0154423813
 20
60.0331558006
 30
0.0
 11
370.0154423813
 21
54.0331558006
 31
0.0
  0
LINE
  5
5E8
330
1B
100
AcDbEntity
 67
     1
  8
0
  6
Continuous
 62
     2
100
AcDbLine
 10
370.0154423813
 20
48.0331558006
 30
0.0
 11
370.0154423813
 21
42.0331558006
 31
0.0
  0
LINE
  5
5E9
330
1B
100
AcDbEntity
 67
     1
  8
0
  6
Continuous
 62
     2
100
AcDbLine
 10
390.0154423813
 20
60.0331558006
 30
0.0
 11
390.0154423813
 21
54.0331558006
 31
0.0
  0
LINE
  5
5EA
330
1B
100
AcDbEntity
 67
     1
  8
0
  6
Continuous
 62
     2
100
AcDbLine
 10
400.0154423813
 20
48.0331558006
 30
0.0
 11
400.0154423813
 21
42.0331558006
 31
0.0
  0
LINE
  5
5EB
330
1B
100
AcDbEntity
 67
     1
  8
0
  6
Continuous
 62
     2
100
AcDbLine
 10
410.0154423813
 20
76.0331558006
 30
0.0
 11
410.0154423813
 21
10.0331558006
 31
0.0
  0
INSERT
  5
5EC
330
1B
100
AcDbEntity
 67
     1
  8
0
  6
Continuous
 62
     2
100
AcDbBlockReference
  2
PROIEZIONE_EU_BL0
 10
295.0154423813
 20
67.6581558006
 30
0.0
  0
MTEXT
  5
5ED
330
1B
100
AcDbEntity
 67
     1
  8
9_SOLID
  6
Continuous
 62
     2
100
AcDbMText
 10
311.5029423813
 20
74.4081558006
 30
0.0
 40
1.9
 41
142.3642857143
 46
0.0
 71
     1
 72
     1
  1
EN: Chamfer/radii unlisted 0.3x45°. Remove sharp edges.\PGen. tol.: hole H11, shaft h11, lenght Js12. UNI EN 22768 Medium Grande.
  7
TEXTSTYLE_5
 73
     1
 44
1.0
  0
MTEXT
  5
5EE
330
1B
100
AcDbEntity
 67
     1
  8
9_SOLID
  6
Continuous
 62
     2
100
AcDbMText
 10
311.5029423813
 20
66.4081558006
 30
0.0
 40
1.9
 41
148.2678571429
 46
0.0
 71
     1
 72
     1
  1
IT: Sm./rac. non quotati 0.3x45°. Eliminare spigoli taglienti.\PToll. gen.: foro H11, albero h11, lunghezza Js12. UNI EN 22768 Grado Medio.
  7
TEXTSTYLE_5
 73
     1
 44
1.0
  0
INSERT
  5
5EF
330
1B
100
AcDbEntity
 67
     1
  8
0
  6
Continuous
 62
     2
100
AcDbBlockReference
  2
LOGO2_BL1
 10
293.8414894261
 20
42.0331558006
 30
0.0
  0
MTEXT
  5
5F0
330
1B
100
AcDbEntity
 67
     1
  8
9_SOLID
  6
Continuous
 62
     2
100
AcDbMText
 10
311.5029423813
 20
58.2831558006
 30
0.0
 40
3.0
 41
22.2857142857
 46
0.0
 71
     1
 72
     1
  1
Pj: 6C5
  7
TEXTSTYLE_5
 73
     1
 44
1.0
  0
MTEXT
  5
5F1
330
1B
100
AcDbEntity
 67
     1
  8
9_SOLID
  6
Continuous
 62
     2
100
AcDbMText
 10
331.5029423813
 20
58.2831558006
 30
0.0
 40
3.0
 41
38.0357142857
 46
0.0
 71
     1
 72
     1
  1
% Check: %
  7
TEXTSTYLE_5
 73
     1
 44
1.0
  0
MTEXT
  5
5F2
330
1B
100
AcDbEntity
 67
     1
  8
9_SOLID
  6
Continuous
 62
     2
100
AcDbMText
 10
371.5029423813
 20
58.2831558006
 30
0.0
 40
3.0
 41
19.5
 46
0.0
 71
     1
 72
     1
  1
Rev:00
  7
TEXTSTYLE_5
 73
     1
 44
1.0
  0
MTEXT
  5
5F3
330
1B
100
AcDbEntity
 67
     1
  8
9_SOLID
  6
Continuous
 62
     2
100
AcDbMText
 10
391.5029423813
 20
58.5331558006
 30
0.0
 40
3.0
 41
19.7142857143
 46
0.0
 71
     1
 72
     1
  1
Ver: A
  7
TEXTSTYLE_5
 73
     1
 44
1.0
  0
MTEXT
  5
5F4
330
1B
100
AcDbEntity
 67
     1
  8
9_SOLID
  6
Continuous
 62
     2
100
AcDbMText
 10
311.5029423813
 20
52.2831558006
 30
0.0
 40
3.0
 41
73.9285714286
 46
0.0
 71
     1
 72
     1
  1
Neutral code: 6C5_C_021
  7
TEXTSTYLE_5
 73
     1
 44
1.0
  0
MTEXT
  5
5F5
330
1B
100
AcDbEntity
 67
     1
  8
9_SOLID
  6
Continuous
 62
     2
100
AcDbMText
 10
311.5029423813
 20
46.2831558006
 30
0.0
 40
3.0
 41
19.3928571429
 46
0.0
 71
     1
 72
     1
  1
Code: 
  7
TEXTSTYLE_5
 73
     1
 44
1.0
  0
MTEXT
  5
5F6
330
1B
100
AcDbEntity
 67
     1
  8
9_SOLID
  6
Continuous
 62
     2
100
AcDbMText
 10
371.5029423813
 20
46.5331558006
 30
0.0
 40
3.0
 41
27.0
 46
0.0
 71
     1
 72
     1
  1
Scale: 1:1
  7
TEXTSTYLE_5
 73
     1
 44
1.0
  0
MTEXT
  5
5F7
330
1B
100
AcDbEntity
 67
     1
  8
9_SOLID
  6
Continuous
 62
     2
100
AcDbMText
 10
405.0154423813
 20
46.5331558006
 30
0.0
 40
3.0
 41
7.0714285714
 46
0.0
 71
     2
 72
     1
  1
A3
  7
TEXTSTYLE_5
 73
     1
 44
1.0
  0
MTEXT
  5
5F8
330
1B
100
AcDbEntity
 67
     1
  8
9_SOLID
  6
Continuous
 62
     2
100
AcDbMText
 10
311.5029423813
 20
40.5331558006
 30
0.0
 40
3.0
 41
129.2142857143
 46
0.0
 71
     1
 72
     1
  1
It descr.: CASSAFORMA CARTONG TURIS2.0
  7
TEXTSTYLE_5
 73
     1
 44
1.0
  0
MTEXT
  5
5F9
330
1B
100
AcDbEntity
 67
     1
  8
9_SOLID
  6
Continuous
 62
     2
100
AcDbMText
 10
311.5029423813
 20
34.5331558006
 30
0.0
 40
3.0
 41
33.9642857143
 46
0.0
 71
     1
 72
     1
  1
En descr.: 
  7
TEXTSTYLE_5
 73
     1
 44
1.0
  0
MTEXT
  5
5FA
330
1B
100
AcDbEntity
 67
     1
  8
9_SOLID
  6
Continuous
 62
     2
100
AcDbMText
 10
311.5029423813
 20
28.5331558006
 30
0.0
 40
3.0
 41
31.6071428571
 46
0.0
 71
     1
 72
     1
  1
Des.: A.G.
  7
TEXTSTYLE_5
 73
     1
 44
1.0
  0
MTEXT
  5
5FB
330
1B
100
AcDbEntity
 67
     1
  8
9_SOLID
  6
Continuous
 62
     2
100
AcDbMText
 10
361.5029423813
 20
28.5331558006
 30
0.0
 40
3.0
 41
34.8214285714
 46
0.0
 71
     1
 72
     1
  1
Check: A.P.
  7
TEXTSTYLE_5
 73
     1
 44
1.0
  0
MTEXT
  5
5FC
330
1B
100
AcDbEntity
 67
     1
  8
9_SOLID
  6
Continuous
 62
     2
100
AcDbMText
 10
281.5029423813
 20
22.5331558006
 30
0.0
 40
3.0
 41
42.5357142857
 46
0.0
 71
     1
 72
     1
  1
Date: 17.12.18
  7
TEXTSTYLE_5
 73
     1
 44
1.0
  0
MTEXT
  5
5FD
330
1B
100
AcDbEntity
 67
     1
  8
9_SOLID
  6
Continuous
 62
     2
100
AcDbMText
 10
311.5029423813
 20
22.5331558006
 30
0.0
 40
3.0
 41
18.2142857143
 46
0.0
 71
     1
 72
     1
  1
Mat.: 
  7
TEXTSTYLE_5
 73
     1
 44
1.0
  0
MTEXT
  5
5FE
330
1B
100
AcDbEntity
 67
     1
  8
9_SOLID
  6
Continuous
 62
     2
100
AcDbMText
 10
361.5029423813
 20
22.0331558006
 30
0.0
 40
2.0
 41
42.3571428571
 46
0.0
 71
     1
 72
     1
  1
Disegno per catalogo
  7
TEXTSTYLE_5
 73
     1
 44
1.0
  0
MTEXT
  5
5FF
330
1B
100
AcDbEntity
 67
     1
  8
9_SOLID
  6
Continuous
 62
     2
100
AcDbMText
 10
281.5029423813
 20
16.9331558006
 30
0.0
 40
1.8
 41
175.6928571429
 46
0.0
 71
     1
 72
     1
  1
It: A norma di legge si diffida da qualsiasi riproduzione senza nostra autorizzazione esplicita.
  7
TEXTSTYLE_5
 73
     1
 44
1.0
  0
MTEXT
  5
600
330
1B
100
AcDbEntity
 67
     1
  8
9_SOLID
  6
Continuous
 62
     2
100
AcDbMText
 10
281.5029423813
 20
12.9331558006
 30
0.0
 40
1.8
 41
157.6285714286
 46
0.0
 71
     1
 72
     1
  1
En: According to the law, beware of any reproduction made without our authorization.
  7
TEXTSTYLE_5
 73
     1
 44
1.0
  0
ENDSEC
  0
SECTION
  2
OBJECTS
  0
DICTIONARY
  5
601
330
0
100
AcDbDictionary
281
     1
  3
ACAD_DETAILVIEWSTYLE
350
657
  3
ACAD_GROUP
350
602
  3
ACAD_LAYOUT
350
62A
  3
ACAD_MATERIAL
350
646
  3
ACAD_MLEADERSTYLE
350
64C
  3
ACAD_MLINESTYLE
350
603
  3
ACAD_PLOTSETTINGS
350
605
  3
ACAD_PLOTSTYLENAME
350
606
  3
ACAD_SCALELIST
350
608
  3
ACAD_SECTIONVIEWSTYLE
350
658
  3
ACAD_TABLESTYLE
350
64A
  3
ACAD_VISUALSTYLE
350
62D
  3
ACDB_RECOMPOSE_DATA
350
653
  3
AcDbVariableDictionary
350
64F
  3
APPDATA
350
64E
  0
DICTIONARY
  5
657
102
{ACAD_REACTORS
330
601
102
}
330
601
100
AcDbDictionary
281
     1
  0
DICTIONARY
  5
602
102
{ACAD_REACTORS
330
601
102
}
330
601
100
AcDbDictionary
281
     1
  0
DICTIONARY
  5
62A
102
{ACAD_REACTORS
330
601
102
}
330
601
100
AcDbDictionary
281
     1
  3
Foglio 1
350
62C
  3
Model
350
62B
  0
DICTIONARY
  5
646
102
{ACAD_REACTORS
330
601
102
}
330
601
100
AcDbDictionary
281
     1
  3
ByBlock
350
648
  3
ByLayer
350
647
  3
Global
350
649
  0
DICTIONARY
  5
64C
102
{ACAD_REACTORS
330
601
102
}
330
601
100
AcDbDictionary
281
     1
  3
Standard
350
64D
  0
DICTIONARY
  5
603
102
{ACAD_REACTORS
330
601
102
}
330
601
100
AcDbDictionary
281
     1
  3
STANDARD
350
604
  0
DICTIONARY
  5
605
102
{ACAD_REACTORS
330
601
102
}
330
601
100
AcDbDictionary
281
     1
  0
ACDBDICTIONARYWDFLT
  5
606
102
{ACAD_REACTORS
330
601
102
}
330
601
100
AcDbDictionary
281
     1
  3
Normal
350
607
100
AcDbDictionaryWithDefault
340
607
  0
DICTIONARY
  5
608
102
{ACAD_REACTORS
330
601
102
}
330
601
100
AcDbDictionary
281
     1
  3
A0
350
609
  3
A1
350
60A
  3
A2
350
60B
  3
A3
350
60C
  3
A4
350
60D
  3
A5
350
60E
  3
A6
350
60F
  3
A7
350
610
  3
A8
350
611
  3
A9
350
612
  3
B0
350
613
  3
B1
350
614
  3
B2
350
615
  3
B3
350
616
  3
B4
350
617
  3
B5
350
618
  3
B6
350
619
  3
B7
350
61A
  3
B8
350
61B
  3
B9
350
61C
  3
C0
350
61D
  3
C1
350
61E
  3
C2
350
61F
  3
C3
350
620
  3
C4
350
621
  3
C5
350
622
  3
C6
350
623
  3
C7
350
624
  3
C8
350
625
  3
C9
350
626
  3
D0
350
627
  3
D1
350
628
  3
D2
350
629
  0
DICTIONARY
  5
658
102
{ACAD_REACTORS
330
601
102
}
330
601
100
AcDbDictionary
281
     1
  0
DICTIONARY
  5
64A
102
{ACAD_REACTORS
330
601
102
}
330
601
100
AcDbDictionary
281
     1
  3
Standard
350
64B
  0
DICTIONARY
  5
62D
102
{ACAD_REACTORS
330
601
102
}
330
601
100
AcDbDictionary
281
     1
  3
2dWireframe
350
632
  3
Basic
350
635
  3
Brighten
350
639
  3
ColorChange
350
63D
  3
Conceptual
350
637
  3
Dim
350
638
  3
EdgeColorOff
350
640
  3
Facepattern
350
63C
  3
Flat
350
62E
  3
FlatWithEdges
350
62F
  3
Gouraud
350
630
  3
GouraudWithEdges
350
631
  3
Hidden
350
634
  3
JitterOff
350
63E
  3
Linepattern
350
63B
  3
OverhangOff
350
63F
  3
Realistic
350
636
  3
Shaded
350
645
  3
Shaded with edges
350
644
  3
Shades of Gray
350
641
  3
Sketchy
350
642
  3
Thicken
350
63A
  3
Wireframe
350
633
  3
X-Ray
350
643
  0
XRECORD
  5
653
102
{ACAD_REACTORS
330
601
102
}
330
601
100
AcDbXrecord
280
     1
 90
        1
330
64B
  0
DICTIONARY
  5
64F
102
{ACAD_REACTORS
330
601
102
}
330
601
100
AcDbDictionary
281
     1
  3
CANNOSCALE
350
650
  3
CMLEADERSTYLE
350
655
  3
CTABLESTYLE
350
654
  3
MSLTSCALE
350
656
  0
DICTIONARY
  5
64E
102
{ACAD_REACTORS
330
601
102
}
330
601
100
AcDbDictionary
281
     1
  0
LAYOUT
  5
62C
102
{ACAD_REACTORS
330
62A
102
}
330
62A
100
AcDbPlotSettings
  1

  2
none_device
  4
ISO_A3_(420.00_x_297.00_MM)
  6

 40
7.5
 41
20.0
 42
7.5
 43
20.0
 44
420.0
 45
297.0
 46
0.0
 47
0.0
 48
0.0
 49
0.0
140
0.0
141
0.0
142
1.0
143
1.155642023346303
 70
   688
 72
     1
 73
     0
 74
     1
  7

 75
     0
 76
     0
 77
     2
 78
   300
147
0.8653198653198654
148
0.0
149
0.0
100
AcDbLayout
  1
Foglio 1
 70
     1
 71
     1
 10
0.0
 20
0.0
 11
412.5
 21
277.0
 12
0.0
 22
0.0
 32
0.0
 14
0.0
 24
0.0
 34
0.0
 15
420.0
 25
297.0
 35
0.0
146
0.0
 13
0.0
 23
0.0
 33
0.0
 16
1.0
 26
0.0
 36
0.0
 17
0.0
 27
1.0
 37
0.0
 76
     0
330
1B
331
2D1
  0
LAYOUT
  5
62B
102
{ACAD_REACTORS
330
62A
102
}
330
62A
100
AcDbPlotSettings
  1

  2
none_device
  4
Letter_(8.50_x_11.00_Inches)
  6

 40
6.35
 41
6.35
 42
6.35
 43
6.35
 44
215.9
 45
279.4
 46
0.0
 47
0.0
 48
0.0
 49
0.0
140
0.0
141
0.0
142
1.0
143
52.49999999846251
 70
  1712
 72
     0
 73
     0
 74
     0
  7

 75
     0
 76
     0
 77
     2
 78
   300
147
0.0190476190481769
148
-0.0000001562100806
149
0.0
100
AcDbLayout
  1
Model
 70
     1
 71
     0
 10
0.0
 20
0.0
 11
420.0
 21
297.0
 12
0.0
 22
0.0
 32
0.0
 14
0.0
 24
0.0
 34
0.0
 15
420.0
 25
297.0
 35
0.0
146
0.0
 13
0.0
 23
0.0
 33
0.0
 16
1.0
 26
0.0
 36
0.0
 17
0.0
 27
1.0
 37
0.0
 76
     0
330
1F
331
1F4
  0
MATERIAL
  5
648
102
{ACAD_REACTORS
330
646
102
}
330
646
100
AcDbMaterial
  1
ByBlock
 72
     1
 94
      127
  0
MATERIAL
  5
647
102
{ACAD_REACTORS
330
646
102
}
330
646
100
AcDbMaterial
  1
ByLayer
 72
     1
 94
      127
  0
MATERIAL
  5
649
102
{ACAD_REACTORS
330
646
102
}
330
646
100
AcDbMaterial
  1
Global
 72
     1
 94
      127
  0
MLEADERSTYLE
  5
64D
102
{ACAD_REACTORS
330
64C
102
}
330
64C
100
AcDbMLeaderStyle
179
     2
170
     2
171
     1
172
     0
 90
        2
 40
0.0
 41
0.0
173
     1
 91
-1056964608
340
14
 92
       -2
290
     1
 42
2.0
291
     1
 43
8.0
  3
Standard
341
0
 44
4.0
300

342
11
174
     1
178
     1
175
     1
176
     0
 93
-1056964608
 45
4.0
292
     0
297
     0
 46
4.0
343
0
 94
-1056964608
 47
1.0
 49
1.0
140
1.0
293
     1
141
0.0
294
     1
177
     0
142
1.0
295
     0
296
     0
143
3.75
271
     0
272
     9
273
     9
298
     0
  0
MLINESTYLE
  5
604
102
{ACAD_REACTORS
330
603
102
}
330
603
100
AcDbMlineStyle
  2
STANDARD
 70
     0
  3

 62
   256
 51
90.0
 52
90.0
 71
     2
 49
0.5
 62
   256
  6
BYLAYER
 49
-0.5
 62
   256
  6
BYLAYER
  0
ACDBPLACEHOLDER
  5
607
102
{ACAD_REACTORS
330
606
102
}
330
606
  0
SCALE
  5
609
102
{ACAD_REACTORS
330
608
102
}
330
608
100
AcDbScale
 70
     0
300
1:1
140
1.0
141
1.0
290
     1
  0
SCALE
  5
60A
102
{ACAD_REACTORS
330
608
102
}
330
608
100
AcDbScale
 70
     0
300
1:2
140
1.0
141
2.0
290
     0
  0
SCALE
  5
60B
102
{ACAD_REACTORS
330
608
102
}
330
608
100
AcDbScale
 70
     0
300
1:4
140
1.0
141
4.0
290
     0
  0
SCALE
  5
60C
102
{ACAD_REACTORS
330
608
102
}
330
608
100
AcDbScale
 70
     0
300
1:5
140
1.0
141
5.0
290
     0
  0
SCALE
  5
60D
102
{ACAD_REACTORS
330
608
102
}
330
608
100
AcDbScale
 70
     0
300
1:8
140
1.0
141
8.0
290
     0
  0
SCALE
  5
60E
102
{ACAD_REACTORS
330
608
102
}
330
608
100
AcDbScale
 70
     0
300
1:10
140
1.0
141
10.0
290
     0
  0
SCALE
  5
60F
102
{ACAD_REACTORS
330
608
102
}
330
608
100
AcDbScale
 70
     0
300
1:16
140
1.0
141
16.0
290
     0
  0
SCALE
  5
610
102
{ACAD_REACTORS
330
608
102
}
330
608
100
AcDbScale
 70
     0
300
1:20
140
1.0
141
20.0
290
     0
  0
SCALE
  5
611
102
{ACAD_REACTORS
330
608
102
}
330
608
100
AcDbScale
 70
     0
300
1:30
140
1.0
141
30.0
290
     0
  0
SCALE
  5
612
102
{ACAD_REACTORS
330
608
102
}
330
608
100
AcDbScale
 70
     0
300
1:40
140
1.0
141
40.0
290
     0
  0
SCALE
  5
613
102
{ACAD_REACTORS
330
608
102
}
330
608
100
AcDbScale
 70
     0
300
1:50
140
1.0
141
50.0
290
     0
  0
SCALE
  5
614
102
{ACAD_REACTORS
330
608
102
}
330
608
100
AcDbScale
 70
     0
300
1:100
140
1.0
141
100.0
290
     0
  0
SCALE
  5
615
102
{ACAD_REACTORS
330
608
102
}
330
608
100
AcDbScale
 70
     0
300
2:1
140
2.0
141
1.0
290
     0
  0
SCALE
  5
616
102
{ACAD_REACTORS
330
608
102
}
330
608
100
AcDbScale
 70
     0
300
4:1
140
4.0
141
1.0
290
     0
  0
SCALE
  5
617
102
{ACAD_REACTORS
330
608
102
}
330
608
100
AcDbScale
 70
     0
300
8:1
140
8.0
141
1.0
290
     0
  0
SCALE
  5
618
102
{ACAD_REACTORS
330
608
102
}
330
608
100
AcDbScale
 70
     0
300
10:1
140
10.0
141
1.0
290
     0
  0
SCALE
  5
619
102
{ACAD_REACTORS
330
608
102
}
330
608
100
AcDbScale
 70
     0
300
100:1
140
100.0
141
1.0
290
     0
  0
SCALE
  5
61A
102
{ACAD_REACTORS
330
608
102
}
330
608
100
AcDbScale
 70
     0
300
1/128" = 1'-0"
140
0.0078125
141
12.0
290
     0
  0
SCALE
  5
61B
102
{ACAD_REACTORS
330
608
102
}
330
608
100
AcDbScale
 70
     0
300
1/64" = 1'-0"
140
0.015625
141
12.0
290
     0
  0
SCALE
  5
61C
102
{ACAD_REACTORS
330
608
102
}
330
608
100
AcDbScale
 70
     0
300
1/32" = 1'-0"
140
0.03125
141
12.0
290
     0
  0
SCALE
  5
61D
102
{ACAD_REACTORS
330
608
102
}
330
608
100
AcDbScale
 70
     0
300
1/16" = 1'-0"
140
0.0625
141
12.0
290
     0
  0
SCALE
  5
61E
102
{ACAD_REACTORS
330
608
102
}
330
608
100
AcDbScale
 70
     0
300
3/32" = 1'-0"
140
0.09375
141
12.0
290
     0
  0
SCALE
  5
61F
102
{ACAD_REACTORS
330
608
102
}
330
608
100
AcDbScale
 70
     0
300
1/8" = 1'-0"
140
0.125
141
12.0
290
     0
  0
SCALE
  5
620
102
{ACAD_REACTORS
330
608
102
}
330
608
100
AcDbScale
 70
     0
300
3/16" = 1'-0"
140
0.1875
141
12.0
290
     0
  0
SCALE
  5
621
102
{ACAD_REACTORS
330
608
102
}
330
608
100
AcDbScale
 70
     0
300
1/4" = 1'-0"
140
0.25
141
12.0
290
     0
  0
SCALE
  5
622
102
{ACAD_REACTORS
330
608
102
}
330
608
100
AcDbScale
 70
     0
300
3/8" = 1'-0"
140
0.375
141
12.0
290
     0
  0
SCALE
  5
623
102
{ACAD_REACTORS
330
608
102
}
330
608
100
AcDbScale
 70
     0
300
1/2" = 1'-0"
140
0.5
141
12.0
290
     0
  0
SCALE
  5
624
102
{ACAD_REACTORS
330
608
102
}
330
608
100
AcDbScale
 70
     0
300
3/4" = 1'-0"
140
0.75
141
12.0
290
     0
  0
SCALE
  5
625
102
{ACAD_REACTORS
330
608
102
}
330
608
100
AcDbScale
 70
     0
300
1" = 1'-0"
140
1.0
141
12.0
290
     0
  0
SCALE
  5
626
102
{ACAD_REACTORS
330
608
102
}
330
608
100
AcDbScale
 70
     0
300
1-1/2" = 1'-0"
140
1.5
141
12.0
290
     0
  0
SCALE
  5
627
102
{ACAD_REACTORS
330
608
102
}
330
608
100
AcDbScale
 70
     0
300
3" = 1'-0"
140
3.0
141
12.0
290
     0
  0
SCALE
  5
628
102
{ACAD_REACTORS
330
608
102
}
330
608
100
AcDbScale
 70
     0
300
6" = 1'-0"
140
6.0
141
12.0
290
     0
  0
SCALE
  5
629
102
{ACAD_REACTORS
330
608
102
}
330
608
100
AcDbScale
 70
     0
300
1'-0" = 1'-0"
140
12.0
141
12.0
290
     0
  0
TABLESTYLE
  5
64B
102
{ACAD_REACTORS
330
64A
102
}
102
{ACAD_XDICTIONARY
360
651
102
}
330
64A
100
AcDbTableStyle
  3
Standard
 70
     0
 71
     0
 40
0.06
 41
0.06
280
     0
281
     0
  7
STANDARD
140
4.5
170
     2
 62
     0
 63
   257
283
     0
 90
        4
 91
        0
  1

274
    -2
284
     1
 64
     0
275
    -2
285
     1
 65
     0
276
    -2
286
     1
 66
     0
277
    -2
287
     1
 67
     0
278
    -2
288
     1
 68
     0
279
    -2
289
     1
 69
     0
  7
STANDARD
140
6.0
170
     5
 62
     0
 63
   257
283
     0
 90
        4
 91
        0
  1

274
    -2
284
     1
 64
     0
275
    -2
285
     1
 65
     0
276
    -2
286
     1
 66
     0
277
    -2
287
     1
 67
     0
278
    -2
288
     1
 68
     0
279
    -2
289
     1
 69
     0
  7
STANDARD
140
4.5
170
     5
 62
     0
 63
   257
283
     0
 90
        4
 91
        0
  1

274
    -2
284
     1
 64
     0
275
    -2
285
     1
 65
     0
276
    -2
286
     1
 66
     0
277
    -2
287
     1
 67
     0
278
    -2
288
     1
 68
     0
279
    -2
289
     1
 69
     0
  0
VISUALSTYLE
  5
632
102
{ACAD_REACTORS
330
62D
102
}
330
62D
100
AcDbVisualStyle
  2
2dWireframe
 70
     4
177
     3
291
     0
 70
    58
 90
        0
176
     1
 90
        2
176
     1
 90
        0
176
     1
 90
        0
176
     1
 40
0.6
176
     1
 40
30.0
176
     1
 62
     7
420
 16777215
176
     1
 90
        1
176
     1
 90
        4
176
     1
 62
     7
176
     1
 62
   257
176
     1
 90
        1
176
     1
 90
        1
176
     1
 40
1.0
176
     1
 90
        0
176
     1
 62
   257
176
     1
 40
1.0
176
     1
 90
        1
176
     1
 90
        6
176
     1
 90
        2
176
     1
 62
     7
176
     1
 90
        5
176
     1
 90
        0
176
     1
 90
        0
176
     1
290
     0
176
     1
 90
        1
176
     1
 40
0.0
176
     1
 90
        0
176
     1
290
     1
176
     1
290
     1
176
     1
290
     0
176
     1
290
     0
176
     1
290
     0
176
     1
290
     0
176
     1
290
     0
176
     1
290
     0
176
     1
290
     0
176
     1
 90
       50
176
     1
 40
0.0
176
     1
 40
1.0
176
     1
 90
        0
176
     1
 62
    18
420
        0
176
     1
 90
       50
176
     1
 90
        3
176
     1
 62
     5
420
      255
176
     1
290
     0
176
     1
 90
       50
176
     1
 90
       50
176
     1
 90
       50
176
     1
290
     0
176
     1
 90
       50
176
     1
 62
   256
176
     0
 40
1.0
176
     0
 90
        2
176
     1
  1
strokes_ogs.tif
176
     1
290
     0
176
     1
 40
1.0
176
     1
 40
1.0
176
     1
  0
VISUALSTYLE
  5
635
102
{ACAD_REACTORS
330
62D
102
}
330
62D
100
AcDbVisualStyle
  2
Basic
 70
     7
177
     3
291
     1
 70
    58
 90
        1
176
     1
 90
        0
176
     1
 90
        1
176
     1
 90
        0
176
     1
 40
0.6
176
     1
 40
30.0
176
     1
 62
     7
420
 16777215
176
     1
 90
        0
176
     1
 90
        4
176
     1
 62
     7
176
     1
 62
   257
176
     1
 90
        1
176
     1
 90
        1
176
     1
 40
1.0
176
     1
 90
        8
176
     1
 62
     7
176
     1
 40
1.0
176
     1
 90
        1
176
     1
 90
        6
176
     1
 90
        2
176
     1
 62
     7
176
     1
 90
        5
176
     1
 90
        0
176
     1
 90
        0
176
     1
290
     0
176
     1
 90
        1
176
     1
 40
0.0
176
     1
 90
        0
176
     1
290
     0
176
     1
290
     1
176
     1
290
     1
176
     1
290
     0
176
     1
290
     0
176
     1
290
     0
176
     1
290
     0
176
     1
290
     0
176
     1
290
     0
176
     1
 90
       50
176
     1
 40
0.0
176
     1
 40
1.0
176
     1
 90
        0
176
     1
 62
    18
420
        0
176
     1
 90
       50
176
     1
 90
        3
176
     1
 62
     5
420
      255
176
     1
290
     0
176
     1
 90
       50
176
     1
 90
       50
176
     1
 90
       50
176
     1
290
     0
176
     1
 90
       50
176
     1
 62
   256
176
     0
 40
1.0
176
     0
 90
        2
176
     1
  1
strokes_ogs.tif
176
     1
290
     0
176
     1
 40
1.0
176
     1
 40
1.0
176
     1
  0
VISUALSTYLE
  5
639
102
{ACAD_REACTORS
330
62D
102
}
330
62D
100
AcDbVisualStyle
  2
Brighten
 70
    12
177
     3
291
     1
 70
    58
 90
        2
176
     1
 90
        2
176
     1
 90
        0
176
     1
 90
        0
176
     1
 40
0.6
176
     1
 40
30.0
176
     1
 62
     7
420
 16777215
176
     1
 90
        1
176
     1
 90
        4
176
     1
 62
     7
176
     1
 62
   257
176
     1
 90
        1
176
     1
 90
        1
176
     1
 40
1.0
176
     1
 90
        8
176
     1
 62
     7
176
     1
 40
1.0
176
     1
 90
        1
176
     1
 90
        6
176
     1
 90
        2
176
     1
 62
     7
176
     1
 90
        5
176
     1
 90
        0
176
     1
 90
        0
176
     1
290
     0
176
     1
 90
        1
176
     1
 40
50.0
176
     1
 90
        0
176
     1
290
     0
176
     1
290
     1
176
     1
290
     1
176
     1
290
     0
176
     1
290
     0
176
     1
290
     0
176
     1
290
     0
176
     1
290
     0
176
     1
290
     0
176
     1
 90
       50
176
     1
 40
0.0
176
     1
 40
1.0
176
     1
 90
        0
176
     1
 62
    18
420
        0
176
     1
 90
       50
176
     1
 90
        3
176
     1
 62
     5
420
      255
176
     1
290
     0
176
     1
 90
       50
176
     1
 90
       50
176
     1
 90
       50
176
     1
290
     0
176
     1
 90
       50
176
     1
 62
   256
176
     0
 40
1.0
176
     0
 90
        2
176
     1
  1
strokes_ogs.tif
176
     1
290
     0
176
     1
 40
1.0
176
     1
 40
1.0
176
     1
  0
VISUALSTYLE
  5
63D
102
{ACAD_REACTORS
330
62D
102
}
330
62D
100
AcDbVisualStyle
  2
ColorChange
 70
    16
177
     3
291
     1
 70
    58
 90
        2
176
     1
 90
        2
176
     1
 90
        3
176
     1
 90
        0
176
     1
 40
0.6
176
     1
 40
30.0
176
     1
 62
     8
420
  8421504
176
     1
 90
        1
176
     1
 90
        4
176
     1
 62
     7
176
     1
 62
   257
176
     1
 90
        1
176
     1
 90
        1
176
     1
 40
1.0
176
     1
 90
        8
176
     1
 62
     8
420
  8421504
176
     1
 40
1.0
176
     1
 90
        1
176
     1
 90
        6
176
     1
 90
        2
176
     1
 62
     7
176
     1
 90
        5
176
     1
 90
        0
176
     1
 90
        0
176
     1
290
     0
176
     1
 90
        1
176
     1
 40
0.0
176
     1
 90
        0
176
     1
290
     0
176
     1
290
     1
176
     1
290
     1
176
     1
290
     0
176
     1
290
     0
176
     1
290
     0
176
     1
290
     0
176
     1
290
     0
176
     1
290
     0
176
     1
 90
       50
176
     1
 40
0.0
176
     1
 40
1.0
176
     1
 90
        0
176
     1
 62
    18
420
        0
176
     1
 90
       50
176
     1
 90
        3
176
     1
 62
     5
420
      255
176
     1
290
     0
176
     1
 90
       50
176
     1
 90
       50
176
     1
 90
       50
176
     1
290
     0
176
     1
 90
       50
176
     1
 62
   256
176
     0
 40
1.0
176
     0
 90
        2
176
     1
  1
strokes_ogs.tif
176
     1
290
     0
176
     1
 40
1.0
176
     1
 40
1.0
176
     1
  0
VISUALSTYLE
  5
637
102
{ACAD_REACTORS
330
62D
102
}
330
62D
100
AcDbVisualStyle
  2
Conceptual
 70
     9
177
     3
291
     0
 70
    58
 90
        3
176
     1
 90
        2
176
     1
 90
        0
176
     1
 90
        0
176
     1
 40
0.6
176
     1
 40
30.0
176
     1
 62
     7
420
 16777215
176
     1
 90
        2
176
     1
 90
        2
176
     1
 62
     7
176
     1
 62
   257
176
     1
 90
        1
176
     1
 90
        1
176
     1
 40
179.0
176
     1
 90
        8
176
     1
 62
     7
176
     1
 40
1.0
176
     1
 90
        1
176
     1
 90
        6
176
     1
 90
        2
176
     1
 62
     7
176
     1
 90
        3
176
     1
 90
        0
176
     1
 90
        0
176
     1
290
     0
176
     1
 90
        1
176
     1
 40
0.0
176
     1
 90
        0
176
     1
290
     0
176
     1
290
     1
176
     1
290
     1
176
     1
290
     0
176
     1
290
     0
176
     1
290
     0
176
     1
290
     0
176
     1
290
     0
176
     1
290
     0
176
     1
 90
       50
176
     1
 40
0.0
176
     1
 40
1.0
176
     1
 90
        0
176
     1
 62
    18
420
        0
176
     1
 90
       50
176
     1
 90
        3
176
     1
 62
     5
420
      255
176
     1
290
     0
176
     1
 90
       50
176
     1
 90
       50
176
     1
 90
       50
176
     1
290
     0
176
     1
 90
       50
176
     1
 62
   256
176
     0
 40
1.0
176
     0
 90
        2
176
     1
  1
strokes_ogs.tif
176
     1
290
     0
176
     1
 40
1.0
176
     1
 40
1.0
176
     1
  0
VISUALSTYLE
  5
638
102
{ACAD_REACTORS
330
62D
102
}
330
62D
100
AcDbVisualStyle
  2
Dim
 70
    11
177
     3
291
     1
 70
    58
 90
        2
176
     1
 90
        2
176
     1
 90
        0
176
     1
 90
        0
176
     1
 40
0.6
176
     1
 40
30.0
176
     1
 62
     7
420
 16777215
176
     1
 90
        1
176
     1
 90
        4
176
     1
 62
     7
176
     1
 62
   257
176
     1
 90
        1
176
     1
 90
        1
176
     1
 40
1.0
176
     1
 90
        8
176
     1
 62
     7
176
     1
 40
1.0
176
     1
 90
        1
176
     1
 90
        6
176
     1
 90
        2
176
     1
 62
     7
176
     1
 90
        5
176
     1
 90
        0
176
     1
 90
        0
176
     1
290
     0
176
     1
 90
        1
176
     1
 40
-50.0
176
     1
 90
        0
176
     1
290
     0
176
     1
290
     1
176
     1
290
     1
176
     1
290
     0
176
     1
290
     0
176
     1
290
     0
176
     1
290
     0
176
     1
290
     0
176
     1
290
     0
176
     1
 90
       50
176
     1
 40
0.0
176
     1
 40
1.0
176
     1
 90
        0
176
     1
 62
    18
420
        0
176
     1
 90
       50
176
     1
 90
        3
176
     1
 62
     5
420
      255
176
     1
290
     0
176
     1
 90
       50
176
     1
 90
       50
176
     1
 90
       50
176
     1
290
     0
176
     1
 90
       50
176
     1
 62
   256
176
     0
 40
1.0
176
     0
 90
        2
176
     1
  1
strokes_ogs.tif
176
     1
290
     0
176
     1
 40
1.0
176
     1
 40
1.0
176
     1
  0
VISUALSTYLE
  5
640
102
{ACAD_REACTORS
330
62D
102
}
330
62D
100
AcDbVisualStyle
  2
EdgeColorOff
 70
    22
177
     3
291
     1
 70
    58
 90
        2
176
     0
 90
        2
176
     0
 90
        0
176
     0
 90
        0
176
     0
 40
0.6
176
     0
 40
30.0
176
     0
 62
     7
420
 16777215
176
     0
 90
        1
176
     0
 90
        4
176
     0
 62
     7
176
     0
 62
   257
176
     0
 90
        1
176
     0
 90
        1
176
     0
 40
1.0
176
     0
 90
        8
176
     2
 62
     7
176
     0
 40
1.0
176
     0
 90
        1
176
     0
 90
        6
176
     0
 90
        2
176
     0
 62
     7
176
     0
 90
        5
176
     0
 90
        0
176
     0
 90
        0
176
     0
290
     0
176
     0
 90
        1
176
     0
 40
0.0
176
     0
 90
        0
176
     0
290
     0
176
     0
290
     1
176
     0
290
     1
176
     0
290
     0
176
     0
290
     0
176
     0
290
     0
176
     0
290
     0
176
     0
290
     0
176
     0
290
     0
176
     0
 90
       50
176
     0
 40
0.0
176
     0
 40
1.0
176
     0
 90
        0
176
     0
 62
    18
420
        0
176
     0
 90
       50
176
     0
 90
        3
176
     0
 62
     5
420
      255
176
     0
290
     0
176
     0
 90
       50
176
     0
 90
       50
176
     0
 90
       50
176
     0
290
     0
176
     0
 90
       50
176
     0
 62
   256
176
     0
 40
1.0
176
     0
 90
        2
176
     0
  1
strokes_ogs.tif
176
     0
290
     0
176
     0
 40
1.0
176
     0
 40
1.0
176
     0
  0
VISUALSTYLE
  5
63C
102
{ACAD_REACTORS
330
62D
102
}
330
62D
100
AcDbVisualStyle
  2
Facepattern
 70
    15
177
     3
291
     1
 70
    58
 90
        2
176
     1
 90
        2
176
     1
 90
        0
176
     1
 90
        0
176
     1
 40
0.6
176
     1
 40
30.0
176
     1
 62
     7
420
 16777215
176
     1
 90
        1
176
     1
 90
        4
176
     1
 62
     7
176
     1
 62
   257
176
     1
 90
        1
176
     1
 90
        1
176
     1
 40
1.0
176
     1
 90
        8
176
     1
 62
     7
176
     1
 40
1.0
176
     1
 90
        1
176
     1
 90
        6
176
     1
 90
        2
176
     1
 62
     7
176
     1
 90
        5
176
     1
 90
        0
176
     1
 90
        0
176
     1
290
     0
176
     1
 90
        1
176
     1
 40
0.0
176
     1
 90
        0
176
     1
290
     0
176
     1
290
     1
176
     1
290
     1
176
     1
290
     0
176
     1
290
     0
176
     1
290
     0
176
     1
290
     0
176
     1
290
     0
176
     1
290
     0
176
     1
 90
       50
176
     1
 40
0.0
176
     1
 40
1.0
176
     1
 90
        0
176
     1
 62
    18
420
        0
176
     1
 90
       50
176
     1
 90
        3
176
     1
 62
     5
420
      255
176
     1
290
     0
176
     1
 90
       50
176
     1
 90
       50
176
     1
 90
       50
176
     1
290
     0
176
     1
 90
       50
176
     1
 62
   256
176
     0
 40
1.0
176
     0
 90
        2
176
     1
  1
strokes_ogs.tif
176
     1
290
     0
176
     1
 40
1.0
176
     1
 40
1.0
176
     1
  0
VISUALSTYLE
  5
62E
102
{ACAD_REACTORS
330
62D
102
}
330
62D
100
AcDbVisualStyle
  2
Flat
 70
     0
177
     3
291
     1
 70
    58
 90
        2
176
     1
 90
        1
176
     1
 90
        1
176
     1
 90
        2
176
     1
 40
0.6
176
     1
 40
30.0
176
     1
 62
     7
420
 16777215
176
     1
 90
        0
176
     1
 90
        0
176
     1
 62
     7
176
     1
 62
   257
176
     1
 90
        1
176
     1
 90
        1
176
     1
 40
1.0
176
     1
 90
        8
176
     1
 62
     7
176
     1
 40
1.0
176
     1
 90
        1
176
     1
 90
        6
176
     1
 90
        2
176
     1
 62
     7
176
     1
 90
        5
176
     1
 90
        0
176
     1
 90
        0
176
     1
290
     0
176
     1
 90
       13
176
     1
 40
0.0
176
     1
 90
        0
176
     1
290
     0
176
     1
290
     1
176
     1
290
     1
176
     1
290
     0
176
     1
290
     0
176
     1
290
     0
176
     1
290
     0
176
     1
290
     0
176
     1
290
     0
176
     1
 90
       50
176
     1
 40
0.0
176
     1
 40
1.0
176
     1
 90
        0
176
     1
 62
    18
420
        0
176
     1
 90
       50
176
     1
 90
        3
176
     1
 62
     5
420
      255
176
     1
290
     0
176
     1
 90
       50
176
     1
 90
       50
176
     1
 90
       50
176
     1
290
     0
176
     1
 90
       50
176
     1
 62
   256
176
     0
 40
1.0
176
     0
 90
        2
176
     1
  1
strokes_ogs.tif
176
     1
290
     0
176
     1
 40
1.0
176
     1
 40
1.0
176
     1
  0
VISUALSTYLE
  5
62F
102
{ACAD_REACTORS
330
62D
102
}
330
62D
100
AcDbVisualStyle
  2
FlatWithEdges
 70
     1
177
     3
291
     1
 70
    58
 90
        2
176
     1
 90
        1
176
     1
 90
        1
176
     1
 90
        2
176
     1
 40
0.6
176
     1
 40
30.0
176
     1
 62
     7
420
 16777215
176
     1
 90
        1
176
     1
 90
        0
176
     1
 62
     7
176
     1
 62
   257
176
     1
 90
        1
176
     1
 90
        1
176
     1
 40
1.0
176
     1
 90
        0
176
     1
 62
   257
176
     1
 40
1.0
176
     1
 90
        1
176
     1
 90
        6
176
     1
 90
        2
176
     1
 62
     7
176
     1
 90
        5
176
     1
 90
        0
176
     1
 90
        0
176
     1
290
     0
176
     1
 90
       13
176
     1
 40
0.0
176
     1
 90
        0
176
     1
290
     0
176
     1
290
     1
176
     1
290
     1
176
     1
290
     0
176
     1
290
     0
176
     1
290
     0
176
     1
290
     0
176
     1
290
     0
176
     1
290
     0
176
     1
 90
       50
176
     1
 40
0.0
176
     1
 40
1.0
176
     1
 90
        0
176
     1
 62
    18
420
        0
176
     1
 90
       50
176
     1
 90
        3
176
     1
 62
     5
420
      255
176
     1
290
     0
176
     1
 90
       50
176
     1
 90
       50
176
     1
 90
       50
176
     1
290
     0
176
     1
 90
       50
176
     1
 62
   256
176
     0
 40
1.0
176
     0
 90
        2
176
     1
  1
strokes_ogs.tif
176
     1
290
     0
176
     1
 40
1.0
176
     1
 40
1.0
176
     1
  0
VISUALSTYLE
  5
630
102
{ACAD_REACTORS
330
62D
102
}
330
62D
100
AcDbVisualStyle
  2
Gouraud
 70
     2
177
     3
291
     1
 70
    58
 90
        2
176
     1
 90
        2
176
     1
 90
        1
176
     1
 90
        2
176
     1
 40
0.6
176
     1
 40
30.0
176
     1
 62
     7
420
 16777215
176
     1
 90
        0
176
     1
 90
        0
176
     1
 62
     7
176
     1
 62
   257
176
     1
 90
        1
176
     1
 90
        1
176
     1
 40
1.0
176
     1
 90
        0
176
     1
 62
     7
176
     1
 40
1.0
176
     1
 90
        1
176
     1
 90
        6
176
     1
 90
        2
176
     1
 62
     7
176
     1
 90
        5
176
     1
 90
        0
176
     1
 90
        0
176
     1
290
     0
176
     1
 90
       13
176
     1
 40
0.0
176
     1
 90
        0
176
     1
290
     0
176
     1
290
     1
176
     1
290
     1
176
     1
290
     0
176
     1
290
     0
176
     1
290
     0
176
     1
290
     0
176
     1
290
     0
176
     1
290
     0
176
     1
 90
       50
176
     1
 40
0.0
176
     1
 40
1.0
176
     1
 90
        0
176
     1
 62
    18
420
        0
176
     1
 90
       50
176
     1
 90
        3
176
     1
 62
     5
420
      255
176
     1
290
     0
176
     1
 90
       50
176
     1
 90
       50
176
     1
 90
       50
176
     1
290
     0
176
     1
 90
       50
176
     1
 62
   256
176
     0
 40
1.0
176
     0
 90
        2
176
     1
  1
strokes_ogs.tif
176
     1
290
     0
176
     1
 40
1.0
176
     1
 40
1.0
176
     1
  0
VISUALSTYLE
  5
631
102
{ACAD_REACTORS
330
62D
102
}
330
62D
100
AcDbVisualStyle
  2
GouraudWithEdges
 70
     3
177
     3
291
     1
 70
    58
 90
        2
176
     1
 90
        2
176
     1
 90
        1
176
     1
 90
        2
176
     1
 40
0.6
176
     1
 40
30.0
176
     1
 62
     7
420
 16777215
176
     1
 90
        1
176
     1
 90
        0
176
     1
 62
     7
176
     1
 62
   257
176
     1
 90
        1
176
     1
 90
        1
176
     1
 40
1.0
176
     1
 90
        0
176
     1
 62
   257
176
     1
 40
1.0
176
     1
 90
        1
176
     1
 90
        6
176
     1
 90
        2
176
     1
 62
     7
176
     1
 90
        5
176
     1
 90
        0
176
     1
 90
        0
176
     1
290
     0
176
     1
 90
       13
176
     1
 40
0.0
176
     1
 90
        0
176
     1
290
     0
176
     1
290
     1
176
     1
290
     1
176
     1
290
     0
176
     1
290
     0
176
     1
290
     0
176
     1
290
     0
176
     1
290
     0
176
     1
290
     0
176
     1
 90
       50
176
     1
 40
0.0
176
     1
 40
1.0
176
     1
 90
        0
176
     1
 62
    18
420
        0
176
     1
 90
       50
176
     1
 90
        3
176
     1
 62
     5
420
      255
176
     1
290
     0
176
     1
 90
       50
176
     1
 90
       50
176
     1
 90
       50
176
     1
290
     0
176
     1
 90
       50
176
     1
 62
   256
176
     0
 40
1.0
176
     0
 90
        2
176
     1
  1
strokes_ogs.tif
176
     1
290
     0
176
     1
 40
1.0
176
     1
 40
1.0
176
     1
  0
VISUALSTYLE
  5
634
102
{ACAD_REACTORS
330
62D
102
}
330
62D
100
AcDbVisualStyle
  2
Hidden
 70
     6
177
     3
291
     0
 70
    58
 90
        1
176
     1
 90
        2
176
     1
 90
        2
176
     1
 90
        0
176
     1
 40
0.6
176
     1
 40
30.0
176
     1
 62
     7
420
 16777215
176
     1
 90
        2
176
     1
 90
        2
176
     1
 62
     7
176
     1
 62
   257
176
     1
 90
        2
176
     1
 90
        1
176
     1
 40
40.0
176
     1
 90
        0
176
     1
 62
   257
176
     1
 40
1.0
176
     1
 90
        1
176
     1
 90
        6
176
     1
 90
        2
176
     1
 62
     7
176
     1
 90
        3
176
     1
 90
        0
176
     1
 90
        0
176
     1
290
     0
176
     1
 90
        1
176
     1
 40
0.0
176
     1
 90
        0
176
     1
290
     0
176
     1
290
     1
176
     1
290
     1
176
     1
290
     0
176
     1
290
     0
176
     1
290
     0
176
     1
290
     0
176
     1
290
     0
176
     1
290
     0
176
     1
 90
       50
176
     1
 40
0.0
176
     1
 40
1.0
176
     1
 90
        0
176
     1
 62
    18
420
        0
176
     1
 90
       50
176
     1
 90
        3
176
     1
 62
     5
420
      255
176
     1
290
     0
176
     1
 90
       50
176
     1
 90
       50
176
     1
 90
       50
176
     1
290
     0
176
     1
 90
       50
176
     1
 62
   256
176
     0
 40
1.0
176
     0
 90
        2
176
     1
  1
strokes_ogs.tif
176
     1
290
     0
176
     1
 40
1.0
176
     1
 40
1.0
176
     1
  0
VISUALSTYLE
  5
63E
102
{ACAD_REACTORS
330
62D
102
}
330
62D
100
AcDbVisualStyle
  2
JitterOff
 70
    20
177
     3
291
     1
 70
    58
 90
        2
176
     0
 90
        2
176
     0
 90
        0
176
     0
 90
        0
176
     0
 40
0.6
176
     0
 40
30.0
176
     0
 62
     7
420
 16777215
176
     0
 90
        1
176
     0
 90
        4
176
     0
 62
     7
176
     0
 62
   257
176
     0
 90
        1
176
     0
 90
        1
176
     0
 40
1.0
176
     0
 90
       10
176
     2
 62
     7
176
     0
 40
1.0
176
     0
 90
        1
176
     0
 90
        6
176
     0
 90
        2
176
     0
 62
     7
176
     0
 90
        5
176
     0
 90
        0
176
     0
 90
        0
176
     0
290
     0
176
     0
 90
        1
176
     0
 40
0.0
176
     0
 90
        0
176
     0
290
     0
176
     0
290
     1
176
     0
290
     1
176
     0
290
     0
176
     0
290
     0
176
     0
290
     0
176
     0
290
     0
176
     0
290
     0
176
     0
290
     0
176
     0
 90
       50
176
     0
 40
0.0
176
     0
 40
1.0
176
     0
 90
        0
176
     0
 62
    18
420
        0
176
     0
 90
       50
176
     0
 90
        3
176
     0
 62
     5
420
      255
176
     0
290
     0
176
     0
 90
       50
176
     0
 90
       50
176
     0
 90
       50
176
     0
290
     0
176
     0
 90
       50
176
     0
 62
   256
176
     0
 40
1.0
176
     0
 90
        2
176
     0
  1
strokes_ogs.tif
176
     0
290
     0
176
     0
 40
1.0
176
     0
 40
1.0
176
     0
  0
VISUALSTYLE
  5
63B
102
{ACAD_REACTORS
330
62D
102
}
330
62D
100
AcDbVisualStyle
  2
Linepattern
 70
    14
177
     3
291
     1
 70
    58
 90
        2
176
     1
 90
        2
176
     1
 90
        0
176
     1
 90
        0
176
     1
 40
0.6
176
     1
 40
30.0
176
     1
 62
     7
420
 16777215
176
     1
 90
        1
176
     1
 90
        4
176
     1
 62
     7
176
     1
 62
   257
176
     1
 90
        7
176
     1
 90
        7
176
     1
 40
1.0
176
     1
 90
        8
176
     1
 62
     7
176
     1
 40
1.0
176
     1
 90
        1
176
     1
 90
        6
176
     1
 90
        2
176
     1
 62
     7
176
     1
 90
        5
176
     1
 90
        0
176
     1
 90
        0
176
     1
290
     0
176
     1
 90
        1
176
     1
 40
0.0
176
     1
 90
        0
176
     1
290
     0
176
     1
290
     1
176
     1
290
     1
176
     1
290
     0
176
     1
290
     0
176
     1
290
     0
176
     1
290
     0
176
     1
290
     0
176
     1
290
     0
176
     1
 90
       50
176
     1
 40
0.0
176
     1
 40
1.0
176
     1
 90
        0
176
     1
 62
    18
420
        0
176
     1
 90
       50
176
     1
 90
        3
176
     1
 62
     5
420
      255
176
     1
290
     0
176
     1
 90
       50
176
     1
 90
       50
176
     1
 90
       50
176
     1
290
     0
176
     1
 90
       50
176
     1
 62
   256
176
     0
 40
1.0
176
     0
 90
        2
176
     1
  1
strokes_ogs.tif
176
     1
290
     0
176
     1
 40
1.0
176
     1
 40
1.0
176
     1
  0
VISUALSTYLE
  5
63F
102
{ACAD_REACTORS
330
62D
102
}
330
62D
100
AcDbVisualStyle
  2
OverhangOff
 70
    21
177
     3
291
     1
 70
    58
 90
        2
176
     0
 90
        2
176
     0
 90
        0
176
     0
 90
        0
176
     0
 40
0.6
176
     0
 40
30.0
176
     0
 62
     7
420
 16777215
176
     0
 90
        1
176
     0
 90
        4
176
     0
 62
     7
176
     0
 62
   257
176
     0
 90
        1
176
     0
 90
        1
176
     0
 40
1.0
176
     0
 90
        9
176
     2
 62
     7
176
     0
 40
1.0
176
     0
 90
        1
176
     0
 90
        6
176
     0
 90
        2
176
     0
 62
     7
176
     0
 90
        5
176
     0
 90
        0
176
     0
 90
        0
176
     0
290
     0
176
     0
 90
        1
176
     0
 40
0.0
176
     0
 90
        0
176
     0
290
     0
176
     0
290
     1
176
     0
290
     1
176
     0
290
     0
176
     0
290
     0
176
     0
290
     0
176
     0
290
     0
176
     0
290
     0
176
     0
290
     0
176
     0
 90
       50
176
     0
 40
0.0
176
     0
 40
1.0
176
     0
 90
        0
176
     0
 62
    18
420
        0
176
     0
 90
       50
176
     0
 90
        3
176
     0
 62
     5
420
      255
176
     0
290
     0
176
     0
 90
       50
176
     0
 90
       50
176
     0
 90
       50
176
     0
290
     0
176
     0
 90
       50
176
     0
 62
   256
176
     0
 40
1.0
176
     0
 90
        2
176
     0
  1
strokes_ogs.tif
176
     0
290
     0
176
     0
 40
1.0
176
     0
 40
1.0
176
     0
  0
VISUALSTYLE
  5
636
102
{ACAD_REACTORS
330
62D
102
}
330
62D
100
AcDbVisualStyle
  2
Realistic
 70
     8
177
     3
291
     0
 70
    58
 90
        2
176
     1
 90
        3
176
     1
 90
        0
176
     1
 90
        2
176
     1
 40
0.6
176
     1
 40
30.0
176
     1
 62
     7
420
 16777215
176
     1
 90
        0
176
     1
 90
        0
176
     1
 62
     7
176
     1
 62
   257
176
     1
 90
        1
176
     1
 90
        1
176
     1
 40
1.0
176
     1
 90
        8
176
     1
 62
   257
176
     1
 40
1.0
176
     1
 90
        1
176
     1
 90
        6
176
     1
 90
        2
176
     1
 62
     7
176
     1
 90
        3
176
     1
 90
        0
176
     1
 90
        0
176
     1
290
     0
176
     1
 90
       13
176
     1
 40
0.0
176
     1
 90
        0
176
     1
290
     0
176
     1
290
     1
176
     1
290
     1
176
     1
290
     0
176
     1
290
     0
176
     1
290
     0
176
     1
290
     0
176
     1
290
     0
176
     1
290
     0
176
     1
 90
       50
176
     1
 40
0.0
176
     1
 40
1.0
176
     1
 90
        0
176
     1
 62
    18
420
        0
176
     1
 90
       50
176
     1
 90
        3
176
     1
 62
     5
420
      255
176
     1
290
     0
176
     1
 90
       50
176
     1
 90
       50
176
     1
 90
       50
176
     1
290
     0
176
     1
 90
       50
176
     1
 62
   256
176
     0
 40
1.0
176
     0
 90
        2
176
     1
  1
strokes_ogs.tif
176
     1
290
     0
176
     1
 40
1.0
176
     1
 40
1.0
176
     1
  0
VISUALSTYLE
  5
645
102
{ACAD_REACTORS
330
62D
102
}
330
62D
100
AcDbVisualStyle
  2
Shaded
 70
    27
177
     3
291
     0
 70
    58
 90
        2
176
     1
 90
        2
176
     1
 90
        1
176
     1
 90
        2
176
     1
 40
0.6
176
     1
 40
30.0
176
     1
 62
     7
420
 16777215
176
     1
 90
        0
176
     1
 90
        4
176
     1
 62
     7
176
     1
 62
   257
176
     1
 90
        1
176
     1
 90
        1
176
     1
 40
1.0
176
     1
 90
        8
176
     1
 62
   257
176
     1
 40
1.0
176
     1
 90
        1
176
     1
 90
        6
176
     1
 90
        2
176
     1
 62
     8
420
  7895160
176
     1
 90
        3
176
     1
 90
        0
176
     1
 90
        0
176
     1
290
     0
176
     1
 90
        5
176
     1
 40
0.0
176
     1
 90
        0
176
     1
290
     0
176
     1
290
     1
176
     1
290
     1
176
     1
290
     0
176
     1
290
     0
176
     1
290
     0
176
     1
290
     0
176
     1
290
     0
176
     1
290
     0
176
     1
 90
       50
176
     1
 40
0.0
176
     1
 40
1.0
176
     1
 90
        0
176
     1
 62
    18
420
        0
176
     1
 90
       50
176
     1
 90
        3
176
     1
 62
     5
420
      255
176
     1
290
     0
176
     1
 90
       50
176
     1
 90
       50
176
     1
 90
       50
176
     1
290
     0
176
     1
 90
       50
176
     1
 62
   256
176
     0
 40
1.0
176
     0
 90
        2
176
     1
  1
strokes_ogs.tif
176
     1
290
     0
176
     1
 40
1.0
176
     1
 40
1.0
176
     1
  0
VISUALSTYLE
  5
644
102
{ACAD_REACTORS
330
62D
102
}
330
62D
100
AcDbVisualStyle
  2
Shaded with edges
 70
    26
177
     3
291
     0
 70
    58
 90
        2
176
     1
 90
        2
176
     1
 90
        1
176
     1
 90
        2
176
     1
 40
0.6
176
     1
 40
30.0
176
     1
 62
     7
420
 16777215
176
     1
 90
        1
176
     1
 90
       10
176
     1
 62
     7
176
     1
 62
   257
176
     1
 90
        2
176
     1
 90
        1
176
     1
 40
1.0
176
     1
 90
        8
176
     1
 62
   257
176
     1
 40
1.0
176
     1
 90
        1
176
     1
 90
        6
176
     1
 90
        2
176
     1
 62
     7
176
     1
 90
        3
176
     1
 90
        0
176
     1
 90
        0
176
     1
290
     0
176
     1
 90
        5
176
     1
 40
0.0
176
     1
 90
        0
176
     1
290
     0
176
     1
290
     1
176
     1
290
     1
176
     1
290
     0
176
     1
290
     0
176
     1
290
     0
176
     1
290
     0
176
     1
290
     0
176
     1
290
     0
176
     1
 90
       50
176
     1
 40
0.0
176
     1
 40
1.0
176
     1
 90
        0
176
     1
 62
    18
420
        0
176
     1
 90
       50
176
     1
 90
        3
176
     1
 62
     5
420
      255
176
     1
290
     0
176
     1
 90
       50
176
     1
 90
       50
176
     1
 90
       50
176
     1
290
     0
176
     1
 90
       50
176
     1
 62
   256
176
     0
 40
1.0
176
     0
 90
        2
176
     1
  1
strokes_ogs.tif
176
     1
290
     0
176
     1
 40
1.0
176
     1
 40
1.0
176
     1
  0
VISUALSTYLE
  5
641
102
{ACAD_REACTORS
330
62D
102
}
330
62D
100
AcDbVisualStyle
  2
Shades of Gray
 70
    23
177
     3
291
     0
 70
    58
 90
        2
176
     1
 90
        2
176
     1
 90
        3
176
     1
 90
        0
176
     1
 40
0.6
176
     1
 40
30.0
176
     1
 62
     7
420
 16777215
176
     1
 90
        2
176
     1
 90
        2
176
     1
 62
     7
176
     1
 62
     7
176
     1
 90
        1
176
     1
 90
        1
176
     1
 40
40.0
176
     1
 90
        8
176
     1
 62
     7
176
     1
 40
1.0
176
     1
 90
        1
176
     1
 90
        6
176
     1
 90
        2
176
     1
 62
     7
176
     1
 90
        3
176
     1
 90
        0
176
     1
 90
        0
176
     1
290
     0
176
     1
 90
        1
176
     1
 40
0.0
176
     1
 90
        0
176
     1
290
     0
176
     1
290
     1
176
     1
290
     1
176
     1
290
     0
176
     1
290
     0
176
     1
290
     0
176
     1
290
     0
176
     1
290
     0
176
     1
290
     0
176
     1
 90
       50
176
     1
 40
0.0
176
     1
 40
1.0
176
     1
 90
        0
176
     1
 62
    18
420
        0
176
     1
 90
       50
176
     1
 90
        3
176
     1
 62
     5
420
      255
176
     1
290
     0
176
     1
 90
       50
176
     1
 90
       50
176
     1
 90
       50
176
     1
290
     0
176
     1
 90
       50
176
     1
 62
   256
176
     0
 40
1.0
176
     0
 90
        2
176
     1
  1
strokes_ogs.tif
176
     1
290
     0
176
     1
 40
1.0
176
     1
 40
1.0
176
     1
  0
VISUALSTYLE
  5
642
102
{ACAD_REACTORS
330
62D
102
}
330
62D
100
AcDbVisualStyle
  2
Sketchy
 70
    24
177
     3
291
     0
 70
    58
 90
        1
176
     1
 90
        2
176
     1
 90
        2
176
     1
 90
        0
176
     1
 40
0.6
176
     1
 40
30.0
176
     1
 62
     7
420
 16777215
176
     1
 90
        2
176
     1
 90
        2
176
     1
 62
     7
176
     1
 62
     7
176
     1
 90
        1
176
     1
 90
        1
176
     1
 40
40.0
176
     1
 90
       11
176
     1
 62
     7
176
     1
 40
1.0
176
     1
 90
        1
176
     1
 90
        6
176
     1
 90
        2
176
     1
 62
     7
176
     1
 90
        6
176
     1
 90
        0
176
     1
 90
        0
176
     1
290
     0
176
     1
 90
        1
176
     1
 40
0.0
176
     1
 90
        0
176
     1
290
     0
176
     1
290
     1
176
     1
290
     1
176
     1
290
     0
176
     1
290
     0
176
     1
290
     0
176
     1
290
     0
176
     1
290
     0
176
     1
290
     0
176
     1
 90
       50
176
     1
 40
0.0
176
     1
 40
1.0
176
     1
 90
        0
176
     1
 62
    18
420
        0
176
     1
 90
       50
176
     1
 90
        3
176
     1
 62
     5
420
      255
176
     1
290
     0
176
     1
 90
       50
176
     1
 90
       50
176
     1
 90
       50
176
     1
290
     0
176
     1
 90
       50
176
     1
 62
   256
176
     0
 40
1.0
176
     0
 90
        2
176
     1
  1
strokes_ogs.tif
176
     1
290
     0
176
     1
 40
1.0
176
     1
 40
1.0
176
     1
  0
VISUALSTYLE
  5
63A
102
{ACAD_REACTORS
330
62D
102
}
330
62D
100
AcDbVisualStyle
  2
Thicken
 70
    13
177
     3
291
     1
 70
    58
 90
        2
176
     1
 90
        2
176
     1
 90
        0
176
     1
 90
        0
176
     1
 40
0.6
176
     1
 40
30.0
176
     1
 62
     7
420
 16777215
176
     1
 90
        1
176
     1
 90
        4
176
     1
 62
     7
176
     1
 62
   257
176
     1
 90
        1
176
     1
 90
        1
176
     1
 40
1.0
176
     1
 90
       12
176
     1
 62
     7
176
     1
 40
1.0
176
     1
 90
        1
176
     1
 90
        6
176
     1
 90
        2
176
     1
 62
     7
176
     1
 90
        5
176
     1
 90
        0
176
     1
 90
        0
176
     1
290
     0
176
     1
 90
        1
176
     1
 40
0.0
176
     1
 90
        0
176
     1
290
     0
176
     1
290
     1
176
     1
290
     1
176
     1
290
     0
176
     1
290
     0
176
     1
290
     0
176
     1
290
     0
176
     1
290
     0
176
     1
290
     0
176
     1
 90
       50
176
     1
 40
0.0
176
     1
 40
1.0
176
     1
 90
        0
176
     1
 62
    18
420
        0
176
     1
 90
       50
176
     1
 90
        3
176
     1
 62
     5
420
      255
176
     1
290
     0
176
     1
 90
       50
176
     1
 90
       50
176
     1
 90
       50
176
     1
290
     0
176
     1
 90
       50
176
     1
 62
   256
176
     0
 40
1.0
176
     0
 90
        2
176
     1
  1
strokes_ogs.tif
176
     1
290
     0
176
     1
 40
1.0
176
     1
 40
1.0
176
     1
  0
VISUALSTYLE
  5
633
102
{ACAD_REACTORS
330
62D
102
}
330
62D
100
AcDbVisualStyle
  2
Wireframe
 70
     5
177
     3
291
     0
 70
    58
 90
        0
176
     1
 90
        2
176
     1
 90
        0
176
     1
 90
        0
176
     1
 40
0.6
176
     1
 40
30.0
176
     1
 62
     7
420
 16777215
176
     1
 90
        1
176
     1
 90
        4
176
     1
 62
     7
176
     1
 62
   257
176
     1
 90
        1
176
     1
 90
        1
176
     1
 40
1.0
176
     1
 90
        0
176
     1
 62
   257
176
     1
 40
1.0
176
     1
 90
        1
176
     1
 90
        6
176
     1
 90
        2
176
     1
 62
     7
176
     1
 90
        3
176
     1
 90
        0
176
     1
 90
        0
176
     1
290
     0
176
     1
 90
        1
176
     1
 40
0.0
176
     1
 90
        0
176
     1
290
     0
176
     1
290
     1
176
     1
290
     1
176
     1
290
     0
176
     1
290
     0
176
     1
290
     0
176
     1
290
     0
176
     1
290
     0
176
     1
290
     0
176
     1
 90
       50
176
     1
 40
0.0
176
     1
 40
1.0
176
     1
 90
        0
176
     1
 62
    18
420
        0
176
     1
 90
       50
176
     1
 90
        3
176
     1
 62
     5
420
      255
176
     1
290
     0
176
     1
 90
       50
176
     1
 90
       50
176
     1
 90
       50
176
     1
290
     0
176
     1
 90
       50
176
     1
 62
   256
176
     0
 40
1.0
176
     0
 90
        2
176
     1
  1
strokes_ogs.tif
176
     1
290
     0
176
     1
 40
1.0
176
     1
 40
1.0
176
     1
  0
VISUALSTYLE
  5
643
102
{ACAD_REACTORS
330
62D
102
}
330
62D
100
AcDbVisualStyle
  2
X-Ray
 70
    25
177
     3
291
     0
 70
    58
 90
        2
176
     1
 90
        2
176
     1
 90
        1
176
     1
 90
        1
176
     1
 40
0.5
176
     1
 40
30.0
176
     1
 62
     7
420
 16777215
176
     1
 90
        1
176
     1
 90
        0
176
     1
 62
     7
176
     1
 62
   257
176
     1
 90
        1
176
     1
 90
        1
176
     1
 40
1.0
176
     1
 90
        8
176
     1
 62
     7
176
     1
 40
1.0
176
     1
 90
        1
176
     1
 90
        6
176
     1
 90
        2
176
     1
 62
     7
176
     1
 90
        3
176
     1
 90
        0
176
     1
 90
        0
176
     1
290
     0
176
     1
 90
       13
176
     1
 40
0.0
176
     1
 90
        0
176
     1
290
     0
176
     1
290
     1
176
     1
290
     1
176
     1
290
     0
176
     1
290
     0
176
     1
290
     0
176
     1
290
     0
176
     1
290
     0
176
     1
290
     0
176
     1
 90
       50
176
     1
 40
0.0
176
     1
 40
1.0
176
     1
 90
        0
176
     1
 62
    18
420
        0
176
     1
 90
       50
176
     1
 90
        3
176
     1
 62
     5
420
      255
176
     1
290
     0
176
     1
 90
       50
176
     1
 90
       50
176
     1
 90
       50
176
     1
290
     0
176
     1
 90
       50
176
     1
 62
   256
176
     0
 40
1.0
176
     0
 90
        2
176
     1
  1
strokes_ogs.tif
176
     1
290
     0
176
     1
 40
1.0
176
     1
 40
1.0
176
     1
  0
DICTIONARYVAR
  5
650
102
{ACAD_REACTORS
330
64F
102
}
330
64F
100
DictionaryVariables
280
     0
  1
1:1
  0
DICTIONARYVAR
  5
655
102
{ACAD_REACTORS
330
64F
102
}
330
64F
100
DictionaryVariables
280
     0
  1
Standard
  0
DICTIONARYVAR
  5
654
102
{ACAD_REACTORS
330
64F
102
}
330
64F
100
DictionaryVariables
280
     0
  1
Standard
  0
DICTIONARYVAR
  5
656
102
{ACAD_REACTORS
330
64F
102
}
330
64F
100
DictionaryVariables
280
     0
  1
0
  0
DICTIONARY
  5
651
330
64B
100
AcDbDictionary
280
     1
281
     1
  3
ACAD_ROUNDTRIP_2008_TABLESTYLE_CELLSTYLEMAP
360
652
  0
CELLSTYLEMAP
  5
652
102
{ACAD_REACTORS
330
651
102
}
330
651
100
AcDbCellStyleMap
 90
        3
300
CELLSTYLE
  1
TABLEFORMAT_BEGIN
 90
        5
170
     1
 91
        0
 92
    32768
 62
   257
 93
        1
300
CONTENTFORMAT
  1
CONTENTFORMAT_BEGIN
 90
        0
 91
        0
 92
        4
 93
        0
300

 40
0.0
140
1.0
 94
        5
 62
     0
340
11
144
6.0
309
CONTENTFORMAT_END
171
     1
301
MARGIN
  1
CELLMARGIN_BEGIN
 40
1.5
 40
1.5
 40
1.5
 40
1.5
 40
1.5
 40
1.5
309
CELLMARGIN_END
 94
        6
 95
        1
302
GRIDFORMAT
  1
GRIDFORMAT_BEGIN
 90
        0
 91
        1
 62
     0
 92
       -2
340
14
 93
        0
 40
0.045
309
GRIDFORMAT_END
 95
        2
302
GRIDFORMAT
  1
GRIDFORMAT_BEGIN
 90
        0
 91
        1
 62
     0
 92
       -2
340
14
 93
        0
 40
0.045
309
GRIDFORMAT_END
 95
        4
302
GRIDFORMAT
  1
GRIDFORMAT_BEGIN
 90
        0
 91
        1
 62
     0
 92
       -2
340
14
 93
        0
 40
0.045
309
GRIDFORMAT_END
 95
        8
302
GRIDFORMAT
  1
GRIDFORMAT_BEGIN
 90
        0
 91
        1
 62
     0
 92
       -2
340
14
 93
        0
 40
0.045
309
GRIDFORMAT_END
 95
       16
302
GRIDFORMAT
  1
GRIDFORMAT_BEGIN
 90
        0
 91
        1
 62
     0
 92
       -2
340
14
 93
        0
 40
0.045
309
GRIDFORMAT_END
 95
       32
302
GRIDFORMAT
  1
GRIDFORMAT_BEGIN
 90
        0
 91
        1
 62
     0
 92
       -2
340
14
 93
        0
 40
0.045
309
GRIDFORMAT_END
309
TABLEFORMAT_END
  1
CELLSTYLE_BEGIN
 90
        1
 91
        1
300
_TITLE
309
CELLSTYLE_END
300
CELLSTYLE
  1
TABLEFORMAT_BEGIN
 90
        5
170
     1
 91
        0
 92
        0
 62
   257
 93
        1
300
CONTENTFORMAT
  1
CONTENTFORMAT_BEGIN
 90
        0
 91
        0
 92
        4
 93
        0
300

 40
0.0
140
1.0
 94
        5
 62
     0
340
11
144
4.5
309
CONTENTFORMAT_END
171
     1
301
MARGIN
  1
CELLMARGIN_BEGIN
 40
1.5
 40
1.5
 40
1.5
 40
1.5
 40
1.5
 40
1.5
309
CELLMARGIN_END
 94
        6
 95
        1
302
GRIDFORMAT
  1
GRIDFORMAT_BEGIN
 90
        0
 91
        1
 62
     0
 92
       -2
340
14
 93
        0
 40
0.045
309
GRIDFORMAT_END
 95
        2
302
GRIDFORMAT
  1
GRIDFORMAT_BEGIN
 90
        0
 91
        1
 62
     0
 92
       -2
340
14
 93
        0
 40
0.045
309
GRIDFORMAT_END
 95
        4
302
GRIDFORMAT
  1
GRIDFORMAT_BEGIN
 90
        0
 91
        1
 62
     0
 92
       -2
340
14
 93
        0
 40
0.045
309
GRIDFORMAT_END
 95
        8
302
GRIDFORMAT
  1
GRIDFORMAT_BEGIN
 90
        0
 91
        1
 62
     0
 92
       -2
340
14
 93
        0
 40
0.045
309
GRIDFORMAT_END
 95
       16
302
GRIDFORMAT
  1
GRIDFORMAT_BEGIN
 90
        0
 91
        1
 62
     0
 92
       -2
340
14
 93
        0
 40
0.045
309
GRIDFORMAT_END
 95
       32
302
GRIDFORMAT
  1
GRIDFORMAT_BEGIN
 90
        0
 91
        1
 62
     0
 92
       -2
340
14
 93
        0
 40
0.045
309
GRIDFORMAT_END
309
TABLEFORMAT_END
  1
CELLSTYLE_BEGIN
 90
        2
 91
        1
300
_HEADER
309
CELLSTYLE_END
300
CELLSTYLE
  1
TABLEFORMAT_BEGIN
 90
        5
170
     1
 91
        0
 92
        0
 62
   257
 93
        1
300
CONTENTFORMAT
  1
CONTENTFORMAT_BEGIN
 90
        0
 91
        0
 92
        4
 93
        0
300

 40
0.0
140
1.0
 94
        2
 62
     0
340
11
144
4.5
309
CONTENTFORMAT_END
171
     1
301
MARGIN
  1
CELLMARGIN_BEGIN
 40
1.5
 40
1.5
 40
1.5
 40
1.5
 40
1.5
 40
1.5
309
CELLMARGIN_END
 94
        6
 95
        1
302
GRIDFORMAT
  1
GRIDFORMAT_BEGIN
 90
        0
 91
        1
 62
     0
 92
       -2
340
14
 93
        0
 40
0.045
309
GRIDFORMAT_END
 95
        2
302
GRIDFORMAT
  1
GRIDFORMAT_BEGIN
 90
        0
 91
        1
 62
     0
 92
       -2
340
14
 93
        0
 40
0.045
309
GRIDFORMAT_END
 95
        4
302
GRIDFORMAT
  1
GRIDFORMAT_BEGIN
 90
        0
 91
        1
 62
     0
 92
       -2
340
14
 93
        0
 40
0.045
309
GRIDFORMAT_END
 95
        8
302
GRIDFORMAT
  1
GRIDFORMAT_BEGIN
 90
        0
 91
        1
 62
     0
 92
       -2
340
14
 93
        0
 40
0.045
309
GRIDFORMAT_END
 95
       16
302
GRIDFORMAT
  1
GRIDFORMAT_BEGIN
 90
        0
 91
        1
 62
     0
 92
       -2
340
14
 93
        0
 40
0.045
309
GRIDFORMAT_END
 95
       32
302
GRIDFORMAT
  1
GRIDFORMAT_BEGIN
 90
        0
 91
        1
 62
     0
 92
       -2
340
14
 93
        0
 40
0.045
309
GRIDFORMAT_END
309
TABLEFORMAT_END
  1
CELLSTYLE_BEGIN
 90
        3
 91
        2
300
_DATA
309
CELLSTYLE_END
  0
ENDSEC
  0
EOF
