  0
SECTION
  2
HEADER
  9
$ACADVER
  1
AC1027
  9
$ACADMAINTVER
 70
   105
  9
$DWGCODEPAGE
  3
ANSI_1252
  9
$REQUIREDVERSIONS
160
                 0
  9
$LASTSAVEDBY
  1
andrea.zolin
  9
$INSBASE
 10
0.0
 20
0.0
 30
0.0
  9
$EXTMIN
 10
0.0
 20
0.0
 30
0.0
  9
$EXTMAX
 10
420.0
 20
297.0
 30
0.0
  9
$LIMMIN
 10
0.0
 20
0.0
  9
$LIMMAX
 10
420.0
 20
297.0
  9
$ORTHOMODE
 70
     0
  9
$REGENMODE
 70
     1
  9
$FILLMODE
 70
     1
  9
$QTEXTMODE
 70
     0
  9
$MIRRTEXT
 70
     1
  9
$LTSCALE
 40
23.1
  9
$ATTMODE
 70
     1
  9
$TEXTSIZE
 40
0.2
  9
$TRACEWID
 40
0.05
  9
$TEXTSTYLE
  7
STANDARD
  9
$CLAYER
  8
0
  9
$CELTYPE
  6
BYLAYER
  9
$CECOLOR
 62
   256
  9
$CELTSCALE
 40
1.0
  9
$DISPSILH
 70
     0
  9
$DIMSCALE
 40
1.0
  9
$DIMASZ
 40
2.5
  9
$DIMEXO
 40
0.75
  9
$DIMDLI
 40
15.96
  9
$DIMRND
 40
0.0
  9
$DIMDLE
 40
0.0
  9
$DIMEXE
 40
0.75
  9
$DIMTP
 40
0.01
  9
$DIMTM
 40
0.01
  9
$DIMTXT
 40
3.0
  9
$DIMCEN
 40
3.78
  9
$DIMTSZ
 40
0.0
  9
$DIMTOL
 70
     1
  9
$DIMLIM
 70
     0
  9
$DIMTIH
 70
     1
  9
$DIMTOH
 70
     1
  9
$DIMSE1
 70
     0
  9
$DIMSE2
 70
     0
  9
$DIMTAD
 70
     0
  9
$DIMZIN
 70
     0
  9
$DIMBLK
  1
CLOSED
  9
$DIMASO
 70
     1
  9
$DIMSHO
 70
     1
  9
$DIMPOST
  1

  9
$DIMAPOST
  1

  9
$DIMALT
 70
     0
  9
$DIMALTD
 70
     2
  9
$DIMALTF
 40
25.4
  9
$DIMLFAC
 40
1.0
  9
$DIMTOFL
 70
     0
  9
$DIMTVP
 40
0.0
  9
$DIMTIX
 70
     0
  9
$DIMSOXD
 70
     0
  9
$DIMSAH
 70
     0
  9
$DIMBLK1
  1

  9
$DIMBLK2
  1

  9
$DIMSTYLE
  2
STANDARD
  9
$DIMCLRD
 70
     0
  9
$DIMCLRE
 70
     0
  9
$DIMCLRT
 70
     0
  9
$DIMTFAC
 40
1.0
  9
$DIMGAP
 40
0.625
  9
$DIMJUST
 70
     0
  9
$DIMSD1
 70
     0
  9
$DIMSD2
 70
     0
  9
$DIMTOLJ
 70
     1
  9
$DIMTZIN
 70
     0
  9
$DIMALTZ
 70
     0
  9
$DIMALTTZ
 70
     0
  9
$DIMUPT
 70
     0
  9
$DIMDEC
 70
     4
  9
$DIMTDEC
 70
     4
  9
$DIMALTU
 70
     2
  9
$DIMALTTD
 70
     2
  9
$DIMTXSTY
  7
STANDARD
  9
$DIMAUNIT
 70
     0
  9
$DIMADEC
 70
     0
  9
$DIMALTRND
 40
0.0
  9
$DIMAZIN
 70
     0
  9
$DIMDSEP
 70
    46
  9
$DIMATFIT
 70
     3
  9
$DIMFRAC
 70
     0
  9
$DIMLDRBLK
  1

  9
$DIMLUNIT
 70
     2
  9
$DIMLWD
 70
    -2
  9
$DIMLWE
 70
    -2
  9
$DIMTMOVE
 70
     2
  9
$DIMFXL
 40
1.0
  9
$DIMFXLON
 70
     0
  9
$DIMJOGANG
 40
0.7853981633974483
  9
$DIMTFILL
 70
     0
  9
$DIMTFILLCLR
 70
     0
  9
$DIMARCSYM
 70
     0
  9
$DIMLTYPE
  6

  9
$DIMLTEX1
  6

  9
$DIMLTEX2
  6

  9
$DIMTXTDIRECTION
 70
     0
  9
$LUNITS
 70
     2
  9
$LUPREC
 70
     4
  9
$SKETCHINC
 40
0.1
  9
$FILLETRAD
 40
0.5
  9
$AUNITS
 70
     0
  9
$AUPREC
 70
     0
  9
$MENU
  1
.
  9
$ELEVATION
 40
0.0
  9
$PELEVATION
 40
0.0
  9
$THICKNESS
 40
0.0
  9
$LIMCHECK
 70
     0
  9
$CHAMFERA
 40
0.0
  9
$CHAMFERB
 40
0.0
  9
$CHAMFERC
 40
0.0
  9
$CHAMFERD
 40
0.0
  9
$SKPOLY
 70
     0
  9
$TDCREATE
 40
2447893.041666667
  9
$TDUCREATE
 40
0.0
  9
$TDUPDATE
 40
2458473.744346042
  9
$TDUUPDATE
 40
2458473.702679375
  9
$TDINDWG
 40
0.0002266088
  9
$TDUSRTIMER
 40
0.0002266088
  9
$USRTIMER
 70
     1
  9
$ANGBASE
 50
0.0
  9
$ANGDIR
 70
     0
  9
$PDMODE
 70
     3
  9
$PDSIZE
 40
0.3125
  9
$PLINEWID
 40
0.0
  9
$SPLFRAME
 70
     0
  9
$SPLINETYPE
 70
     6
  9
$SPLINESEGS
 70
     8
  9
$HANDSEED
  5
3C6
  9
$SURFTAB1
 70
     6
  9
$SURFTAB2
 70
     6
  9
$SURFTYPE
 70
     6
  9
$SURFU
 70
     6
  9
$SURFV
 70
     6
  9
$UCSBASE
  2

  9
$UCSNAME
  2

  9
$UCSORG
 10
0.0
 20
0.0
 30
0.0
  9
$UCSXDIR
 10
1.0
 20
0.0
 30
0.0
  9
$UCSYDIR
 10
0.0
 20
1.0
 30
0.0
  9
$UCSORTHOREF
  2

  9
$UCSORTHOVIEW
 70
     0
  9
$UCSORGTOP
 10
0.0
 20
0.0
 30
0.0
  9
$UCSORGBOTTOM
 10
0.0
 20
0.0
 30
0.0
  9
$UCSORGLEFT
 10
0.0
 20
0.0
 30
0.0
  9
$UCSORGRIGHT
 10
0.0
 20
0.0
 30
0.0
  9
$UCSORGFRONT
 10
0.0
 20
0.0
 30
0.0
  9
$UCSORGBACK
 10
0.0
 20
0.0
 30
0.0
  9
$PUCSBASE
  2

  9
$PUCSNAME
  2

  9
$PUCSORG
 10
0.0
 20
0.0
 30
0.0
  9
$PUCSXDIR
 10
1.0
 20
0.0
 30
0.0
  9
$PUCSYDIR
 10
0.0
 20
1.0
 30
0.0
  9
$PUCSORTHOREF
  2

  9
$PUCSORTHOVIEW
 70
     0
  9
$PUCSORGTOP
 10
0.0
 20
0.0
 30
0.0
  9
$PUCSORGBOTTOM
 10
0.0
 20
0.0
 30
0.0
  9
$PUCSORGLEFT
 10
0.0
 20
0.0
 30
0.0
  9
$PUCSORGRIGHT
 10
0.0
 20
0.0
 30
0.0
  9
$PUCSORGFRONT
 10
0.0
 20
0.0
 30
0.0
  9
$PUCSORGBACK
 10
0.0
 20
0.0
 30
0.0
  9
$USERI1
 70
     0
  9
$USERI2
 70
     0
  9
$USERI3
 70
     0
  9
$USERI4
 70
     0
  9
$USERI5
 70
     0
  9
$USERR1
 40
0.0
  9
$USERR2
 40
0.0
  9
$USERR3
 40
0.0
  9
$USERR4
 40
0.0
  9
$USERR5
 40
0.0
  9
$WORLDVIEW
 70
     1
  9
$SHADEDGE
 70
     3
  9
$SHADEDIF
 70
    70
  9
$TILEMODE
 70
     0
  9
$MAXACTVP
 70
    64
  9
$PINSBASE
 10
0.0
 20
0.0
 30
0.0
  9
$PLIMCHECK
 70
     0
  9
$PEXTMIN
 10
0.0
 20
0.0
 30
0.0
  9
$PEXTMAX
 10
421.7001028857667
 20
297.0
 30
0.0
  9
$PLIMMIN
 10
-8.667315175097276
 20
-23.11284046692607
  9
$PLIMMAX
 10
476.7023346303502
 20
320.1128404669261
  9
$UNITMODE
 70
     0
  9
$VISRETAIN
 70
     1
  9
$PLINEGEN
 70
     0
  9
$PSLTSCALE
 70
     1
  9
$TREEDEPTH
 70
  3020
  9
$CMLSTYLE
  2
STANDARD
  9
$CMLJUST
 70
     0
  9
$CMLSCALE
 40
1.0
  9
$PROXYGRAPHICS
 70
     1
  9
$MEASUREMENT
 70
     1
  9
$CELWEIGHT
370
    -1
  9
$ENDCAPS
280
     0
  9
$JOINSTYLE
280
     0
  9
$LWDISPLAY
290
     0
  9
$INSUNITS
 70
     0
  9
$HYPERLINKBASE
  1

  9
$STYLESHEET
  1

  9
$XEDIT
290
     1
  9
$CEPSNTYPE
380
     0
  9
$PSTYLEMODE
290
     1
  9
$FINGERPRINTGUID
  2
{D05E537C-24A4-4277-A6C5-4CC783AC90CA}
  9
$VERSIONGUID
  2
{FAEB1C32-E019-11D5-929B-00C0DF256EC4}
  9
$EXTNAMES
290
     1
  9
$PSVPSCALE
 40
0.0
  9
$OLESTARTUP
290
     0
  9
$SORTENTS
280
   127
  9
$INDEXCTL
280
     0
  9
$HIDETEXT
280
     1
  9
$XCLIPFRAME
280
     2
  9
$HALOGAP
280
     0
  9
$OBSCOLOR
 70
   257
  9
$OBSLTYPE
280
     0
  9
$INTERSECTIONDISPLAY
280
     0
  9
$INTERSECTIONCOLOR
 70
   257
  9
$DIMASSOC
280
     2
  9
$PROJECTNAME
  1

  9
$CAMERADISPLAY
290
     0
  9
$LENSLENGTH
 40
50.0
  9
$CAMERAHEIGHT
 40
0.0
  9
$STEPSPERSEC
 40
2.0
  9
$STEPSIZE
 40
6.0
  9
$3DDWFPREC
 40
2.0
  9
$PSOLWIDTH
 40
0.25
  9
$PSOLHEIGHT
 40
4.0
  9
$LOFTANG1
 40
1.570796326794897
  9
$LOFTANG2
 40
1.570796326794897
  9
$LOFTMAG1
 40
0.0
  9
$LOFTMAG2
 40
0.0
  9
$LOFTPARAM
 70
     7
  9
$LOFTNORMALS
280
     1
  9
$LATITUDE
 40
37.795
  9
$LONGITUDE
 40
-122.394
  9
$NORTHDIRECTION
 40
0.0
  9
$TIMEZONE
 70
 -8000
  9
$LIGHTGLYPHDISPLAY
280
     1
  9
$TILEMODELIGHTSYNCH
280
     1
  9
$SOLIDHIST
280
     0
  9
$SHOWHIST
280
     1
  9
$DWFFRAME
280
     2
  9
$DGNFRAME
280
     2
  9
$REALWORLDSCALE
290
     1
  9
$INTERFERECOLOR
 62
   256
  9
$CSHADOW
280
     0
  9
$SHADOWPLANELOCATION
 40
0.0
  0
ENDSEC
  0
SECTION
  2
CLASSES
  0
CLASS
  1
ACDBDICTIONARYWDFLT
  2
AcDbDictionaryWithDefault
  3
ObjectDBX Classes
 90
        0
 91
        5
280
     0
281
     0
  0
CLASS
  1
SCALE
  2
AcDbScale
  3
ObjectDBX Classes
 90
     1153
 91
        5
280
     0
281
     0
  0
CLASS
  1
VISUALSTYLE
  2
AcDbVisualStyle
  3
ObjectDBX Classes
 90
     4095
 91
        5
280
     0
281
     0
  0
CLASS
  1
MATERIAL
  2
AcDbMaterial
  3
ObjectDBX Classes
 90
     1153
 91
        5
280
     0
281
     0
  0
CLASS
  1
TABLESTYLE
  2
AcDbTableStyle
  3
ObjectDBX Classes
 90
     4095
 91
        5
280
     0
281
     0
  0
CLASS
  1
MLEADERSTYLE
  2
AcDbMLeaderStyle
  3
ACDB_MLEADERSTYLE_CLASS
 90
     4095
 91
        5
280
     0
281
     0
  0
CLASS
  1
DICTIONARYVAR
  2
AcDbDictionaryVar
  3
ObjectDBX Classes
 90
        0
 91
        5
280
     0
281
     0
  0
CLASS
  1
CELLSTYLEMAP
  2
AcDbCellStyleMap
  3
ObjectDBX Classes
 90
     1152
 91
        5
280
     0
281
     0
  0
ENDSEC
  0
SECTION
  2
TABLES
  0
TABLE
  2
VPORT
  5
8
330
0
100
AcDbSymbolTable
 70
     1
  0
VPORT
  5
1F4
330
8
100
AcDbSymbolTableRecord
100
AcDbViewportTableRecord
  2
*ACTIVE
 70
     0
 10
0.0
 20
0.0
 11
1.0
 21
1.0
 12
210.0
 22
148.5
 13
0.0
 23
0.0
 14
1.0
 24
1.0
 15
0.0
 25
0.0
 16
0.0
 26
0.0
 36
1.0
 17
0.0
 27
0.0
 37
0.0
 40
297.0
 41
1.4141414141
 42
50.0
 43
0.0
 44
0.0
 50
0.0
 51
0.0
 71
     0
 72
   100
 73
     1
 74
     1
 75
     0
 76
     0
 77
     0
 78
     0
281
     0
 65
     1
110
0.0
120
0.0
130
0.0
111
1.0
121
0.0
131
0.0
112
0.0
122
1.0
132
0.0
 79
     0
146
0.0
348
39F
 60
     3
 61
     5
292
     1
282
     1
141
0.0
142
0.0
 63
   256
  0
ENDTAB
  0
TABLE
  2
LTYPE
  5
5
330
0
100
AcDbSymbolTable
 70
     6
  0
LTYPE
  5
14
330
5
100
AcDbSymbolTableRecord
100
AcDbLinetypeTableRecord
  2
BYBLOCK
 70
     0
  3

 72
    65
 73
     0
 40
0.0
  0
LTYPE
  5
15
330
5
100
AcDbSymbolTableRecord
100
AcDbLinetypeTableRecord
  2
BYLAYER
 70
     0
  3

 72
    65
 73
     0
 40
0.0
  0
LTYPE
  5
16
330
5
100
AcDbSymbolTableRecord
100
AcDbLinetypeTableRecord
  2
CONTINUOUS
 70
     0
  3
Solid line
 72
    65
 73
     0
 40
0.0
  0
LTYPE
  5
1F5
330
5
100
AcDbSymbolTableRecord
100
AcDbLinetypeTableRecord
  2
CENTER
 70
     0
  3
____ _ ____ _ ____ _ ____ _ ____ _ ____ _ ____
 72
    65
 73
     4
 40
0.6
 49
0.375
 74
     0
 49
-0.075
 74
     0
 49
0.075
 74
     0
 49
-0.075
 74
     0
  0
LTYPE
  5
1F6
330
5
100
AcDbSymbolTableRecord
100
AcDbLinetypeTableRecord
  2
HIDDEN
 70
     0
  3
- - - - - - - - - - - - - - - - - - - -
 72
    65
 73
     2
 40
0.2
 49
0.1
 74
     0
 49
-0.1
 74
     0
  0
LTYPE
  5
1F7
330
5
100
AcDbSymbolTableRecord
100
AcDbLinetypeTableRecord
  2
PHANTOM
 70
     0
  3
_____ _ _ _____ _ _ _____ _ _ _____
 72
    65
 73
     6
 40
0.8
 49
0.45
 74
     0
 49
-0.05
 74
     0
 49
0.1
 74
     0
 49
-0.05
 74
     0
 49
0.1
 74
     0
 49
-0.05
 74
     0
  0
LTYPE
  5
1F8
330
5
100
AcDbSymbolTableRecord
100
AcDbLinetypeTableRecord
  2
DOT
 70
     0
  3
. . . . . . . . . . . . . . . . . . . .
 72
    65
 73
     2
 40
0.2
 49
0.1
 74
     0
 49
-0.1
 74
     0
  0
LTYPE
  5
1F9
330
5
100
AcDbSymbolTableRecord
100
AcDbLinetypeTableRecord
  2
DASHED
 70
     0
  3
- - - - - - - - - - - - - - - - - - - -
 72
    65
 73
     2
 40
0.2
 49
0.1
 74
     0
 49
-0.1
 74
     0
  0
ENDTAB
  0
TABLE
  2
LAYER
  5
2
330
0
100
AcDbSymbolTable
 70
    31
  0
LAYER
  5
10
330
2
100
AcDbSymbolTableRecord
100
AcDbLayerTableRecord
  2
0
 70
     0
 62
     7
  6
CONTINUOUS
370
    -3
390
374
347
3B6
348
0
  0
LAYER
  5
1FA
330
2
100
AcDbSymbolTableRecord
100
AcDbLayerTableRecord
  2
DEFAULT_1
 70
     0
 62
     7
  6
CENTER
370
    -3
390
374
347
3B6
348
0
  0
LAYER
  5
1FB
330
2
100
AcDbSymbolTableRecord
100
AcDbLayerTableRecord
  2
DEFAULT_2
 70
     0
 62
     8
  6
HIDDEN
370
    -3
390
374
347
3B6
348
0
  0
LAYER
  5
1FC
330
2
100
AcDbSymbolTableRecord
100
AcDbLayerTableRecord
  2
DEFAULT_3
 70
     0
 62
     7
  6
PHANTOM
370
    -3
390
374
347
3B6
348
0
  0
LAYER
  5
1FD
330
2
100
AcDbSymbolTableRecord
100
AcDbLayerTableRecord
  2
01_ALL_DTM_PLN
 70
     0
 62
     7
  6
CONTINUOUS
370
    -3
390
374
347
3B6
348
0
  0
LAYER
  5
1FE
330
2
100
AcDbSymbolTableRecord
100
AcDbLayerTableRecord
  2
01__ASM_ALL_DTM_PLN
 70
     0
 62
     7
  6
CONTINUOUS
370
    -3
390
374
347
3B6
348
0
  0
LAYER
  5
1FF
330
2
100
AcDbSymbolTableRecord
100
AcDbLayerTableRecord
  2
01__ASM_DEF_DTM_PLN
 70
     0
 62
     7
  6
CONTINUOUS
370
    -3
390
374
347
3B6
348
0
  0
LAYER
  5
200
330
2
100
AcDbSymbolTableRecord
100
AcDbLayerTableRecord
  2
01___PRT_ALL_DTM_PLN
 70
     0
 62
     7
  6
CONTINUOUS
370
    -3
390
374
347
3B6
348
0
  0
LAYER
  5
201
330
2
100
AcDbSymbolTableRecord
100
AcDbLayerTableRecord
  2
01___PRT_DEF_DTM_PLN
 70
     0
 62
     7
  6
CONTINUOUS
370
    -3
390
374
347
3B6
348
0
  0
LAYER
  5
202
330
2
100
AcDbSymbolTableRecord
100
AcDbLayerTableRecord
  2
02_ALL_AXES
 70
     0
 62
     7
  6
CONTINUOUS
370
    -3
390
374
347
3B6
348
0
  0
LAYER
  5
203
330
2
100
AcDbSymbolTableRecord
100
AcDbLayerTableRecord
  2
02__ASM_ALL_AXES
 70
     0
 62
     7
  6
CONTINUOUS
370
    -3
390
374
347
3B6
348
0
  0
LAYER
  5
204
330
2
100
AcDbSymbolTableRecord
100
AcDbLayerTableRecord
  2
02___PRT_ALL_AXES
 70
     0
 62
     7
  6
CONTINUOUS
370
    -3
390
374
347
3B6
348
0
  0
LAYER
  5
205
330
2
100
AcDbSymbolTableRecord
100
AcDbLayerTableRecord
  2
03_ALL_CURVES
 70
     0
 62
     7
  6
CONTINUOUS
370
    -3
390
374
347
3B6
348
0
  0
LAYER
  5
206
330
2
100
AcDbSymbolTableRecord
100
AcDbLayerTableRecord
  2
03__ASM_ALL_CURVES
 70
     0
 62
     7
  6
CONTINUOUS
370
    -3
390
374
347
3B6
348
0
  0
LAYER
  5
207
330
2
100
AcDbSymbolTableRecord
100
AcDbLayerTableRecord
  2
03___PRT_ALL_CURVES
 70
     0
 62
     7
  6
CONTINUOUS
370
    -3
390
374
347
3B6
348
0
  0
LAYER
  5
208
330
2
100
AcDbSymbolTableRecord
100
AcDbLayerTableRecord
  2
04_ALL_DTM_PNT
 70
     0
 62
     7
  6
CONTINUOUS
370
    -3
390
374
347
3B6
348
0
  0
LAYER
  5
209
330
2
100
AcDbSymbolTableRecord
100
AcDbLayerTableRecord
  2
04__ASM_ALL_DTM_PNT
 70
     0
 62
     7
  6
CONTINUOUS
370
    -3
390
374
347
3B6
348
0
  0
LAYER
  5
20A
330
2
100
AcDbSymbolTableRecord
100
AcDbLayerTableRecord
  2
04___PRT_ALL_DTM_PNT
 70
     0
 62
     7
  6
CONTINUOUS
370
    -3
390
374
347
3B6
348
0
  0
LAYER
  5
20B
330
2
100
AcDbSymbolTableRecord
100
AcDbLayerTableRecord
  2
05_ALL_DTM_CSYS
 70
     0
 62
     7
  6
CONTINUOUS
370
    -3
390
374
347
3B6
348
0
  0
LAYER
  5
20C
330
2
100
AcDbSymbolTableRecord
100
AcDbLayerTableRecord
  2
05__ASM_ALL_DTM_CSYS
 70
     0
 62
     7
  6
CONTINUOUS
370
    -3
390
374
347
3B6
348
0
  0
LAYER
  5
20D
330
2
100
AcDbSymbolTableRecord
100
AcDbLayerTableRecord
  2
05__ASM_DEF_DTM_CSYS
 70
     0
 62
     7
  6
CONTINUOUS
370
    -3
390
374
347
3B6
348
0
  0
LAYER
  5
20E
330
2
100
AcDbSymbolTableRecord
100
AcDbLayerTableRecord
  2
05___PRT_ALL_DTM_CSYS
 70
     0
 62
     7
  6
CONTINUOUS
370
    -3
390
374
347
3B6
348
0
  0
LAYER
  5
20F
330
2
100
AcDbSymbolTableRecord
100
AcDbLayerTableRecord
  2
05___PRT_DEF_DTM_CSYS
 70
     0
 62
     7
  6
CONTINUOUS
370
    -3
390
374
347
3B6
348
0
  0
LAYER
  5
210
330
2
100
AcDbSymbolTableRecord
100
AcDbLayerTableRecord
  2
06_ALL_SURFS
 70
     0
 62
     7
  6
CONTINUOUS
370
    -3
390
374
347
3B6
348
0
  0
LAYER
  5
211
330
2
100
AcDbSymbolTableRecord
100
AcDbLayerTableRecord
  2
06__ASM_ALL_SURFS
 70
     0
 62
     7
  6
CONTINUOUS
370
    -3
390
374
347
3B6
348
0
  0
LAYER
  5
212
330
2
100
AcDbSymbolTableRecord
100
AcDbLayerTableRecord
  2
06___PRT_ALL_SURFS
 70
     0
 62
     7
  6
CONTINUOUS
370
    -3
390
374
347
3B6
348
0
  0
LAYER
  5
213
330
2
100
AcDbSymbolTableRecord
100
AcDbLayerTableRecord
  2
07__ASM_ALL_SKELETONS
 70
     0
 62
     7
  6
CONTINUOUS
370
    -3
390
374
347
3B6
348
0
  0
LAYER
  5
214
330
2
100
AcDbSymbolTableRecord
100
AcDbLayerTableRecord
  2
1_ALL_PLANES
 70
     0
 62
     7
  6
CONTINUOUS
370
    -3
390
374
347
3B6
348
0
  0
LAYER
  5
215
330
2
100
AcDbSymbolTableRecord
100
AcDbLayerTableRecord
  2
3_ALL_AXES
 70
     0
 62
     7
  6
CONTINUOUS
370
    -3
390
374
347
3B6
348
0
  0
LAYER
  5
216
330
2
100
AcDbSymbolTableRecord
100
AcDbLayerTableRecord
  2
7_ALL_FEATURES
 70
     0
 62
     7
  6
CONTINUOUS
370
    -3
390
374
347
3B6
348
0
  0
LAYER
  5
217
330
2
100
AcDbSymbolTableRecord
100
AcDbLayerTableRecord
  2
9_SOLID
 70
     0
 62
     7
  6
CONTINUOUS
370
    -3
390
374
347
3B6
348
0
  0
ENDTAB
  0
TABLE
  2
STYLE
  5
3
330
0
100
AcDbSymbolTable
 70
     4
  0
STYLE
  5
11
330
3
100
AcDbSymbolTableRecord
100
AcDbTextStyleTableRecord
  2
STANDARD
 70
     0
 40
0.0
 41
1.0
 50
0.0
 71
     0
 42
0.2
  3
arial.ttf
  4

  0
STYLE
  5
218
330
3
100
AcDbSymbolTableRecord
100
AcDbTextStyleTableRecord
  2
TEXTSTYLE_1
 70
     0
 40
0.0
 41
0.8
 50
0.0
 71
     0
 42
0.2
  3
gdt
  4

  0
STYLE
  5
219
330
3
100
AcDbSymbolTableRecord
100
AcDbTextStyleTableRecord
  2
TEXTSTYLE_2
 70
     0
 40
0.0
 41
2.0
 50
0.0
 71
     0
 42
0.2
  3
txt
  4

  0
STYLE
  5
21A
330
3
100
AcDbSymbolTableRecord
100
AcDbTextStyleTableRecord
  2
TEXTSTYLE_3
 70
     0
 40
0.0
 41
0.85
 50
0.0
 71
     0
 42
0.2
  3
txt
  4

  0
ENDTAB
  0
TABLE
  2
VIEW
  5
6
330
0
100
AcDbSymbolTable
 70
     0
  0
ENDTAB
  0
TABLE
  2
UCS
  5
7
330
0
100
AcDbSymbolTable
 70
     0
  0
ENDTAB
  0
TABLE
  2
APPID
  5
9
330
0
100
AcDbSymbolTable
 70
     1
  0
APPID
  5
21B
330
9
100
AcDbSymbolTableRecord
100
AcDbRegAppTableRecord
  2
ACAD
 70
     0
  0
ENDTAB
  0
TABLE
  2
DIMSTYLE
  5
A
330
0
100
AcDbSymbolTable
 70
     3
100
AcDbDimStyleTable
  0
DIMSTYLE
105
223
330
A
100
AcDbSymbolTableRecord
100
AcDbDimStyleTableRecord
  2
STANDARD
 70
     0
 41
2.5
 42
0.75
 44
0.75
 47
0.01
 48
0.01
 71
     1
 73
     0
 74
     0
 77
     1
 78
     8
 79
     2
140
3.0
147
0.625
171
     1
178
     0
179
     2
271
     2
272
     2
284
     8
340
11
341
21C
342
21C
343
21C
344
21C
  0
DIMSTYLE
105
224
330
A
100
AcDbSymbolTableRecord
100
AcDbDimStyleTableRecord
  2
DIMSTYLE_1
 70
     0
 41
2.5
 42
0.75
 44
0.75
 47
0.3
 48
0.3
 73
     0
 74
     0
 77
     1
 78
     8
 79
     2
140
3.0
147
0.75
171
     1
178
     0
179
     2
271
     2
272
     2
284
     8
340
11
341
21C
342
21C
343
21C
344
21C
  0
DIMSTYLE
105
225
330
A
100
AcDbSymbolTableRecord
100
AcDbDimStyleTableRecord
  2
DIMSTYLE_2
 70
     0
 41
2.5
 42
0.75
 44
0.75
 47
0.5
 48
0.5
 73
     0
 74
     0
 77
     1
 78
     8
 79
     2
140
3.0
147
0.75
171
     1
178
     0
179
     2
271
     2
272
     2
284
     8
340
11
341
21C
342
21C
343
21C
344
21C
  0
ENDTAB
  0
TABLE
  2
BLOCK_RECORD
  5
1
330
0
100
AcDbSymbolTable
 70
     7
  0
BLOCK_RECORD
  5
1F
330
1
100
AcDbSymbolTableRecord
100
AcDbBlockTableRecord
  2
*MODEL_SPACE
340
398
 70
     0
280
     1
281
     0
  0
BLOCK_RECORD
  5
1B
330
1
100
AcDbSymbolTableRecord
100
AcDbBlockTableRecord
  2
*PAPER_SPACE
340
399
 70
     0
280
     1
281
     0
  0
BLOCK_RECORD
  5
21C
330
1
100
AcDbSymbolTableRecord
100
AcDbBlockTableRecord
  2
_CLOSED
340
0
102
{BLKREFS
331
278
331
279
331
281
331
282
331
28A
331
28B
331
293
331
294
102
}
 70
     0
280
     1
281
     0
  0
BLOCK_RECORD
  5
21D
330
1
100
AcDbSymbolTableRecord
100
AcDbBlockTableRecord
  2
*D1
340
0
 70
     0
280
     1
281
     0
  0
BLOCK_RECORD
  5
21E
330
1
100
AcDbSymbolTableRecord
100
AcDbBlockTableRecord
  2
*D2
340
0
 70
     0
280
     1
281
     0
  0
BLOCK_RECORD
  5
21F
330
1
100
AcDbSymbolTableRecord
100
AcDbBlockTableRecord
  2
*D3
340
0
 70
     0
280
     1
281
     0
  0
BLOCK_RECORD
  5
220
330
1
100
AcDbSymbolTableRecord
100
AcDbBlockTableRecord
  2
*D4
340
0
 70
     0
280
     1
281
     0
  0
BLOCK_RECORD
  5
221
330
1
100
AcDbSymbolTableRecord
100
AcDbBlockTableRecord
  2
LOGO2_BL1
340
0
102
{BLKREFS
331
35C
102
}
 70
     0
280
     1
281
     0
  0
BLOCK_RECORD
  5
222
330
1
100
AcDbSymbolTableRecord
100
AcDbBlockTableRecord
  2
PROIEZIONE_EU_BL0
340
0
102
{BLKREFS
331
359
102
}
 70
     0
280
     1
281
     0
  0
ENDTAB
  0
ENDSEC
  0
SECTION
  2
BLOCKS
  0
BLOCK
  5
20
330
1F
100
AcDbEntity
  8
0
100
AcDbBlockBegin
  2
*MODEL_SPACE
 70
     0
 10
0.0
 20
0.0
 30
0.0
  3
*MODEL_SPACE
  1

  0
ENDBLK
  5
21
330
1F
100
AcDbEntity
  8
0
100
AcDbBlockEnd
  0
BLOCK
  5
1C
330
1B
100
AcDbEntity
 67
     1
  8
0
100
AcDbBlockBegin
  2
*PAPER_SPACE
 70
     0
 10
0.0
 20
0.0
 30
0.0
  3
*PAPER_SPACE
  1

  0
ENDBLK
  5
1D
330
1B
100
AcDbEntity
 67
     1
  8
0
100
AcDbBlockEnd
  0
BLOCK
  5
26C
330
21C
100
AcDbEntity
  8
0
100
AcDbBlockBegin
  2
_CLOSED
 70
     0
 10
0.0
 20
0.0
 30
0.0
  3
_CLOSED
  1

  0
LINE
  5
26D
330
21C
100
AcDbEntity
  8
0
  6
ByBlock
 62
     0
100
AcDbLine
 10
0.0
 20
0.0
 30
0.0
 11
-1.0
 21
0.2
 31
0.0
  0
LINE
  5
26E
330
21C
100
AcDbEntity
  8
0
  6
ByBlock
 62
     0
100
AcDbLine
 10
-1.0
 20
0.2
 30
0.0
 11
-1.0
 21
-0.2
 31
0.0
  0
LINE
  5
26F
330
21C
100
AcDbEntity
  8
0
  6
ByBlock
 62
     0
100
AcDbLine
 10
-1.0
 20
-0.2
 30
0.0
 11
0.0
 21
0.0
 31
0.0
  0
LINE
  5
270
330
21C
100
AcDbEntity
  8
0
  6
ByBlock
 62
     0
100
AcDbLine
 10
-1.0
 20
0.0
 30
0.0
 11
0.0
 21
0.0
 31
0.0
  0
ENDBLK
  5
271
330
21C
100
AcDbEntity
  8
0
  6
ByBlock
 62
     0
100
AcDbBlockEnd
  0
BLOCK
  5
272
330
21D
100
AcDbEntity
  8
0
100
AcDbBlockBegin
  2
*D1
 70
     1
 10
0.0
 20
0.0
 30
0.0
  3
*D1
  1

  0
MTEXT
  5
273
330
21D
100
AcDbEntity
  8
0
  6
Continuous
 62
     2
100
AcDbMText
 10
43.0537378062
 20
199.8679133235
 30
0.0
 40
3.0
 41
8.1524163569
 46
0.0
 71
     2
 72
     1
  1
61,1
 11
0.0
 21
1.0
 31
0.0
 73
     1
 44
1.0
  0
LINE
  5
274
330
21D
100
AcDbEntity
  8
0
  6
Continuous
 62
     2
100
AcDbLine
 10
58.1408718854
 20
169.3179133235
 30
0.0
 11
46.0537378062
 21
169.3179133235
 31
0.0
  0
LINE
  5
275
330
21D
100
AcDbEntity
  8
0
  6
Continuous
 62
     2
100
AcDbLine
 10
52.7825
 20
230.4179133235
 30
0.0
 11
46.0537378062
 21
230.4179133235
 31
0.0
  0
LINE
  5
276
330
21D
100
AcDbEntity
  8
0
  6
Continuous
 62
     2
100
AcDbLine
 10
46.8037378062
 20
169.3179133235
 30
0.0
 11
46.8037378062
 21
199.8679133235
 31
0.0
  0
LINE
  5
277
330
21D
100
AcDbEntity
  8
0
  6
Continuous
 62
     2
100
AcDbLine
 10
46.8037378062
 20
230.4179133235
 30
0.0
 11
46.8037378062
 21
199.8679133235
 31
0.0
  0
INSERT
  5
278
330
21D
100
AcDbEntity
  8
0
  6
Continuous
 62
     2
100
AcDbBlockReference
  2
_CLOSED
 10
46.8037378062
 20
169.3179133235
 30
0.0
 41
2.5
 42
2.5
 43
2.5
 50
270.0
  0
INSERT
  5
279
330
21D
100
AcDbEntity
  8
0
  6
Continuous
 62
     2
100
AcDbBlockReference
  2
_CLOSED
 10
46.8037378062
 20
230.4179133235
 30
0.0
 41
2.5
 42
2.5
 43
2.5
 50
90.0
  0
ENDBLK
  5
27A
330
21D
100
AcDbEntity
  8
0
  6
ByBlock
 62
     0
100
AcDbBlockEnd
  0
BLOCK
  5
27B
330
21E
100
AcDbEntity
  8
0
100
AcDbBlockBegin
  2
*D2
 70
     1
 10
0.0
 20
0.0
 30
0.0
  3
*D2
  1

  0
MTEXT
  5
27C
330
21E
100
AcDbEntity
  8
0
  6
Continuous
 62
     2
100
AcDbMText
 10
134.9746621622
 20
245.8640425465
 30
0.0
 40
3.0
 41
6.9925650558
 46
0.0
 71
     2
 72
     1
  1
140
 73
     1
 44
1.0
  0
LINE
  5
27D
330
21E
100
AcDbEntity
  8
0
  6
Continuous
 62
     2
100
AcDbLine
 10
64.9746621622
 20
235.7289074113
 30
0.0
 11
64.9746621622
 21
242.8640425465
 31
0.0
  0
LINE
  5
27E
330
21E
100
AcDbEntity
  8
0
  6
Continuous
 62
     2
100
AcDbLine
 10
204.9746621622
 20
235.7289074113
 30
0.0
 11
204.9746621622
 21
242.8640425465
 31
0.0
  0
LINE
  5
27F
330
21E
100
AcDbEntity
  8
0
  6
Continuous
 62
     2
100
AcDbLine
 10
64.9746621622
 20
242.1140425465
 30
0.0
 11
134.9746621622
 21
242.1140425465
 31
0.0
  0
LINE
  5
280
330
21E
100
AcDbEntity
  8
0
  6
Continuous
 62
     2
100
AcDbLine
 10
204.9746621622
 20
242.1140425465
 30
0.0
 11
134.9746621622
 21
242.1140425465
 31
0.0
  0
INSERT
  5
281
330
21E
100
AcDbEntity
  8
0
  6
Continuous
 62
     2
100
AcDbBlockReference
  2
_CLOSED
 10
64.9746621622
 20
242.1140425465
 30
0.0
 41
2.5
 42
2.5
 43
2.5
 50
180.0
  0
INSERT
  5
282
330
21E
100
AcDbEntity
  8
0
  6
Continuous
 62
     2
100
AcDbBlockReference
  2
_CLOSED
 10
204.9746621622
 20
242.1140425465
 30
0.0
 41
2.5
 42
2.5
 43
2.5
  0
ENDBLK
  5
283
330
21E
100
AcDbEntity
  8
0
  6
ByBlock
 62
     0
100
AcDbBlockEnd
  0
BLOCK
  5
284
330
21F
100
AcDbEntity
  8
0
100
AcDbBlockBegin
  2
*D3
 70
     1
 10
0.0
 20
0.0
 30
0.0
  3
*D3
  1

  0
MTEXT
  5
285
330
21F
100
AcDbEntity
  8
0
  6
Continuous
 62
     2
100
AcDbMText
 10
310.0483332454
 20
245.8640425465
 30
0.0
 40
3.0
 41
4.6617100372
 46
0.0
 71
     2
 72
     1
  1
42
 73
     1
 44
1.0
  0
LINE
  5
286
330
21F
100
AcDbEntity
  8
0
  6
Continuous
 62
     2
100
AcDbLine
 10
289.0483332454
 20
235.3182511613
 30
0.0
 11
289.0483332454
 21
242.8640425465
 31
0.0
  0
LINE
  5
287
330
21F
100
AcDbEntity
  8
0
  6
Continuous
 62
     2
100
AcDbLine
 10
331.0483332454
 20
235.7289074113
 30
0.0
 11
331.0483332454
 21
242.8640425465
 31
0.0
  0
LINE
  5
288
330
21F
100
AcDbEntity
  8
0
  6
Continuous
 62
     2
100
AcDbLine
 10
289.0483332454
 20
242.1140425465
 30
0.0
 11
310.0483332454
 21
242.1140425465
 31
0.0
  0
LINE
  5
289
330
21F
100
AcDbEntity
  8
0
  6
Continuous
 62
     2
100
AcDbLine
 10
331.0483332454
 20
242.1140425465
 30
0.0
 11
310.0483332454
 21
242.1140425465
 31
0.0
  0
INSERT
  5
28A
330
21F
100
AcDbEntity
  8
0
  6
Continuous
 62
     2
100
AcDbBlockReference
  2
_CLOSED
 10
289.0483332454
 20
242.1140425465
 30
0.0
 41
2.5
 42
2.5
 43
2.5
 50
180.0
  0
INSERT
  5
28B
330
21F
100
AcDbEntity
  8
0
  6
Continuous
 62
     2
100
AcDbBlockReference
  2
_CLOSED
 10
331.0483332454
 20
242.1140425465
 30
0.0
 41
2.5
 42
2.5
 43
2.5
  0
ENDBLK
  5
28C
330
21F
100
AcDbEntity
  8
0
  6
ByBlock
 62
     0
100
AcDbBlockEnd
  0
BLOCK
  5
28D
330
220
100
AcDbEntity
  8
0
100
AcDbBlockBegin
  2
*D4
 70
     1
 10
0.0
 20
0.0
 30
0.0
  3
*D4
  1

  0
MTEXT
  5
28E
330
220
100
AcDbEntity
  8
0
  6
Continuous
 62
     2
100
AcDbMText
 10
217.3903946896
 20
107.5952280405
 30
0.0
 40
3.0
 41
10.4832713755
 46
0.0
 71
     2
 72
     1
  1
54,55
 11
0.0
 21
1.0
 31
0.0
 73
     1
 44
1.0
  0
LINE
  5
28F
330
220
100
AcDbEntity
  8
0
  6
Continuous
 62
     2
100
AcDbLine
 10
206.1997497362
 20
134.8719891425
 30
0.0
 11
221.8903946896
 21
134.8719891425
 31
0.0
  0
LINE
  5
290
330
220
100
AcDbEntity
  8
0
  6
Continuous
 62
     2
100
AcDbLine
 10
204.9227227092
 20
80.3184669386
 30
0.0
 11
221.8903946896
 21
80.3184669386
 31
0.0
  0
LINE
  5
291
330
220
100
AcDbEntity
  8
0
  6
Continuous
 62
     2
100
AcDbLine
 10
221.1403946896
 20
134.8719891425
 30
0.0
 11
221.1403946896
 21
107.5952280405
 31
0.0
  0
LINE
  5
292
330
220
100
AcDbEntity
  8
0
  6
Continuous
 62
     2
100
AcDbLine
 10
221.1403946896
 20
80.3184669386
 30
0.0
 11
221.1403946896
 21
107.5952280405
 31
0.0
  0
INSERT
  5
293
330
220
100
AcDbEntity
  8
0
  6
Continuous
 62
     2
100
AcDbBlockReference
  2
_CLOSED
 10
221.1403946896
 20
134.8719891425
 30
0.0
 41
2.5
 42
2.5
 43
2.5
 50
90.0
  0
INSERT
  5
294
330
220
100
AcDbEntity
  8
0
  6
Continuous
 62
     2
100
AcDbBlockReference
  2
_CLOSED
 10
221.1403946896
 20
80.3184669386
 30
0.0
 41
2.5
 42
2.5
 43
2.5
 50
270.0
  0
ENDBLK
  5
295
330
220
100
AcDbEntity
  8
0
  6
ByBlock
 62
     0
100
AcDbBlockEnd
  0
BLOCK
  5
226
330
221
100
AcDbEntity
  8
0
100
AcDbBlockBegin
  2
LOGO2_BL1
 70
     0
 10
297.9869832638
 20
38.2480543107
 30
0.0
  3
LOGO2_BL1
  1

  0
LINE
  5
227
330
221
100
AcDbEntity
  8
0
  6
Continuous
 62
     7
100
AcDbLine
 10
289.729908492
 20
41.4435456495
 30
0.0
 11
288.4255675627
 21
41.4435456495
 31
0.0
  0
LINE
  5
228
330
221
100
AcDbEntity
  8
0
  6
Continuous
 62
     7
100
AcDbLine
 10
288.4255675627
 20
41.4435456495
 30
0.0
 11
288.4255675627
 21
30.9844795897
 31
0.0
  0
LINE
  5
229
330
221
100
AcDbEntity
  8
0
  6
Continuous
 62
     7
100
AcDbLine
 10
288.4255675627
 20
30.9844795897
 30
0.0
 11
292.9066224509
 21
30.9844795897
 31
0.0
  0
LINE
  5
22A
330
221
100
AcDbEntity
  8
0
  6
Continuous
 62
     7
100
AcDbLine
 10
292.9066224509
 20
30.9844795897
 30
0.0
 11
292.9066224509
 21
32.1773339147
 31
0.0
  0
LINE
  5
22B
330
221
100
AcDbEntity
  8
0
  6
Continuous
 62
     7
100
AcDbLine
 10
292.9066224509
 20
32.1773339147
 30
0.0
 11
289.729908492
 21
32.1773339147
 31
0.0
  0
LINE
  5
22C
330
221
100
AcDbEntity
  8
0
  6
Continuous
 62
     7
100
AcDbLine
 10
289.729908492
 20
32.1773339147
 30
0.0
 11
289.729908492
 21
41.4435456495
 31
0.0
  0
LINE
  5
22D
330
221
100
AcDbEntity
  8
0
  6
Continuous
 62
     7
100
AcDbLine
 10
304.6662347083
 20
41.4435456495
 30
0.0
 11
303.3624171903
 21
41.4435456495
 31
0.0
  0
LINE
  5
22E
330
221
100
AcDbEntity
  8
0
  6
Continuous
 62
     7
100
AcDbLine
 10
303.3624171903
 20
41.4435456495
 30
0.0
 11
303.3624171903
 21
30.9844795897
 31
0.0
  0
LINE
  5
22F
330
221
100
AcDbEntity
  8
0
  6
Continuous
 62
     7
100
AcDbLine
 10
303.3624171903
 20
30.9844795897
 30
0.0
 11
307.8436029314
 21
30.9844795897
 31
0.0
  0
LINE
  5
230
330
221
100
AcDbEntity
  8
0
  6
Continuous
 62
     7
100
AcDbLine
 10
307.8436029314
 20
30.9844795897
 30
0.0
 11
307.8436029314
 21
32.1773339147
 31
0.0
  0
LINE
  5
231
330
221
100
AcDbEntity
  8
0
  6
Continuous
 62
     7
100
AcDbLine
 10
307.8436029314
 20
32.1773339147
 30
0.0
 11
304.6662347083
 21
32.1773339147
 31
0.0
  0
LINE
  5
232
330
221
100
AcDbEntity
  8
0
  6
Continuous
 62
     7
100
AcDbLine
 10
304.6662347083
 20
32.1773339147
 30
0.0
 11
304.6662347083
 21
41.4435456495
 31
0.0
  0
LWPOLYLINE
  5
233
330
221
100
AcDbEntity
  8
0
  6
Continuous
 62
     7
100
AcDbPolyline
 90
        2
 70
     0
 43
0.2
 10
286.7799624736
 20
27.6409282827
 10
286.7799624736
 20
25.7838650334
  0
LWPOLYLINE
  5
234
330
221
100
AcDbEntity
  8
0
  6
Continuous
 62
     7
100
AcDbPolyline
 90
        2
 70
     0
 43
0.2
 10
286.7799624736
 20
25.7838650334
 10
287.575678484
 20
25.7838650334
  0
LWPOLYLINE
  5
235
330
221
100
AcDbEntity
  8
0
  6
Continuous
 62
     7
100
AcDbPolyline
 90
        2
 70
     0
 43
0.2
 10
287.575678484
 20
25.7838650334
 10
287.575678484
 20
25.995846605
  0
LWPOLYLINE
  5
236
330
221
100
AcDbEntity
  8
0
  6
Continuous
 62
     7
100
AcDbPolyline
 90
        2
 70
     0
 43
0.2
 10
287.575678484
 20
25.995846605
 10
287.0115719685
 20
25.995846605
  0
LWPOLYLINE
  5
237
330
221
100
AcDbEntity
  8
0
  6
Continuous
 62
     7
100
AcDbPolyline
 90
        2
 70
     0
 43
0.2
 10
287.0115719685
 20
25.995846605
 10
287.0115719685
 20
27.6409282827
  0
LWPOLYLINE
  5
238
330
221
100
AcDbEntity
  8
0
  6
Continuous
 62
     7
100
AcDbPolyline
 90
        2
 70
     0
 43
0.2
 10
287.0115719685
 20
27.6409282827
 10
286.7799624736
 20
27.6409282827
  0
SPLINE
  5
239
330
221
100
AcDbEntity
  8
0
  6
Continuous
 62
     7
100
AcDbSpline
 70
     3
 71
     3
 72
    35
 73
    31
 74
     0
 42
0.000000001
 43
0.0000001
 40
0.0
 40
0.0
 40
0.0
 40
0.0
 40
1.0
 40
1.0
 40
1.0
 40
2.0
 40
2.0
 40
2.0
 40
3.0
 40
3.0
 40
3.0
 40
4.0
 40
4.0
 40
4.0
 40
5.0
 40
5.0
 40
5.0
 40
6.0
 40
6.0
 40
6.0
 40
7.0
 40
7.0
 40
7.0
 40
8.0
 40
8.0
 40
8.0
 40
9.0
 40
9.0
 40
9.0
 40
10.0
 40
10.0
 40
10.0
 40
10.0
 10
288.9739717395
 20
26.9364166893
 30
0.0
 10
288.9739717395
 20
26.9364166893
 30
0.0
 10
288.9739717395
 20
26.2743014101
 30
0.0
 10
288.9739717395
 20
26.2743014101
 30
0.0
 10
288.9739717395
 20
25.9592078148
 30
0.0
 10
289.1218354284
 20
25.7446091868
 30
0.0
 10
289.4619219126
 20
25.7446091868
 30
0.0
 10
289.8014849857
 20
25.7446091868
 30
0.0
 10
289.9496103801
 20
25.9592078148
 30
0.0
 10
289.9496103801
 20
26.2743014101
 30
0.0
 10
289.9496103801
 20
26.2743014101
 30
0.0
 10
289.9496103801
 20
26.9364166893
 30
0.0
 10
289.9496103801
 20
26.9364166893
 30
0.0
 10
289.9496103801
 20
26.9364166893
 30
0.0
 10
289.7275531412
 20
26.9364166893
 30
0.0
 10
289.7275531412
 20
26.9364166893
 30
0.0
 10
289.7275531412
 20
26.9364166893
 30
0.0
 10
289.7275531412
 20
26.2994251519
 30
0.0
 10
289.7275531412
 20
26.2994251519
 30
0.0
 10
289.7275531412
 20
26.1136141447
 30
0.0
 10
289.6808386838
 20
25.9508332342
 30
0.0
 10
289.4619219126
 20
25.9508332342
 30
0.0
 10
289.2424817302
 20
25.9508332342
 30
0.0
 10
289.1957672728
 20
26.1136141447
 30
0.0
 10
289.1957672728
 20
26.2994251519
 30
0.0
 10
289.1957672728
 20
26.2994251519
 30
0.0
 10
289.1957672728
 20
26.9364166893
 30
0.0
 10
289.1957672728
 20
26.9364166893
 30
0.0
 10
289.1957672728
 20
26.9364166893
 30
0.0
 10
288.9739717395
 20
26.9364166893
 30
0.0
 10
288.9739717395
 20
26.9364166893
 30
0.0
  0
SPLINE
  5
23A
330
221
100
AcDbEntity
  8
0
  6
Continuous
 62
     7
100
AcDbSpline
 70
     3
 71
     3
 72
    35
 73
    31
 74
     0
 42
0.000000001
 43
0.0000001
 40
0.0
 40
0.0
 40
0.0
 40
0.0
 40
1.0
 40
1.0
 40
1.0
 40
2.0
 40
2.0
 40
2.0
 40
3.0
 40
3.0
 40
3.0
 40
4.0
 40
4.0
 40
4.0
 40
5.0
 40
5.0
 40
5.0
 40
6.0
 40
6.0
 40
6.0
 40
7.0
 40
7.0
 40
7.0
 40
8.0
 40
8.0
 40
8.0
 40
9.0
 40
9.0
 40
9.0
 40
10.0
 40
10.0
 40
10.0
 40
10.0
 10
292.3727429373
 20
26.8950671975
 30
0.0
 10
292.2842864297
 20
26.9463615037
 30
0.0
 10
292.170837033
 20
26.9714852456
 30
0.0
 10
292.067201598
 20
26.9714852456
 30
0.0
 10
291.7123287448
 20
26.9714852456
 30
0.0
 10
291.4368835546
 20
26.7076859565
 30
0.0
 10
291.4368835546
 20
26.3501960468
 30
0.0
 10
291.4368835546
 20
26.0052680081
 30
0.0
 10
291.7153383597
 20
25.7451325981
 30
0.0
 10
292.0549014328
 20
25.7451325981
 30
0.0
 10
292.170837033
 20
25.7451325981
 30
0.0
 10
292.2715937059
 20
25.7671158722
 30
0.0
 10
292.3727429373
 20
25.8210272348
 30
0.0
 10
292.3727429373
 20
25.8210272348
 30
0.0
 10
292.3727429373
 20
26.1036693303
 30
0.0
 10
292.3727429373
 20
26.1036693303
 30
0.0
 10
292.2888662784
 20
26.010502121
 30
0.0
 10
292.1853616963
 20
25.9513566455
 30
0.0
 10
292.0572567835
 20
25.9513566455
 30
0.0
 10
291.8235536435
 20
25.9513566455
 30
0.0
 10
291.6582865294
 20
26.1235589592
 30
0.0
 10
291.6582865294
 20
26.3601408613
 30
0.0
 10
291.6582865294
 20
26.5721224329
 30
0.0
 10
291.8260398471
 20
26.7642143756
 30
0.0
 10
292.0428629731
 20
26.7642143756
 30
0.0
 10
292.1756785874
 20
26.7642143756
 30
0.0
 10
292.2842864297
 20
26.7103030129
 30
0.0
 10
292.3727429373
 20
26.6092846343
 30
0.0
 10
292.3727429373
 20
26.6092846343
 30
0.0
 10
292.3727429373
 20
26.8950671975
 30
0.0
 10
292.3727429373
 20
26.8950671975
 30
0.0
  0
SPLINE
  5
23B
330
221
100
AcDbEntity
  8
0
  6
Continuous
 62
     7
100
AcDbSpline
 70
     3
 71
     3
 72
    32
 73
    28
 74
     0
 42
0.000000001
 43
0.0000001
 40
0.0
 40
0.0
 40
0.0
 40
0.0
 40
1.0
 40
1.0
 40
1.0
 40
2.0
 40
2.0
 40
2.0
 40
3.0
 40
3.0
 40
3.0
 40
4.0
 40
4.0
 40
4.0
 40
5.0
 40
5.0
 40
5.0
 40
6.0
 40
6.0
 40
6.0
 40
7.0
 40
7.0
 40
7.0
 40
8.0
 40
8.0
 40
8.0
 40
9.0
 40
9.0
 40
9.0
 40
9.0
 10
294.9046141896
 20
26.3235020712
 30
0.0
 10
294.9046141896
 20
26.3235020712
 30
0.0
 10
294.9046141896
 20
26.3575238049
 30
0.0
 10
294.9046141896
 20
26.3575238049
 30
0.0
 10
294.9046141896
 20
26.6998347871
 30
0.0
 10
294.7317576117
 20
26.9714852456
 30
0.0
 10
294.3651080046
 20
26.9714852456
 30
0.0
 10
293.9934859902
 20
26.9714852456
 30
0.0
 10
293.8037493983
 20
26.7050689
 30
0.0
 10
293.8037493983
 20
26.3501960468
 30
0.0
 10
293.8037493983
 20
26.010502121
 30
0.0
 10
294.0178246151
 20
25.7446091868
 30
0.0
 10
294.369949559
 20
25.7446091868
 30
0.0
 10
294.5939695902
 20
25.7446091868
 30
0.0
 10
294.7961372002
 20
25.8602830814
 30
0.0
 10
294.9046141896
 20
26.0597027821
 30
0.0
 10
294.9046141896
 20
26.0597027821
 30
0.0
 10
294.7169712429
 20
26.1664786848
 30
0.0
 10
294.7169712429
 20
26.1664786848
 30
0.0
 10
294.6334871424
 20
26.0277746935
 30
0.0
 10
294.5422827255
 20
25.9419352423
 30
0.0
 10
294.3726974683
 20
25.9419352423
 30
0.0
 10
294.1607158967
 20
25.9419352423
 30
0.0
 10
294.0277694296
 20
26.1266994269
 30
0.0
 10
294.0254140788
 20
26.3235020712
 30
0.0
 10
294.0254140788
 20
26.3235020712
 30
0.0
 10
294.9046141896
 20
26.3235020712
 30
0.0
 10
294.9046141896
 20
26.3235020712
 30
0.0
  0
SPLINE
  5
23C
330
221
100
AcDbEntity
  8
0
  6
Continuous
 62
     7
100
AcDbSpline
 70
     3
 71
     3
 72
    14
 73
    10
 74
     0
 42
0.000000001
 43
0.0000001
 40
0.0
 40
0.0
 40
0.0
 40
0.0
 40
1.0
 40
1.0
 40
1.0
 40
2.0
 40
2.0
 40
2.0
 40
3.0
 40
3.0
 40
3.0
 40
3.0
 10
294.0374525384
 20
26.4909936833
 30
0.0
 10
294.0650624838
 20
26.655868239
 30
0.0
 10
294.1929056909
 20
26.7788698916
 30
0.0
 10
294.3651080046
 20
26.7788698916
 30
0.0
 10
294.5422827255
 20
26.7788698916
 30
0.0
 10
294.6557321222
 20
26.663195997
 30
0.0
 10
294.6829495091
 20
26.4909936833
 30
0.0
 10
294.6829495091
 20
26.4909936833
 30
0.0
 10
294.0374525384
 20
26.4909936833
 30
0.0
 10
294.0374525384
 20
26.4909936833
 30
0.0
  0
SPLINE
  5
23D
330
221
100
AcDbEntity
  8
0
  6
Continuous
 62
     7
100
AcDbSpline
 70
     3
 71
     3
 72
    20
 73
    16
 74
     0
 42
0.000000001
 43
0.0000001
 40
0.0
 40
0.0
 40
0.0
 40
0.0
 40
1.0
 40
1.0
 40
1.0
 40
2.0
 40
2.0
 40
2.0
 40
3.0
 40
3.0
 40
3.0
 40
4.0
 40
4.0
 40
4.0
 40
5.0
 40
5.0
 40
5.0
 40
5.0
 10
296.9286456398
 20
26.7003581984
 30
0.0
 10
296.9286456398
 20
26.7003581984
 30
0.0
 10
297.3397852064
 20
26.1978833621
 30
0.0
 10
297.3397852064
 20
26.1978833621
 30
0.0
 10
297.2237187533
 20
26.0822094675
 30
0.0
 10
297.0859307318
 20
25.9518800568
 30
0.0
 10
296.9139901237
 20
25.9518800568
 30
0.0
 10
296.7365536971
 20
25.9518800568
 30
0.0
 10
296.569062085
 20
26.1162312012
 30
0.0
 10
296.569062085
 20
26.2931442165
 30
0.0
 10
296.569062085
 20
26.4711040543
 30
0.0
 10
296.7788191586
 20
26.5972461747
 30
0.0
 10
296.90640066
 20
26.6851792711
 30
0.0
 10
296.90640066
 20
26.6851792711
 30
0.0
 10
296.9286456398
 20
26.7003581984
 30
0.0
 10
296.9286456398
 20
26.7003581984
 30
0.0
  0
SPLINE
  5
23E
330
221
100
AcDbEntity
  8
0
  6
Continuous
 62
     7
100
AcDbSpline
 70
     3
 71
     3
 72
    23
 73
    19
 74
     0
 42
0.000000001
 43
0.0000001
 40
0.0
 40
0.0
 40
0.0
 40
0.0
 40
1.0
 40
1.0
 40
1.0
 40
2.0
 40
2.0
 40
2.0
 40
3.0
 40
3.0
 40
3.0
 40
4.0
 40
4.0
 40
4.0
 40
5.0
 40
5.0
 40
5.0
 40
6.0
 40
6.0
 40
6.0
 40
6.0
 10
296.9779771536
 20
26.9913748745
 30
0.0
 10
296.9779771536
 20
26.9913748745
 30
0.0
 10
296.9163454745
 20
27.0698865677
 30
0.0
 10
296.9163454745
 20
27.0698865677
 30
0.0
 10
296.8624341118
 20
27.1384534464
 30
0.0
 10
296.8056439871
 20
27.2075437364
 30
0.0
 10
296.8056439871
 20
27.3012343569
 30
0.0
 10
296.8056439871
 20
27.4200487193
 30
0.0
 10
296.9015591056
 20
27.4975135899
 30
0.0
 10
297.0125222986
 20
27.4975135899
 30
0.0
 10
297.1357856569
 20
27.4975135899
 30
0.0
 10
297.229083719
 20
27.4263296547
 30
0.0
 10
297.229083719
 20
27.296000244
 30
0.0
 10
297.229083719
 20
27.1609601318
 30
0.0
 10
297.1009788063
 20
27.0845420837
 30
0.0
 10
297.0074190386
 20
27.0107410921
 30
0.0
 10
297.0074190386
 20
27.0107410921
 30
0.0
 10
296.9779771536
 20
26.9913748745
 30
0.0
 10
296.9779771536
 20
26.9913748745
 30
0.0
  0
SPLINE
  5
23F
330
221
100
AcDbEntity
  8
0
  6
Continuous
 62
     7
100
AcDbSpline
 70
     3
 71
     3
 72
    50
 73
    46
 74
     0
 42
0.000000001
 43
0.0000001
 40
0.0
 40
0.0
 40
0.0
 40
0.0
 40
1.0
 40
1.0
 40
1.0
 40
2.0
 40
2.0
 40
2.0
 40
3.0
 40
3.0
 40
3.0
 40
4.0
 40
4.0
 40
4.0
 40
5.0
 40
5.0
 40
5.0
 40
6.0
 40
6.0
 40
6.0
 40
7.0
 40
7.0
 40
7.0
 40
8.0
 40
8.0
 40
8.0
 40
9.0
 40
9.0
 40
9.0
 40
10.0
 40
10.0
 40
10.0
 40
11.0
 40
11.0
 40
11.0
 40
12.0
 40
12.0
 40
12.0
 40
13.0
 40
13.0
 40
13.0
 40
14.0
 40
14.0
 40
14.0
 40
15.0
 40
15.0
 40
15.0
 40
15.0
 10
297.6801333963
 20
25.7843884447
 30
0.0
 10
297.6801333963
 20
25.7843884447
 30
0.0
 10
297.965523401
 20
25.7843884447
 30
0.0
 10
297.965523401
 20
25.7843884447
 30
0.0
 10
297.965523401
 20
25.7843884447
 30
0.0
 10
297.6331572332
 20
26.1952663056
 30
0.0
 10
297.6331572332
 20
26.1952663056
 30
0.0
 10
297.6331572332
 20
26.1952663056
 30
0.0
 10
297.8596634681
 20
26.4611592399
 30
0.0
 10
297.8596634681
 20
26.4611592399
 30
0.0
 10
297.8596634681
 20
26.4611592399
 30
0.0
 10
297.7114072208
 20
26.6139953359
 30
0.0
 10
297.7114072208
 20
26.6139953359
 30
0.0
 10
297.7114072208
 20
26.6139953359
 30
0.0
 10
297.4955000645
 20
26.3627579178
 30
0.0
 10
297.4955000645
 20
26.3627579178
 30
0.0
 10
297.4955000645
 20
26.3627579178
 30
0.0
 10
297.1084374171
 20
26.8306876091
 30
0.0
 10
297.1084374171
 20
26.8306876091
 30
0.0
 10
297.2638905696
 20
26.9447912699
 30
0.0
 10
297.4461685506
 20
27.0845420837
 30
0.0
 10
297.4461685506
 20
27.2939065989
 30
0.0
 10
297.4461685506
 20
27.537816259
 30
0.0
 10
297.2441317935
 20
27.6812309519
 30
0.0
 10
297.0176255587
 20
27.6812309519
 30
0.0
 10
296.7734541929
 20
27.6812309519
 30
0.0
 10
296.5890825667
 20
27.530488501
 30
0.0
 10
296.5890825667
 20
27.2740169699
 30
0.0
 10
296.5890825667
 20
27.1164701723
 30
0.0
 10
296.6877455945
 20
26.9788130036
 30
0.0
 10
296.7930821162
 20
26.8678498106
 30
0.0
 10
296.7930821162
 20
26.8678498106
 30
0.0
 10
296.6775390744
 20
26.7841040045
 30
0.0
 10
296.6775390744
 20
26.7841040045
 30
0.0
 10
296.4998409422
 20
26.655868239
 30
0.0
 10
296.3525006646
 20
26.5281558847
 30
0.0
 10
296.3525006646
 20
26.2910505713
 30
0.0
 10
296.3525006646
 20
25.9707228631
 30
0.0
 10
296.6110658408
 20
25.7446091868
 30
0.0
 10
296.9214487345
 20
25.7446091868
 30
0.0
 10
297.1403655057
 20
25.7446091868
 30
0.0
 10
297.3375607084
 20
25.8697044846
 30
0.0
 10
297.4778349336
 20
26.0356258628
 30
0.0
 10
297.4778349336
 20
26.0356258628
 30
0.0
 10
297.6801333963
 20
25.7843884447
 30
0.0
 10
297.6801333963
 20
25.7843884447
 30
0.0
  0
LWPOLYLINE
  5
240
330
221
100
AcDbEntity
  8
0
  6
Continuous
 62
     7
100
AcDbPolyline
 90
        2
 70
     0
 43
0.2
 10
299.615577486
 20
27.6409282827
 10
299.3842296968
 20
27.6409282827
  0
LWPOLYLINE
  5
241
330
221
100
AcDbEntity
  8
0
  6
Continuous
 62
     7
100
AcDbPolyline
 90
        2
 70
     0
 43
0.2
 10
299.3842296968
 20
27.6409282827
 10
299.3842296968
 20
25.7838650334
  0
LWPOLYLINE
  5
242
330
221
100
AcDbEntity
  8
0
  6
Continuous
 62
     7
100
AcDbPolyline
 90
        2
 70
     0
 43
0.2
 10
299.3842296968
 20
25.7838650334
 10
300.1795531487
 20
25.7838650334
  0
LWPOLYLINE
  5
243
330
221
100
AcDbEntity
  8
0
  6
Continuous
 62
     7
100
AcDbPolyline
 90
        2
 70
     0
 43
0.2
 10
300.1795531487
 20
25.7838650334
 10
300.1795531487
 20
25.995846605
  0
LWPOLYLINE
  5
244
330
221
100
AcDbEntity
  8
0
  6
Continuous
 62
     7
100
AcDbPolyline
 90
        2
 70
     0
 43
0.2
 10
300.1795531487
 20
25.995846605
 10
299.615577486
 20
25.995846605
  0
LWPOLYLINE
  5
245
330
221
100
AcDbEntity
  8
0
  6
Continuous
 62
     7
100
AcDbPolyline
 90
        2
 70
     0
 43
0.2
 10
299.615577486
 20
25.995846605
 10
299.615577486
 20
27.6409282827
  0
LWPOLYLINE
  5
246
330
221
100
AcDbEntity
  8
0
  6
Continuous
 62
     7
100
AcDbPolyline
 90
        2
 70
     0
 43
0.2
 10
301.8586565602
 20
26.9364166893
 10
301.6375152911
 20
26.9364166893
  0
LWPOLYLINE
  5
247
330
221
100
AcDbEntity
  8
0
  6
Continuous
 62
     7
100
AcDbPolyline
 90
        2
 70
     0
 43
0.2
 10
301.6375152911
 20
26.9364166893
 10
301.6375152911
 20
25.7843884447
  0
LWPOLYLINE
  5
248
330
221
100
AcDbEntity
  8
0
  6
Continuous
 62
     7
100
AcDbPolyline
 90
        2
 70
     0
 43
0.2
 10
301.6375152911
 20
25.7843884447
 10
301.8586565602
 20
25.7843884447
  0
LWPOLYLINE
  5
249
330
221
100
AcDbEntity
  8
0
  6
Continuous
 62
     7
100
AcDbPolyline
 90
        2
 70
     0
 43
0.2
 10
301.8586565602
 20
25.7843884447
 10
301.8586565602
 20
26.9364166893
  0
LWPOLYLINE
  5
24A
330
221
100
AcDbEntity
  8
0
  6
Continuous
 62
     7
100
AcDbPolyline
 90
        2
 70
     1
 43
0.2
 10
301.595633283
 20
27.4663706182
 42
1.0
 10
301.9008002739
 20
27.4663706182
 42
1.0
  0
SPLINE
  5
24B
330
221
100
AcDbEntity
  8
0
  6
Continuous
 62
     7
100
AcDbSpline
 70
     3
 71
     3
 72
    17
 73
    13
 74
     0
 42
0.000000001
 43
0.0000001
 40
0.0
 40
0.0
 40
0.0
 40
0.0
 40
1.0
 40
1.0
 40
1.0
 40
2.0
 40
2.0
 40
2.0
 40
3.0
 40
3.0
 40
3.0
 40
4.0
 40
4.0
 40
4.0
 40
4.0
 10
303.9889405018
 20
25.9419352423
 30
0.0
 10
303.7549756562
 20
25.9419352423
 30
0.0
 10
303.6246462455
 20
26.1439719994
 30
0.0
 10
303.6246462455
 20
26.3601408613
 30
0.0
 10
303.6246462455
 20
26.5747394893
 30
0.0
 10
303.7604714747
 20
26.7736357787
 30
0.0
 10
303.9889405018
 20
26.7736357787
 30
0.0
 10
304.228401166
 20
26.7736357787
 30
0.0
 10
304.3639646896
 20
26.5846843038
 30
0.0
 10
304.3639646896
 20
26.3601408613
 30
0.0
 10
304.3639646896
 20
26.134027185
 30
0.0
 10
304.2307565168
 20
25.9419352423
 30
0.0
 10
303.9889405018
 20
25.9419352423
 30
0.0
  0
SPLINE
  5
24C
330
221
100
AcDbEntity
  8
0
  6
Continuous
 62
     7
100
AcDbSpline
 70
     3
 71
     3
 72
    50
 73
    46
 74
     0
 42
0.000000001
 43
0.0000001
 40
0.0
 40
0.0
 40
0.0
 40
0.0
 40
1.0
 40
1.0
 40
1.0
 40
2.0
 40
2.0
 40
2.0
 40
3.0
 40
3.0
 40
3.0
 40
4.0
 40
4.0
 40
4.0
 40
5.0
 40
5.0
 40
5.0
 40
6.0
 40
6.0
 40
6.0
 40
7.0
 40
7.0
 40
7.0
 40
8.0
 40
8.0
 40
8.0
 40
9.0
 40
9.0
 40
9.0
 40
10.0
 40
10.0
 40
10.0
 40
11.0
 40
11.0
 40
11.0
 40
12.0
 40
12.0
 40
12.0
 40
13.0
 40
13.0
 40
13.0
 40
14.0
 40
14.0
 40
14.0
 40
15.0
 40
15.0
 40
15.0
 40
15.0
 10
304.5730674991
 20
26.9369401006
 30
0.0
 10
304.5730674991
 20
26.9369401006
 30
0.0
 10
304.3514028187
 20
26.9369401006
 30
0.0
 10
304.3514028187
 20
26.9369401006
 30
0.0
 10
304.3514028187
 20
26.9369401006
 30
0.0
 10
304.3514028187
 20
26.739614045
 30
0.0
 10
304.3514028187
 20
26.739614045
 30
0.0
 10
304.3514028187
 20
26.739614045
 30
0.0
 10
304.3466921171
 20
26.739614045
 30
0.0
 10
304.3466921171
 20
26.739614045
 30
0.0
 10
304.2553568474
 20
26.8825053266
 30
0.0
 10
304.117437973
 20
26.9709618343
 30
0.0
 10
303.944712248
 20
26.9709618343
 30
0.0
 10
303.6123460802
 20
26.9709618343
 30
0.0
 10
303.4032432707
 20
26.6830856259
 30
0.0
 10
303.4032432707
 20
26.3674686193
 30
0.0
 10
303.4032432707
 20
26.037719508
 30
0.0
 10
303.6003076206
 20
25.7446091868
 30
0.0
 10
303.9551804738
 20
25.7446091868
 30
0.0
 10
304.117437973
 20
25.7446091868
 30
0.0
 10
304.2574504925
 20
25.8330656944
 30
0.0
 10
304.3466921171
 20
25.9639185164
 30
0.0
 10
304.3466921171
 20
25.9639185164
 30
0.0
 10
304.3514028187
 20
25.9639185164
 30
0.0
 10
304.3514028187
 20
25.9639185164
 30
0.0
 10
304.3514028187
 20
25.9639185164
 30
0.0
 10
304.3514028187
 20
25.7446091868
 30
0.0
 10
304.3514028187
 20
25.7446091868
 30
0.0
 10
304.3514028187
 20
25.5080272847
 30
0.0
 10
304.2948743996
 20
25.3211694549
 30
0.0
 10
304.0216537073
 20
25.3211694549
 30
0.0
 10
303.8193552446
 20
25.3211694549
 30
0.0
 10
303.6767256686
 20
25.439460406
 30
0.0
 10
303.6767256686
 20
25.6456844534
 30
0.0
 10
303.6767256686
 20
25.6456844534
 30
0.0
 10
303.4550609882
 20
25.6456844534
 30
0.0
 10
303.4550609882
 20
25.6456844534
 30
0.0
 10
303.4600333954
 20
25.3211694549
 30
0.0
 10
303.691119479
 20
25.1243668107
 30
0.0
 10
304.0114471872
 20
25.1243668107
 30
0.0
 10
304.4594872496
 20
25.1243668107
 30
0.0
 10
304.5730674991
 20
25.4096259625
 30
0.0
 10
304.5730674991
 20
25.8063717188
 30
0.0
 10
304.5730674991
 20
25.8063717188
 30
0.0
 10
304.5730674991
 20
26.9369401006
 30
0.0
 10
304.5730674991
 20
26.9369401006
 30
0.0
  0
SPLINE
  5
24D
330
221
100
AcDbEntity
  8
0
  6
Continuous
 62
     7
100
AcDbSpline
 70
     3
 71
     3
 72
    44
 73
    40
 74
     0
 42
0.000000001
 43
0.0000001
 40
0.0
 40
0.0
 40
0.0
 40
0.0
 40
1.0
 40
1.0
 40
1.0
 40
2.0
 40
2.0
 40
2.0
 40
3.0
 40
3.0
 40
3.0
 40
4.0
 40
4.0
 40
4.0
 40
5.0
 40
5.0
 40
5.0
 40
6.0
 40
6.0
 40
6.0
 40
7.0
 40
7.0
 40
7.0
 40
8.0
 40
8.0
 40
8.0
 40
9.0
 40
9.0
 40
9.0
 40
10.0
 40
10.0
 40
10.0
 40
11.0
 40
11.0
 40
11.0
 40
12.0
 40
12.0
 40
12.0
 40
13.0
 40
13.0
 40
13.0
 40
13.0
 10
306.1419928345
 20
27.9220001443
 30
0.0
 10
306.1419928345
 20
27.9220001443
 30
0.0
 10
306.1419928345
 20
25.7838650334
 30
0.0
 10
306.1419928345
 20
25.7838650334
 30
0.0
 10
306.1419928345
 20
25.7838650334
 30
0.0
 10
306.3633958093
 20
25.7838650334
 30
0.0
 10
306.3633958093
 20
25.7838650334
 30
0.0
 10
306.3633958093
 20
25.7838650334
 30
0.0
 10
306.3633958093
 20
26.3135572567
 30
0.0
 10
306.3633958093
 20
26.3135572567
 30
0.0
 10
306.3633958093
 20
26.5234451831
 30
0.0
 10
306.3633958093
 20
26.77415919
 30
0.0
 10
306.6486549611
 20
26.77415919
 30
0.0
 10
306.8755537544
 20
26.77415919
 30
0.0
 10
306.9025094358
 20
26.6412127229
 30
0.0
 10
306.9025094358
 20
26.44493349
 30
0.0
 10
306.9025094358
 20
26.44493349
 30
0.0
 10
306.9025094358
 20
25.7838650334
 30
0.0
 10
306.9025094358
 20
25.7838650334
 30
0.0
 10
306.9025094358
 20
25.7838650334
 30
0.0
 10
307.1244358218
 20
25.7838650334
 30
0.0
 10
307.1244358218
 20
25.7838650334
 30
0.0
 10
307.1244358218
 20
25.7838650334
 30
0.0
 10
307.1244358218
 20
26.4711040543
 30
0.0
 10
307.1244358218
 20
26.4711040543
 30
0.0
 10
307.1244358218
 20
26.7516525046
 30
0.0
 10
307.0404283101
 20
26.9714852456
 30
0.0
 10
306.7153899004
 20
26.9714852456
 30
0.0
 10
306.5756390865
 20
26.9714852456
 30
0.0
 10
306.4374585065
 20
26.905012012
 30
0.0
 10
306.3681065108
 20
26.7820103593
 30
0.0
 10
306.3681065108
 20
26.7820103593
 30
0.0
 10
306.3633958093
 20
26.7820103593
 30
0.0
 10
306.3633958093
 20
26.7820103593
 30
0.0
 10
306.3633958093
 20
26.7820103593
 30
0.0
 10
306.3633958093
 20
27.9220001443
 30
0.0
 10
306.3633958093
 20
27.9220001443
 30
0.0
 10
306.3633958093
 20
27.9220001443
 30
0.0
 10
306.1419928345
 20
27.9220001443
 30
0.0
 10
306.1419928345
 20
27.9220001443
 30
0.0
  0
LWPOLYLINE
  5
24E
330
221
100
AcDbEntity
  8
0
  6
Continuous
 62
     7
100
AcDbPolyline
 90
        2
 70
     0
 43
0.2
 10
308.9642264987
 20
26.7296692306
 10
309.1806570662
 20
26.7296692306
  0
LWPOLYLINE
  5
24F
330
221
100
AcDbEntity
  8
0
  6
Continuous
 62
     7
100
AcDbPolyline
 90
        2
 70
     0
 43
0.2
 10
309.1806570662
 20
26.7296692306
 10
309.1806570662
 20
26.9364166893
  0
LWPOLYLINE
  5
250
330
221
100
AcDbEntity
  8
0
  6
Continuous
 62
     7
100
AcDbPolyline
 90
        2
 70
     0
 43
0.2
 10
309.1806570662
 20
26.9364166893
 10
308.9642264987
 20
26.9364166893
  0
LWPOLYLINE
  5
251
330
221
100
AcDbEntity
  8
0
  6
Continuous
 62
     7
100
AcDbPolyline
 90
        2
 70
     0
 43
0.2
 10
308.9642264987
 20
26.9364166893
 10
308.9642264987
 20
27.3771289937
  0
LWPOLYLINE
  5
252
330
221
100
AcDbEntity
  8
0
  6
Continuous
 62
     7
100
AcDbPolyline
 90
        2
 70
     0
 43
0.2
 10
308.9642264987
 20
27.3771289937
 10
308.7425618183
 20
27.3771289937
  0
LWPOLYLINE
  5
253
330
221
100
AcDbEntity
  8
0
  6
Continuous
 62
     7
100
AcDbPolyline
 90
        2
 70
     0
 43
0.2
 10
308.7425618183
 20
27.3771289937
 10
308.7425618183
 20
26.9364166893
  0
LWPOLYLINE
  5
254
330
221
100
AcDbEntity
  8
0
  6
Continuous
 62
     7
100
AcDbPolyline
 90
        2
 70
     0
 43
0.2
 10
308.7425618183
 20
26.9364166893
 10
308.6219155164
 20
26.9364166893
  0
LWPOLYLINE
  5
255
330
221
100
AcDbEntity
  8
0
  6
Continuous
 62
     7
100
AcDbPolyline
 90
        2
 70
     0
 43
0.2
 10
308.6219155164
 20
26.9364166893
 10
308.6219155164
 20
26.7296692306
  0
LWPOLYLINE
  5
256
330
221
100
AcDbEntity
  8
0
  6
Continuous
 62
     7
100
AcDbPolyline
 90
        2
 70
     0
 43
0.2
 10
308.6219155164
 20
26.7296692306
 10
308.7425618183
 20
26.7296692306
  0
LWPOLYLINE
  5
257
330
221
100
AcDbEntity
  8
0
  6
Continuous
 62
     7
100
AcDbPolyline
 90
        2
 70
     0
 43
0.2
 10
308.7425618183
 20
26.7296692306
 10
308.7425618183
 20
25.7838650334
  0
LWPOLYLINE
  5
258
330
221
100
AcDbEntity
  8
0
  6
Continuous
 62
     7
100
AcDbPolyline
 90
        2
 70
     0
 43
0.2
 10
308.7425618183
 20
25.7838650334
 10
308.9642264987
 20
25.7838650334
  0
LWPOLYLINE
  5
259
330
221
100
AcDbEntity
  8
0
  6
Continuous
 62
     7
100
AcDbPolyline
 90
        2
 70
     0
 43
0.2
 10
308.9642264987
 20
25.7838650334
 10
308.9642264987
 20
26.7296692306
  0
SPLINE
  5
25A
330
221
100
AcDbEntity
  8
0
  6
Continuous
 62
     7
100
AcDbSpline
 70
     3
 71
     3
 72
    20
 73
    16
 74
     0
 42
0.000000001
 43
0.0000001
 40
0.0
 40
0.0
 40
0.0
 40
0.0
 40
1.0
 40
1.0
 40
1.0
 40
2.0
 40
2.0
 40
2.0
 40
3.0
 40
3.0
 40
3.0
 40
4.0
 40
4.0
 40
4.0
 40
5.0
 40
5.0
 40
5.0
 40
5.0
 10
296.7462368059
 20
36.1447914768
 30
0.0
 10
296.7462368059
 20
36.1447914768
 30
0.0
 10
299.0625934604
 20
33.3152300545
 30
0.0
 10
299.0625934604
 20
33.3152300545
 30
0.0
 10
298.410946407
 20
32.6630595899
 30
0.0
 10
297.634073203
 20
31.9271433191
 30
0.0
 10
296.6628835583
 20
31.9271433191
 30
0.0
 10
295.6643456739
 20
31.9271433191
 30
0.0
 10
294.7210276803
 20
32.8567217664
 30
0.0
 10
294.7210276803
 20
33.8559139149
 30
0.0
 10
294.7210276803
 20
34.8551060635
 30
0.0
 10
295.8998807534
 20
35.5617113021
 30
0.0
 10
296.6214032138
 20
36.061569082
 30
0.0
 10
296.6214032138
 20
36.061569082
 30
0.0
 10
296.7462368059
 20
36.1447914768
 30
0.0
 10
296.7462368059
 20
36.1447914768
 30
0.0
  0
SPLINE
  5
25B
330
221
100
AcDbEntity
  8
0
  6
Continuous
 62
     7
100
AcDbSpline
 70
     3
 71
     3
 72
    23
 73
    19
 74
     0
 42
0.000000001
 43
0.0000001
 40
0.0
 40
0.0
 40
0.0
 40
0.0
 40
1.0
 40
1.0
 40
1.0
 40
2.0
 40
2.0
 40
2.0
 40
3.0
 40
3.0
 40
3.0
 40
4.0
 40
4.0
 40
4.0
 40
5.0
 40
5.0
 40
5.0
 40
6.0
 40
6.0
 40
6.0
 40
6.0
 10
297.0236447885
 20
37.7825453965
 30
0.0
 10
297.0236447885
 20
37.7825453965
 30
0.0
 10
296.6771465159
 20
38.2258747573
 30
0.0
 10
296.6771465159
 20
38.2258747573
 30
0.0
 10
296.371343471
 20
38.6139842273
 30
0.0
 10
296.0524551439
 20
39.0024862557
 30
0.0
 10
296.0524551439
 20
39.5294305698
 30
0.0
 10
296.0524551439
 20
40.1956022864
 30
0.0
 10
296.5937932683
 20
40.6393242057
 30
0.0
 10
297.2176995235
 20
40.6393242057
 30
0.0
 10
297.9114811856
 20
40.6393242057
 30
0.0
 10
298.4386872053
 20
40.237082631
 30
0.0
 10
298.4386872053
 20
39.50208233
 30
0.0
 10
298.4386872053
 20
38.7388178194
 30
0.0
 10
297.7174264506
 20
38.3087045936
 30
0.0
 10
297.1903512837
 20
37.8929851782
 30
0.0
 10
297.1903512837
 20
37.8929851782
 30
0.0
 10
297.0236447885
 20
37.7825453965
 30
0.0
 10
297.0236447885
 20
37.7825453965
 30
0.0
  0
SPLINE
  5
25C
330
221
100
AcDbEntity
  8
0
  6
Continuous
 62
     7
100
AcDbSpline
 70
     3
 71
     3
 72
    50
 73
    46
 74
     0
 42
0.000000001
 43
0.0000001
 40
0.0
 40
0.0
 40
0.0
 40
0.0
 40
1.0
 40
1.0
 40
1.0
 40
2.0
 40
2.0
 40
2.0
 40
3.0
 40
3.0
 40
3.0
 40
4.0
 40
4.0
 40
4.0
 40
5.0
 40
5.0
 40
5.0
 40
6.0
 40
6.0
 40
6.0
 40
7.0
 40
7.0
 40
7.0
 40
8.0
 40
8.0
 40
8.0
 40
9.0
 40
9.0
 40
9.0
 40
10.0
 40
10.0
 40
10.0
 40
11.0
 40
11.0
 40
11.0
 40
12.0
 40
12.0
 40
12.0
 40
13.0
 40
13.0
 40
13.0
 40
14.0
 40
14.0
 40
14.0
 40
15.0
 40
15.0
 40
15.0
 40
15.0
 10
300.9772319514
 20
30.9839561784
 30
0.0
 10
300.9772319514
 20
30.9839561784
 30
0.0
 10
302.586459956
 20
30.9839561784
 30
0.0
 10
302.586459956
 20
30.9839561784
 30
0.0
 10
302.586459956
 20
30.9839561784
 30
0.0
 10
300.7134326623
 20
33.3010979498
 30
0.0
 10
300.7134326623
 20
33.3010979498
 30
0.0
 10
300.7134326623
 20
33.3010979498
 30
0.0
 10
301.9897710878
 20
34.7985776444
 30
0.0
 10
301.9897710878
 20
34.7985776444
 30
0.0
 10
301.9897710878
 20
34.7985776444
 30
0.0
 10
301.1575471401
 20
35.6595892129
 30
0.0
 10
301.1575471401
 20
35.6595892129
 30
0.0
 10
301.1575471401
 20
35.6595892129
 30
0.0
 10
299.9369520168
 20
34.2442850905
 30
0.0
 10
299.9369520168
 20
34.2442850905
 30
0.0
 10
299.9369520168
 20
34.2442850905
 30
0.0
 10
297.759037648
 20
36.8796609249
 30
0.0
 10
297.759037648
 20
36.8796609249
 30
0.0
 10
298.6326110874
 20
37.5176992848
 30
0.0
 10
299.6592823286
 20
38.3087045936
 30
0.0
 10
299.6592823286
 20
39.4875576667
 30
0.0
 10
299.6592823286
 20
40.8612505918
 30
0.0
 10
298.5213861887
 20
41.6657337412
 30
0.0
 10
297.2460945858
 20
41.6657337412
 30
0.0
 10
295.8726633665
 20
41.6657337412
 30
0.0
 10
294.8317291677
 20
40.8195085416
 30
0.0
 10
294.8317291677
 20
39.3768561794
 30
0.0
 10
294.8317291677
 20
38.489281488
 30
0.0
 10
295.3870685442
 20
37.7124082839
 30
0.0
 10
295.983234001
 20
37.0879786175
 30
0.0
 10
295.983234001
 20
37.0879786175
 30
0.0
 10
295.331325242
 20
36.6163850471
 30
0.0
 10
295.331325242
 20
36.6163850471
 30
0.0
 10
294.3327873576
 20
35.8951242924
 30
0.0
 10
293.4999091457
 20
35.1738635378
 30
0.0
 10
293.4999091457
 20
33.8423052214
 30
0.0
 10
293.4999091457
 20
32.0386299234
 30
0.0
 10
294.9569553183
 20
30.7620297923
 30
0.0
 10
296.7044947557
 20
30.7620297923
 30
0.0
 10
297.9393528366
 20
30.7620297923
 30
0.0
 10
299.0487230613
 20
31.4702052648
 30
0.0
 10
299.8395975172
 20
32.3987368895
 30
0.0
 10
299.8395975172
 20
32.3987368895
 30
0.0
 10
300.9772319514
 20
30.9839561784
 30
0.0
 10
300.9772319514
 20
30.9839561784
 30
0.0
  0
LINE
  5
25D
330
221
100
AcDbEntity
  8
0
  6
Continuous
 62
     7
100
AcDbLine
 10
286.7800933264
 20
28.957831083
 30
0.0
 11
309.1940040541
 21
28.957831083
 31
0.0
  0
LINE
  5
25E
330
221
100
AcDbEntity
  8
0
  6
Continuous
 62
     7
100
AcDbLine
 10
309.1940040541
 20
28.957831083
 30
0.0
 11
309.1940040541
 21
51.3717418107
 31
0.0
  0
LINE
  5
25F
330
221
100
AcDbEntity
  8
0
  6
Continuous
 62
     7
100
AcDbLine
 10
309.1940040541
 20
51.3717418107
 30
0.0
 11
286.7800933264
 21
51.3717418107
 31
0.0
  0
LINE
  5
260
330
221
100
AcDbEntity
  8
0
  6
Continuous
 62
     7
100
AcDbLine
 10
286.7800933264
 20
51.3717418107
 30
0.0
 11
286.7800933264
 21
28.957831083
 31
0.0
  0
ENDBLK
  5
261
330
221
100
AcDbEntity
  8
0
  6
ByBlock
 62
     0
100
AcDbBlockEnd
  0
BLOCK
  5
262
330
222
100
AcDbEntity
  8
0
100
AcDbBlockBegin
  2
PROIEZIONE_EU_BL0
 70
     0
 10
299.1609362191
 20
63.8730543107
 30
0.0
  3
PROIEZIONE_EU_BL0
  1

  0
LWPOLYLINE
  5
263
330
222
100
AcDbEntity
  8
DEFAULT_1
  6
CENTER
 62
     7
100
AcDbPolyline
 90
        2
 70
     0
 43
0.25
 10
305.2875568807
 20
68.8727484425
 10
305.2875978631
 20
58.8733601788
  0
LWPOLYLINE
  5
264
330
222
100
AcDbEntity
  8
DEFAULT_1
  6
CENTER
 62
     7
100
AcDbPolyline
 90
        2
 70
     0
 43
0.25
 10
311.2875867058
 20
63.8733254458
 10
287.0342857323
 20
63.8730547854
  0
LWPOLYLINE
  5
265
330
222
100
AcDbEntity
  8
0
  6
Continuous
 62
     7
100
AcDbPolyline
 90
        2
 70
     1
 43
0.25
 10
301.7404467049
 20
63.8545065565
 42
1.0
 10
308.8467758035
 20
63.8545065565
 42
1.0
  0
LWPOLYLINE
  5
266
330
222
100
AcDbEntity
  8
0
  6
Continuous
 62
     7
100
AcDbPolyline
 90
        2
 70
     1
 43
0.25
 10
303.2901905333
 20
63.8724046011
 42
1.0
 10
307.3019422834
 20
63.8724046011
 42
1.0
  0
LWPOLYLINE
  5
267
330
222
100
AcDbEntity
  8
0
  6
Continuous
 62
     7
100
AcDbPolyline
 90
        2
 70
     0
 43
0.25
 10
299.2875844998
 20
67.4482578059
 10
299.2875841452
 20
60.3480548976
  0
LWPOLYLINE
  5
268
330
222
100
AcDbEntity
  8
0
  6
Continuous
 62
     7
100
AcDbPolyline
 90
        2
 70
     0
 43
0.25
 10
299.2876125816
 20
60.3480264612
 10
289.2930553104
 20
61.8681198741
  0
LWPOLYLINE
  5
269
330
222
100
AcDbEntity
  8
0
  6
Continuous
 62
     7
100
AcDbPolyline
 90
        2
 70
     0
 43
0.25
 10
289.2907453248
 20
61.8674423325
 10
289.2880784207
 20
65.8730809439
  0
LWPOLYLINE
  5
26A
330
222
100
AcDbEntity
  8
0
  6
Continuous
 62
     7
100
AcDbPolyline
 90
        2
 70
     0
 43
0.25
 10
289.2880701446
 20
65.8730726679
 10
299.2878133819
 20
67.4482298879
  0
ENDBLK
  5
26B
330
222
100
AcDbEntity
  8
0
  6
ByBlock
 62
     0
100
AcDbBlockEnd
  0
ENDSEC
  0
SECTION
  2
ENTITIES
  0
LINE
  5
296
330
1B
100
AcDbEntity
 67
     1
  8
0
  6
Continuous
 62
     7
100
AcDbLine
 10
0.0
 20
0.0
 30
0.0
 11
420.0
 21
0.0
 31
0.0
  0
LINE
  5
297
330
1B
100
AcDbEntity
 67
     1
  8
0
  6
Continuous
 62
     7
100
AcDbLine
 10
420.0
 20
0.0
 30
0.0
 11
420.0
 21
297.0
 31
0.0
  0
LINE
  5
298
330
1B
100
AcDbEntity
 67
     1
  8
0
  6
Continuous
 62
     7
100
AcDbLine
 10
0.0
 20
297.0
 30
0.0
 11
420.0
 21
297.0
 31
0.0
  0
LINE
  5
299
330
1B
100
AcDbEntity
 67
     1
  8
0
  6
Continuous
 62
     7
100
AcDbLine
 10
0.0
 20
0.0
 30
0.0
 11
0.0
 21
297.0
 31
0.0
  0
VIEWPORT
  5
29A
330
1B
100
AcDbEntity
 67
     1
  8
0
100
AcDbViewport
 10
0.0
 20
0.0
 30
0.0
 40
495.0770428015564
 41
350.0901945525292
 68
     1
 69
     1
 12
234.0175097276264
 22
148.5
 13
0.0
 23
0.0
 14
1.0
 24
1.0
 15
0.0
 25
0.0
 16
0.0
 26
0.0
 36
1.0
 17
0.0
 27
0.0
 37
0.0
 42
50.0
 43
0.0
 44
0.0
 45
350.0901945525292
 50
0.0
 51
0.0
 72
   100
 90
   557216
  1

281
     0
 71
     1
 74
     0
110
0.0
120
0.0
130
0.0
111
1.0
121
0.0
131
0.0
112
0.0
122
1.0
132
0.0
 79
     0
146
0.0
170
     0
 61
     5
348
39F
292
     1
282
     1
141
0.0
142
0.0
 63
   256
  0
LINE
  5
29B
330
1B
100
AcDbEntity
 67
     1
  8
7_ALL_FEATURES
  6
Continuous
 62
     7
100
AcDbLine
 10
192.6746621622
 20
108.5556966762
 30
0.0
 11
192.6746621622
 21
108.5507963982
 31
0.0
  0
LINE
  5
29C
330
1B
100
AcDbEntity
 67
     1
  8
7_ALL_FEATURES
  6
Continuous
 62
     7
100
AcDbLine
 10
192.6746621622
 20
108.5507963982
 30
0.0
 11
192.6746621622
 21
106.6396596829
 31
0.0
  0
LINE
  5
29D
330
1B
100
AcDbEntity
 67
     1
  8
7_ALL_FEATURES
  6
Continuous
 62
     7
100
AcDbLine
 10
192.6746621622
 20
106.6396596829
 30
0.0
 11
192.6746621622
 21
106.6347594049
 31
0.0
  0
LINE
  5
29E
330
1B
100
AcDbEntity
 67
     1
  8
7_ALL_FEATURES
  6
Continuous
 62
     7
100
AcDbLine
 10
194.2746621622
 20
108.5556966762
 30
0.0
 11
194.2746621622
 21
108.5507963982
 31
0.0
  0
LINE
  5
29F
330
1B
100
AcDbEntity
 67
     1
  8
7_ALL_FEATURES
  6
Continuous
 62
     7
100
AcDbLine
 10
194.2746621622
 20
108.5507963982
 30
0.0
 11
194.2746621622
 21
106.6396596829
 31
0.0
  0
LINE
  5
2A0
330
1B
100
AcDbEntity
 67
     1
  8
7_ALL_FEATURES
  6
Continuous
 62
     7
100
AcDbLine
 10
194.2746621622
 20
106.6396596829
 30
0.0
 11
194.2746621622
 21
106.6347594049
 31
0.0
  0
ARC
  5
2A1
330
1B
100
AcDbEntity
 67
     1
  8
02___PRT_ALL_AXES
  6
Continuous
 62
     7
100
AcDbCircle
 10
193.4746621622
 20
107.5952280405
 30
0.0
 40
1.25
100
AcDbArc
 50
90.0
 51
270.0
  0
ARC
  5
2A2
330
1B
100
AcDbEntity
 67
     1
  8
02___PRT_ALL_AXES
  6
Continuous
 62
     7
100
AcDbCircle
 10
193.4746621622
 20
107.5952280405
 30
0.0
 40
1.25
100
AcDbArc
 50
270.0
 51
90.0
  0
ARC
  5
2A3
330
1B
100
AcDbEntity
 67
     1
  8
02___PRT_ALL_AXES
  6
Continuous
 62
     7
100
AcDbCircle
 10
193.4746621622
 20
107.5952280405
 30
0.0
 40
4.0
100
AcDbArc
 50
270.0
 51
90.0
  0
ARC
  5
2A4
330
1B
100
AcDbEntity
 67
     1
  8
02___PRT_ALL_AXES
  6
Continuous
 62
     7
100
AcDbCircle
 10
193.4746621622
 20
107.5952280405
 30
0.0
 40
4.0
100
AcDbArc
 50
90.0
 51
270.0
  0
LINE
  5
2A5
330
1B
100
AcDbEntity
 67
     1
  8
7_ALL_FEATURES
  6
Continuous
 62
     7
100
AcDbLine
 10
76.564868009
 20
112.5952280405
 30
0.0
 11
76.564868009
 21
102.5952280405
 31
0.0
  0
LINE
  5
2A6
330
1B
100
AcDbEntity
 67
     1
  8
7_ALL_FEATURES
  6
Continuous
 62
     7
100
AcDbLine
 10
76.564868009
 20
102.5952280405
 30
0.0
 11
76.164868009
 21
102.5952280405
 31
0.0
  0
LINE
  5
2A7
330
1B
100
AcDbEntity
 67
     1
  8
7_ALL_FEATURES
  6
Continuous
 62
     7
100
AcDbLine
 10
76.564868009
 20
112.5952280405
 30
0.0
 11
76.164868009
 21
112.5952280405
 31
0.0
  0
LINE
  5
2A8
330
1B
100
AcDbEntity
 67
     1
  8
7_ALL_FEATURES
  6
Continuous
 62
     7
100
AcDbLine
 10
204.1746621622
 20
107.5952280405
 30
0.0
 11
204.1746621622
 21
87.3952280405
 31
0.0
  0
LINE
  5
2A9
330
1B
100
AcDbEntity
 67
     1
  8
7_ALL_FEATURES
  6
Continuous
 62
     7
100
AcDbLine
 10
204.1746621622
 20
87.3952280405
 30
0.0
 11
134.9746621622
 21
87.3952280405
 31
0.0
  0
LINE
  5
2AA
330
1B
100
AcDbEntity
 67
     1
  8
7_ALL_FEATURES
  6
Continuous
 62
     7
100
AcDbLine
 10
134.9746621622
 20
87.3952280405
 30
0.0
 11
65.7746621622
 21
87.3952280405
 31
0.0
  0
LINE
  5
2AB
330
1B
100
AcDbEntity
 67
     1
  8
7_ALL_FEATURES
  6
Continuous
 62
     7
100
AcDbLine
 10
64.9746621622
 20
107.5952280405
 30
0.0
 11
65.7746621622
 21
107.5952280405
 31
0.0
  0
LINE
  5
2AC
330
1B
100
AcDbEntity
 67
     1
  8
7_ALL_FEATURES
  6
Continuous
 62
     7
100
AcDbLine
 10
65.7746621622
 20
87.3952280405
 30
0.0
 11
65.7746621622
 21
107.5952280405
 31
0.0
  0
LINE
  5
2AD
330
1B
100
AcDbEntity
 67
     1
  8
7_ALL_FEATURES
  6
Continuous
 62
     7
100
AcDbLine
 10
204.9746621622
 20
107.5952280405
 30
0.0
 11
204.1746621622
 21
107.5952280405
 31
0.0
  0
LINE
  5
2AE
330
1B
100
AcDbEntity
 67
     1
  8
7_ALL_FEATURES
  6
Continuous
 62
     9
100
AcDbLine
 10
65.7746621622
 20
87.3952280405
 30
0.0
 11
64.9746621622
 21
86.5952280405
 31
0.0
  0
LINE
  5
2AF
330
1B
100
AcDbEntity
 67
     1
  8
7_ALL_FEATURES
  6
Continuous
 62
     9
100
AcDbLine
 10
134.9746621622
 20
86.5952280405
 30
0.0
 11
134.9746621622
 21
87.3952280405
 31
0.0
  0
LINE
  5
2B0
330
1B
100
AcDbEntity
 67
     1
  8
7_ALL_FEATURES
  6
Continuous
 62
     9
100
AcDbLine
 10
204.1746621622
 20
87.3952280405
 30
0.0
 11
204.9746621622
 21
86.5952280405
 31
0.0
  0
LINE
  5
2B1
330
1B
100
AcDbEntity
 67
     1
  8
7_ALL_FEATURES
  6
Continuous
 62
     7
100
AcDbLine
 10
65.7746621622
 20
107.5952280405
 30
0.0
 11
65.7746621622
 21
127.7952280405
 31
0.0
  0
LINE
  5
2B2
330
1B
100
AcDbEntity
 67
     1
  8
7_ALL_FEATURES
  6
Continuous
 62
     7
100
AcDbLine
 10
65.7746621622
 20
127.7952280405
 30
0.0
 11
134.9746621622
 21
127.7952280405
 31
0.0
  0
LINE
  5
2B3
330
1B
100
AcDbEntity
 67
     1
  8
7_ALL_FEATURES
  6
Continuous
 62
     7
100
AcDbLine
 10
134.9746621622
 20
127.7952280405
 30
0.0
 11
204.1746621622
 21
127.7952280405
 31
0.0
  0
LINE
  5
2B4
330
1B
100
AcDbEntity
 67
     1
  8
7_ALL_FEATURES
  6
Continuous
 62
     7
100
AcDbLine
 10
204.9746621622
 20
107.5952280405
 30
0.0
 11
204.1746621622
 21
107.5952280405
 31
0.0
  0
LINE
  5
2B5
330
1B
100
AcDbEntity
 67
     1
  8
7_ALL_FEATURES
  6
Continuous
 62
     7
100
AcDbLine
 10
204.1746621622
 20
127.7952280405
 30
0.0
 11
204.1746621622
 21
107.5952280405
 31
0.0
  0
LINE
  5
2B6
330
1B
100
AcDbEntity
 67
     1
  8
7_ALL_FEATURES
  6
Continuous
 62
     7
100
AcDbLine
 10
64.9746621622
 20
107.5952280405
 30
0.0
 11
65.7746621622
 21
107.5952280405
 31
0.0
  0
LINE
  5
2B7
330
1B
100
AcDbEntity
 67
     1
  8
7_ALL_FEATURES
  6
Continuous
 62
     9
100
AcDbLine
 10
204.1746621622
 20
127.7952280405
 30
0.0
 11
204.9746621622
 21
128.5952280405
 31
0.0
  0
LINE
  5
2B8
330
1B
100
AcDbEntity
 67
     1
  8
7_ALL_FEATURES
  6
Continuous
 62
     9
100
AcDbLine
 10
134.9746621622
 20
128.5952280405
 30
0.0
 11
134.9746621622
 21
127.7952280405
 31
0.0
  0
LINE
  5
2B9
330
1B
100
AcDbEntity
 67
     1
  8
7_ALL_FEATURES
  6
Continuous
 62
     9
100
AcDbLine
 10
65.7746621622
 20
127.7952280405
 30
0.0
 11
64.9746621622
 21
128.5952280405
 31
0.0
  0
LINE
  5
2BA
330
1B
100
AcDbEntity
 67
     1
  8
7_ALL_FEATURES
  6
Continuous
 62
     3
100
AcDbLine
 10
188.1746621622
 20
127.5952280405
 30
0.0
 11
188.1746621622
 21
87.5952280405
 31
0.0
  0
LINE
  5
2BB
330
1B
100
AcDbEntity
 67
     1
  8
7_ALL_FEATURES
  6
Continuous
 62
     3
100
AcDbLine
 10
188.1746621622
 20
87.5952280405
 30
0.0
 11
204.1746621622
 21
87.5952280405
 31
0.0
  0
LINE
  5
2BC
330
1B
100
AcDbEntity
 67
     1
  8
7_ALL_FEATURES
  6
Continuous
 62
     3
100
AcDbLine
 10
188.1746621622
 20
127.5952280405
 30
0.0
 11
204.1746621622
 21
127.5952280405
 31
0.0
  0
LINE
  5
2BD
330
1B
100
AcDbEntity
 67
     1
  8
7_ALL_FEATURES
  6
Continuous
 62
     3
100
AcDbLine
 10
85.7746621622
 20
127.5952280405
 30
0.0
 11
65.7746621622
 21
127.5952280405
 31
0.0
  0
LINE
  5
2BE
330
1B
100
AcDbEntity
 67
     1
  8
7_ALL_FEATURES
  6
Continuous
 62
     3
100
AcDbLine
 10
76.164868009
 20
102.5952280405
 30
0.0
 11
67.0246621622
 21
102.5952280405
 31
0.0
  0
LINE
  5
2BF
330
1B
100
AcDbEntity
 67
     1
  8
7_ALL_FEATURES
  6
Continuous
 62
     3
100
AcDbLine
 10
67.0246621622
 20
112.5952280405
 30
0.0
 11
76.164868009
 21
112.5952280405
 31
0.0
  0
LINE
  5
2C0
330
1B
100
AcDbEntity
 67
     1
  8
7_ALL_FEATURES
  6
Continuous
 62
     3
100
AcDbLine
 10
85.7746621622
 20
87.5952280405
 30
0.0
 11
65.7746621622
 21
87.5952280405
 31
0.0
  0
LINE
  5
2C1
330
1B
100
AcDbEntity
 67
     1
  8
7_ALL_FEATURES
  6
Continuous
 62
     3
100
AcDbLine
 10
80.7746621622
 20
113.0952280405
 30
0.0
 11
85.7746621622
 21
118.0952280405
 31
0.0
  0
LINE
  5
2C2
330
1B
100
AcDbEntity
 67
     1
  8
7_ALL_FEATURES
  6
Continuous
 62
     3
100
AcDbLine
 10
85.7746621622
 20
97.0952280405
 30
0.0
 11
80.7746621622
 21
102.0952280405
 31
0.0
  0
LINE
  5
2C3
330
1B
100
AcDbEntity
 67
     1
  8
7_ALL_FEATURES
  6
Continuous
 62
     3
100
AcDbLine
 10
67.0246621622
 20
102.5952280405
 30
0.0
 11
66.7746621622
 21
102.5952280405
 31
0.0
  0
LINE
  5
2C4
330
1B
100
AcDbEntity
 67
     1
  8
7_ALL_FEATURES
  6
Continuous
 62
     3
100
AcDbLine
 10
66.7746621622
 20
112.5952280405
 30
0.0
 11
67.0246621622
 21
112.5952280405
 31
0.0
  0
LINE
  5
2C5
330
1B
100
AcDbEntity
 67
     1
  8
7_ALL_FEATURES
  6
Continuous
 62
     3
100
AcDbLine
 10
66.7746621622
 20
102.5952280405
 30
0.0
 11
66.7746621622
 21
102.0952280405
 31
0.0
  0
LINE
  5
2C6
330
1B
100
AcDbEntity
 67
     1
  8
7_ALL_FEATURES
  6
Continuous
 62
     3
100
AcDbLine
 10
80.7746621622
 20
102.0952280405
 30
0.0
 11
66.7746621622
 21
102.0952280405
 31
0.0
  0
LINE
  5
2C7
330
1B
100
AcDbEntity
 67
     1
  8
7_ALL_FEATURES
  6
Continuous
 62
     3
100
AcDbLine
 10
85.7746621622
 20
87.5952280405
 30
0.0
 11
85.7746621622
 21
97.0952280405
 31
0.0
  0
LINE
  5
2C8
330
1B
100
AcDbEntity
 67
     1
  8
7_ALL_FEATURES
  6
Continuous
 62
     3
100
AcDbLine
 10
85.7746621622
 20
118.0952280405
 30
0.0
 11
85.7746621622
 21
127.5952280405
 31
0.0
  0
LINE
  5
2C9
330
1B
100
AcDbEntity
 67
     1
  8
7_ALL_FEATURES
  6
Continuous
 62
     3
100
AcDbLine
 10
66.7746621622
 20
113.0952280405
 30
0.0
 11
80.7746621622
 21
113.0952280405
 31
0.0
  0
LINE
  5
2CA
330
1B
100
AcDbEntity
 67
     1
  8
7_ALL_FEATURES
  6
Continuous
 62
     3
100
AcDbLine
 10
66.7746621622
 20
112.5952280405
 30
0.0
 11
66.7746621622
 21
113.0952280405
 31
0.0
  0
LINE
  5
2CB
330
1B
100
AcDbEntity
 67
     1
  8
7_ALL_FEATURES
  6
Continuous
 62
     9
100
AcDbLine
 10
66.7746621622
 20
112.5952280405
 30
0.0
 11
66.7746621622
 21
102.5952280405
 31
0.0
  0
LINE
  5
2CC
330
1B
100
AcDbEntity
 67
     1
  8
7_ALL_FEATURES
  6
Continuous
 62
     3
100
AcDbLine
 10
76.164868009
 20
112.5952280405
 30
0.0
 11
76.164868009
 21
102.5952280405
 31
0.0
  0
LINE
  5
2CD
330
1B
100
AcDbEntity
 67
     1
  8
7_ALL_FEATURES
  6
Continuous
 62
     9
100
AcDbLine
 10
67.0246621622
 20
112.5952280405
 30
0.0
 11
67.0246621622
 21
102.5952280405
 31
0.0
  0
LINE
  5
2CE
330
1B
100
AcDbEntity
 67
     1
  8
7_ALL_FEATURES
  6
Continuous
 62
     3
100
AcDbLine
 10
204.9746621622
 20
107.5952280405
 30
0.0
 11
204.9746621622
 21
86.5952280405
 31
0.0
  0
LINE
  5
2CF
330
1B
100
AcDbEntity
 67
     1
  8
7_ALL_FEATURES
  6
Continuous
 62
     3
100
AcDbLine
 10
204.9746621622
 20
86.5952280405
 30
0.0
 11
134.9746621622
 21
86.5952280405
 31
0.0
  0
LINE
  5
2D0
330
1B
100
AcDbEntity
 67
     1
  8
7_ALL_FEATURES
  6
Continuous
 62
     3
100
AcDbLine
 10
119.9612451781
 20
86.2952280405
 30
0.0
 11
116.510560547
 21
80.3184669386
 31
0.0
  0
LINE
  5
2D1
330
1B
100
AcDbEntity
 67
     1
  8
7_ALL_FEATURES
  6
Continuous
 62
     3
100
AcDbLine
 10
116.510560547
 20
80.3184669386
 30
0.0
 11
73.4387637773
 21
80.3184669386
 31
0.0
  0
LINE
  5
2D2
330
1B
100
AcDbEntity
 67
     1
  8
7_ALL_FEATURES
  6
Continuous
 62
     3
100
AcDbLine
 10
73.4387637773
 20
80.3184669386
 30
0.0
 11
69.9880791462
 21
86.2952280405
 31
0.0
  0
LINE
  5
2D3
330
1B
100
AcDbEntity
 67
     1
  8
7_ALL_FEATURES
  6
Continuous
 62
     3
100
AcDbLine
 10
196.510560547
 20
80.3184669386
 30
0.0
 11
199.9612451781
 21
86.2952280405
 31
0.0
  0
LINE
  5
2D4
330
1B
100
AcDbEntity
 67
     1
  8
7_ALL_FEATURES
  6
Continuous
 62
     3
100
AcDbLine
 10
153.4387637773
 20
80.3184669386
 30
0.0
 11
196.510560547
 21
80.3184669386
 31
0.0
  0
LINE
  5
2D5
330
1B
100
AcDbEntity
 67
     1
  8
7_ALL_FEATURES
  6
Continuous
 62
     3
100
AcDbLine
 10
149.9880791462
 20
86.2952280405
 30
0.0
 11
153.4387637773
 21
80.3184669386
 31
0.0
  0
LINE
  5
2D6
330
1B
100
AcDbEntity
 67
     1
  8
7_ALL_FEATURES
  6
Continuous
 62
     3
100
AcDbLine
 10
134.9746621622
 20
86.5952280405
 30
0.0
 11
64.9746621622
 21
86.5952280405
 31
0.0
  0
LINE
  5
2D7
330
1B
100
AcDbEntity
 67
     1
  8
7_ALL_FEATURES
  6
Continuous
 62
     3
100
AcDbLine
 10
64.9746621622
 20
86.5952280405
 30
0.0
 11
64.9746621622
 21
107.5952280405
 31
0.0
  0
LINE
  5
2D8
330
1B
100
AcDbEntity
 67
     1
  8
7_ALL_FEATURES
  6
Continuous
 62
     3
100
AcDbLine
 10
119.9746621622
 20
86.5952280405
 30
0.0
 11
119.9746621622
 21
86.3059281322
 31
0.0
  0
LINE
  5
2D9
330
1B
100
AcDbEntity
 67
     1
  8
7_ALL_FEATURES
  6
Continuous
 62
     3
100
AcDbLine
 10
69.9746621622
 20
86.3059281322
 30
0.0
 11
69.9746621622
 21
86.4451871393
 31
0.0
  0
LINE
  5
2DA
330
1B
100
AcDbEntity
 67
     1
  8
7_ALL_FEATURES
  6
Continuous
 62
     3
100
AcDbLine
 10
69.9746621622
 20
86.4451871393
 30
0.0
 11
69.9746621622
 21
86.5952280405
 31
0.0
  0
LINE
  5
2DB
330
1B
100
AcDbEntity
 67
     1
  8
7_ALL_FEATURES
  6
Continuous
 62
     3
100
AcDbLine
 10
199.9746621622
 20
86.3059281322
 30
0.0
 11
199.9746621622
 21
86.4451871393
 31
0.0
  0
LINE
  5
2DC
330
1B
100
AcDbEntity
 67
     1
  8
7_ALL_FEATURES
  6
Continuous
 62
     3
100
AcDbLine
 10
199.9746621622
 20
86.4451871393
 30
0.0
 11
199.9746621622
 21
86.5952280405
 31
0.0
  0
LINE
  5
2DD
330
1B
100
AcDbEntity
 67
     1
  8
7_ALL_FEATURES
  6
Continuous
 62
     3
100
AcDbLine
 10
149.9746621622
 20
86.5952280405
 30
0.0
 11
149.9746621622
 21
86.3059281322
 31
0.0
  0
LINE
  5
2DE
330
1B
100
AcDbEntity
 67
     1
  8
7_ALL_FEATURES
  6
Continuous
 62
     9
100
AcDbLine
 10
199.9612451781
 20
86.2952280405
 30
0.0
 11
149.9880791462
 21
86.2952280405
 31
0.0
  0
LINE
  5
2DF
330
1B
100
AcDbEntity
 67
     1
  8
7_ALL_FEATURES
  6
Continuous
 62
     9
100
AcDbLine
 10
69.9880791462
 20
86.2952280405
 30
0.0
 11
119.9612451781
 21
86.2952280405
 31
0.0
  0
LINE
  5
2E0
330
1B
100
AcDbEntity
 67
     1
  8
7_ALL_FEATURES
  6
Continuous
 62
     3
100
AcDbLine
 10
64.9746621622
 20
107.5952280405
 30
0.0
 11
64.9746621622
 21
128.5952280405
 31
0.0
  0
LINE
  5
2E1
330
1B
100
AcDbEntity
 67
     1
  8
7_ALL_FEATURES
  6
Continuous
 62
     3
100
AcDbLine
 10
64.9746621622
 20
128.5952280405
 30
0.0
 11
134.9746621622
 21
128.5952280405
 31
0.0
  0
LINE
  5
2E2
330
1B
100
AcDbEntity
 67
     1
  8
7_ALL_FEATURES
  6
Continuous
 62
     3
100
AcDbLine
 10
149.9880791462
 20
128.8952280405
 30
0.0
 11
153.4387637773
 21
134.8719891425
 31
0.0
  0
LINE
  5
2E3
330
1B
100
AcDbEntity
 67
     1
  8
7_ALL_FEATURES
  6
Continuous
 62
     3
100
AcDbLine
 10
153.4387637773
 20
134.8719891425
 30
0.0
 11
196.510560547
 21
134.8719891425
 31
0.0
  0
LINE
  5
2E4
330
1B
100
AcDbEntity
 67
     1
  8
7_ALL_FEATURES
  6
Continuous
 62
     3
100
AcDbLine
 10
196.510560547
 20
134.8719891425
 30
0.0
 11
199.9612451781
 21
128.8952280405
 31
0.0
  0
LINE
  5
2E5
330
1B
100
AcDbEntity
 67
     1
  8
7_ALL_FEATURES
  6
Continuous
 62
     3
100
AcDbLine
 10
73.4387637773
 20
134.8719891425
 30
0.0
 11
69.9880791462
 21
128.8952280405
 31
0.0
  0
LINE
  5
2E6
330
1B
100
AcDbEntity
 67
     1
  8
7_ALL_FEATURES
  6
Continuous
 62
     3
100
AcDbLine
 10
116.510560547
 20
134.8719891425
 30
0.0
 11
73.4387637773
 21
134.8719891425
 31
0.0
  0
LINE
  5
2E7
330
1B
100
AcDbEntity
 67
     1
  8
7_ALL_FEATURES
  6
Continuous
 62
     3
100
AcDbLine
 10
119.9612451781
 20
128.8952280405
 30
0.0
 11
116.510560547
 21
134.8719891425
 31
0.0
  0
LINE
  5
2E8
330
1B
100
AcDbEntity
 67
     1
  8
7_ALL_FEATURES
  6
Continuous
 62
     3
100
AcDbLine
 10
134.9746621622
 20
128.5952280405
 30
0.0
 11
204.9746621622
 21
128.5952280405
 31
0.0
  0
LINE
  5
2E9
330
1B
100
AcDbEntity
 67
     1
  8
7_ALL_FEATURES
  6
Continuous
 62
     3
100
AcDbLine
 10
204.9746621622
 20
128.5952280405
 30
0.0
 11
204.9746621622
 21
107.5952280405
 31
0.0
  0
LINE
  5
2EA
330
1B
100
AcDbEntity
 67
     1
  8
7_ALL_FEATURES
  6
Continuous
 62
     3
100
AcDbLine
 10
149.9746621622
 20
128.5952280405
 30
0.0
 11
149.9746621622
 21
128.8845279489
 31
0.0
  0
LINE
  5
2EB
330
1B
100
AcDbEntity
 67
     1
  8
7_ALL_FEATURES
  6
Continuous
 62
     3
100
AcDbLine
 10
199.9746621622
 20
128.8845279489
 30
0.0
 11
199.9746621622
 21
128.7452689418
 31
0.0
  0
LINE
  5
2EC
330
1B
100
AcDbEntity
 67
     1
  8
7_ALL_FEATURES
  6
Continuous
 62
     3
100
AcDbLine
 10
199.9746621622
 20
128.7452689418
 30
0.0
 11
199.9746621622
 21
128.5952280405
 31
0.0
  0
LINE
  5
2ED
330
1B
100
AcDbEntity
 67
     1
  8
7_ALL_FEATURES
  6
Continuous
 62
     3
100
AcDbLine
 10
69.9746621622
 20
128.8845279489
 30
0.0
 11
69.9746621622
 21
128.7452689418
 31
0.0
  0
LINE
  5
2EE
330
1B
100
AcDbEntity
 67
     1
  8
7_ALL_FEATURES
  6
Continuous
 62
     3
100
AcDbLine
 10
69.9746621622
 20
128.7452689418
 30
0.0
 11
69.9746621622
 21
128.5952280405
 31
0.0
  0
LINE
  5
2EF
330
1B
100
AcDbEntity
 67
     1
  8
7_ALL_FEATURES
  6
Continuous
 62
     3
100
AcDbLine
 10
119.9746621622
 20
128.5952280405
 30
0.0
 11
119.9746621622
 21
128.8845279489
 31
0.0
  0
LINE
  5
2F0
330
1B
100
AcDbEntity
 67
     1
  8
7_ALL_FEATURES
  6
Continuous
 62
     9
100
AcDbLine
 10
69.9880791462
 20
128.8952280405
 30
0.0
 11
119.9612451781
 21
128.8952280405
 31
0.0
  0
LINE
  5
2F1
330
1B
100
AcDbEntity
 67
     1
  8
7_ALL_FEATURES
  6
Continuous
 62
     9
100
AcDbLine
 10
199.9612451781
 20
128.8952280405
 30
0.0
 11
149.9880791462
 21
128.8952280405
 31
0.0
  0
LINE
  5
2F2
330
1B
100
AcDbEntity
 67
     1
  8
7_ALL_FEATURES
  6
Continuous
 62
     7
100
AcDbLine
 10
73.4387637773
 20
169.3179133235
 30
0.0
 11
69.9880791462
 21
169.3179133235
 31
0.0
  0
LINE
  5
2F3
330
1B
100
AcDbEntity
 67
     1
  8
7_ALL_FEATURES
  6
Continuous
 62
     7
100
AcDbLine
 10
116.510560547
 20
169.3179133235
 30
0.0
 11
73.4387637773
 21
169.3179133235
 31
0.0
  0
LINE
  5
2F4
330
1B
100
AcDbEntity
 67
     1
  8
7_ALL_FEATURES
  6
Continuous
 62
     7
100
AcDbLine
 10
119.9612451781
 20
169.3179133235
 30
0.0
 11
116.510560547
 21
169.3179133235
 31
0.0
  0
LINE
  5
2F5
330
1B
100
AcDbEntity
 67
     1
  8
7_ALL_FEATURES
  6
Continuous
 62
     7
100
AcDbLine
 10
149.9880791462
 20
169.3179133235
 30
0.0
 11
153.4387637773
 21
169.3179133235
 31
0.0
  0
LINE
  5
2F6
330
1B
100
AcDbEntity
 67
     1
  8
7_ALL_FEATURES
  6
Continuous
 62
     7
100
AcDbLine
 10
153.4387637773
 20
169.3179133235
 30
0.0
 11
196.510560547
 21
169.3179133235
 31
0.0
  0
LINE
  5
2F7
330
1B
100
AcDbEntity
 67
     1
  8
7_ALL_FEATURES
  6
Continuous
 62
     7
100
AcDbLine
 10
196.510560547
 20
169.3179133235
 30
0.0
 11
199.9612451781
 21
169.3179133235
 31
0.0
  0
LINE
  5
2F8
330
1B
100
AcDbEntity
 67
     1
  8
7_ALL_FEATURES
  6
Continuous
 62
     7
100
AcDbLine
 10
69.9746621622
 20
169.3186132192
 30
0.0
 11
69.9746621622
 21
170.1181042041
 31
0.0
  0
LINE
  5
2F9
330
1B
100
AcDbEntity
 67
     1
  8
7_ALL_FEATURES
  6
Continuous
 62
     7
100
AcDbLine
 10
119.9746621622
 20
169.3186132192
 30
0.0
 11
119.9746621622
 21
170.1181042041
 31
0.0
  0
ARC
  5
2FA
330
1B
100
AcDbEntity
 67
     1
  8
7_ALL_FEATURES
  6
Continuous
 62
     7
100
AcDbCircle
 10
69.9881026124
 20
169.4473147411
 30
0.0
 40
0.1294014197
100
AcDbArc
 50
264.0381452131
 51
269.9896097299
  0
ARC
  5
2FB
330
1B
100
AcDbEntity
 67
     1
  8
7_ALL_FEATURES
  6
Continuous
 62
     7
100
AcDbCircle
 10
119.9612217119
 20
169.4473147411
 30
0.0
 40
0.1294014197
100
AcDbArc
 50
270.0103902701
 51
275.9618547869
  0
LINE
  5
2FC
330
1B
100
AcDbEntity
 67
     1
  8
7_ALL_FEATURES
  6
Continuous
 62
     7
100
AcDbLine
 10
199.9746621622
 20
169.3186132192
 30
0.0
 11
199.9746621622
 21
170.1181042041
 31
0.0
  0
LINE
  5
2FD
330
1B
100
AcDbEntity
 67
     1
  8
7_ALL_FEATURES
  6
Continuous
 62
     7
100
AcDbLine
 10
149.9746621622
 20
169.3186132192
 30
0.0
 11
149.9746621622
 21
170.1181042041
 31
0.0
  0
ARC
  5
2FE
330
1B
100
AcDbEntity
 67
     1
  8
7_ALL_FEATURES
  6
Continuous
 62
     7
100
AcDbCircle
 10
149.9881026124
 20
169.4473147411
 30
0.0
 40
0.1294014197
100
AcDbArc
 50
264.0381452131
 51
269.9896097299
  0
ARC
  5
2FF
330
1B
100
AcDbEntity
 67
     1
  8
7_ALL_FEATURES
  6
Continuous
 62
     7
100
AcDbCircle
 10
199.9612217119
 20
169.4473147411
 30
0.0
 40
0.1294014197
100
AcDbArc
 50
270.0103902701
 51
275.9618547869
  0
LINE
  5
300
330
1B
100
AcDbEntity
 67
     1
  8
7_ALL_FEATURES
  6
Continuous
 62
     7
100
AcDbLine
 10
119.9612451781
 20
169.3179133235
 30
0.0
 11
119.9612451781
 21
170.1179133235
 31
0.0
  0
LINE
  5
301
330
1B
100
AcDbEntity
 67
     1
  8
7_ALL_FEATURES
  6
Continuous
 62
     7
100
AcDbLine
 10
199.9612451781
 20
169.3179133235
 30
0.0
 11
199.9612451781
 21
170.1179133235
 31
0.0
  0
LINE
  5
302
330
1B
100
AcDbEntity
 67
     1
  8
7_ALL_FEATURES
  6
Continuous
 62
     7
100
AcDbLine
 10
153.4387637773
 20
169.3179133235
 30
0.0
 11
153.4387637773
 21
170.1179133235
 31
0.0
  0
LINE
  5
303
330
1B
100
AcDbEntity
 67
     1
  8
7_ALL_FEATURES
  6
Continuous
 62
     7
100
AcDbLine
 10
149.9880791462
 20
169.3179133235
 30
0.0
 11
149.9880791462
 21
170.1179133235
 31
0.0
  0
LINE
  5
304
330
1B
100
AcDbEntity
 67
     1
  8
7_ALL_FEATURES
  6
Continuous
 62
     7
100
AcDbLine
 10
73.4387637773
 20
169.3179133235
 30
0.0
 11
73.4387637773
 21
170.1179133235
 31
0.0
  0
LINE
  5
305
330
1B
100
AcDbEntity
 67
     1
  8
7_ALL_FEATURES
  6
Continuous
 62
     7
100
AcDbLine
 10
196.510560547
 20
169.3179133235
 30
0.0
 11
196.510560547
 21
170.1179133235
 31
0.0
  0
LINE
  5
306
330
1B
100
AcDbEntity
 67
     1
  8
7_ALL_FEATURES
  6
Continuous
 62
     7
100
AcDbLine
 10
69.9880791462
 20
169.3179133235
 30
0.0
 11
69.9880791462
 21
170.1179133235
 31
0.0
  0
LINE
  5
307
330
1B
100
AcDbEntity
 67
     1
  8
7_ALL_FEATURES
  6
Continuous
 62
     7
100
AcDbLine
 10
116.510560547
 20
169.3179133235
 30
0.0
 11
116.510560547
 21
170.1179133235
 31
0.0
  0
LINE
  5
308
330
1B
100
AcDbEntity
 67
     1
  8
7_ALL_FEATURES
  6
Continuous
 62
     3
100
AcDbLine
 10
64.9746621622
 20
170.4179133235
 30
0.0
 11
64.9746621622
 21
230.4179133235
 31
0.0
  0
LINE
  5
309
330
1B
100
AcDbEntity
 67
     1
  8
7_ALL_FEATURES
  6
Continuous
 62
     3
100
AcDbLine
 10
119.9612451781
 20
170.1179133235
 30
0.0
 11
116.510560547
 21
170.1179133235
 31
0.0
  0
LINE
  5
30A
330
1B
100
AcDbEntity
 67
     1
  8
7_ALL_FEATURES
  6
Continuous
 62
     3
100
AcDbLine
 10
116.510560547
 20
170.1179133235
 30
0.0
 11
73.4387637773
 21
170.1179133235
 31
0.0
  0
LINE
  5
30B
330
1B
100
AcDbEntity
 67
     1
  8
7_ALL_FEATURES
  6
Continuous
 62
     3
100
AcDbLine
 10
73.4387637773
 20
170.1179133235
 30
0.0
 11
69.9880791462
 21
170.1179133235
 31
0.0
  0
LINE
  5
30C
330
1B
100
AcDbEntity
 67
     1
  8
7_ALL_FEATURES
  6
Continuous
 62
     3
100
AcDbLine
 10
196.510560547
 20
170.1179133235
 30
0.0
 11
199.9612451781
 21
170.1179133235
 31
0.0
  0
LINE
  5
30D
330
1B
100
AcDbEntity
 67
     1
  8
7_ALL_FEATURES
  6
Continuous
 62
     3
100
AcDbLine
 10
153.4387637773
 20
170.1179133235
 30
0.0
 11
196.510560547
 21
170.1179133235
 31
0.0
  0
LINE
  5
30E
330
1B
100
AcDbEntity
 67
     1
  8
7_ALL_FEATURES
  6
Continuous
 62
     3
100
AcDbLine
 10
149.9880791462
 20
170.1179133235
 30
0.0
 11
153.4387637773
 21
170.1179133235
 31
0.0
  0
ARC
  5
30F
330
1B
100
AcDbEntity
 67
     1
  8
02___PRT_ALL_AXES
  6
Continuous
 62
     3
100
AcDbCircle
 10
134.9746621622
 20
183.4179133235
 30
0.0
 40
11.0
100
AcDbArc
 50
90.0
 51
177.3947487349
  0
LINE
  5
310
330
1B
100
AcDbEntity
 67
     1
  8
02___PRT_ALL_AXES
  6
Continuous
 62
     3
100
AcDbLine
 10
124.4865736805
 20
183.9179133235
 30
0.0
 11
123.9860316742
 21
183.9179133235
 31
0.0
  0
ARC
  5
311
330
1B
100
AcDbEntity
 67
     1
  8
02___PRT_ALL_AXES
  6
Continuous
 62
     3
100
AcDbCircle
 10
134.9746621622
 20
183.4179133235
 30
0.0
 40
10.5
100
AcDbArc
 50
90.0
 51
177.2705973632
  0
ARC
  5
312
330
1B
100
AcDbEntity
 67
     1
  8
02___PRT_ALL_AXES
  6
Continuous
 62
     3
100
AcDbCircle
 10
134.9746621622
 20
183.4179133235
 30
0.0
 40
10.5
100
AcDbArc
 50
182.7294026368
 51
270.0
  0
LINE
  5
313
330
1B
100
AcDbEntity
 67
     1
  8
02___PRT_ALL_AXES
  6
Continuous
 62
     3
100
AcDbLine
 10
123.9860316742
 20
182.9179133235
 30
0.0
 11
124.4865736805
 21
182.9179133235
 31
0.0
  0
ARC
  5
314
330
1B
100
AcDbEntity
 67
     1
  8
02___PRT_ALL_AXES
  6
Continuous
 62
     3
100
AcDbCircle
 10
134.9746621622
 20
183.4179133235
 30
0.0
 40
11.0
100
AcDbArc
 50
182.6052512651
 51
270.0
  0
ARC
  5
315
330
1B
100
AcDbEntity
 67
     1
  8
02___PRT_ALL_AXES
  6
Continuous
 62
     3
100
AcDbCircle
 10
134.9746621622
 20
183.4179133235
 30
0.0
 40
11.0
100
AcDbArc
 50
270.0
 51
357.3947487349
  0
LINE
  5
316
330
1B
100
AcDbEntity
 67
     1
  8
02___PRT_ALL_AXES
  6
Continuous
 62
     3
100
AcDbLine
 10
145.4627506439
 20
182.9179133235
 30
0.0
 11
145.9632926501
 21
182.9179133235
 31
0.0
  0
ARC
  5
317
330
1B
100
AcDbEntity
 67
     1
  8
02___PRT_ALL_AXES
  6
Continuous
 62
     3
100
AcDbCircle
 10
134.9746621622
 20
183.4179133235
 30
0.0
 40
10.5
100
AcDbArc
 50
270.0
 51
357.2705973632
  0
ARC
  5
318
330
1B
100
AcDbEntity
 67
     1
  8
02___PRT_ALL_AXES
  6
Continuous
 62
     3
100
AcDbCircle
 10
134.9746621622
 20
183.4179133235
 30
0.0
 40
10.5
100
AcDbArc
 50
2.7294026368
 51
90.0
  0
LINE
  5
319
330
1B
100
AcDbEntity
 67
     1
  8
02___PRT_ALL_AXES
  6
Continuous
 62
     3
100
AcDbLine
 10
145.9632926501
 20
183.9179133235
 30
0.0
 11
145.4627506439
 21
183.9179133235
 31
0.0
  0
ARC
  5
31A
330
1B
100
AcDbEntity
 67
     1
  8
02___PRT_ALL_AXES
  6
Continuous
 62
     3
100
AcDbCircle
 10
134.9746621622
 20
183.4179133235
 30
0.0
 40
11.0
100
AcDbArc
 50
2.6052512651
 51
90.0
  0
LINE
  5
31B
330
1B
100
AcDbEntity
 67
     1
  8
7_ALL_FEATURES
  6
Continuous
 62
     3
100
AcDbLine
 10
204.9746621622
 20
170.4179133235
 30
0.0
 11
204.9746621622
 21
230.4179133235
 31
0.0
  0
LINE
  5
31C
330
1B
100
AcDbEntity
 67
     1
  8
7_ALL_FEATURES
  6
Continuous
 62
     3
100
AcDbLine
 10
204.9746621622
 20
230.4179133235
 30
0.0
 11
134.9746621622
 21
230.4179133235
 31
0.0
  0
LINE
  5
31D
330
1B
100
AcDbEntity
 67
     1
  8
7_ALL_FEATURES
  6
Continuous
 62
     3
100
AcDbLine
 10
134.9746621622
 20
230.4179133235
 30
0.0
 11
64.9746621622
 21
230.4179133235
 31
0.0
  0
LINE
  5
31E
330
1B
100
AcDbEntity
 67
     1
  8
7_ALL_FEATURES
  6
Continuous
 62
     3
100
AcDbLine
 10
69.9746621622
 20
170.4179133235
 30
0.0
 11
64.9746621622
 21
170.4179133235
 31
0.0
  0
LINE
  5
31F
330
1B
100
AcDbEntity
 67
     1
  8
7_ALL_FEATURES
  6
Continuous
 62
     3
100
AcDbLine
 10
119.9746621622
 20
170.4179133235
 30
0.0
 11
119.9746621622
 21
170.1181042041
 31
0.0
  0
LINE
  5
320
330
1B
100
AcDbEntity
 67
     1
  8
7_ALL_FEATURES
  6
Continuous
 62
     3
100
AcDbLine
 10
69.9746621622
 20
170.1181042041
 30
0.0
 11
69.9746621622
 21
170.4179133235
 31
0.0
  0
LINE
  5
321
330
1B
100
AcDbEntity
 67
     1
  8
7_ALL_FEATURES
  6
Continuous
 62
     3
100
AcDbLine
 10
134.9746621622
 20
170.4179133235
 30
0.0
 11
119.9746621622
 21
170.4179133235
 31
0.0
  0
LINE
  5
322
330
1B
100
AcDbEntity
 67
     1
  8
7_ALL_FEATURES
  6
Continuous
 62
     3
100
AcDbLine
 10
204.9746621622
 20
170.4179133235
 30
0.0
 11
199.9746621622
 21
170.4179133235
 31
0.0
  0
LINE
  5
323
330
1B
100
AcDbEntity
 67
     1
  8
7_ALL_FEATURES
  6
Continuous
 62
     3
100
AcDbLine
 10
149.9746621622
 20
170.4179133235
 30
0.0
 11
134.9746621622
 21
170.4179133235
 31
0.0
  0
LINE
  5
324
330
1B
100
AcDbEntity
 67
     1
  8
7_ALL_FEATURES
  6
Continuous
 62
     3
100
AcDbLine
 10
199.9746621622
 20
170.1181042041
 30
0.0
 11
199.9746621622
 21
170.4179133235
 31
0.0
  0
LINE
  5
325
330
1B
100
AcDbEntity
 67
     1
  8
7_ALL_FEATURES
  6
Continuous
 62
     3
100
AcDbLine
 10
149.9746621622
 20
170.4179133235
 30
0.0
 11
149.9746621622
 21
170.1181042041
 31
0.0
  0
LINE
  5
326
330
1B
100
AcDbEntity
 67
     1
  8
7_ALL_FEATURES
  6
Continuous
 62
     9
100
AcDbLine
 10
199.9746621622
 20
170.4179133235
 30
0.0
 11
149.9746621622
 21
170.4179133235
 31
0.0
  0
LINE
  5
327
330
1B
100
AcDbEntity
 67
     1
  8
7_ALL_FEATURES
  6
Continuous
 62
     9
100
AcDbLine
 10
69.9746621622
 20
170.4179133235
 30
0.0
 11
119.9746621622
 21
170.4179133235
 31
0.0
  0
LINE
  5
328
330
1B
100
AcDbEntity
 67
     1
  8
7_ALL_FEATURES
  6
Continuous
 62
     7
100
AcDbLine
 10
282.7715721434
 20
169.3179133235
 30
0.0
 11
282.7715721434
 21
170.1179133235
 31
0.0
  0
LINE
  5
329
330
1B
100
AcDbEntity
 67
     1
  8
7_ALL_FEATURES
  6
Continuous
 62
     7
100
AcDbLine
 10
282.7715721434
 20
169.3179133235
 30
0.0
 11
288.7483332454
 21
169.3179133235
 31
0.0
  0
ARC
  5
32A
330
1B
100
AcDbEntity
 67
     1
  8
7_ALL_FEATURES
  6
Continuous
 62
     7
100
AcDbCircle
 10
288.7483332454
 20
170.4179133235
 30
0.0
 40
1.1
100
AcDbArc
 50
272.0440005042
 51
360.0
  0
ARC
  5
32B
330
1B
100
AcDbEntity
 67
     1
  8
7_ALL_FEATURES
  6
Continuous
 62
     7
100
AcDbCircle
 10
288.7483332454
 20
170.4179133235
 30
0.0
 40
1.1
100
AcDbArc
 50
270.0
 51
272.0440005042
  0
SPLINE
  5
32C
330
1B
100
AcDbEntity
 67
     1
  8
7_ALL_FEATURES
  6
Continuous
 62
     7
100
AcDbSpline
 70
     0
 71
     3
 72
     9
 73
     5
 74
     0
 42
0.000000001
 43
0.0000001
 40
0.0
 40
0.0
 40
0.0
 40
0.0
 40
0.4999978243
 40
1.0
 40
1.0
 40
1.0
 40
1.0
 10
288.7875669148
 20
169.3186132192
 30
0.0
 10
288.7828113386
 20
169.4518611528
 30
0.0
 10
288.7748789101
 20
169.7184038654
 30
0.0
 10
288.7614115241
 20
169.9847914855
 30
0.0
 10
288.759033337
 20
170.1181042041
 30
0.0
  0
LINE
  5
32D
330
1B
100
AcDbEntity
 67
     1
  8
7_ALL_FEATURES
  6
Continuous
 62
     7
100
AcDbLine
 10
288.7483332454
 20
169.3179133235
 30
0.0
 11
288.7483332454
 21
170.1179133235
 31
0.0
  0
LINE
  5
32E
330
1B
100
AcDbEntity
 67
     1
  8
7_ALL_FEATURES
  6
Continuous
 62
     7
100
AcDbLine
 10
337.3250943473
 20
169.3179133235
 30
0.0
 11
337.3250943473
 21
170.1179133235
 31
0.0
  0
LINE
  5
32F
330
1B
100
AcDbEntity
 67
     1
  8
7_ALL_FEATURES
  6
Continuous
 62
     7
100
AcDbLine
 10
337.3250943473
 20
169.3179133235
 30
0.0
 11
331.3483332454
 21
169.3179133235
 31
0.0
  0
ARC
  5
330
330
1B
100
AcDbEntity
 67
     1
  8
7_ALL_FEATURES
  6
Continuous
 62
     7
100
AcDbCircle
 10
331.3483332454
 20
170.4179133235
 30
0.0
 40
1.1
100
AcDbArc
 50
267.9559994958
 51
270.0
  0
ARC
  5
331
330
1B
100
AcDbEntity
 67
     1
  8
7_ALL_FEATURES
  6
Continuous
 62
     7
100
AcDbCircle
 10
331.3483332454
 20
170.4179133235
 30
0.0
 40
1.1
100
AcDbArc
 50
180.0
 51
267.9559994958
  0
LINE
  5
332
330
1B
100
AcDbEntity
 67
     1
  8
7_ALL_FEATURES
  6
Continuous
 62
     7
100
AcDbLine
 10
331.3483332454
 20
169.3179133235
 30
0.0
 11
331.3483332454
 21
170.1179133235
 31
0.0
  0
SPLINE
  5
333
330
1B
100
AcDbEntity
 67
     1
  8
7_ALL_FEATURES
  6
Continuous
 62
     7
100
AcDbSpline
 70
     0
 71
     3
 72
     9
 73
     5
 74
     0
 42
0.000000001
 43
0.0000001
 40
0.0
 40
0.0
 40
0.0
 40
0.0
 40
0.4999978243
 40
1.0
 40
1.0
 40
1.0
 40
1.0
 10
331.3090995759
 20
169.3186132192
 30
0.0
 10
331.3138551521
 20
169.4518611528
 30
0.0
 10
331.3217875806
 20
169.7184038654
 30
0.0
 10
331.3352549666
 20
169.9847914855
 30
0.0
 10
331.3376331537
 20
170.1181042041
 30
0.0
  0
LINE
  5
334
330
1B
100
AcDbEntity
 67
     1
  8
7_ALL_FEATURES
  6
Continuous
 62
     3
100
AcDbLine
 10
310.0483332454
 20
230.4179133235
 30
0.0
 11
289.0483332454
 21
230.4179133235
 31
0.0
  0
LINE
  5
335
330
1B
100
AcDbEntity
 67
     1
  8
7_ALL_FEATURES
  6
Continuous
 62
     3
100
AcDbLine
 10
310.0483332454
 20
170.4179133235
 30
0.0
 11
289.0483332454
 21
170.4179133235
 31
0.0
  0
LINE
  5
336
330
1B
100
AcDbEntity
 67
     1
  8
7_ALL_FEATURES
  6
Continuous
 62
     3
100
AcDbLine
 10
282.7715721434
 20
170.1179133235
 30
0.0
 11
288.7483332454
 21
170.1179133235
 31
0.0
  0
ARC
  5
337
330
1B
100
AcDbEntity
 67
     1
  8
7_ALL_FEATURES
  6
Continuous
 62
     3
100
AcDbCircle
 10
288.7483332454
 20
170.4179133235
 30
0.0
 40
0.3
100
AcDbArc
 50
270.0
 51
360.0
  0
LINE
  5
338
330
1B
100
AcDbEntity
 67
     1
  8
7_ALL_FEATURES
  6
Continuous
 62
     3
100
AcDbLine
 10
289.0483332454
 20
170.4179133235
 30
0.0
 11
289.0483332454
 21
230.4179133235
 31
0.0
  0
LINE
  5
339
330
1B
100
AcDbEntity
 67
     1
  8
7_ALL_FEATURES
  6
Continuous
 62
     3
100
AcDbLine
 10
310.0483332454
 20
170.4179133235
 30
0.0
 11
310.0483332454
 21
230.4179133235
 31
0.0
  0
LINE
  5
33A
330
1B
100
AcDbEntity
 67
     1
  8
7_ALL_FEATURES
  6
Continuous
 62
     3
100
AcDbLine
 10
331.0483332454
 20
170.4179133235
 30
0.0
 11
331.0483332454
 21
230.4179133235
 31
0.0
  0
LINE
  5
33B
330
1B
100
AcDbEntity
 67
     1
  8
7_ALL_FEATURES
  6
Continuous
 62
     3
100
AcDbLine
 10
337.3250943473
 20
170.1179133235
 30
0.0
 11
331.3483332454
 21
170.1179133235
 31
0.0
  0
LINE
  5
33C
330
1B
100
AcDbEntity
 67
     1
  8
7_ALL_FEATURES
  6
Continuous
 62
     3
100
AcDbLine
 10
331.0483332454
 20
230.4179133235
 30
0.0
 11
310.0483332454
 21
230.4179133235
 31
0.0
  0
LINE
  5
33D
330
1B
100
AcDbEntity
 67
     1
  8
7_ALL_FEATURES
  6
Continuous
 62
     3
100
AcDbLine
 10
331.0483332454
 20
170.4179133235
 30
0.0
 11
310.0483332454
 21
170.4179133235
 31
0.0
  0
ARC
  5
33E
330
1B
100
AcDbEntity
 67
     1
  8
7_ALL_FEATURES
  6
Continuous
 62
     3
100
AcDbCircle
 10
331.3483332454
 20
170.4179133235
 30
0.0
 40
0.3
100
AcDbArc
 50
180.0
 51
270.0
  0
LINE
  5
33F
330
1B
100
AcDbEntity
 67
     1
  8
7_ALL_FEATURES
  6
Continuous
 62
     3
100
AcDbLine
 10
310.0483332454
 20
170.4179133235
 30
0.0
 11
310.0483332454
 21
230.4179133235
 31
0.0
  0
DIMENSION
  5
340
330
1B
100
AcDbEntity
 67
     1
  8
0
  6
Continuous
 62
     2
100
AcDbDimension
280
     0
  2
*D1
 10
46.8037378062
 20
230.4179133235
 30
0.0
 11
46.8037378062
 21
199.5573254779
 31
0.0
 70
   160
 71
     5
 42
-1.0
 73
     0
 74
     0
 75
     0
  3
DIMSTYLE_1
100
AcDbAlignedDimension
 13
58.8908718854
 23
169.3179133235
 33
0.0
 14
53.5325
 24
230.4179133235
 34
0.0
 50
90.0
100
AcDbRotatedDimension
  0
DIMENSION
  5
341
330
1B
100
AcDbEntity
 67
     1
  8
0
  6
Continuous
 62
     2
100
AcDbDimension
280
     0
  2
*D2
 10
204.9746621622
 20
242.1140425465
 30
0.0
 11
135.1035525513
 21
242.1140425465
 31
0.0
 70
   160
 71
     5
 42
-1.0
 73
     0
 74
     0
 75
     0
  3
DIMSTYLE_2
100
AcDbAlignedDimension
 13
64.9746621622
 23
234.9789074113
 33
0.0
 14
204.9746621622
 24
234.9789074113
 34
0.0
100
AcDbRotatedDimension
  0
DIMENSION
  5
342
330
1B
100
AcDbEntity
 67
     1
  8
0
  6
Continuous
 62
     2
100
AcDbDimension
280
     0
  2
*D3
 10
331.0483332454
 20
242.1140425465
 30
0.0
 11
309.9566418457
 21
242.1140425465
 31
0.0
 70
   160
 71
     5
 42
-1.0
 73
     0
 74
     0
 75
     0
  3
DIMSTYLE_1
100
AcDbAlignedDimension
 13
289.0483332454
 23
234.5682511613
 33
0.0
 14
331.0483332454
 24
234.9789074113
 34
0.0
100
AcDbRotatedDimension
  0
DIMENSION
  5
343
330
1B
100
AcDbEntity
 67
     1
  8
0
  6
Continuous
 62
     2
100
AcDbDimension
280
     0
  2
*D4
 10
221.1403946896
 20
80.3184669386
 30
0.0
 11
221.1403946896
 21
107.5944317941
 31
0.0
 70
   160
 71
     5
 42
-1.0
 73
     0
 74
     0
 75
     0
  3
DIMSTYLE_1
100
AcDbAlignedDimension
 13
205.4497497362
 23
134.8719891425
 33
0.0
 14
204.1727227092
 24
80.3184669386
 34
0.0
 50
270.0
100
AcDbRotatedDimension
  0
LINE
  5
344
330
1B
100
AcDbEntity
 67
     1
  8
0
  6
Continuous
 62
     2
100
AcDbLine
 10
284.1609362191
 20
72.2480543107
 30
0.0
 11
414.1609362191
 21
72.2480543107
 31
0.0
  0
LINE
  5
345
330
1B
100
AcDbEntity
 67
     1
  8
0
  6
Continuous
 62
     2
100
AcDbLine
 10
284.1609362191
 20
72.2480543107
 30
0.0
 11
284.1609362191
 21
6.2480543107
 31
0.0
  0
LINE
  5
346
330
1B
100
AcDbEntity
 67
     1
  8
0
  6
Continuous
 62
     2
100
AcDbLine
 10
314.1609362191
 20
64.2480543107
 30
0.0
 11
414.1609362191
 21
64.2480543107
 31
0.0
  0
LINE
  5
347
330
1B
100
AcDbEntity
 67
     1
  8
0
  6
Continuous
 62
     2
100
AcDbLine
 10
284.1609362191
 20
56.2480543107
 30
0.0
 11
414.1609362191
 21
56.2480543107
 31
0.0
  0
LINE
  5
348
330
1B
100
AcDbEntity
 67
     1
  8
0
  6
Continuous
 62
     2
100
AcDbLine
 10
314.1609362191
 20
50.2480543107
 30
0.0
 11
414.1609362191
 21
50.2480543107
 31
0.0
  0
LINE
  5
349
330
1B
100
AcDbEntity
 67
     1
  8
0
  6
Continuous
 62
     2
100
AcDbLine
 10
314.1609362191
 20
44.2480543107
 30
0.0
 11
414.1609362191
 21
44.2480543107
 31
0.0
  0
LINE
  5
34A
330
1B
100
AcDbEntity
 67
     1
  8
0
  6
Continuous
 62
     2
100
AcDbLine
 10
314.1609362191
 20
38.2480543107
 30
0.0
 11
414.1609362191
 21
38.2480543107
 31
0.0
  0
LINE
  5
34B
330
1B
100
AcDbEntity
 67
     1
  8
0
  6
Continuous
 62
     2
100
AcDbLine
 10
314.1609362191
 20
32.2480543107
 30
0.0
 11
414.1609362191
 21
32.2480543107
 31
0.0
  0
LINE
  5
34C
330
1B
100
AcDbEntity
 67
     1
  8
0
  6
Continuous
 62
     2
100
AcDbLine
 10
314.1609362191
 20
26.2480543107
 30
0.0
 11
414.1609362191
 21
26.2480543107
 31
0.0
  0
LINE
  5
34D
330
1B
100
AcDbEntity
 67
     1
  8
0
  6
Continuous
 62
     2
100
AcDbLine
 10
284.1609362191
 20
20.2480543107
 30
0.0
 11
414.1609362191
 21
20.2480543107
 31
0.0
  0
LINE
  5
34E
330
1B
100
AcDbEntity
 67
     1
  8
0
  6
Continuous
 62
     2
100
AcDbLine
 10
284.1609362191
 20
14.2480543107
 30
0.0
 11
414.1609362191
 21
14.2480543107
 31
0.0
  0
LINE
  5
34F
330
1B
100
AcDbEntity
 67
     1
  8
0
  6
Continuous
 62
     2
100
AcDbLine
 10
284.1609362191
 20
10.2480543107
 30
0.0
 11
414.1609362191
 21
10.2480543107
 31
0.0
  0
LINE
  5
350
330
1B
100
AcDbEntity
 67
     1
  8
0
  6
Continuous
 62
     2
100
AcDbLine
 10
284.1609362191
 20
6.2480543107
 30
0.0
 11
414.1609362191
 21
6.2480543107
 31
0.0
  0
LINE
  5
351
330
1B
100
AcDbEntity
 67
     1
  8
0
  6
Continuous
 62
     2
100
AcDbLine
 10
314.1609362191
 20
72.2480543107
 30
0.0
 11
314.1609362191
 21
14.2480543107
 31
0.0
  0
LINE
  5
352
330
1B
100
AcDbEntity
 67
     1
  8
0
  6
Continuous
 62
     2
100
AcDbLine
 10
334.1609362191
 20
56.2480543107
 30
0.0
 11
334.1609362191
 21
50.2480543107
 31
0.0
  0
LINE
  5
353
330
1B
100
AcDbEntity
 67
     1
  8
0
  6
Continuous
 62
     2
100
AcDbLine
 10
364.1609362191
 20
26.2480543107
 30
0.0
 11
364.1609362191
 21
14.2480543107
 31
0.0
  0
LINE
  5
354
330
1B
100
AcDbEntity
 67
     1
  8
0
  6
Continuous
 62
     2
100
AcDbLine
 10
374.1609362191
 20
56.2480543107
 30
0.0
 11
374.1609362191
 21
50.2480543107
 31
0.0
  0
LINE
  5
355
330
1B
100
AcDbEntity
 67
     1
  8
0
  6
Continuous
 62
     2
100
AcDbLine
 10
374.1609362191
 20
44.2480543107
 30
0.0
 11
374.1609362191
 21
38.2480543107
 31
0.0
  0
LINE
  5
356
330
1B
100
AcDbEntity
 67
     1
  8
0
  6
Continuous
 62
     2
100
AcDbLine
 10
394.1609362191
 20
56.2480543107
 30
0.0
 11
394.1609362191
 21
50.2480543107
 31
0.0
  0
LINE
  5
357
330
1B
100
AcDbEntity
 67
     1
  8
0
  6
Continuous
 62
     2
100
AcDbLine
 10
404.1609362191
 20
44.2480543107
 30
0.0
 11
404.1609362191
 21
38.2480543107
 31
0.0
  0
LINE
  5
358
330
1B
100
AcDbEntity
 67
     1
  8
0
  6
Continuous
 62
     2
100
AcDbLine
 10
414.1609362191
 20
72.2480543107
 30
0.0
 11
414.1609362191
 21
6.2480543107
 31
0.0
  0
INSERT
  5
359
330
1B
100
AcDbEntity
 67
     1
  8
0
  6
Continuous
 62
     2
100
AcDbBlockReference
  2
PROIEZIONE_EU_BL0
 10
299.1609362191
 20
63.8730543107
 30
0.0
  0
MTEXT
  5
35A
330
1B
100
AcDbEntity
 67
     1
  8
9_SOLID
  6
Continuous
 62
     2
100
AcDbMText
 10
315.6484362191
 20
70.6230543107
 30
0.0
 40
1.9
 41
142.3642857143
 46
0.0
 71
     1
 72
     1
  1
EN: Chamfer/radii unlisted 0.3x45°. Remove sharp edges.\PGen. tol.: hole H11, shaft h11, lenght Js12. UNI EN 22768 Medium Grande.
  7
TEXTSTYLE_3
 73
     1
 44
1.0
  0
MTEXT
  5
35B
330
1B
100
AcDbEntity
 67
     1
  8
9_SOLID
  6
Continuous
 62
     2
100
AcDbMText
 10
315.6484362191
 20
62.6230543107
 30
0.0
 40
1.9
 41
148.2678571429
 46
0.0
 71
     1
 72
     1
  1
IT: Sm./rac. non quotati 0.3x45°. Eliminare spigoli taglienti.\PToll. gen.: foro H11, albero h11, lunghezza Js12. UNI EN 22768 Grado Medio.
  7
TEXTSTYLE_3
 73
     1
 44
1.0
  0
INSERT
  5
35C
330
1B
100
AcDbEntity
 67
     1
  8
0
  6
Continuous
 62
     2
100
AcDbBlockReference
  2
LOGO2_BL1
 10
297.9869832638
 20
38.2480543107
 30
0.0
  0
MTEXT
  5
35D
330
1B
100
AcDbEntity
 67
     1
  8
9_SOLID
  6
Continuous
 62
     2
100
AcDbMText
 10
315.6484362191
 20
54.4980543107
 30
0.0
 40
3.0
 41
20.4642857143
 46
0.0
 71
     1
 72
     1
  1
Pj: 191
  7
TEXTSTYLE_3
 73
     1
 44
1.0
  0
MTEXT
  5
35E
330
1B
100
AcDbEntity
 67
     1
  8
0
  6
Continuous
 62
     2
100
AcDbMText
 10
335.6484362191
 20
54.4980543107
 30
0.0
 40
3.0
 41
41.5714285714
 46
0.0
 71
     1
 72
     1
  1
% Check:  %
  7
TEXTSTYLE_3
 73
     1
 44
1.0
  0
MTEXT
  5
35F
330
1B
100
AcDbEntity
 67
     1
  8
9_SOLID
  6
Continuous
 62
     2
100
AcDbMText
 10
375.6484362191
 20
54.4980543107
 30
0.0
 40
3.0
 41
19.5
 46
0.0
 71
     1
 72
     1
  1
Rev:00
  7
TEXTSTYLE_3
 73
     1
 44
1.0
  0
MTEXT
  5
360
330
1B
100
AcDbEntity
 67
     1
  8
9_SOLID
  6
Continuous
 62
     2
100
AcDbMText
 10
395.6484362191
 20
54.7480543107
 30
0.0
 40
3.0
 41
19.7142857143
 46
0.0
 71
     1
 72
     1
  1
Ver: A
  7
TEXTSTYLE_3
 73
     1
 44
1.0
  0
MTEXT
  5
361
330
1B
100
AcDbEntity
 67
     1
  8
9_SOLID
  6
Continuous
 62
     2
100
AcDbMText
 10
315.6484362191
 20
48.4980543107
 30
0.0
 40
3.0
 41
42.9642857143
 46
0.0
 71
     1
 72
     1
  1
Neutral code: 
  7
TEXTSTYLE_3
 73
     1
 44
1.0
  0
MTEXT
  5
362
330
1B
100
AcDbEntity
 67
     1
  8
0
  6
Continuous
 62
     2
100
AcDbMText
 10
315.6484362191
 20
42.4980543107
 30
0.0
 40
3.0
 41
22.9285714286
 46
0.0
 71
     1
 72
     1
  1
Code:  
  7
TEXTSTYLE_3
 73
     1
 44
1.0
  0
MTEXT
  5
363
330
1B
100
AcDbEntity
 67
     1
  8
9_SOLID
  6
Continuous
 62
     2
100
AcDbMText
 10
375.6484362191
 20
42.7480543107
 30
0.0
 40
3.0
 41
27.8571428571
 46
0.0
 71
     1
 72
     1
  1
Scale: 1:1
  7
TEXTSTYLE_3
 73
     1
 44
1.0
  0
MTEXT
  5
364
330
1B
100
AcDbEntity
 67
     1
  8
9_SOLID
  6
Continuous
 62
     2
100
AcDbMText
 10
409.1609362191
 20
42.7480543107
 30
0.0
 40
3.0
 41
7.9285714286
 46
0.0
 71
     2
 72
     1
  1
A3
  7
TEXTSTYLE_3
 73
     1
 44
1.0
  0
MTEXT
  5
365
330
1B
100
AcDbEntity
 67
     1
  8
9_SOLID
  6
Continuous
 62
     2
100
AcDbMText
 10
315.6484362191
 20
36.7480543107
 30
0.0
 40
3.0
 41
95.25
 46
0.0
 71
     1
 72
     1
  1
It descr.: CASSAFORMA LINE2.0
  7
TEXTSTYLE_3
 73
     1
 44
1.0
  0
MTEXT
  5
366
330
1B
100
AcDbEntity
 67
     1
  8
0
  6
Continuous
 62
     2
100
AcDbMText
 10
315.6484362191
 20
30.7480543107
 30
0.0
 40
3.0
 41
37.5
 46
0.0
 71
     1
 72
     1
  1
En descr.:  
  7
TEXTSTYLE_3
 73
     1
 44
1.0
  0
MTEXT
  5
367
330
1B
100
AcDbEntity
 67
     1
  8
9_SOLID
  6
Continuous
 62
     2
100
AcDbMText
 10
315.6484362191
 20
24.7480543107
 30
0.0
 40
3.0
 41
31.2857142857
 46
0.0
 71
     1
 72
     1
  1
Des.: S.Z.
  7
TEXTSTYLE_3
 73
     1
 44
1.0
  0
MTEXT
  5
368
330
1B
100
AcDbEntity
 67
     1
  8
9_SOLID
  6
Continuous
 62
     2
100
AcDbMText
 10
365.6484362191
 20
24.7480543107
 30
0.0
 40
3.0
 41
34.8214285714
 46
0.0
 71
     1
 72
     1
  1
Check: A.P.
  7
TEXTSTYLE_3
 73
     1
 44
1.0
  0
MTEXT
  5
369
330
1B
100
AcDbEntity
 67
     1
  8
9_SOLID
  6
Continuous
 62
     2
100
AcDbMText
 10
285.6484362191
 20
18.7480543107
 30
0.0
 40
3.0
 41
42.5357142857
 46
0.0
 71
     1
 72
     1
  1
Date: 18.12.18
  7
TEXTSTYLE_3
 73
     1
 44
1.0
  0
MTEXT
  5
36A
330
1B
100
AcDbEntity
 67
     1
  8
0
  6
Continuous
 62
     2
100
AcDbMText
 10
315.6484362191
 20
18.7480543107
 30
0.0
 40
3.0
 41
21.75
 46
0.0
 71
     1
 72
     1
  1
Mat.:  
  7
TEXTSTYLE_3
 73
     1
 44
1.0
  0
MTEXT
  5
36B
330
1B
100
AcDbEntity
 67
     1
  8
9_SOLID
  6
Continuous
 62
     2
100
AcDbMText
 10
365.6484362191
 20
18.2480543107
 30
0.0
 40
2.0
 41
42.3571428571
 46
0.0
 71
     1
 72
     1
  1
Disegno per catalogo
  7
TEXTSTYLE_3
 73
     1
 44
1.0
  0
MTEXT
  5
36C
330
1B
100
AcDbEntity
 67
     1
  8
9_SOLID
  6
Continuous
 62
     2
100
AcDbMText
 10
285.6484362191
 20
13.1480543107
 30
0.0
 40
1.8
 41
176.2071428571
 46
0.0
 71
     1
 72
     1
  1
It: A norma di legge si diffida da qualsiasi riproduzione senza nostra autorizzazione esplicita.
  7
TEXTSTYLE_3
 73
     1
 44
1.0
  0
MTEXT
  5
36D
330
1B
100
AcDbEntity
 67
     1
  8
9_SOLID
  6
Continuous
 62
     2
100
AcDbMText
 10
285.6484362191
 20
9.1480543107
 30
0.0
 40
1.8
 41
158.1428571429
 46
0.0
 71
     1
 72
     1
  1
En: According to the law, beware of any reproduction made without our authorization.
  7
TEXTSTYLE_3
 73
     1
 44
1.0
  0
ENDSEC
  0
SECTION
  2
OBJECTS
  0
DICTIONARY
  5
36E
330
0
100
AcDbDictionary
281
     1
  3
ACAD_DETAILVIEWSTYLE
350
3C4
  3
ACAD_GROUP
350
36F
  3
ACAD_LAYOUT
350
397
  3
ACAD_MATERIAL
350
3B3
  3
ACAD_MLEADERSTYLE
350
3B9
  3
ACAD_MLINESTYLE
350
370
  3
ACAD_PLOTSETTINGS
350
372
  3
ACAD_PLOTSTYLENAME
350
373
  3
ACAD_SCALELIST
350
375
  3
ACAD_SECTIONVIEWSTYLE
350
3C5
  3
ACAD_TABLESTYLE
350
3B7
  3
ACAD_VISUALSTYLE
350
39A
  3
ACDB_RECOMPOSE_DATA
350
3C0
  3
AcDbVariableDictionary
350
3BC
  3
APPDATA
350
3BB
  0
DICTIONARY
  5
3C4
102
{ACAD_REACTORS
330
36E
102
}
330
36E
100
AcDbDictionary
281
     1
  0
DICTIONARY
  5
36F
102
{ACAD_REACTORS
330
36E
102
}
330
36E
100
AcDbDictionary
281
     1
  0
DICTIONARY
  5
397
102
{ACAD_REACTORS
330
36E
102
}
330
36E
100
AcDbDictionary
281
     1
  3
Foglio 1
350
399
  3
Model
350
398
  0
DICTIONARY
  5
3B3
102
{ACAD_REACTORS
330
36E
102
}
330
36E
100
AcDbDictionary
281
     1
  3
ByBlock
350
3B5
  3
ByLayer
350
3B4
  3
Global
350
3B6
  0
DICTIONARY
  5
3B9
102
{ACAD_REACTORS
330
36E
102
}
330
36E
100
AcDbDictionary
281
     1
  3
Standard
350
3BA
  0
DICTIONARY
  5
370
102
{ACAD_REACTORS
330
36E
102
}
330
36E
100
AcDbDictionary
281
     1
  3
STANDARD
350
371
  0
DICTIONARY
  5
372
102
{ACAD_REACTORS
330
36E
102
}
330
36E
100
AcDbDictionary
281
     1
  0
ACDBDICTIONARYWDFLT
  5
373
102
{ACAD_REACTORS
330
36E
102
}
330
36E
100
AcDbDictionary
281
     1
  3
Normal
350
374
100
AcDbDictionaryWithDefault
340
374
  0
DICTIONARY
  5
375
102
{ACAD_REACTORS
330
36E
102
}
330
36E
100
AcDbDictionary
281
     1
  3
A0
350
376
  3
A1
350
377
  3
A2
350
378
  3
A3
350
379
  3
A4
350
37A
  3
A5
350
37B
  3
A6
350
37C
  3
A7
350
37D
  3
A8
350
37E
  3
A9
350
37F
  3
B0
350
380
  3
B1
350
381
  3
B2
350
382
  3
B3
350
383
  3
B4
350
384
  3
B5
350
385
  3
B6
350
386
  3
B7
350
387
  3
B8
350
388
  3
B9
350
389
  3
C0
350
38A
  3
C1
350
38B
  3
C2
350
38C
  3
C3
350
38D
  3
C4
350
38E
  3
C5
350
38F
  3
C6
350
390
  3
C7
350
391
  3
C8
350
392
  3
C9
350
393
  3
D0
350
394
  3
D1
350
395
  3
D2
350
396
  0
DICTIONARY
  5
3C5
102
{ACAD_REACTORS
330
36E
102
}
330
36E
100
AcDbDictionary
281
     1
  0
DICTIONARY
  5
3B7
102
{ACAD_REACTORS
330
36E
102
}
330
36E
100
AcDbDictionary
281
     1
  3
Standard
350
3B8
  0
DICTIONARY
  5
39A
102
{ACAD_REACTORS
330
36E
102
}
330
36E
100
AcDbDictionary
281
     1
  3
2dWireframe
350
39F
  3
Basic
350
3A2
  3
Brighten
350
3A6
  3
ColorChange
350
3AA
  3
Conceptual
350
3A4
  3
Dim
350
3A5
  3
EdgeColorOff
350
3AD
  3
Facepattern
350
3A9
  3
Flat
350
39B
  3
FlatWithEdges
350
39C
  3
Gouraud
350
39D
  3
GouraudWithEdges
350
39E
  3
Hidden
350
3A1
  3
JitterOff
350
3AB
  3
Linepattern
350
3A8
  3
OverhangOff
350
3AC
  3
Realistic
350
3A3
  3
Shaded
350
3B2
  3
Shaded with edges
350
3B1
  3
Shades of Gray
350
3AE
  3
Sketchy
350
3AF
  3
Thicken
350
3A7
  3
Wireframe
350
3A0
  3
X-Ray
350
3B0
  0
XRECORD
  5
3C0
102
{ACAD_REACTORS
330
36E
102
}
330
36E
100
AcDbXrecord
280
     1
 90
        1
330
3B8
  0
DICTIONARY
  5
3BC
102
{ACAD_REACTORS
330
36E
102
}
330
36E
100
AcDbDictionary
281
     1
  3
CANNOSCALE
350
3BD
  3
CMLEADERSTYLE
350
3C2
  3
CTABLESTYLE
350
3C1
  3
MSLTSCALE
350
3C3
  0
DICTIONARY
  5
3BB
102
{ACAD_REACTORS
330
36E
102
}
330
36E
100
AcDbDictionary
281
     1
  0
LAYOUT
  5
399
102
{ACAD_REACTORS
330
397
102
}
330
397
100
AcDbPlotSettings
  1

  2
none_device
  4
ISO_A3_(420.00_x_297.00_MM)
  6

 40
7.5
 41
20.0
 42
7.5
 43
20.0
 44
420.0
 45
297.0
 46
0.0
 47
0.0
 48
0.0
 49
0.0
140
0.0
141
0.0
142
1.0
143
1.155642023346303
 70
   688
 72
     1
 73
     0
 74
     1
  7

 75
     0
 76
     0
 77
     2
 78
   300
147
0.8653198653198654
148
0.0
149
0.0
100
AcDbLayout
  1
Foglio 1
 70
     1
 71
     1
 10
0.0
 20
0.0
 11
412.5
 21
277.0
 12
0.0
 22
0.0
 32
0.0
 14
0.0
 24
0.0
 34
0.0
 15
421.7001028857667
 25
297.0
 35
0.0
146
0.0
 13
0.0
 23
0.0
 33
0.0
 16
1.0
 26
0.0
 36
0.0
 17
0.0
 27
1.0
 37
0.0
 76
     0
330
1B
331
29A
  0
LAYOUT
  5
398
102
{ACAD_REACTORS
330
397
102
}
330
397
100
AcDbPlotSettings
  1

  2
none_device
  4
Letter_(8.50_x_11.00_Inches)
  6

 40
6.35
 41
6.35
 42
6.35
 43
6.35
 44
215.9
 45
279.4
 46
0.0
 47
0.0
 48
0.0
 49
0.0
140
0.0
141
0.0
142
1.0
143
52.49999999846251
 70
  1712
 72
     0
 73
     0
 74
     0
  7

 75
     0
 76
     0
 77
     2
 78
   300
147
0.0190476190481769
148
-0.0000001562100806
149
0.0
100
AcDbLayout
  1
Model
 70
     1
 71
     0
 10
0.0
 20
0.0
 11
420.0
 21
297.0
 12
0.0
 22
0.0
 32
0.0
 14
0.0
 24
0.0
 34
0.0
 15
420.0
 25
297.0
 35
0.0
146
0.0
 13
0.0
 23
0.0
 33
0.0
 16
1.0
 26
0.0
 36
0.0
 17
0.0
 27
1.0
 37
0.0
 76
     0
330
1F
331
1F4
  0
MATERIAL
  5
3B5
102
{ACAD_REACTORS
330
3B3
102
}
330
3B3
100
AcDbMaterial
  1
ByBlock
 72
     1
 94
      127
  0
MATERIAL
  5
3B4
102
{ACAD_REACTORS
330
3B3
102
}
330
3B3
100
AcDbMaterial
  1
ByLayer
 72
     1
 94
      127
  0
MATERIAL
  5
3B6
102
{ACAD_REACTORS
330
3B3
102
}
330
3B3
100
AcDbMaterial
  1
Global
 72
     1
 94
      127
  0
MLEADERSTYLE
  5
3BA
102
{ACAD_REACTORS
330
3B9
102
}
330
3B9
100
AcDbMLeaderStyle
179
     2
170
     2
171
     1
172
     0
 90
        2
 40
0.0
 41
0.0
173
     1
 91
-1056964608
340
14
 92
       -2
290
     1
 42
2.0
291
     1
 43
8.0
  3
Standard
341
0
 44
4.0
300

342
11
174
     1
178
     1
175
     1
176
     0
 93
-1056964608
 45
4.0
292
     0
297
     0
 46
4.0
343
0
 94
-1056964608
 47
1.0
 49
1.0
140
1.0
293
     1
141
0.0
294
     1
177
     0
142
1.0
295
     0
296
     0
143
3.75
271
     0
272
     9
273
     9
298
     0
  0
MLINESTYLE
  5
371
102
{ACAD_REACTORS
330
370
102
}
330
370
100
AcDbMlineStyle
  2
STANDARD
 70
     0
  3

 62
   256
 51
90.0
 52
90.0
 71
     2
 49
0.5
 62
   256
  6
BYLAYER
 49
-0.5
 62
   256
  6
BYLAYER
  0
ACDBPLACEHOLDER
  5
374
102
{ACAD_REACTORS
330
373
102
}
330
373
  0
SCALE
  5
376
102
{ACAD_REACTORS
330
375
102
}
330
375
100
AcDbScale
 70
     0
300
1:1
140
1.0
141
1.0
290
     1
  0
SCALE
  5
377
102
{ACAD_REACTORS
330
375
102
}
330
375
100
AcDbScale
 70
     0
300
1:2
140
1.0
141
2.0
290
     0
  0
SCALE
  5
378
102
{ACAD_REACTORS
330
375
102
}
330
375
100
AcDbScale
 70
     0
300
1:4
140
1.0
141
4.0
290
     0
  0
SCALE
  5
379
102
{ACAD_REACTORS
330
375
102
}
330
375
100
AcDbScale
 70
     0
300
1:5
140
1.0
141
5.0
290
     0
  0
SCALE
  5
37A
102
{ACAD_REACTORS
330
375
102
}
330
375
100
AcDbScale
 70
     0
300
1:8
140
1.0
141
8.0
290
     0
  0
SCALE
  5
37B
102
{ACAD_REACTORS
330
375
102
}
330
375
100
AcDbScale
 70
     0
300
1:10
140
1.0
141
10.0
290
     0
  0
SCALE
  5
37C
102
{ACAD_REACTORS
330
375
102
}
330
375
100
AcDbScale
 70
     0
300
1:16
140
1.0
141
16.0
290
     0
  0
SCALE
  5
37D
102
{ACAD_REACTORS
330
375
102
}
330
375
100
AcDbScale
 70
     0
300
1:20
140
1.0
141
20.0
290
     0
  0
SCALE
  5
37E
102
{ACAD_REACTORS
330
375
102
}
330
375
100
AcDbScale
 70
     0
300
1:30
140
1.0
141
30.0
290
     0
  0
SCALE
  5
37F
102
{ACAD_REACTORS
330
375
102
}
330
375
100
AcDbScale
 70
     0
300
1:40
140
1.0
141
40.0
290
     0
  0
SCALE
  5
380
102
{ACAD_REACTORS
330
375
102
}
330
375
100
AcDbScale
 70
     0
300
1:50
140
1.0
141
50.0
290
     0
  0
SCALE
  5
381
102
{ACAD_REACTORS
330
375
102
}
330
375
100
AcDbScale
 70
     0
300
1:100
140
1.0
141
100.0
290
     0
  0
SCALE
  5
382
102
{ACAD_REACTORS
330
375
102
}
330
375
100
AcDbScale
 70
     0
300
2:1
140
2.0
141
1.0
290
     0
  0
SCALE
  5
383
102
{ACAD_REACTORS
330
375
102
}
330
375
100
AcDbScale
 70
     0
300
4:1
140
4.0
141
1.0
290
     0
  0
SCALE
  5
384
102
{ACAD_REACTORS
330
375
102
}
330
375
100
AcDbScale
 70
     0
300
8:1
140
8.0
141
1.0
290
     0
  0
SCALE
  5
385
102
{ACAD_REACTORS
330
375
102
}
330
375
100
AcDbScale
 70
     0
300
10:1
140
10.0
141
1.0
290
     0
  0
SCALE
  5
386
102
{ACAD_REACTORS
330
375
102
}
330
375
100
AcDbScale
 70
     0
300
100:1
140
100.0
141
1.0
290
     0
  0
SCALE
  5
387
102
{ACAD_REACTORS
330
375
102
}
330
375
100
AcDbScale
 70
     0
300
1/128" = 1'-0"
140
0.0078125
141
12.0
290
     0
  0
SCALE
  5
388
102
{ACAD_REACTORS
330
375
102
}
330
375
100
AcDbScale
 70
     0
300
1/64" = 1'-0"
140
0.015625
141
12.0
290
     0
  0
SCALE
  5
389
102
{ACAD_REACTORS
330
375
102
}
330
375
100
AcDbScale
 70
     0
300
1/32" = 1'-0"
140
0.03125
141
12.0
290
     0
  0
SCALE
  5
38A
102
{ACAD_REACTORS
330
375
102
}
330
375
100
AcDbScale
 70
     0
300
1/16" = 1'-0"
140
0.0625
141
12.0
290
     0
  0
SCALE
  5
38B
102
{ACAD_REACTORS
330
375
102
}
330
375
100
AcDbScale
 70
     0
300
3/32" = 1'-0"
140
0.09375
141
12.0
290
     0
  0
SCALE
  5
38C
102
{ACAD_REACTORS
330
375
102
}
330
375
100
AcDbScale
 70
     0
300
1/8" = 1'-0"
140
0.125
141
12.0
290
     0
  0
SCALE
  5
38D
102
{ACAD_REACTORS
330
375
102
}
330
375
100
AcDbScale
 70
     0
300
3/16" = 1'-0"
140
0.1875
141
12.0
290
     0
  0
SCALE
  5
38E
102
{ACAD_REACTORS
330
375
102
}
330
375
100
AcDbScale
 70
     0
300
1/4" = 1'-0"
140
0.25
141
12.0
290
     0
  0
SCALE
  5
38F
102
{ACAD_REACTORS
330
375
102
}
330
375
100
AcDbScale
 70
     0
300
3/8" = 1'-0"
140
0.375
141
12.0
290
     0
  0
SCALE
  5
390
102
{ACAD_REACTORS
330
375
102
}
330
375
100
AcDbScale
 70
     0
300
1/2" = 1'-0"
140
0.5
141
12.0
290
     0
  0
SCALE
  5
391
102
{ACAD_REACTORS
330
375
102
}
330
375
100
AcDbScale
 70
     0
300
3/4" = 1'-0"
140
0.75
141
12.0
290
     0
  0
SCALE
  5
392
102
{ACAD_REACTORS
330
375
102
}
330
375
100
AcDbScale
 70
     0
300
1" = 1'-0"
140
1.0
141
12.0
290
     0
  0
SCALE
  5
393
102
{ACAD_REACTORS
330
375
102
}
330
375
100
AcDbScale
 70
     0
300
1-1/2" = 1'-0"
140
1.5
141
12.0
290
     0
  0
SCALE
  5
394
102
{ACAD_REACTORS
330
375
102
}
330
375
100
AcDbScale
 70
     0
300
3" = 1'-0"
140
3.0
141
12.0
290
     0
  0
SCALE
  5
395
102
{ACAD_REACTORS
330
375
102
}
330
375
100
AcDbScale
 70
     0
300
6" = 1'-0"
140
6.0
141
12.0
290
     0
  0
SCALE
  5
396
102
{ACAD_REACTORS
330
375
102
}
330
375
100
AcDbScale
 70
     0
300
1'-0" = 1'-0"
140
12.0
141
12.0
290
     0
  0
TABLESTYLE
  5
3B8
102
{ACAD_REACTORS
330
3B7
102
}
102
{ACAD_XDICTIONARY
360
3BE
102
}
330
3B7
100
AcDbTableStyle
  3
Standard
 70
     0
 71
     0
 40
0.06
 41
0.06
280
     0
281
     0
  7
STANDARD
140
4.5
170
     2
 62
     0
 63
   257
283
     0
 90
        4
 91
        0
  1

274
    -2
284
     1
 64
     0
275
    -2
285
     1
 65
     0
276
    -2
286
     1
 66
     0
277
    -2
287
     1
 67
     0
278
    -2
288
     1
 68
     0
279
    -2
289
     1
 69
     0
  7
STANDARD
140
6.0
170
     5
 62
     0
 63
   257
283
     0
 90
        4
 91
        0
  1

274
    -2
284
     1
 64
     0
275
    -2
285
     1
 65
     0
276
    -2
286
     1
 66
     0
277
    -2
287
     1
 67
     0
278
    -2
288
     1
 68
     0
279
    -2
289
     1
 69
     0
  7
STANDARD
140
4.5
170
     5
 62
     0
 63
   257
283
     0
 90
        4
 91
        0
  1

274
    -2
284
     1
 64
     0
275
    -2
285
     1
 65
     0
276
    -2
286
     1
 66
     0
277
    -2
287
     1
 67
     0
278
    -2
288
     1
 68
     0
279
    -2
289
     1
 69
     0
  0
VISUALSTYLE
  5
39F
102
{ACAD_REACTORS
330
39A
102
}
330
39A
100
AcDbVisualStyle
  2
2dWireframe
 70
     4
177
     3
291
     0
 70
    58
 90
        0
176
     1
 90
        2
176
     1
 90
        0
176
     1
 90
        0
176
     1
 40
0.6
176
     1
 40
30.0
176
     1
 62
     7
420
 16777215
176
     1
 90
        1
176
     1
 90
        4
176
     1
 62
     7
176
     1
 62
   257
176
     1
 90
        1
176
     1
 90
        1
176
     1
 40
1.0
176
     1
 90
        0
176
     1
 62
   257
176
     1
 40
1.0
176
     1
 90
        1
176
     1
 90
        6
176
     1
 90
        2
176
     1
 62
     7
176
     1
 90
        5
176
     1
 90
        0
176
     1
 90
        0
176
     1
290
     0
176
     1
 90
        1
176
     1
 40
0.0
176
     1
 90
        0
176
     1
290
     1
176
     1
290
     1
176
     1
290
     0
176
     1
290
     0
176
     1
290
     0
176
     1
290
     0
176
     1
290
     0
176
     1
290
     0
176
     1
290
     0
176
     1
 90
       50
176
     1
 40
0.0
176
     1
 40
1.0
176
     1
 90
        0
176
     1
 62
    18
420
        0
176
     1
 90
       50
176
     1
 90
        3
176
     1
 62
     5
420
      255
176
     1
290
     0
176
     1
 90
       50
176
     1
 90
       50
176
     1
 90
       50
176
     1
290
     0
176
     1
 90
       50
176
     1
 62
   256
176
     0
 40
1.0
176
     0
 90
        2
176
     1
  1
strokes_ogs.tif
176
     1
290
     0
176
     1
 40
1.0
176
     1
 40
1.0
176
     1
  0
VISUALSTYLE
  5
3A2
102
{ACAD_REACTORS
330
39A
102
}
330
39A
100
AcDbVisualStyle
  2
Basic
 70
     7
177
     3
291
     1
 70
    58
 90
        1
176
     1
 90
        0
176
     1
 90
        1
176
     1
 90
        0
176
     1
 40
0.6
176
     1
 40
30.0
176
     1
 62
     7
420
 16777215
176
     1
 90
        0
176
     1
 90
        4
176
     1
 62
     7
176
     1
 62
   257
176
     1
 90
        1
176
     1
 90
        1
176
     1
 40
1.0
176
     1
 90
        8
176
     1
 62
     7
176
     1
 40
1.0
176
     1
 90
        1
176
     1
 90
        6
176
     1
 90
        2
176
     1
 62
     7
176
     1
 90
        5
176
     1
 90
        0
176
     1
 90
        0
176
     1
290
     0
176
     1
 90
        1
176
     1
 40
0.0
176
     1
 90
        0
176
     1
290
     0
176
     1
290
     1
176
     1
290
     1
176
     1
290
     0
176
     1
290
     0
176
     1
290
     0
176
     1
290
     0
176
     1
290
     0
176
     1
290
     0
176
     1
 90
       50
176
     1
 40
0.0
176
     1
 40
1.0
176
     1
 90
        0
176
     1
 62
    18
420
        0
176
     1
 90
       50
176
     1
 90
        3
176
     1
 62
     5
420
      255
176
     1
290
     0
176
     1
 90
       50
176
     1
 90
       50
176
     1
 90
       50
176
     1
290
     0
176
     1
 90
       50
176
     1
 62
   256
176
     0
 40
1.0
176
     0
 90
        2
176
     1
  1
strokes_ogs.tif
176
     1
290
     0
176
     1
 40
1.0
176
     1
 40
1.0
176
     1
  0
VISUALSTYLE
  5
3A6
102
{ACAD_REACTORS
330
39A
102
}
330
39A
100
AcDbVisualStyle
  2
Brighten
 70
    12
177
     3
291
     1
 70
    58
 90
        2
176
     1
 90
        2
176
     1
 90
        0
176
     1
 90
        0
176
     1
 40
0.6
176
     1
 40
30.0
176
     1
 62
     7
420
 16777215
176
     1
 90
        1
176
     1
 90
        4
176
     1
 62
     7
176
     1
 62
   257
176
     1
 90
        1
176
     1
 90
        1
176
     1
 40
1.0
176
     1
 90
        8
176
     1
 62
     7
176
     1
 40
1.0
176
     1
 90
        1
176
     1
 90
        6
176
     1
 90
        2
176
     1
 62
     7
176
     1
 90
        5
176
     1
 90
        0
176
     1
 90
        0
176
     1
290
     0
176
     1
 90
        1
176
     1
 40
50.0
176
     1
 90
        0
176
     1
290
     0
176
     1
290
     1
176
     1
290
     1
176
     1
290
     0
176
     1
290
     0
176
     1
290
     0
176
     1
290
     0
176
     1
290
     0
176
     1
290
     0
176
     1
 90
       50
176
     1
 40
0.0
176
     1
 40
1.0
176
     1
 90
        0
176
     1
 62
    18
420
        0
176
     1
 90
       50
176
     1
 90
        3
176
     1
 62
     5
420
      255
176
     1
290
     0
176
     1
 90
       50
176
     1
 90
       50
176
     1
 90
       50
176
     1
290
     0
176
     1
 90
       50
176
     1
 62
   256
176
     0
 40
1.0
176
     0
 90
        2
176
     1
  1
strokes_ogs.tif
176
     1
290
     0
176
     1
 40
1.0
176
     1
 40
1.0
176
     1
  0
VISUALSTYLE
  5
3AA
102
{ACAD_REACTORS
330
39A
102
}
330
39A
100
AcDbVisualStyle
  2
ColorChange
 70
    16
177
     3
291
     1
 70
    58
 90
        2
176
     1
 90
        2
176
     1
 90
        3
176
     1
 90
        0
176
     1
 40
0.6
176
     1
 40
30.0
176
     1
 62
     8
420
  8421504
176
     1
 90
        1
176
     1
 90
        4
176
     1
 62
     7
176
     1
 62
   257
176
     1
 90
        1
176
     1
 90
        1
176
     1
 40
1.0
176
     1
 90
        8
176
     1
 62
     8
420
  8421504
176
     1
 40
1.0
176
     1
 90
        1
176
     1
 90
        6
176
     1
 90
        2
176
     1
 62
     7
176
     1
 90
        5
176
     1
 90
        0
176
     1
 90
        0
176
     1
290
     0
176
     1
 90
        1
176
     1
 40
0.0
176
     1
 90
        0
176
     1
290
     0
176
     1
290
     1
176
     1
290
     1
176
     1
290
     0
176
     1
290
     0
176
     1
290
     0
176
     1
290
     0
176
     1
290
     0
176
     1
290
     0
176
     1
 90
       50
176
     1
 40
0.0
176
     1
 40
1.0
176
     1
 90
        0
176
     1
 62
    18
420
        0
176
     1
 90
       50
176
     1
 90
        3
176
     1
 62
     5
420
      255
176
     1
290
     0
176
     1
 90
       50
176
     1
 90
       50
176
     1
 90
       50
176
     1
290
     0
176
     1
 90
       50
176
     1
 62
   256
176
     0
 40
1.0
176
     0
 90
        2
176
     1
  1
strokes_ogs.tif
176
     1
290
     0
176
     1
 40
1.0
176
     1
 40
1.0
176
     1
  0
VISUALSTYLE
  5
3A4
102
{ACAD_REACTORS
330
39A
102
}
330
39A
100
AcDbVisualStyle
  2
Conceptual
 70
     9
177
     3
291
     0
 70
    58
 90
        3
176
     1
 90
        2
176
     1
 90
        0
176
     1
 90
        0
176
     1
 40
0.6
176
     1
 40
30.0
176
     1
 62
     7
420
 16777215
176
     1
 90
        2
176
     1
 90
        2
176
     1
 62
     7
176
     1
 62
   257
176
     1
 90
        1
176
     1
 90
        1
176
     1
 40
179.0
176
     1
 90
        8
176
     1
 62
     7
176
     1
 40
1.0
176
     1
 90
        1
176
     1
 90
        6
176
     1
 90
        2
176
     1
 62
     7
176
     1
 90
        3
176
     1
 90
        0
176
     1
 90
        0
176
     1
290
     0
176
     1
 90
        1
176
     1
 40
0.0
176
     1
 90
        0
176
     1
290
     0
176
     1
290
     1
176
     1
290
     1
176
     1
290
     0
176
     1
290
     0
176
     1
290
     0
176
     1
290
     0
176
     1
290
     0
176
     1
290
     0
176
     1
 90
       50
176
     1
 40
0.0
176
     1
 40
1.0
176
     1
 90
        0
176
     1
 62
    18
420
        0
176
     1
 90
       50
176
     1
 90
        3
176
     1
 62
     5
420
      255
176
     1
290
     0
176
     1
 90
       50
176
     1
 90
       50
176
     1
 90
       50
176
     1
290
     0
176
     1
 90
       50
176
     1
 62
   256
176
     0
 40
1.0
176
     0
 90
        2
176
     1
  1
strokes_ogs.tif
176
     1
290
     0
176
     1
 40
1.0
176
     1
 40
1.0
176
     1
  0
VISUALSTYLE
  5
3A5
102
{ACAD_REACTORS
330
39A
102
}
330
39A
100
AcDbVisualStyle
  2
Dim
 70
    11
177
     3
291
     1
 70
    58
 90
        2
176
     1
 90
        2
176
     1
 90
        0
176
     1
 90
        0
176
     1
 40
0.6
176
     1
 40
30.0
176
     1
 62
     7
420
 16777215
176
     1
 90
        1
176
     1
 90
        4
176
     1
 62
     7
176
     1
 62
   257
176
     1
 90
        1
176
     1
 90
        1
176
     1
 40
1.0
176
     1
 90
        8
176
     1
 62
     7
176
     1
 40
1.0
176
     1
 90
        1
176
     1
 90
        6
176
     1
 90
        2
176
     1
 62
     7
176
     1
 90
        5
176
     1
 90
        0
176
     1
 90
        0
176
     1
290
     0
176
     1
 90
        1
176
     1
 40
-50.0
176
     1
 90
        0
176
     1
290
     0
176
     1
290
     1
176
     1
290
     1
176
     1
290
     0
176
     1
290
     0
176
     1
290
     0
176
     1
290
     0
176
     1
290
     0
176
     1
290
     0
176
     1
 90
       50
176
     1
 40
0.0
176
     1
 40
1.0
176
     1
 90
        0
176
     1
 62
    18
420
        0
176
     1
 90
       50
176
     1
 90
        3
176
     1
 62
     5
420
      255
176
     1
290
     0
176
     1
 90
       50
176
     1
 90
       50
176
     1
 90
       50
176
     1
290
     0
176
     1
 90
       50
176
     1
 62
   256
176
     0
 40
1.0
176
     0
 90
        2
176
     1
  1
strokes_ogs.tif
176
     1
290
     0
176
     1
 40
1.0
176
     1
 40
1.0
176
     1
  0
VISUALSTYLE
  5
3AD
102
{ACAD_REACTORS
330
39A
102
}
330
39A
100
AcDbVisualStyle
  2
EdgeColorOff
 70
    22
177
     3
291
     1
 70
    58
 90
        2
176
     0
 90
        2
176
     0
 90
        0
176
     0
 90
        0
176
     0
 40
0.6
176
     0
 40
30.0
176
     0
 62
     7
420
 16777215
176
     0
 90
        1
176
     0
 90
        4
176
     0
 62
     7
176
     0
 62
   257
176
     0
 90
        1
176
     0
 90
        1
176
     0
 40
1.0
176
     0
 90
        8
176
     2
 62
     7
176
     0
 40
1.0
176
     0
 90
        1
176
     0
 90
        6
176
     0
 90
        2
176
     0
 62
     7
176
     0
 90
        5
176
     0
 90
        0
176
     0
 90
        0
176
     0
290
     0
176
     0
 90
        1
176
     0
 40
0.0
176
     0
 90
        0
176
     0
290
     0
176
     0
290
     1
176
     0
290
     1
176
     0
290
     0
176
     0
290
     0
176
     0
290
     0
176
     0
290
     0
176
     0
290
     0
176
     0
290
     0
176
     0
 90
       50
176
     0
 40
0.0
176
     0
 40
1.0
176
     0
 90
        0
176
     0
 62
    18
420
        0
176
     0
 90
       50
176
     0
 90
        3
176
     0
 62
     5
420
      255
176
     0
290
     0
176
     0
 90
       50
176
     0
 90
       50
176
     0
 90
       50
176
     0
290
     0
176
     0
 90
       50
176
     0
 62
   256
176
     0
 40
1.0
176
     0
 90
        2
176
     0
  1
strokes_ogs.tif
176
     0
290
     0
176
     0
 40
1.0
176
     0
 40
1.0
176
     0
  0
VISUALSTYLE
  5
3A9
102
{ACAD_REACTORS
330
39A
102
}
330
39A
100
AcDbVisualStyle
  2
Facepattern
 70
    15
177
     3
291
     1
 70
    58
 90
        2
176
     1
 90
        2
176
     1
 90
        0
176
     1
 90
        0
176
     1
 40
0.6
176
     1
 40
30.0
176
     1
 62
     7
420
 16777215
176
     1
 90
        1
176
     1
 90
        4
176
     1
 62
     7
176
     1
 62
   257
176
     1
 90
        1
176
     1
 90
        1
176
     1
 40
1.0
176
     1
 90
        8
176
     1
 62
     7
176
     1
 40
1.0
176
     1
 90
        1
176
     1
 90
        6
176
     1
 90
        2
176
     1
 62
     7
176
     1
 90
        5
176
     1
 90
        0
176
     1
 90
        0
176
     1
290
     0
176
     1
 90
        1
176
     1
 40
0.0
176
     1
 90
        0
176
     1
290
     0
176
     1
290
     1
176
     1
290
     1
176
     1
290
     0
176
     1
290
     0
176
     1
290
     0
176
     1
290
     0
176
     1
290
     0
176
     1
290
     0
176
     1
 90
       50
176
     1
 40
0.0
176
     1
 40
1.0
176
     1
 90
        0
176
     1
 62
    18
420
        0
176
     1
 90
       50
176
     1
 90
        3
176
     1
 62
     5
420
      255
176
     1
290
     0
176
     1
 90
       50
176
     1
 90
       50
176
     1
 90
       50
176
     1
290
     0
176
     1
 90
       50
176
     1
 62
   256
176
     0
 40
1.0
176
     0
 90
        2
176
     1
  1
strokes_ogs.tif
176
     1
290
     0
176
     1
 40
1.0
176
     1
 40
1.0
176
     1
  0
VISUALSTYLE
  5
39B
102
{ACAD_REACTORS
330
39A
102
}
330
39A
100
AcDbVisualStyle
  2
Flat
 70
     0
177
     3
291
     1
 70
    58
 90
        2
176
     1
 90
        1
176
     1
 90
        1
176
     1
 90
        2
176
     1
 40
0.6
176
     1
 40
30.0
176
     1
 62
     7
420
 16777215
176
     1
 90
        0
176
     1
 90
        0
176
     1
 62
     7
176
     1
 62
   257
176
     1
 90
        1
176
     1
 90
        1
176
     1
 40
1.0
176
     1
 90
        8
176
     1
 62
     7
176
     1
 40
1.0
176
     1
 90
        1
176
     1
 90
        6
176
     1
 90
        2
176
     1
 62
     7
176
     1
 90
        5
176
     1
 90
        0
176
     1
 90
        0
176
     1
290
     0
176
     1
 90
       13
176
     1
 40
0.0
176
     1
 90
        0
176
     1
290
     0
176
     1
290
     1
176
     1
290
     1
176
     1
290
     0
176
     1
290
     0
176
     1
290
     0
176
     1
290
     0
176
     1
290
     0
176
     1
290
     0
176
     1
 90
       50
176
     1
 40
0.0
176
     1
 40
1.0
176
     1
 90
        0
176
     1
 62
    18
420
        0
176
     1
 90
       50
176
     1
 90
        3
176
     1
 62
     5
420
      255
176
     1
290
     0
176
     1
 90
       50
176
     1
 90
       50
176
     1
 90
       50
176
     1
290
     0
176
     1
 90
       50
176
     1
 62
   256
176
     0
 40
1.0
176
     0
 90
        2
176
     1
  1
strokes_ogs.tif
176
     1
290
     0
176
     1
 40
1.0
176
     1
 40
1.0
176
     1
  0
VISUALSTYLE
  5
39C
102
{ACAD_REACTORS
330
39A
102
}
330
39A
100
AcDbVisualStyle
  2
FlatWithEdges
 70
     1
177
     3
291
     1
 70
    58
 90
        2
176
     1
 90
        1
176
     1
 90
        1
176
     1
 90
        2
176
     1
 40
0.6
176
     1
 40
30.0
176
     1
 62
     7
420
 16777215
176
     1
 90
        1
176
     1
 90
        0
176
     1
 62
     7
176
     1
 62
   257
176
     1
 90
        1
176
     1
 90
        1
176
     1
 40
1.0
176
     1
 90
        0
176
     1
 62
   257
176
     1
 40
1.0
176
     1
 90
        1
176
     1
 90
        6
176
     1
 90
        2
176
     1
 62
     7
176
     1
 90
        5
176
     1
 90
        0
176
     1
 90
        0
176
     1
290
     0
176
     1
 90
       13
176
     1
 40
0.0
176
     1
 90
        0
176
     1
290
     0
176
     1
290
     1
176
     1
290
     1
176
     1
290
     0
176
     1
290
     0
176
     1
290
     0
176
     1
290
     0
176
     1
290
     0
176
     1
290
     0
176
     1
 90
       50
176
     1
 40
0.0
176
     1
 40
1.0
176
     1
 90
        0
176
     1
 62
    18
420
        0
176
     1
 90
       50
176
     1
 90
        3
176
     1
 62
     5
420
      255
176
     1
290
     0
176
     1
 90
       50
176
     1
 90
       50
176
     1
 90
       50
176
     1
290
     0
176
     1
 90
       50
176
     1
 62
   256
176
     0
 40
1.0
176
     0
 90
        2
176
     1
  1
strokes_ogs.tif
176
     1
290
     0
176
     1
 40
1.0
176
     1
 40
1.0
176
     1
  0
VISUALSTYLE
  5
39D
102
{ACAD_REACTORS
330
39A
102
}
330
39A
100
AcDbVisualStyle
  2
Gouraud
 70
     2
177
     3
291
     1
 70
    58
 90
        2
176
     1
 90
        2
176
     1
 90
        1
176
     1
 90
        2
176
     1
 40
0.6
176
     1
 40
30.0
176
     1
 62
     7
420
 16777215
176
     1
 90
        0
176
     1
 90
        0
176
     1
 62
     7
176
     1
 62
   257
176
     1
 90
        1
176
     1
 90
        1
176
     1
 40
1.0
176
     1
 90
        0
176
     1
 62
     7
176
     1
 40
1.0
176
     1
 90
        1
176
     1
 90
        6
176
     1
 90
        2
176
     1
 62
     7
176
     1
 90
        5
176
     1
 90
        0
176
     1
 90
        0
176
     1
290
     0
176
     1
 90
       13
176
     1
 40
0.0
176
     1
 90
        0
176
     1
290
     0
176
     1
290
     1
176
     1
290
     1
176
     1
290
     0
176
     1
290
     0
176
     1
290
     0
176
     1
290
     0
176
     1
290
     0
176
     1
290
     0
176
     1
 90
       50
176
     1
 40
0.0
176
     1
 40
1.0
176
     1
 90
        0
176
     1
 62
    18
420
        0
176
     1
 90
       50
176
     1
 90
        3
176
     1
 62
     5
420
      255
176
     1
290
     0
176
     1
 90
       50
176
     1
 90
       50
176
     1
 90
       50
176
     1
290
     0
176
     1
 90
       50
176
     1
 62
   256
176
     0
 40
1.0
176
     0
 90
        2
176
     1
  1
strokes_ogs.tif
176
     1
290
     0
176
     1
 40
1.0
176
     1
 40
1.0
176
     1
  0
VISUALSTYLE
  5
39E
102
{ACAD_REACTORS
330
39A
102
}
330
39A
100
AcDbVisualStyle
  2
GouraudWithEdges
 70
     3
177
     3
291
     1
 70
    58
 90
        2
176
     1
 90
        2
176
     1
 90
        1
176
     1
 90
        2
176
     1
 40
0.6
176
     1
 40
30.0
176
     1
 62
     7
420
 16777215
176
     1
 90
        1
176
     1
 90
        0
176
     1
 62
     7
176
     1
 62
   257
176
     1
 90
        1
176
     1
 90
        1
176
     1
 40
1.0
176
     1
 90
        0
176
     1
 62
   257
176
     1
 40
1.0
176
     1
 90
        1
176
     1
 90
        6
176
     1
 90
        2
176
     1
 62
     7
176
     1
 90
        5
176
     1
 90
        0
176
     1
 90
        0
176
     1
290
     0
176
     1
 90
       13
176
     1
 40
0.0
176
     1
 90
        0
176
     1
290
     0
176
     1
290
     1
176
     1
290
     1
176
     1
290
     0
176
     1
290
     0
176
     1
290
     0
176
     1
290
     0
176
     1
290
     0
176
     1
290
     0
176
     1
 90
       50
176
     1
 40
0.0
176
     1
 40
1.0
176
     1
 90
        0
176
     1
 62
    18
420
        0
176
     1
 90
       50
176
     1
 90
        3
176
     1
 62
     5
420
      255
176
     1
290
     0
176
     1
 90
       50
176
     1
 90
       50
176
     1
 90
       50
176
     1
290
     0
176
     1
 90
       50
176
     1
 62
   256
176
     0
 40
1.0
176
     0
 90
        2
176
     1
  1
strokes_ogs.tif
176
     1
290
     0
176
     1
 40
1.0
176
     1
 40
1.0
176
     1
  0
VISUALSTYLE
  5
3A1
102
{ACAD_REACTORS
330
39A
102
}
330
39A
100
AcDbVisualStyle
  2
Hidden
 70
     6
177
     3
291
     0
 70
    58
 90
        1
176
     1
 90
        2
176
     1
 90
        2
176
     1
 90
        0
176
     1
 40
0.6
176
     1
 40
30.0
176
     1
 62
     7
420
 16777215
176
     1
 90
        2
176
     1
 90
        2
176
     1
 62
     7
176
     1
 62
   257
176
     1
 90
        2
176
     1
 90
        1
176
     1
 40
40.0
176
     1
 90
        0
176
     1
 62
   257
176
     1
 40
1.0
176
     1
 90
        1
176
     1
 90
        6
176
     1
 90
        2
176
     1
 62
     7
176
     1
 90
        3
176
     1
 90
        0
176
     1
 90
        0
176
     1
290
     0
176
     1
 90
        1
176
     1
 40
0.0
176
     1
 90
        0
176
     1
290
     0
176
     1
290
     1
176
     1
290
     1
176
     1
290
     0
176
     1
290
     0
176
     1
290
     0
176
     1
290
     0
176
     1
290
     0
176
     1
290
     0
176
     1
 90
       50
176
     1
 40
0.0
176
     1
 40
1.0
176
     1
 90
        0
176
     1
 62
    18
420
        0
176
     1
 90
       50
176
     1
 90
        3
176
     1
 62
     5
420
      255
176
     1
290
     0
176
     1
 90
       50
176
     1
 90
       50
176
     1
 90
       50
176
     1
290
     0
176
     1
 90
       50
176
     1
 62
   256
176
     0
 40
1.0
176
     0
 90
        2
176
     1
  1
strokes_ogs.tif
176
     1
290
     0
176
     1
 40
1.0
176
     1
 40
1.0
176
     1
  0
VISUALSTYLE
  5
3AB
102
{ACAD_REACTORS
330
39A
102
}
330
39A
100
AcDbVisualStyle
  2
JitterOff
 70
    20
177
     3
291
     1
 70
    58
 90
        2
176
     0
 90
        2
176
     0
 90
        0
176
     0
 90
        0
176
     0
 40
0.6
176
     0
 40
30.0
176
     0
 62
     7
420
 16777215
176
     0
 90
        1
176
     0
 90
        4
176
     0
 62
     7
176
     0
 62
   257
176
     0
 90
        1
176
     0
 90
        1
176
     0
 40
1.0
176
     0
 90
       10
176
     2
 62
     7
176
     0
 40
1.0
176
     0
 90
        1
176
     0
 90
        6
176
     0
 90
        2
176
     0
 62
     7
176
     0
 90
        5
176
     0
 90
        0
176
     0
 90
        0
176
     0
290
     0
176
     0
 90
        1
176
     0
 40
0.0
176
     0
 90
        0
176
     0
290
     0
176
     0
290
     1
176
     0
290
     1
176
     0
290
     0
176
     0
290
     0
176
     0
290
     0
176
     0
290
     0
176
     0
290
     0
176
     0
290
     0
176
     0
 90
       50
176
     0
 40
0.0
176
     0
 40
1.0
176
     0
 90
        0
176
     0
 62
    18
420
        0
176
     0
 90
       50
176
     0
 90
        3
176
     0
 62
     5
420
      255
176
     0
290
     0
176
     0
 90
       50
176
     0
 90
       50
176
     0
 90
       50
176
     0
290
     0
176
     0
 90
       50
176
     0
 62
   256
176
     0
 40
1.0
176
     0
 90
        2
176
     0
  1
strokes_ogs.tif
176
     0
290
     0
176
     0
 40
1.0
176
     0
 40
1.0
176
     0
  0
VISUALSTYLE
  5
3A8
102
{ACAD_REACTORS
330
39A
102
}
330
39A
100
AcDbVisualStyle
  2
Linepattern
 70
    14
177
     3
291
     1
 70
    58
 90
        2
176
     1
 90
        2
176
     1
 90
        0
176
     1
 90
        0
176
     1
 40
0.6
176
     1
 40
30.0
176
     1
 62
     7
420
 16777215
176
     1
 90
        1
176
     1
 90
        4
176
     1
 62
     7
176
     1
 62
   257
176
     1
 90
        7
176
     1
 90
        7
176
     1
 40
1.0
176
     1
 90
        8
176
     1
 62
     7
176
     1
 40
1.0
176
     1
 90
        1
176
     1
 90
        6
176
     1
 90
        2
176
     1
 62
     7
176
     1
 90
        5
176
     1
 90
        0
176
     1
 90
        0
176
     1
290
     0
176
     1
 90
        1
176
     1
 40
0.0
176
     1
 90
        0
176
     1
290
     0
176
     1
290
     1
176
     1
290
     1
176
     1
290
     0
176
     1
290
     0
176
     1
290
     0
176
     1
290
     0
176
     1
290
     0
176
     1
290
     0
176
     1
 90
       50
176
     1
 40
0.0
176
     1
 40
1.0
176
     1
 90
        0
176
     1
 62
    18
420
        0
176
     1
 90
       50
176
     1
 90
        3
176
     1
 62
     5
420
      255
176
     1
290
     0
176
     1
 90
       50
176
     1
 90
       50
176
     1
 90
       50
176
     1
290
     0
176
     1
 90
       50
176
     1
 62
   256
176
     0
 40
1.0
176
     0
 90
        2
176
     1
  1
strokes_ogs.tif
176
     1
290
     0
176
     1
 40
1.0
176
     1
 40
1.0
176
     1
  0
VISUALSTYLE
  5
3AC
102
{ACAD_REACTORS
330
39A
102
}
330
39A
100
AcDbVisualStyle
  2
OverhangOff
 70
    21
177
     3
291
     1
 70
    58
 90
        2
176
     0
 90
        2
176
     0
 90
        0
176
     0
 90
        0
176
     0
 40
0.6
176
     0
 40
30.0
176
     0
 62
     7
420
 16777215
176
     0
 90
        1
176
     0
 90
        4
176
     0
 62
     7
176
     0
 62
   257
176
     0
 90
        1
176
     0
 90
        1
176
     0
 40
1.0
176
     0
 90
        9
176
     2
 62
     7
176
     0
 40
1.0
176
     0
 90
        1
176
     0
 90
        6
176
     0
 90
        2
176
     0
 62
     7
176
     0
 90
        5
176
     0
 90
        0
176
     0
 90
        0
176
     0
290
     0
176
     0
 90
        1
176
     0
 40
0.0
176
     0
 90
        0
176
     0
290
     0
176
     0
290
     1
176
     0
290
     1
176
     0
290
     0
176
     0
290
     0
176
     0
290
     0
176
     0
290
     0
176
     0
290
     0
176
     0
290
     0
176
     0
 90
       50
176
     0
 40
0.0
176
     0
 40
1.0
176
     0
 90
        0
176
     0
 62
    18
420
        0
176
     0
 90
       50
176
     0
 90
        3
176
     0
 62
     5
420
      255
176
     0
290
     0
176
     0
 90
       50
176
     0
 90
       50
176
     0
 90
       50
176
     0
290
     0
176
     0
 90
       50
176
     0
 62
   256
176
     0
 40
1.0
176
     0
 90
        2
176
     0
  1
strokes_ogs.tif
176
     0
290
     0
176
     0
 40
1.0
176
     0
 40
1.0
176
     0
  0
VISUALSTYLE
  5
3A3
102
{ACAD_REACTORS
330
39A
102
}
330
39A
100
AcDbVisualStyle
  2
Realistic
 70
     8
177
     3
291
     0
 70
    58
 90
        2
176
     1
 90
        3
176
     1
 90
        0
176
     1
 90
        2
176
     1
 40
0.6
176
     1
 40
30.0
176
     1
 62
     7
420
 16777215
176
     1
 90
        0
176
     1
 90
        0
176
     1
 62
     7
176
     1
 62
   257
176
     1
 90
        1
176
     1
 90
        1
176
     1
 40
1.0
176
     1
 90
        8
176
     1
 62
   257
176
     1
 40
1.0
176
     1
 90
        1
176
     1
 90
        6
176
     1
 90
        2
176
     1
 62
     7
176
     1
 90
        3
176
     1
 90
        0
176
     1
 90
        0
176
     1
290
     0
176
     1
 90
       13
176
     1
 40
0.0
176
     1
 90
        0
176
     1
290
     0
176
     1
290
     1
176
     1
290
     1
176
     1
290
     0
176
     1
290
     0
176
     1
290
     0
176
     1
290
     0
176
     1
290
     0
176
     1
290
     0
176
     1
 90
       50
176
     1
 40
0.0
176
     1
 40
1.0
176
     1
 90
        0
176
     1
 62
    18
420
        0
176
     1
 90
       50
176
     1
 90
        3
176
     1
 62
     5
420
      255
176
     1
290
     0
176
     1
 90
       50
176
     1
 90
       50
176
     1
 90
       50
176
     1
290
     0
176
     1
 90
       50
176
     1
 62
   256
176
     0
 40
1.0
176
     0
 90
        2
176
     1
  1
strokes_ogs.tif
176
     1
290
     0
176
     1
 40
1.0
176
     1
 40
1.0
176
     1
  0
VISUALSTYLE
  5
3B2
102
{ACAD_REACTORS
330
39A
102
}
330
39A
100
AcDbVisualStyle
  2
Shaded
 70
    27
177
     3
291
     0
 70
    58
 90
        2
176
     1
 90
        2
176
     1
 90
        1
176
     1
 90
        2
176
     1
 40
0.6
176
     1
 40
30.0
176
     1
 62
     7
420
 16777215
176
     1
 90
        0
176
     1
 90
        4
176
     1
 62
     7
176
     1
 62
   257
176
     1
 90
        1
176
     1
 90
        1
176
     1
 40
1.0
176
     1
 90
        8
176
     1
 62
   257
176
     1
 40
1.0
176
     1
 90
        1
176
     1
 90
        6
176
     1
 90
        2
176
     1
 62
     8
420
  7895160
176
     1
 90
        3
176
     1
 90
        0
176
     1
 90
        0
176
     1
290
     0
176
     1
 90
        5
176
     1
 40
0.0
176
     1
 90
        0
176
     1
290
     0
176
     1
290
     1
176
     1
290
     1
176
     1
290
     0
176
     1
290
     0
176
     1
290
     0
176
     1
290
     0
176
     1
290
     0
176
     1
290
     0
176
     1
 90
       50
176
     1
 40
0.0
176
     1
 40
1.0
176
     1
 90
        0
176
     1
 62
    18
420
        0
176
     1
 90
       50
176
     1
 90
        3
176
     1
 62
     5
420
      255
176
     1
290
     0
176
     1
 90
       50
176
     1
 90
       50
176
     1
 90
       50
176
     1
290
     0
176
     1
 90
       50
176
     1
 62
   256
176
     0
 40
1.0
176
     0
 90
        2
176
     1
  1
strokes_ogs.tif
176
     1
290
     0
176
     1
 40
1.0
176
     1
 40
1.0
176
     1
  0
VISUALSTYLE
  5
3B1
102
{ACAD_REACTORS
330
39A
102
}
330
39A
100
AcDbVisualStyle
  2
Shaded with edges
 70
    26
177
     3
291
     0
 70
    58
 90
        2
176
     1
 90
        2
176
     1
 90
        1
176
     1
 90
        2
176
     1
 40
0.6
176
     1
 40
30.0
176
     1
 62
     7
420
 16777215
176
     1
 90
        1
176
     1
 90
       10
176
     1
 62
     7
176
     1
 62
   257
176
     1
 90
        2
176
     1
 90
        1
176
     1
 40
1.0
176
     1
 90
        8
176
     1
 62
   257
176
     1
 40
1.0
176
     1
 90
        1
176
     1
 90
        6
176
     1
 90
        2
176
     1
 62
     7
176
     1
 90
        3
176
     1
 90
        0
176
     1
 90
        0
176
     1
290
     0
176
     1
 90
        5
176
     1
 40
0.0
176
     1
 90
        0
176
     1
290
     0
176
     1
290
     1
176
     1
290
     1
176
     1
290
     0
176
     1
290
     0
176
     1
290
     0
176
     1
290
     0
176
     1
290
     0
176
     1
290
     0
176
     1
 90
       50
176
     1
 40
0.0
176
     1
 40
1.0
176
     1
 90
        0
176
     1
 62
    18
420
        0
176
     1
 90
       50
176
     1
 90
        3
176
     1
 62
     5
420
      255
176
     1
290
     0
176
     1
 90
       50
176
     1
 90
       50
176
     1
 90
       50
176
     1
290
     0
176
     1
 90
       50
176
     1
 62
   256
176
     0
 40
1.0
176
     0
 90
        2
176
     1
  1
strokes_ogs.tif
176
     1
290
     0
176
     1
 40
1.0
176
     1
 40
1.0
176
     1
  0
VISUALSTYLE
  5
3AE
102
{ACAD_REACTORS
330
39A
102
}
330
39A
100
AcDbVisualStyle
  2
Shades of Gray
 70
    23
177
     3
291
     0
 70
    58
 90
        2
176
     1
 90
        2
176
     1
 90
        3
176
     1
 90
        0
176
     1
 40
0.6
176
     1
 40
30.0
176
     1
 62
     7
420
 16777215
176
     1
 90
        2
176
     1
 90
        2
176
     1
 62
     7
176
     1
 62
     7
176
     1
 90
        1
176
     1
 90
        1
176
     1
 40
40.0
176
     1
 90
        8
176
     1
 62
     7
176
     1
 40
1.0
176
     1
 90
        1
176
     1
 90
        6
176
     1
 90
        2
176
     1
 62
     7
176
     1
 90
        3
176
     1
 90
        0
176
     1
 90
        0
176
     1
290
     0
176
     1
 90
        1
176
     1
 40
0.0
176
     1
 90
        0
176
     1
290
     0
176
     1
290
     1
176
     1
290
     1
176
     1
290
     0
176
     1
290
     0
176
     1
290
     0
176
     1
290
     0
176
     1
290
     0
176
     1
290
     0
176
     1
 90
       50
176
     1
 40
0.0
176
     1
 40
1.0
176
     1
 90
        0
176
     1
 62
    18
420
        0
176
     1
 90
       50
176
     1
 90
        3
176
     1
 62
     5
420
      255
176
     1
290
     0
176
     1
 90
       50
176
     1
 90
       50
176
     1
 90
       50
176
     1
290
     0
176
     1
 90
       50
176
     1
 62
   256
176
     0
 40
1.0
176
     0
 90
        2
176
     1
  1
strokes_ogs.tif
176
     1
290
     0
176
     1
 40
1.0
176
     1
 40
1.0
176
     1
  0
VISUALSTYLE
  5
3AF
102
{ACAD_REACTORS
330
39A
102
}
330
39A
100
AcDbVisualStyle
  2
Sketchy
 70
    24
177
     3
291
     0
 70
    58
 90
        1
176
     1
 90
        2
176
     1
 90
        2
176
     1
 90
        0
176
     1
 40
0.6
176
     1
 40
30.0
176
     1
 62
     7
420
 16777215
176
     1
 90
        2
176
     1
 90
        2
176
     1
 62
     7
176
     1
 62
     7
176
     1
 90
        1
176
     1
 90
        1
176
     1
 40
40.0
176
     1
 90
       11
176
     1
 62
     7
176
     1
 40
1.0
176
     1
 90
        1
176
     1
 90
        6
176
     1
 90
        2
176
     1
 62
     7
176
     1
 90
        6
176
     1
 90
        0
176
     1
 90
        0
176
     1
290
     0
176
     1
 90
        1
176
     1
 40
0.0
176
     1
 90
        0
176
     1
290
     0
176
     1
290
     1
176
     1
290
     1
176
     1
290
     0
176
     1
290
     0
176
     1
290
     0
176
     1
290
     0
176
     1
290
     0
176
     1
290
     0
176
     1
 90
       50
176
     1
 40
0.0
176
     1
 40
1.0
176
     1
 90
        0
176
     1
 62
    18
420
        0
176
     1
 90
       50
176
     1
 90
        3
176
     1
 62
     5
420
      255
176
     1
290
     0
176
     1
 90
       50
176
     1
 90
       50
176
     1
 90
       50
176
     1
290
     0
176
     1
 90
       50
176
     1
 62
   256
176
     0
 40
1.0
176
     0
 90
        2
176
     1
  1
strokes_ogs.tif
176
     1
290
     0
176
     1
 40
1.0
176
     1
 40
1.0
176
     1
  0
VISUALSTYLE
  5
3A7
102
{ACAD_REACTORS
330
39A
102
}
330
39A
100
AcDbVisualStyle
  2
Thicken
 70
    13
177
     3
291
     1
 70
    58
 90
        2
176
     1
 90
        2
176
     1
 90
        0
176
     1
 90
        0
176
     1
 40
0.6
176
     1
 40
30.0
176
     1
 62
     7
420
 16777215
176
     1
 90
        1
176
     1
 90
        4
176
     1
 62
     7
176
     1
 62
   257
176
     1
 90
        1
176
     1
 90
        1
176
     1
 40
1.0
176
     1
 90
       12
176
     1
 62
     7
176
     1
 40
1.0
176
     1
 90
        1
176
     1
 90
        6
176
     1
 90
        2
176
     1
 62
     7
176
     1
 90
        5
176
     1
 90
        0
176
     1
 90
        0
176
     1
290
     0
176
     1
 90
        1
176
     1
 40
0.0
176
     1
 90
        0
176
     1
290
     0
176
     1
290
     1
176
     1
290
     1
176
     1
290
     0
176
     1
290
     0
176
     1
290
     0
176
     1
290
     0
176
     1
290
     0
176
     1
290
     0
176
     1
 90
       50
176
     1
 40
0.0
176
     1
 40
1.0
176
     1
 90
        0
176
     1
 62
    18
420
        0
176
     1
 90
       50
176
     1
 90
        3
176
     1
 62
     5
420
      255
176
     1
290
     0
176
     1
 90
       50
176
     1
 90
       50
176
     1
 90
       50
176
     1
290
     0
176
     1
 90
       50
176
     1
 62
   256
176
     0
 40
1.0
176
     0
 90
        2
176
     1
  1
strokes_ogs.tif
176
     1
290
     0
176
     1
 40
1.0
176
     1
 40
1.0
176
     1
  0
VISUALSTYLE
  5
3A0
102
{ACAD_REACTORS
330
39A
102
}
330
39A
100
AcDbVisualStyle
  2
Wireframe
 70
     5
177
     3
291
     0
 70
    58
 90
        0
176
     1
 90
        2
176
     1
 90
        0
176
     1
 90
        0
176
     1
 40
0.6
176
     1
 40
30.0
176
     1
 62
     7
420
 16777215
176
     1
 90
        1
176
     1
 90
        4
176
     1
 62
     7
176
     1
 62
   257
176
     1
 90
        1
176
     1
 90
        1
176
     1
 40
1.0
176
     1
 90
        0
176
     1
 62
   257
176
     1
 40
1.0
176
     1
 90
        1
176
     1
 90
        6
176
     1
 90
        2
176
     1
 62
     7
176
     1
 90
        3
176
     1
 90
        0
176
     1
 90
        0
176
     1
290
     0
176
     1
 90
        1
176
     1
 40
0.0
176
     1
 90
        0
176
     1
290
     0
176
     1
290
     1
176
     1
290
     1
176
     1
290
     0
176
     1
290
     0
176
     1
290
     0
176
     1
290
     0
176
     1
290
     0
176
     1
290
     0
176
     1
 90
       50
176
     1
 40
0.0
176
     1
 40
1.0
176
     1
 90
        0
176
     1
 62
    18
420
        0
176
     1
 90
       50
176
     1
 90
        3
176
     1
 62
     5
420
      255
176
     1
290
     0
176
     1
 90
       50
176
     1
 90
       50
176
     1
 90
       50
176
     1
290
     0
176
     1
 90
       50
176
     1
 62
   256
176
     0
 40
1.0
176
     0
 90
        2
176
     1
  1
strokes_ogs.tif
176
     1
290
     0
176
     1
 40
1.0
176
     1
 40
1.0
176
     1
  0
VISUALSTYLE
  5
3B0
102
{ACAD_REACTORS
330
39A
102
}
330
39A
100
AcDbVisualStyle
  2
X-Ray
 70
    25
177
     3
291
     0
 70
    58
 90
        2
176
     1
 90
        2
176
     1
 90
        1
176
     1
 90
        1
176
     1
 40
0.5
176
     1
 40
30.0
176
     1
 62
     7
420
 16777215
176
     1
 90
        1
176
     1
 90
        0
176
     1
 62
     7
176
     1
 62
   257
176
     1
 90
        1
176
     1
 90
        1
176
     1
 40
1.0
176
     1
 90
        8
176
     1
 62
     7
176
     1
 40
1.0
176
     1
 90
        1
176
     1
 90
        6
176
     1
 90
        2
176
     1
 62
     7
176
     1
 90
        3
176
     1
 90
        0
176
     1
 90
        0
176
     1
290
     0
176
     1
 90
       13
176
     1
 40
0.0
176
     1
 90
        0
176
     1
290
     0
176
     1
290
     1
176
     1
290
     1
176
     1
290
     0
176
     1
290
     0
176
     1
290
     0
176
     1
290
     0
176
     1
290
     0
176
     1
290
     0
176
     1
 90
       50
176
     1
 40
0.0
176
     1
 40
1.0
176
     1
 90
        0
176
     1
 62
    18
420
        0
176
     1
 90
       50
176
     1
 90
        3
176
     1
 62
     5
420
      255
176
     1
290
     0
176
     1
 90
       50
176
     1
 90
       50
176
     1
 90
       50
176
     1
290
     0
176
     1
 90
       50
176
     1
 62
   256
176
     0
 40
1.0
176
     0
 90
        2
176
     1
  1
strokes_ogs.tif
176
     1
290
     0
176
     1
 40
1.0
176
     1
 40
1.0
176
     1
  0
DICTIONARYVAR
  5
3BD
102
{ACAD_REACTORS
330
3BC
102
}
330
3BC
100
DictionaryVariables
280
     0
  1
1:1
  0
DICTIONARYVAR
  5
3C2
102
{ACAD_REACTORS
330
3BC
102
}
330
3BC
100
DictionaryVariables
280
     0
  1
Standard
  0
DICTIONARYVAR
  5
3C1
102
{ACAD_REACTORS
330
3BC
102
}
330
3BC
100
DictionaryVariables
280
     0
  1
Standard
  0
DICTIONARYVAR
  5
3C3
102
{ACAD_REACTORS
330
3BC
102
}
330
3BC
100
DictionaryVariables
280
     0
  1
0
  0
DICTIONARY
  5
3BE
330
3B8
100
AcDbDictionary
280
     1
281
     1
  3
ACAD_ROUNDTRIP_2008_TABLESTYLE_CELLSTYLEMAP
360
3BF
  0
CELLSTYLEMAP
  5
3BF
102
{ACAD_REACTORS
330
3BE
102
}
330
3BE
100
AcDbCellStyleMap
 90
        3
300
CELLSTYLE
  1
TABLEFORMAT_BEGIN
 90
        5
170
     1
 91
        0
 92
    32768
 62
   257
 93
        1
300
CONTENTFORMAT
  1
CONTENTFORMAT_BEGIN
 90
        0
 91
        0
 92
        4
 93
        0
300

 40
0.0
140
1.0
 94
        5
 62
     0
340
11
144
6.0
309
CONTENTFORMAT_END
171
     1
301
MARGIN
  1
CELLMARGIN_BEGIN
 40
1.5
 40
1.5
 40
1.5
 40
1.5
 40
1.5
 40
1.5
309
CELLMARGIN_END
 94
        6
 95
        1
302
GRIDFORMAT
  1
GRIDFORMAT_BEGIN
 90
        0
 91
        1
 62
     0
 92
       -2
340
14
 93
        0
 40
0.045
309
GRIDFORMAT_END
 95
        2
302
GRIDFORMAT
  1
GRIDFORMAT_BEGIN
 90
        0
 91
        1
 62
     0
 92
       -2
340
14
 93
        0
 40
0.045
309
GRIDFORMAT_END
 95
        4
302
GRIDFORMAT
  1
GRIDFORMAT_BEGIN
 90
        0
 91
        1
 62
     0
 92
       -2
340
14
 93
        0
 40
0.045
309
GRIDFORMAT_END
 95
        8
302
GRIDFORMAT
  1
GRIDFORMAT_BEGIN
 90
        0
 91
        1
 62
     0
 92
       -2
340
14
 93
        0
 40
0.045
309
GRIDFORMAT_END
 95
       16
302
GRIDFORMAT
  1
GRIDFORMAT_BEGIN
 90
        0
 91
        1
 62
     0
 92
       -2
340
14
 93
        0
 40
0.045
309
GRIDFORMAT_END
 95
       32
302
GRIDFORMAT
  1
GRIDFORMAT_BEGIN
 90
        0
 91
        1
 62
     0
 92
       -2
340
14
 93
        0
 40
0.045
309
GRIDFORMAT_END
309
TABLEFORMAT_END
  1
CELLSTYLE_BEGIN
 90
        1
 91
        1
300
_TITLE
309
CELLSTYLE_END
300
CELLSTYLE
  1
TABLEFORMAT_BEGIN
 90
        5
170
     1
 91
        0
 92
        0
 62
   257
 93
        1
300
CONTENTFORMAT
  1
CONTENTFORMAT_BEGIN
 90
        0
 91
        0
 92
        4
 93
        0
300

 40
0.0
140
1.0
 94
        5
 62
     0
340
11
144
4.5
309
CONTENTFORMAT_END
171
     1
301
MARGIN
  1
CELLMARGIN_BEGIN
 40
1.5
 40
1.5
 40
1.5
 40
1.5
 40
1.5
 40
1.5
309
CELLMARGIN_END
 94
        6
 95
        1
302
GRIDFORMAT
  1
GRIDFORMAT_BEGIN
 90
        0
 91
        1
 62
     0
 92
       -2
340
14
 93
        0
 40
0.045
309
GRIDFORMAT_END
 95
        2
302
GRIDFORMAT
  1
GRIDFORMAT_BEGIN
 90
        0
 91
        1
 62
     0
 92
       -2
340
14
 93
        0
 40
0.045
309
GRIDFORMAT_END
 95
        4
302
GRIDFORMAT
  1
GRIDFORMAT_BEGIN
 90
        0
 91
        1
 62
     0
 92
       -2
340
14
 93
        0
 40
0.045
309
GRIDFORMAT_END
 95
        8
302
GRIDFORMAT
  1
GRIDFORMAT_BEGIN
 90
        0
 91
        1
 62
     0
 92
       -2
340
14
 93
        0
 40
0.045
309
GRIDFORMAT_END
 95
       16
302
GRIDFORMAT
  1
GRIDFORMAT_BEGIN
 90
        0
 91
        1
 62
     0
 92
       -2
340
14
 93
        0
 40
0.045
309
GRIDFORMAT_END
 95
       32
302
GRIDFORMAT
  1
GRIDFORMAT_BEGIN
 90
        0
 91
        1
 62
     0
 92
       -2
340
14
 93
        0
 40
0.045
309
GRIDFORMAT_END
309
TABLEFORMAT_END
  1
CELLSTYLE_BEGIN
 90
        2
 91
        1
300
_HEADER
309
CELLSTYLE_END
300
CELLSTYLE
  1
TABLEFORMAT_BEGIN
 90
        5
170
     1
 91
        0
 92
        0
 62
   257
 93
        1
300
CONTENTFORMAT
  1
CONTENTFORMAT_BEGIN
 90
        0
 91
        0
 92
        4
 93
        0
300

 40
0.0
140
1.0
 94
        2
 62
     0
340
11
144
4.5
309
CONTENTFORMAT_END
171
     1
301
MARGIN
  1
CELLMARGIN_BEGIN
 40
1.5
 40
1.5
 40
1.5
 40
1.5
 40
1.5
 40
1.5
309
CELLMARGIN_END
 94
        6
 95
        1
302
GRIDFORMAT
  1
GRIDFORMAT_BEGIN
 90
        0
 91
        1
 62
     0
 92
       -2
340
14
 93
        0
 40
0.045
309
GRIDFORMAT_END
 95
        2
302
GRIDFORMAT
  1
GRIDFORMAT_BEGIN
 90
        0
 91
        1
 62
     0
 92
       -2
340
14
 93
        0
 40
0.045
309
GRIDFORMAT_END
 95
        4
302
GRIDFORMAT
  1
GRIDFORMAT_BEGIN
 90
        0
 91
        1
 62
     0
 92
       -2
340
14
 93
        0
 40
0.045
309
GRIDFORMAT_END
 95
        8
302
GRIDFORMAT
  1
GRIDFORMAT_BEGIN
 90
        0
 91
        1
 62
     0
 92
       -2
340
14
 93
        0
 40
0.045
309
GRIDFORMAT_END
 95
       16
302
GRIDFORMAT
  1
GRIDFORMAT_BEGIN
 90
        0
 91
        1
 62
     0
 92
       -2
340
14
 93
        0
 40
0.045
309
GRIDFORMAT_END
 95
       32
302
GRIDFORMAT
  1
GRIDFORMAT_BEGIN
 90
        0
 91
        1
 62
     0
 92
       -2
340
14
 93
        0
 40
0.045
309
GRIDFORMAT_END
309
TABLEFORMAT_END
  1
CELLSTYLE_BEGIN
 90
        3
 91
        2
300
_DATA
309
CELLSTYLE_END
  0
ENDSEC
  0
EOF
