  0
SECTION
  2
HEADER
  9
$ACADVER
  1
AC1027
  9
$ACADMAINTVER
 70
   105
  9
$DWGCODEPAGE
  3
ANSI_1252
  9
$REQUIREDVERSIONS
160
                 0
  9
$LASTSAVEDBY
  1
andrea.zolin
  9
$INSBASE
 10
0.0
 20
0.0
 30
0.0
  9
$EXTMIN
 10
0.0
 20
0.0
 30
0.0
  9
$EXTMAX
 10
420.0
 20
297.0
 30
0.0
  9
$LIMMIN
 10
0.0
 20
0.0
  9
$LIMMAX
 10
420.0
 20
297.0
  9
$ORTHOMODE
 70
     0
  9
$REGENMODE
 70
     1
  9
$FILLMODE
 70
     1
  9
$QTEXTMODE
 70
     0
  9
$MIRRTEXT
 70
     1
  9
$LTSCALE
 40
23.1
  9
$ATTMODE
 70
     1
  9
$TEXTSIZE
 40
0.2
  9
$TRACEWID
 40
0.05
  9
$TEXTSTYLE
  7
STANDARD
  9
$CLAYER
  8
0
  9
$CELTYPE
  6
BYLAYER
  9
$CECOLOR
 62
   256
  9
$CELTSCALE
 40
1.0
  9
$DISPSILH
 70
     0
  9
$DIMSCALE
 40
1.0
  9
$DIMASZ
 40
2.5
  9
$DIMEXO
 40
0.75
  9
$DIMDLI
 40
15.96
  9
$DIMRND
 40
0.0
  9
$DIMDLE
 40
0.0
  9
$DIMEXE
 40
0.75
  9
$DIMTP
 40
0.01
  9
$DIMTM
 40
0.01
  9
$DIMTXT
 40
3.0
  9
$DIMCEN
 40
3.78
  9
$DIMTSZ
 40
0.0
  9
$DIMTOL
 70
     1
  9
$DIMLIM
 70
     0
  9
$DIMTIH
 70
     1
  9
$DIMTOH
 70
     1
  9
$DIMSE1
 70
     0
  9
$DIMSE2
 70
     0
  9
$DIMTAD
 70
     0
  9
$DIMZIN
 70
     0
  9
$DIMBLK
  1
CLOSED
  9
$DIMASO
 70
     1
  9
$DIMSHO
 70
     1
  9
$DIMPOST
  1

  9
$DIMAPOST
  1

  9
$DIMALT
 70
     0
  9
$DIMALTD
 70
     2
  9
$DIMALTF
 40
25.4
  9
$DIMLFAC
 40
1.0
  9
$DIMTOFL
 70
     0
  9
$DIMTVP
 40
0.0
  9
$DIMTIX
 70
     0
  9
$DIMSOXD
 70
     0
  9
$DIMSAH
 70
     0
  9
$DIMBLK1
  1

  9
$DIMBLK2
  1

  9
$DIMSTYLE
  2
STANDARD
  9
$DIMCLRD
 70
     0
  9
$DIMCLRE
 70
     0
  9
$DIMCLRT
 70
     0
  9
$DIMTFAC
 40
1.0
  9
$DIMGAP
 40
0.625
  9
$DIMJUST
 70
     0
  9
$DIMSD1
 70
     0
  9
$DIMSD2
 70
     0
  9
$DIMTOLJ
 70
     1
  9
$DIMTZIN
 70
     0
  9
$DIMALTZ
 70
     0
  9
$DIMALTTZ
 70
     0
  9
$DIMUPT
 70
     0
  9
$DIMDEC
 70
     4
  9
$DIMTDEC
 70
     4
  9
$DIMALTU
 70
     2
  9
$DIMALTTD
 70
     2
  9
$DIMTXSTY
  7
STANDARD
  9
$DIMAUNIT
 70
     0
  9
$DIMADEC
 70
     0
  9
$DIMALTRND
 40
0.0
  9
$DIMAZIN
 70
     0
  9
$DIMDSEP
 70
    46
  9
$DIMATFIT
 70
     3
  9
$DIMFRAC
 70
     0
  9
$DIMLDRBLK
  1

  9
$DIMLUNIT
 70
     2
  9
$DIMLWD
 70
    -2
  9
$DIMLWE
 70
    -2
  9
$DIMTMOVE
 70
     2
  9
$DIMFXL
 40
1.0
  9
$DIMFXLON
 70
     0
  9
$DIMJOGANG
 40
0.7853981633974483
  9
$DIMTFILL
 70
     0
  9
$DIMTFILLCLR
 70
     0
  9
$DIMARCSYM
 70
     0
  9
$DIMLTYPE
  6

  9
$DIMLTEX1
  6

  9
$DIMLTEX2
  6

  9
$DIMTXTDIRECTION
 70
     0
  9
$LUNITS
 70
     2
  9
$LUPREC
 70
     4
  9
$SKETCHINC
 40
0.1
  9
$FILLETRAD
 40
0.5
  9
$AUNITS
 70
     0
  9
$AUPREC
 70
     0
  9
$MENU
  1
.
  9
$ELEVATION
 40
0.0
  9
$PELEVATION
 40
0.0
  9
$THICKNESS
 40
0.0
  9
$LIMCHECK
 70
     0
  9
$CHAMFERA
 40
0.0
  9
$CHAMFERB
 40
0.0
  9
$CHAMFERC
 40
0.0
  9
$CHAMFERD
 40
0.0
  9
$SKPOLY
 70
     0
  9
$TDCREATE
 40
2447893.041666667
  9
$TDUCREATE
 40
0.0
  9
$TDUPDATE
 40
2458474.614459746
  9
$TDUUPDATE
 40
2458474.572793079
  9
$TDINDWG
 40
0.000180787
  9
$TDUSRTIMER
 40
0.000180787
  9
$USRTIMER
 70
     1
  9
$ANGBASE
 50
0.0
  9
$ANGDIR
 70
     0
  9
$PDMODE
 70
     3
  9
$PDSIZE
 40
0.3125
  9
$PLINEWID
 40
0.0
  9
$SPLFRAME
 70
     0
  9
$SPLINETYPE
 70
     6
  9
$SPLINESEGS
 70
     8
  9
$HANDSEED
  5
55C
  9
$SURFTAB1
 70
     6
  9
$SURFTAB2
 70
     6
  9
$SURFTYPE
 70
     6
  9
$SURFU
 70
     6
  9
$SURFV
 70
     6
  9
$UCSBASE
  2

  9
$UCSNAME
  2

  9
$UCSORG
 10
0.0
 20
0.0
 30
0.0
  9
$UCSXDIR
 10
1.0
 20
0.0
 30
0.0
  9
$UCSYDIR
 10
0.0
 20
1.0
 30
0.0
  9
$UCSORTHOREF
  2

  9
$UCSORTHOVIEW
 70
     0
  9
$UCSORGTOP
 10
0.0
 20
0.0
 30
0.0
  9
$UCSORGBOTTOM
 10
0.0
 20
0.0
 30
0.0
  9
$UCSORGLEFT
 10
0.0
 20
0.0
 30
0.0
  9
$UCSORGRIGHT
 10
0.0
 20
0.0
 30
0.0
  9
$UCSORGFRONT
 10
0.0
 20
0.0
 30
0.0
  9
$UCSORGBACK
 10
0.0
 20
0.0
 30
0.0
  9
$PUCSBASE
  2

  9
$PUCSNAME
  2

  9
$PUCSORG
 10
0.0
 20
0.0
 30
0.0
  9
$PUCSXDIR
 10
1.0
 20
0.0
 30
0.0
  9
$PUCSYDIR
 10
0.0
 20
1.0
 30
0.0
  9
$PUCSORTHOREF
  2

  9
$PUCSORTHOVIEW
 70
     0
  9
$PUCSORGTOP
 10
0.0
 20
0.0
 30
0.0
  9
$PUCSORGBOTTOM
 10
0.0
 20
0.0
 30
0.0
  9
$PUCSORGLEFT
 10
0.0
 20
0.0
 30
0.0
  9
$PUCSORGRIGHT
 10
0.0
 20
0.0
 30
0.0
  9
$PUCSORGFRONT
 10
0.0
 20
0.0
 30
0.0
  9
$PUCSORGBACK
 10
0.0
 20
0.0
 30
0.0
  9
$USERI1
 70
     0
  9
$USERI2
 70
     0
  9
$USERI3
 70
     0
  9
$USERI4
 70
     0
  9
$USERI5
 70
     0
  9
$USERR1
 40
0.0
  9
$USERR2
 40
0.0
  9
$USERR3
 40
0.0
  9
$USERR4
 40
0.0
  9
$USERR5
 40
0.0
  9
$WORLDVIEW
 70
     1
  9
$SHADEDGE
 70
     3
  9
$SHADEDIF
 70
    70
  9
$TILEMODE
 70
     0
  9
$MAXACTVP
 70
    64
  9
$PINSBASE
 10
0.0
 20
0.0
 30
0.0
  9
$PLIMCHECK
 70
     0
  9
$PEXTMIN
 10
0.0
 20
0.0
 30
0.0
  9
$PEXTMAX
 10
422.7158426512667
 20
297.0
 30
0.0
  9
$PLIMMIN
 10
-8.667315175097276
 20
-23.11284046692607
  9
$PLIMMAX
 10
476.7023346303502
 20
320.1128404669261
  9
$UNITMODE
 70
     0
  9
$VISRETAIN
 70
     1
  9
$PLINEGEN
 70
     0
  9
$PSLTSCALE
 70
     1
  9
$TREEDEPTH
 70
  3020
  9
$CMLSTYLE
  2
STANDARD
  9
$CMLJUST
 70
     0
  9
$CMLSCALE
 40
1.0
  9
$PROXYGRAPHICS
 70
     1
  9
$MEASUREMENT
 70
     1
  9
$CELWEIGHT
370
    -1
  9
$ENDCAPS
280
     0
  9
$JOINSTYLE
280
     0
  9
$LWDISPLAY
290
     0
  9
$INSUNITS
 70
     0
  9
$HYPERLINKBASE
  1

  9
$STYLESHEET
  1

  9
$XEDIT
290
     1
  9
$CEPSNTYPE
380
     0
  9
$PSTYLEMODE
290
     1
  9
$FINGERPRINTGUID
  2
{00C8C811-D52C-49B0-B580-061F32A7CC27}
  9
$VERSIONGUID
  2
{FAEB1C32-E019-11D5-929B-00C0DF256EC4}
  9
$EXTNAMES
290
     1
  9
$PSVPSCALE
 40
0.0
  9
$OLESTARTUP
290
     0
  9
$SORTENTS
280
   127
  9
$INDEXCTL
280
     0
  9
$HIDETEXT
280
     1
  9
$XCLIPFRAME
280
     2
  9
$HALOGAP
280
     0
  9
$OBSCOLOR
 70
   257
  9
$OBSLTYPE
280
     0
  9
$INTERSECTIONDISPLAY
280
     0
  9
$INTERSECTIONCOLOR
 70
   257
  9
$DIMASSOC
280
     2
  9
$PROJECTNAME
  1

  9
$CAMERADISPLAY
290
     0
  9
$LENSLENGTH
 40
50.0
  9
$CAMERAHEIGHT
 40
0.0
  9
$STEPSPERSEC
 40
2.0
  9
$STEPSIZE
 40
6.0
  9
$3DDWFPREC
 40
2.0
  9
$PSOLWIDTH
 40
0.25
  9
$PSOLHEIGHT
 40
4.0
  9
$LOFTANG1
 40
1.570796326794897
  9
$LOFTANG2
 40
1.570796326794897
  9
$LOFTMAG1
 40
0.0
  9
$LOFTMAG2
 40
0.0
  9
$LOFTPARAM
 70
     7
  9
$LOFTNORMALS
280
     1
  9
$LATITUDE
 40
37.795
  9
$LONGITUDE
 40
-122.394
  9
$NORTHDIRECTION
 40
0.0
  9
$TIMEZONE
 70
 -8000
  9
$LIGHTGLYPHDISPLAY
280
     1
  9
$TILEMODELIGHTSYNCH
280
     1
  9
$SOLIDHIST
280
     0
  9
$SHOWHIST
280
     1
  9
$DWFFRAME
280
     2
  9
$DGNFRAME
280
     2
  9
$REALWORLDSCALE
290
     1
  9
$INTERFERECOLOR
 62
   256
  9
$CSHADOW
280
     0
  9
$SHADOWPLANELOCATION
 40
0.0
  0
ENDSEC
  0
SECTION
  2
CLASSES
  0
CLASS
  1
ACDBDICTIONARYWDFLT
  2
AcDbDictionaryWithDefault
  3
ObjectDBX Classes
 90
        0
 91
        4
280
     0
281
     0
  0
CLASS
  1
SCALE
  2
AcDbScale
  3
ObjectDBX Classes
 90
     1153
 91
        4
280
     0
281
     0
  0
CLASS
  1
VISUALSTYLE
  2
AcDbVisualStyle
  3
ObjectDBX Classes
 90
     4095
 91
        4
280
     0
281
     0
  0
CLASS
  1
MATERIAL
  2
AcDbMaterial
  3
ObjectDBX Classes
 90
     1153
 91
        4
280
     0
281
     0
  0
CLASS
  1
TABLESTYLE
  2
AcDbTableStyle
  3
ObjectDBX Classes
 90
     4095
 91
        4
280
     0
281
     0
  0
CLASS
  1
MLEADERSTYLE
  2
AcDbMLeaderStyle
  3
ACDB_MLEADERSTYLE_CLASS
 90
     4095
 91
        4
280
     0
281
     0
  0
CLASS
  1
DICTIONARYVAR
  2
AcDbDictionaryVar
  3
ObjectDBX Classes
 90
        0
 91
        4
280
     0
281
     0
  0
CLASS
  1
CELLSTYLEMAP
  2
AcDbCellStyleMap
  3
ObjectDBX Classes
 90
     1152
 91
        4
280
     0
281
     0
  0
ENDSEC
  0
SECTION
  2
TABLES
  0
TABLE
  2
VPORT
  5
8
330
0
100
AcDbSymbolTable
 70
     1
  0
VPORT
  5
1F4
330
8
100
AcDbSymbolTableRecord
100
AcDbViewportTableRecord
  2
*ACTIVE
 70
     0
 10
0.0
 20
0.0
 11
1.0
 21
1.0
 12
210.0
 22
148.5
 13
0.0
 23
0.0
 14
1.0
 24
1.0
 15
0.0
 25
0.0
 16
0.0
 26
0.0
 36
1.0
 17
0.0
 27
0.0
 37
0.0
 40
297.0
 41
1.4141414141
 42
50.0
 43
0.0
 44
0.0
 50
0.0
 51
0.0
 71
     0
 72
   100
 73
     1
 74
     1
 75
     0
 76
     0
 77
     0
 78
     0
281
     0
 65
     1
110
0.0
120
0.0
130
0.0
111
1.0
121
0.0
131
0.0
112
0.0
122
1.0
132
0.0
 79
     0
146
0.0
348
535
 60
     3
 61
     5
292
     1
282
     1
141
0.0
142
0.0
 63
   256
  0
ENDTAB
  0
TABLE
  2
LTYPE
  5
5
330
0
100
AcDbSymbolTable
 70
     6
  0
LTYPE
  5
14
330
5
100
AcDbSymbolTableRecord
100
AcDbLinetypeTableRecord
  2
BYBLOCK
 70
     0
  3

 72
    65
 73
     0
 40
0.0
  0
LTYPE
  5
15
330
5
100
AcDbSymbolTableRecord
100
AcDbLinetypeTableRecord
  2
BYLAYER
 70
     0
  3

 72
    65
 73
     0
 40
0.0
  0
LTYPE
  5
16
330
5
100
AcDbSymbolTableRecord
100
AcDbLinetypeTableRecord
  2
CONTINUOUS
 70
     0
  3
Solid line
 72
    65
 73
     0
 40
0.0
  0
LTYPE
  5
1F5
330
5
100
AcDbSymbolTableRecord
100
AcDbLinetypeTableRecord
  2
CENTER
 70
     0
  3
____ _ ____ _ ____ _ ____ _ ____ _ ____ _ ____
 72
    65
 73
     4
 40
0.6
 49
0.375
 74
     0
 49
-0.075
 74
     0
 49
0.075
 74
     0
 49
-0.075
 74
     0
  0
LTYPE
  5
1F6
330
5
100
AcDbSymbolTableRecord
100
AcDbLinetypeTableRecord
  2
HIDDEN
 70
     0
  3
- - - - - - - - - - - - - - - - - - - -
 72
    65
 73
     2
 40
0.2
 49
0.1
 74
     0
 49
-0.1
 74
     0
  0
LTYPE
  5
1F7
330
5
100
AcDbSymbolTableRecord
100
AcDbLinetypeTableRecord
  2
PHANTOM
 70
     0
  3
_____ _ _ _____ _ _ _____ _ _ _____
 72
    65
 73
     6
 40
0.8
 49
0.45
 74
     0
 49
-0.05
 74
     0
 49
0.1
 74
     0
 49
-0.05
 74
     0
 49
0.1
 74
     0
 49
-0.05
 74
     0
  0
LTYPE
  5
1F8
330
5
100
AcDbSymbolTableRecord
100
AcDbLinetypeTableRecord
  2
DOT
 70
     0
  3
. . . . . . . . . . . . . . . . . . . .
 72
    65
 73
     2
 40
0.2
 49
0.1
 74
     0
 49
-0.1
 74
     0
  0
LTYPE
  5
1F9
330
5
100
AcDbSymbolTableRecord
100
AcDbLinetypeTableRecord
  2
DASHED
 70
     0
  3
- - - - - - - - - - - - - - - - - - - -
 72
    65
 73
     2
 40
0.2
 49
0.1
 74
     0
 49
-0.1
 74
     0
  0
ENDTAB
  0
TABLE
  2
LAYER
  5
2
330
0
100
AcDbSymbolTable
 70
    34
  0
LAYER
  5
10
330
2
100
AcDbSymbolTableRecord
100
AcDbLayerTableRecord
  2
0
 70
     0
 62
     7
  6
CONTINUOUS
370
    -3
390
50A
347
54C
348
0
  0
LAYER
  5
1FA
330
2
100
AcDbSymbolTableRecord
100
AcDbLayerTableRecord
  2
DEFAULT_1
 70
     0
 62
     7
  6
CENTER
370
    -3
390
50A
347
54C
348
0
  0
LAYER
  5
1FB
330
2
100
AcDbSymbolTableRecord
100
AcDbLayerTableRecord
  2
DEFAULT_2
 70
     0
 62
     8
  6
HIDDEN
370
    -3
390
50A
347
54C
348
0
  0
LAYER
  5
1FC
330
2
100
AcDbSymbolTableRecord
100
AcDbLayerTableRecord
  2
DEFAULT_3
 70
     0
 62
     7
  6
PHANTOM
370
    -3
390
50A
347
54C
348
0
  0
LAYER
  5
1FD
330
2
100
AcDbSymbolTableRecord
100
AcDbLayerTableRecord
  2
01_ALL_DTM_PLN
 70
     0
 62
     7
  6
CONTINUOUS
370
    -3
390
50A
347
54C
348
0
  0
LAYER
  5
1FE
330
2
100
AcDbSymbolTableRecord
100
AcDbLayerTableRecord
  2
01__ASM_ALL_DTM_PLN
 70
     0
 62
     7
  6
CONTINUOUS
370
    -3
390
50A
347
54C
348
0
  0
LAYER
  5
1FF
330
2
100
AcDbSymbolTableRecord
100
AcDbLayerTableRecord
  2
01__ASM_DEF_DTM_PLN
 70
     0
 62
     7
  6
CONTINUOUS
370
    -3
390
50A
347
54C
348
0
  0
LAYER
  5
200
330
2
100
AcDbSymbolTableRecord
100
AcDbLayerTableRecord
  2
01___PRT_ALL_DTM_PLN
 70
     0
 62
     7
  6
CONTINUOUS
370
    -3
390
50A
347
54C
348
0
  0
LAYER
  5
201
330
2
100
AcDbSymbolTableRecord
100
AcDbLayerTableRecord
  2
01___PRT_DEF_DTM_PLN
 70
     0
 62
     7
  6
CONTINUOUS
370
    -3
390
50A
347
54C
348
0
  0
LAYER
  5
202
330
2
100
AcDbSymbolTableRecord
100
AcDbLayerTableRecord
  2
02_ALL_AXES
 70
     0
 62
     7
  6
CONTINUOUS
370
    -3
390
50A
347
54C
348
0
  0
LAYER
  5
203
330
2
100
AcDbSymbolTableRecord
100
AcDbLayerTableRecord
  2
02__ASM_ALL_AXES
 70
     0
 62
     7
  6
CONTINUOUS
370
    -3
390
50A
347
54C
348
0
  0
LAYER
  5
204
330
2
100
AcDbSymbolTableRecord
100
AcDbLayerTableRecord
  2
02___PRT_ALL_AXES
 70
     0
 62
     7
  6
CONTINUOUS
370
    -3
390
50A
347
54C
348
0
  0
LAYER
  5
205
330
2
100
AcDbSymbolTableRecord
100
AcDbLayerTableRecord
  2
03_ALL_CURVES
 70
     0
 62
     7
  6
CONTINUOUS
370
    -3
390
50A
347
54C
348
0
  0
LAYER
  5
206
330
2
100
AcDbSymbolTableRecord
100
AcDbLayerTableRecord
  2
03__ASM_ALL_CURVES
 70
     0
 62
     7
  6
CONTINUOUS
370
    -3
390
50A
347
54C
348
0
  0
LAYER
  5
207
330
2
100
AcDbSymbolTableRecord
100
AcDbLayerTableRecord
  2
03___PRT_ALL_CURVES
 70
     0
 62
     7
  6
CONTINUOUS
370
    -3
390
50A
347
54C
348
0
  0
LAYER
  5
208
330
2
100
AcDbSymbolTableRecord
100
AcDbLayerTableRecord
  2
04_ALL_DTM_PNT
 70
     0
 62
     7
  6
CONTINUOUS
370
    -3
390
50A
347
54C
348
0
  0
LAYER
  5
209
330
2
100
AcDbSymbolTableRecord
100
AcDbLayerTableRecord
  2
04__ASM_ALL_DTM_PNT
 70
     0
 62
     7
  6
CONTINUOUS
370
    -3
390
50A
347
54C
348
0
  0
LAYER
  5
20A
330
2
100
AcDbSymbolTableRecord
100
AcDbLayerTableRecord
  2
04___PRT_ALL_DTM_PNT
 70
     0
 62
     7
  6
CONTINUOUS
370
    -3
390
50A
347
54C
348
0
  0
LAYER
  5
20B
330
2
100
AcDbSymbolTableRecord
100
AcDbLayerTableRecord
  2
05_ALL_DTM_CSYS
 70
     0
 62
     7
  6
CONTINUOUS
370
    -3
390
50A
347
54C
348
0
  0
LAYER
  5
20C
330
2
100
AcDbSymbolTableRecord
100
AcDbLayerTableRecord
  2
05__ASM_ALL_DTM_CSYS
 70
     0
 62
     7
  6
CONTINUOUS
370
    -3
390
50A
347
54C
348
0
  0
LAYER
  5
20D
330
2
100
AcDbSymbolTableRecord
100
AcDbLayerTableRecord
  2
05__ASM_DEF_DTM_CSYS
 70
     0
 62
     7
  6
CONTINUOUS
370
    -3
390
50A
347
54C
348
0
  0
LAYER
  5
20E
330
2
100
AcDbSymbolTableRecord
100
AcDbLayerTableRecord
  2
05___PRT_ALL_DTM_CSYS
 70
     0
 62
     7
  6
CONTINUOUS
370
    -3
390
50A
347
54C
348
0
  0
LAYER
  5
20F
330
2
100
AcDbSymbolTableRecord
100
AcDbLayerTableRecord
  2
05___PRT_DEF_DTM_CSYS
 70
     0
 62
     7
  6
CONTINUOUS
370
    -3
390
50A
347
54C
348
0
  0
LAYER
  5
210
330
2
100
AcDbSymbolTableRecord
100
AcDbLayerTableRecord
  2
06_ALL_SURFS
 70
     0
 62
     7
  6
CONTINUOUS
370
    -3
390
50A
347
54C
348
0
  0
LAYER
  5
211
330
2
100
AcDbSymbolTableRecord
100
AcDbLayerTableRecord
  2
06__ASM_ALL_SURFS
 70
     0
 62
     7
  6
CONTINUOUS
370
    -3
390
50A
347
54C
348
0
  0
LAYER
  5
212
330
2
100
AcDbSymbolTableRecord
100
AcDbLayerTableRecord
  2
06___PRT_ALL_SURFS
 70
     0
 62
     7
  6
CONTINUOUS
370
    -3
390
50A
347
54C
348
0
  0
LAYER
  5
213
330
2
100
AcDbSymbolTableRecord
100
AcDbLayerTableRecord
  2
07__ASM_ALL_SKELETONS
 70
     0
 62
     7
  6
CONTINUOUS
370
    -3
390
50A
347
54C
348
0
  0
LAYER
  5
214
330
2
100
AcDbSymbolTableRecord
100
AcDbLayerTableRecord
  2
1_ALL_PLANES
 70
     0
 62
     7
  6
CONTINUOUS
370
    -3
390
50A
347
54C
348
0
  0
LAYER
  5
215
330
2
100
AcDbSymbolTableRecord
100
AcDbLayerTableRecord
  2
2_ALL_CSYS
 70
     0
 62
     7
  6
CONTINUOUS
370
    -3
390
50A
347
54C
348
0
  0
LAYER
  5
216
330
2
100
AcDbSymbolTableRecord
100
AcDbLayerTableRecord
  2
3_ALL_AXES
 70
     0
 62
     7
  6
CONTINUOUS
370
    -3
390
50A
347
54C
348
0
  0
LAYER
  5
217
330
2
100
AcDbSymbolTableRecord
100
AcDbLayerTableRecord
  2
5_ALL_CURVES
 70
     0
 62
     7
  6
CONTINUOUS
370
    -3
390
50A
347
54C
348
0
  0
LAYER
  5
218
330
2
100
AcDbSymbolTableRecord
100
AcDbLayerTableRecord
  2
7_ALL_FEATURES
 70
     0
 62
     7
  6
CONTINUOUS
370
    -3
390
50A
347
54C
348
0
  0
LAYER
  5
219
330
2
100
AcDbSymbolTableRecord
100
AcDbLayerTableRecord
  2
9_SOLID
 70
     0
 62
     7
  6
CONTINUOUS
370
    -3
390
50A
347
54C
348
0
  0
LAYER
  5
21A
330
2
100
AcDbSymbolTableRecord
100
AcDbLayerTableRecord
  2
MIXEDCOLOR
 70
     0
 62
     7
  6
CONTINUOUS
370
    -3
390
50A
347
54C
348
0
  0
ENDTAB
  0
TABLE
  2
STYLE
  5
3
330
0
100
AcDbSymbolTable
 70
     4
  0
STYLE
  5
11
330
3
100
AcDbSymbolTableRecord
100
AcDbTextStyleTableRecord
  2
STANDARD
 70
     0
 40
0.0
 41
1.0
 50
0.0
 71
     0
 42
0.2
  3
arial.ttf
  4

  0
STYLE
  5
21B
330
3
100
AcDbSymbolTableRecord
100
AcDbTextStyleTableRecord
  2
TEXTSTYLE_1
 70
     0
 40
0.0
 41
0.8
 50
0.0
 71
     0
 42
0.2
  3
gdt
  4

  0
STYLE
  5
21C
330
3
100
AcDbSymbolTableRecord
100
AcDbTextStyleTableRecord
  2
TEXTSTYLE_2
 70
     0
 40
0.0
 41
2.0
 50
0.0
 71
     0
 42
0.2
  3
txt
  4

  0
STYLE
  5
21D
330
3
100
AcDbSymbolTableRecord
100
AcDbTextStyleTableRecord
  2
TEXTSTYLE_3
 70
     0
 40
0.0
 41
0.85
 50
0.0
 71
     0
 42
0.2
  3
txt
  4

  0
ENDTAB
  0
TABLE
  2
VIEW
  5
6
330
0
100
AcDbSymbolTable
 70
     0
  0
ENDTAB
  0
TABLE
  2
UCS
  5
7
330
0
100
AcDbSymbolTable
 70
     0
  0
ENDTAB
  0
TABLE
  2
APPID
  5
9
330
0
100
AcDbSymbolTable
 70
     1
  0
APPID
  5
21E
330
9
100
AcDbSymbolTableRecord
100
AcDbRegAppTableRecord
  2
ACAD
 70
     0
  0
ENDTAB
  0
TABLE
  2
DIMSTYLE
  5
A
330
0
100
AcDbSymbolTable
 70
     2
100
AcDbDimStyleTable
  0
DIMSTYLE
105
227
330
A
100
AcDbSymbolTableRecord
100
AcDbDimStyleTableRecord
  2
STANDARD
 70
     0
 41
2.5
 42
0.75
 44
0.75
 47
0.01
 48
0.01
 71
     1
 73
     0
 74
     0
 77
     1
 78
     8
 79
     2
140
3.0
147
0.625
171
     1
178
     0
179
     2
271
     2
272
     2
284
     8
340
11
341
21F
342
21F
343
21F
344
21F
  0
DIMSTYLE
105
228
330
A
100
AcDbSymbolTableRecord
100
AcDbDimStyleTableRecord
  2
DIMSTYLE_1
 70
     0
 41
2.5
 42
0.75
 44
0.75
 47
0.3
 48
0.3
 73
     0
 74
     0
 77
     1
 78
     8
 79
     2
140
3.0
147
0.75
171
     1
178
     0
179
     2
271
     2
272
     2
284
     8
340
11
341
21F
342
21F
343
21F
344
21F
  0
ENDTAB
  0
TABLE
  2
BLOCK_RECORD
  5
1
330
0
100
AcDbSymbolTable
 70
     8
  0
BLOCK_RECORD
  5
1F
330
1
100
AcDbSymbolTableRecord
100
AcDbBlockTableRecord
  2
*MODEL_SPACE
340
52E
 70
     0
280
     1
281
     0
  0
BLOCK_RECORD
  5
1B
330
1
100
AcDbSymbolTableRecord
100
AcDbBlockTableRecord
  2
*PAPER_SPACE
340
52F
 70
     0
280
     1
281
     0
  0
BLOCK_RECORD
  5
21F
330
1
100
AcDbSymbolTableRecord
100
AcDbBlockTableRecord
  2
_CLOSED
340
0
102
{BLKREFS
331
27B
331
27C
331
284
331
285
331
28D
331
28E
331
296
331
297
331
29F
331
2A0
102
}
 70
     0
280
     1
281
     0
  0
BLOCK_RECORD
  5
220
330
1
100
AcDbSymbolTableRecord
100
AcDbBlockTableRecord
  2
*D1
340
0
 70
     0
280
     1
281
     0
  0
BLOCK_RECORD
  5
221
330
1
100
AcDbSymbolTableRecord
100
AcDbBlockTableRecord
  2
*D2
340
0
 70
     0
280
     1
281
     0
  0
BLOCK_RECORD
  5
222
330
1
100
AcDbSymbolTableRecord
100
AcDbBlockTableRecord
  2
*D3
340
0
 70
     0
280
     1
281
     0
  0
BLOCK_RECORD
  5
223
330
1
100
AcDbSymbolTableRecord
100
AcDbBlockTableRecord
  2
*D4
340
0
 70
     0
280
     1
281
     0
  0
BLOCK_RECORD
  5
224
330
1
100
AcDbSymbolTableRecord
100
AcDbBlockTableRecord
  2
*D5
340
0
 70
     0
280
     1
281
     0
  0
BLOCK_RECORD
  5
225
330
1
100
AcDbSymbolTableRecord
100
AcDbBlockTableRecord
  2
LOGO2_BL1
340
0
102
{BLKREFS
331
4F2
102
}
 70
     0
280
     1
281
     0
  0
BLOCK_RECORD
  5
226
330
1
100
AcDbSymbolTableRecord
100
AcDbBlockTableRecord
  2
PROIEZIONE_EU_BL0
340
0
102
{BLKREFS
331
4EF
102
}
 70
     0
280
     1
281
     0
  0
ENDTAB
  0
ENDSEC
  0
SECTION
  2
BLOCKS
  0
BLOCK
  5
20
330
1F
100
AcDbEntity
  8
0
100
AcDbBlockBegin
  2
*MODEL_SPACE
 70
     0
 10
0.0
 20
0.0
 30
0.0
  3
*MODEL_SPACE
  1

  0
ENDBLK
  5
21
330
1F
100
AcDbEntity
  8
0
100
AcDbBlockEnd
  0
BLOCK
  5
1C
330
1B
100
AcDbEntity
 67
     1
  8
0
100
AcDbBlockBegin
  2
*PAPER_SPACE
 70
     0
 10
0.0
 20
0.0
 30
0.0
  3
*PAPER_SPACE
  1

  0
ENDBLK
  5
1D
330
1B
100
AcDbEntity
 67
     1
  8
0
100
AcDbBlockEnd
  0
BLOCK
  5
26F
330
21F
100
AcDbEntity
  8
0
100
AcDbBlockBegin
  2
_CLOSED
 70
     0
 10
0.0
 20
0.0
 30
0.0
  3
_CLOSED
  1

  0
LINE
  5
270
330
21F
100
AcDbEntity
  8
0
  6
ByBlock
 62
     0
100
AcDbLine
 10
0.0
 20
0.0
 30
0.0
 11
-1.0
 21
0.2
 31
0.0
  0
LINE
  5
271
330
21F
100
AcDbEntity
  8
0
  6
ByBlock
 62
     0
100
AcDbLine
 10
-1.0
 20
0.2
 30
0.0
 11
-1.0
 21
-0.2
 31
0.0
  0
LINE
  5
272
330
21F
100
AcDbEntity
  8
0
  6
ByBlock
 62
     0
100
AcDbLine
 10
-1.0
 20
-0.2
 30
0.0
 11
0.0
 21
0.0
 31
0.0
  0
LINE
  5
273
330
21F
100
AcDbEntity
  8
0
  6
ByBlock
 62
     0
100
AcDbLine
 10
-1.0
 20
0.0
 30
0.0
 11
0.0
 21
0.0
 31
0.0
  0
ENDBLK
  5
274
330
21F
100
AcDbEntity
  8
0
  6
ByBlock
 62
     0
100
AcDbBlockEnd
  0
BLOCK
  5
275
330
220
100
AcDbEntity
  8
0
100
AcDbBlockBegin
  2
*D1
 70
     1
 10
0.0
 20
0.0
 30
0.0
  3
*D1
  1

  0
MTEXT
  5
276
330
220
100
AcDbEntity
  8
0
  6
Continuous
 62
     2
100
AcDbMText
 10
35.3856027352
 20
98.7459806286
 30
0.0
 40
3.0
 41
6.9925650558
 46
0.0
 71
     2
 72
     1
  1
100
 11
0.0
 21
1.0
 31
0.0
 73
     1
 44
1.0
  0
LINE
  5
277
330
220
100
AcDbEntity
  8
0
  6
Continuous
 62
     2
100
AcDbLine
 10
52.4832886323
 20
47.8179898649
 30
0.0
 11
38.3856027352
 21
47.8179898649
 31
0.0
  0
LINE
  5
278
330
220
100
AcDbEntity
  8
0
  6
Continuous
 62
     2
100
AcDbLine
 10
52.4832886323
 20
147.8179898649
 30
0.0
 11
38.3856027352
 21
147.8179898649
 31
0.0
  0
LINE
  5
279
330
220
100
AcDbEntity
  8
0
  6
Continuous
 62
     2
100
AcDbLine
 10
39.1356027352
 20
47.8179898649
 30
0.0
 11
39.1356027352
 21
97.8179898649
 31
0.0
  0
LINE
  5
27A
330
220
100
AcDbEntity
  8
0
  6
Continuous
 62
     2
100
AcDbLine
 10
39.1356027352
 20
147.8179898649
 30
0.0
 11
39.1356027352
 21
97.8179898649
 31
0.0
  0
INSERT
  5
27B
330
220
100
AcDbEntity
  8
0
  6
Continuous
 62
     2
100
AcDbBlockReference
  2
_CLOSED
 10
39.1356027352
 20
47.8179898649
 30
0.0
 41
2.5
 42
2.5
 43
2.5
 50
270.0
  0
INSERT
  5
27C
330
220
100
AcDbEntity
  8
0
  6
Continuous
 62
     2
100
AcDbBlockReference
  2
_CLOSED
 10
39.1356027352
 20
147.8179898649
 30
0.0
 41
2.5
 42
2.5
 43
2.5
 50
90.0
  0
ENDBLK
  5
27D
330
220
100
AcDbEntity
  8
0
  6
ByBlock
 62
     0
100
AcDbBlockEnd
  0
BLOCK
  5
27E
330
221
100
AcDbEntity
  8
0
100
AcDbBlockBegin
  2
*D2
 70
     1
 10
0.0
 20
0.0
 30
0.0
  3
*D2
  1

  0
MTEXT
  5
27F
330
221
100
AcDbEntity
  8
0
  6
Continuous
 62
     2
100
AcDbMText
 10
107.2392314189
 20
164.4734698781
 30
0.0
 40
3.0
 41
6.9925650558
 46
0.0
 71
     2
 72
     1
  1
100
 73
     1
 44
1.0
  0
LINE
  5
280
330
221
100
AcDbEntity
  8
0
  6
Continuous
 62
     2
100
AcDbLine
 10
57.2392314189
 20
151.7857805105
 30
0.0
 11
57.2392314189
 21
161.4734698781
 31
0.0
  0
LINE
  5
281
330
221
100
AcDbEntity
  8
0
  6
Continuous
 62
     2
100
AcDbLine
 10
157.2392314189
 20
149.8975328814
 30
0.0
 11
157.2392314189
 21
161.4734698781
 31
0.0
  0
LINE
  5
282
330
221
100
AcDbEntity
  8
0
  6
Continuous
 62
     2
100
AcDbLine
 10
57.2392314189
 20
160.7234698781
 30
0.0
 11
107.2392314189
 21
160.7234698781
 31
0.0
  0
LINE
  5
283
330
221
100
AcDbEntity
  8
0
  6
Continuous
 62
     2
100
AcDbLine
 10
157.2392314189
 20
160.7234698781
 30
0.0
 11
107.2392314189
 21
160.7234698781
 31
0.0
  0
INSERT
  5
284
330
221
100
AcDbEntity
  8
0
  6
Continuous
 62
     2
100
AcDbBlockReference
  2
_CLOSED
 10
57.2392314189
 20
160.7234698781
 30
0.0
 41
2.5
 42
2.5
 43
2.5
 50
180.0
  0
INSERT
  5
285
330
221
100
AcDbEntity
  8
0
  6
Continuous
 62
     2
100
AcDbBlockReference
  2
_CLOSED
 10
157.2392314189
 20
160.7234698781
 30
0.0
 41
2.5
 42
2.5
 43
2.5
  0
ENDBLK
  5
286
330
221
100
AcDbEntity
  8
0
  6
ByBlock
 62
     0
100
AcDbBlockEnd
  0
BLOCK
  5
287
330
222
100
AcDbEntity
  8
0
100
AcDbBlockBegin
  2
*D3
 70
     1
 10
0.0
 20
0.0
 30
0.0
  3
*D3
  1

  0
MTEXT
  5
288
330
222
100
AcDbEntity
  8
0
  6
Continuous
 62
     2
100
AcDbMText
 10
35.3856027352
 20
207.1076857416
 30
0.0
 40
3.0
 41
4.6617100372
 46
0.0
 71
     2
 72
     1
  1
32
 11
0.0
 21
1.0
 31
0.0
 73
     1
 44
1.0
  0
LINE
  5
289
330
222
100
AcDbEntity
  8
0
  6
Continuous
 62
     2
100
AcDbLine
 10
52.4832886323
 20
191.1076857416
 30
0.0
 11
38.3856027352
 21
191.1076857416
 31
0.0
  0
LINE
  5
28A
330
222
100
AcDbEntity
  8
0
  6
Continuous
 62
     2
100
AcDbLine
 10
52.4832886323
 20
223.1076857416
 30
0.0
 11
38.3856027352
 21
223.1076857416
 31
0.0
  0
LINE
  5
28B
330
222
100
AcDbEntity
  8
0
  6
Continuous
 62
     2
100
AcDbLine
 10
39.1356027352
 20
191.1076857416
 30
0.0
 11
39.1356027352
 21
207.1076857416
 31
0.0
  0
LINE
  5
28C
330
222
100
AcDbEntity
  8
0
  6
Continuous
 62
     2
100
AcDbLine
 10
39.1356027352
 20
223.1076857416
 30
0.0
 11
39.1356027352
 21
207.1076857416
 31
0.0
  0
INSERT
  5
28D
330
222
100
AcDbEntity
  8
0
  6
Continuous
 62
     2
100
AcDbBlockReference
  2
_CLOSED
 10
39.1356027352
 20
191.1076857416
 30
0.0
 41
2.5
 42
2.5
 43
2.5
 50
270.0
  0
INSERT
  5
28E
330
222
100
AcDbEntity
  8
0
  6
Continuous
 62
     2
100
AcDbBlockReference
  2
_CLOSED
 10
39.1356027352
 20
223.1076857416
 30
0.0
 41
2.5
 42
2.5
 43
2.5
 50
90.0
  0
ENDBLK
  5
28F
330
222
100
AcDbEntity
  8
0
  6
ByBlock
 62
     0
100
AcDbBlockEnd
  0
BLOCK
  5
290
330
223
100
AcDbEntity
  8
0
100
AcDbBlockBegin
  2
*D4
 70
     1
 10
0.0
 20
0.0
 30
0.0
  3
*D4
  1

  0
MTEXT
  5
291
330
223
100
AcDbEntity
  8
0
  6
Continuous
 62
     2
100
AcDbMText
 10
35.3856027352
 20
240.6076857416
 30
0.0
 40
3.0
 41
4.6617100372
 46
0.0
 71
     2
 72
     1
  1
35
 11
0.0
 21
1.0
 31
0.0
 73
     1
 44
1.0
  0
LINE
  5
292
330
223
100
AcDbEntity
  8
0
  6
Continuous
 62
     2
100
AcDbLine
 10
52.4832886323
 20
223.1076857416
 30
0.0
 11
38.3856027352
 21
223.1076857416
 31
0.0
  0
LINE
  5
293
330
223
100
AcDbEntity
  8
0
  6
Continuous
 62
     2
100
AcDbLine
 10
54.3928843572
 20
258.1076857416
 30
0.0
 11
38.3856027352
 21
258.1076857416
 31
0.0
  0
LINE
  5
294
330
223
100
AcDbEntity
  8
0
  6
Continuous
 62
     2
100
AcDbLine
 10
39.1356027352
 20
223.1076857416
 30
0.0
 11
39.1356027352
 21
240.6076857416
 31
0.0
  0
LINE
  5
295
330
223
100
AcDbEntity
  8
0
  6
Continuous
 62
     2
100
AcDbLine
 10
39.1356027352
 20
258.1076857416
 30
0.0
 11
39.1356027352
 21
240.6076857416
 31
0.0
  0
INSERT
  5
296
330
223
100
AcDbEntity
  8
0
  6
Continuous
 62
     2
100
AcDbBlockReference
  2
_CLOSED
 10
39.1356027352
 20
223.1076857416
 30
0.0
 41
2.5
 42
2.5
 43
2.5
 50
270.0
  0
INSERT
  5
297
330
223
100
AcDbEntity
  8
0
  6
Continuous
 62
     2
100
AcDbBlockReference
  2
_CLOSED
 10
39.1356027352
 20
258.1076857416
 30
0.0
 41
2.5
 42
2.5
 43
2.5
 50
90.0
  0
ENDBLK
  5
298
330
223
100
AcDbEntity
  8
0
  6
ByBlock
 62
     0
100
AcDbBlockEnd
  0
BLOCK
  5
299
330
224
100
AcDbEntity
  8
0
100
AcDbBlockBegin
  2
*D5
 70
     1
 10
0.0
 20
0.0
 30
0.0
  3
*D5
  1

  0
MTEXT
  5
29A
330
224
100
AcDbEntity
  8
0
  6
Continuous
 62
     2
100
AcDbMText
 10
168.6587689291
 20
231.1076857416
 30
0.0
 40
3.0
 41
4.6617100372
 46
0.0
 71
     2
 72
     1
  1
80
 11
0.0
 21
1.0
 31
0.0
 73
     1
 44
1.0
  0
LINE
  5
29B
330
224
100
AcDbEntity
  8
0
  6
Continuous
 62
     2
100
AcDbLine
 10
167.7940653081
 20
191.1076857416
 30
0.0
 11
173.1587689291
 21
191.1076857416
 31
0.0
  0
LINE
  5
29C
330
224
100
AcDbEntity
  8
0
  6
Continuous
 62
     2
100
AcDbLine
 10
153.3719210022
 20
271.1076857416
 30
0.0
 11
173.1587689291
 21
271.1076857416
 31
0.0
  0
LINE
  5
29D
330
224
100
AcDbEntity
  8
0
  6
Continuous
 62
     2
100
AcDbLine
 10
172.4087689291
 20
191.1076857416
 30
0.0
 11
172.4087689291
 21
231.1076857416
 31
0.0
  0
LINE
  5
29E
330
224
100
AcDbEntity
  8
0
  6
Continuous
 62
     2
100
AcDbLine
 10
172.4087689291
 20
271.1076857416
 30
0.0
 11
172.4087689291
 21
231.1076857416
 31
0.0
  0
INSERT
  5
29F
330
224
100
AcDbEntity
  8
0
  6
Continuous
 62
     2
100
AcDbBlockReference
  2
_CLOSED
 10
172.4087689291
 20
191.1076857416
 30
0.0
 41
2.5
 42
2.5
 43
2.5
 50
270.0
  0
INSERT
  5
2A0
330
224
100
AcDbEntity
  8
0
  6
Continuous
 62
     2
100
AcDbBlockReference
  2
_CLOSED
 10
172.4087689291
 20
271.1076857416
 30
0.0
 41
2.5
 42
2.5
 43
2.5
 50
90.0
  0
ENDBLK
  5
2A1
330
224
100
AcDbEntity
  8
0
  6
ByBlock
 62
     0
100
AcDbBlockEnd
  0
BLOCK
  5
229
330
225
100
AcDbEntity
  8
0
100
AcDbBlockBegin
  2
LOGO2_BL1
 70
     0
 10
299.0027230294
 20
37.7030448597
 30
0.0
  3
LOGO2_BL1
  1

  0
LINE
  5
22A
330
225
100
AcDbEntity
  8
0
  6
Continuous
 62
     7
100
AcDbLine
 10
290.7456482576
 20
40.8985361985
 30
0.0
 11
289.4413073282
 21
40.8985361985
 31
0.0
  0
LINE
  5
22B
330
225
100
AcDbEntity
  8
0
  6
Continuous
 62
     7
100
AcDbLine
 10
289.4413073282
 20
40.8985361985
 30
0.0
 11
289.4413073282
 21
30.4394701387
 31
0.0
  0
LINE
  5
22C
330
225
100
AcDbEntity
  8
0
  6
Continuous
 62
     7
100
AcDbLine
 10
289.4413073282
 20
30.4394701387
 30
0.0
 11
293.9223622165
 21
30.4394701387
 31
0.0
  0
LINE
  5
22D
330
225
100
AcDbEntity
  8
0
  6
Continuous
 62
     7
100
AcDbLine
 10
293.9223622165
 20
30.4394701387
 30
0.0
 11
293.9223622165
 21
31.6323244637
 31
0.0
  0
LINE
  5
22E
330
225
100
AcDbEntity
  8
0
  6
Continuous
 62
     7
100
AcDbLine
 10
293.9223622165
 20
31.6323244637
 30
0.0
 11
290.7456482576
 21
31.6323244637
 31
0.0
  0
LINE
  5
22F
330
225
100
AcDbEntity
  8
0
  6
Continuous
 62
     7
100
AcDbLine
 10
290.7456482576
 20
31.6323244637
 30
0.0
 11
290.7456482576
 21
40.8985361985
 31
0.0
  0
LINE
  5
230
330
225
100
AcDbEntity
  8
0
  6
Continuous
 62
     7
100
AcDbLine
 10
305.6819744739
 20
40.8985361985
 30
0.0
 11
304.3781569558
 21
40.8985361985
 31
0.0
  0
LINE
  5
231
330
225
100
AcDbEntity
  8
0
  6
Continuous
 62
     7
100
AcDbLine
 10
304.3781569558
 20
40.8985361985
 30
0.0
 11
304.3781569558
 21
30.4394701387
 31
0.0
  0
LINE
  5
232
330
225
100
AcDbEntity
  8
0
  6
Continuous
 62
     7
100
AcDbLine
 10
304.3781569558
 20
30.4394701387
 30
0.0
 11
308.8593426969
 21
30.4394701387
 31
0.0
  0
LINE
  5
233
330
225
100
AcDbEntity
  8
0
  6
Continuous
 62
     7
100
AcDbLine
 10
308.8593426969
 20
30.4394701387
 30
0.0
 11
308.8593426969
 21
31.6323244637
 31
0.0
  0
LINE
  5
234
330
225
100
AcDbEntity
  8
0
  6
Continuous
 62
     7
100
AcDbLine
 10
308.8593426969
 20
31.6323244637
 30
0.0
 11
305.6819744739
 21
31.6323244637
 31
0.0
  0
LINE
  5
235
330
225
100
AcDbEntity
  8
0
  6
Continuous
 62
     7
100
AcDbLine
 10
305.6819744739
 20
31.6323244637
 30
0.0
 11
305.6819744739
 21
40.8985361985
 31
0.0
  0
LWPOLYLINE
  5
236
330
225
100
AcDbEntity
  8
0
  6
Continuous
 62
     7
100
AcDbPolyline
 90
        2
 70
     0
 43
0.2
 10
287.7957022392
 20
27.0959188318
 10
287.7957022392
 20
25.2388555824
  0
LWPOLYLINE
  5
237
330
225
100
AcDbEntity
  8
0
  6
Continuous
 62
     7
100
AcDbPolyline
 90
        2
 70
     0
 43
0.2
 10
287.7957022392
 20
25.2388555824
 10
288.5914182496
 20
25.2388555824
  0
LWPOLYLINE
  5
238
330
225
100
AcDbEntity
  8
0
  6
Continuous
 62
     7
100
AcDbPolyline
 90
        2
 70
     0
 43
0.2
 10
288.5914182496
 20
25.2388555824
 10
288.5914182496
 20
25.450837154
  0
LWPOLYLINE
  5
239
330
225
100
AcDbEntity
  8
0
  6
Continuous
 62
     7
100
AcDbPolyline
 90
        2
 70
     0
 43
0.2
 10
288.5914182496
 20
25.450837154
 10
288.0273117341
 20
25.450837154
  0
LWPOLYLINE
  5
23A
330
225
100
AcDbEntity
  8
0
  6
Continuous
 62
     7
100
AcDbPolyline
 90
        2
 70
     0
 43
0.2
 10
288.0273117341
 20
25.450837154
 10
288.0273117341
 20
27.0959188318
  0
LWPOLYLINE
  5
23B
330
225
100
AcDbEntity
  8
0
  6
Continuous
 62
     7
100
AcDbPolyline
 90
        2
 70
     0
 43
0.2
 10
288.0273117341
 20
27.0959188318
 10
287.7957022392
 20
27.0959188318
  0
SPLINE
  5
23C
330
225
100
AcDbEntity
  8
0
  6
Continuous
 62
     7
100
AcDbSpline
 70
     3
 71
     3
 72
    35
 73
    31
 74
     0
 42
0.000000001
 43
0.0000001
 40
0.0
 40
0.0
 40
0.0
 40
0.0
 40
1.0
 40
1.0
 40
1.0
 40
2.0
 40
2.0
 40
2.0
 40
3.0
 40
3.0
 40
3.0
 40
4.0
 40
4.0
 40
4.0
 40
5.0
 40
5.0
 40
5.0
 40
6.0
 40
6.0
 40
6.0
 40
7.0
 40
7.0
 40
7.0
 40
8.0
 40
8.0
 40
8.0
 40
9.0
 40
9.0
 40
9.0
 40
10.0
 40
10.0
 40
10.0
 40
10.0
 10
289.9897115051
 20
26.3914072383
 30
0.0
 10
289.9897115051
 20
26.3914072383
 30
0.0
 10
289.9897115051
 20
25.7292919591
 30
0.0
 10
289.9897115051
 20
25.7292919591
 30
0.0
 10
289.9897115051
 20
25.4141983638
 30
0.0
 10
290.1375751939
 20
25.1995997358
 30
0.0
 10
290.4776616782
 20
25.1995997358
 30
0.0
 10
290.8172247512
 20
25.1995997358
 30
0.0
 10
290.9653501457
 20
25.4141983638
 30
0.0
 10
290.9653501457
 20
25.7292919591
 30
0.0
 10
290.9653501457
 20
25.7292919591
 30
0.0
 10
290.9653501457
 20
26.3914072383
 30
0.0
 10
290.9653501457
 20
26.3914072383
 30
0.0
 10
290.9653501457
 20
26.3914072383
 30
0.0
 10
290.7432929068
 20
26.3914072383
 30
0.0
 10
290.7432929068
 20
26.3914072383
 30
0.0
 10
290.7432929068
 20
26.3914072383
 30
0.0
 10
290.7432929068
 20
25.7544157009
 30
0.0
 10
290.7432929068
 20
25.7544157009
 30
0.0
 10
290.7432929068
 20
25.5686046938
 30
0.0
 10
290.6965784494
 20
25.4058237832
 30
0.0
 10
290.4776616782
 20
25.4058237832
 30
0.0
 10
290.2582214958
 20
25.4058237832
 30
0.0
 10
290.2115070383
 20
25.5686046938
 30
0.0
 10
290.2115070383
 20
25.7544157009
 30
0.0
 10
290.2115070383
 20
25.7544157009
 30
0.0
 10
290.2115070383
 20
26.3914072383
 30
0.0
 10
290.2115070383
 20
26.3914072383
 30
0.0
 10
290.2115070383
 20
26.3914072383
 30
0.0
 10
289.9897115051
 20
26.3914072383
 30
0.0
 10
289.9897115051
 20
26.3914072383
 30
0.0
  0
SPLINE
  5
23D
330
225
100
AcDbEntity
  8
0
  6
Continuous
 62
     7
100
AcDbSpline
 70
     3
 71
     3
 72
    35
 73
    31
 74
     0
 42
0.000000001
 43
0.0000001
 40
0.0
 40
0.0
 40
0.0
 40
0.0
 40
1.0
 40
1.0
 40
1.0
 40
2.0
 40
2.0
 40
2.0
 40
3.0
 40
3.0
 40
3.0
 40
4.0
 40
4.0
 40
4.0
 40
5.0
 40
5.0
 40
5.0
 40
6.0
 40
6.0
 40
6.0
 40
7.0
 40
7.0
 40
7.0
 40
8.0
 40
8.0
 40
8.0
 40
9.0
 40
9.0
 40
9.0
 40
10.0
 40
10.0
 40
10.0
 40
10.0
 10
293.3884827029
 20
26.3500577465
 30
0.0
 10
293.3000261952
 20
26.4013520528
 30
0.0
 10
293.1865767986
 20
26.4264757946
 30
0.0
 10
293.0829413636
 20
26.4264757946
 30
0.0
 10
292.7280685104
 20
26.4264757946
 30
0.0
 10
292.4526233202
 20
26.1626765055
 30
0.0
 10
292.4526233202
 20
25.8051865959
 30
0.0
 10
292.4526233202
 20
25.4602585572
 30
0.0
 10
292.7310781253
 20
25.2001231471
 30
0.0
 10
293.0706411983
 20
25.2001231471
 30
0.0
 10
293.1865767986
 20
25.2001231471
 30
0.0
 10
293.2873334715
 20
25.2221064212
 30
0.0
 10
293.3884827029
 20
25.2760177838
 30
0.0
 10
293.3884827029
 20
25.2760177838
 30
0.0
 10
293.3884827029
 20
25.5586598793
 30
0.0
 10
293.3884827029
 20
25.5586598793
 30
0.0
 10
293.304606044
 20
25.46549267
 30
0.0
 10
293.2011014618
 20
25.4063471945
 30
0.0
 10
293.0729965491
 20
25.4063471945
 30
0.0
 10
292.8392934091
 20
25.4063471945
 30
0.0
 10
292.6740262949
 20
25.5785495082
 30
0.0
 10
292.6740262949
 20
25.8151314103
 30
0.0
 10
292.6740262949
 20
26.0271129819
 30
0.0
 10
292.8417796127
 20
26.2192049246
 30
0.0
 10
293.0586027387
 20
26.2192049246
 30
0.0
 10
293.191418353
 20
26.2192049246
 30
0.0
 10
293.3000261952
 20
26.1652935619
 30
0.0
 10
293.3884827029
 20
26.0642751834
 30
0.0
 10
293.3884827029
 20
26.0642751834
 30
0.0
 10
293.3884827029
 20
26.3500577465
 30
0.0
 10
293.3884827029
 20
26.3500577465
 30
0.0
  0
SPLINE
  5
23E
330
225
100
AcDbEntity
  8
0
  6
Continuous
 62
     7
100
AcDbSpline
 70
     3
 71
     3
 72
    32
 73
    28
 74
     0
 42
0.000000001
 43
0.0000001
 40
0.0
 40
0.0
 40
0.0
 40
0.0
 40
1.0
 40
1.0
 40
1.0
 40
2.0
 40
2.0
 40
2.0
 40
3.0
 40
3.0
 40
3.0
 40
4.0
 40
4.0
 40
4.0
 40
5.0
 40
5.0
 40
5.0
 40
6.0
 40
6.0
 40
6.0
 40
7.0
 40
7.0
 40
7.0
 40
8.0
 40
8.0
 40
8.0
 40
9.0
 40
9.0
 40
9.0
 40
9.0
 10
295.9203539551
 20
25.7784926202
 30
0.0
 10
295.9203539551
 20
25.7784926202
 30
0.0
 10
295.9203539551
 20
25.8125143539
 30
0.0
 10
295.9203539551
 20
25.8125143539
 30
0.0
 10
295.9203539551
 20
26.1548253362
 30
0.0
 10
295.7474973773
 20
26.4264757946
 30
0.0
 10
295.3808477702
 20
26.4264757946
 30
0.0
 10
295.0092257558
 20
26.4264757946
 30
0.0
 10
294.8194891639
 20
26.160059449
 30
0.0
 10
294.8194891639
 20
25.8051865959
 30
0.0
 10
294.8194891639
 20
25.46549267
 30
0.0
 10
295.0335643807
 20
25.1995997358
 30
0.0
 10
295.3856893246
 20
25.1995997358
 30
0.0
 10
295.6097093558
 20
25.1995997358
 30
0.0
 10
295.8118769657
 20
25.3152736304
 30
0.0
 10
295.9203539551
 20
25.5146933311
 30
0.0
 10
295.9203539551
 20
25.5146933311
 30
0.0
 10
295.7327110084
 20
25.6214692338
 30
0.0
 10
295.7327110084
 20
25.6214692338
 30
0.0
 10
295.649226908
 20
25.4827652425
 30
0.0
 10
295.5580224911
 20
25.3969257913
 30
0.0
 10
295.3884372338
 20
25.3969257913
 30
0.0
 10
295.1764556623
 20
25.3969257913
 30
0.0
 10
295.0435091951
 20
25.5816899759
 30
0.0
 10
295.0411538443
 20
25.7784926202
 30
0.0
 10
295.0411538443
 20
25.7784926202
 30
0.0
 10
295.9203539551
 20
25.7784926202
 30
0.0
 10
295.9203539551
 20
25.7784926202
 30
0.0
  0
SPLINE
  5
23F
330
225
100
AcDbEntity
  8
0
  6
Continuous
 62
     7
100
AcDbSpline
 70
     3
 71
     3
 72
    14
 73
    10
 74
     0
 42
0.000000001
 43
0.0000001
 40
0.0
 40
0.0
 40
0.0
 40
0.0
 40
1.0
 40
1.0
 40
1.0
 40
2.0
 40
2.0
 40
2.0
 40
3.0
 40
3.0
 40
3.0
 40
3.0
 10
295.053192304
 20
25.9459842323
 30
0.0
 10
295.0808022494
 20
26.110858788
 30
0.0
 10
295.2086454565
 20
26.2338604406
 30
0.0
 10
295.3808477702
 20
26.2338604406
 30
0.0
 10
295.5580224911
 20
26.2338604406
 30
0.0
 10
295.6714718878
 20
26.118186546
 30
0.0
 10
295.6986892747
 20
25.9459842323
 30
0.0
 10
295.6986892747
 20
25.9459842323
 30
0.0
 10
295.053192304
 20
25.9459842323
 30
0.0
 10
295.053192304
 20
25.9459842323
 30
0.0
  0
SPLINE
  5
240
330
225
100
AcDbEntity
  8
0
  6
Continuous
 62
     7
100
AcDbSpline
 70
     3
 71
     3
 72
    20
 73
    16
 74
     0
 42
0.000000001
 43
0.0000001
 40
0.0
 40
0.0
 40
0.0
 40
0.0
 40
1.0
 40
1.0
 40
1.0
 40
2.0
 40
2.0
 40
2.0
 40
3.0
 40
3.0
 40
3.0
 40
4.0
 40
4.0
 40
4.0
 40
5.0
 40
5.0
 40
5.0
 40
5.0
 10
297.9443854053
 20
26.1553487475
 30
0.0
 10
297.9443854053
 20
26.1553487475
 30
0.0
 10
298.355524972
 20
25.6528739111
 30
0.0
 10
298.355524972
 20
25.6528739111
 30
0.0
 10
298.2394585189
 20
25.5372000165
 30
0.0
 10
298.1016704973
 20
25.4068706058
 30
0.0
 10
297.9297298893
 20
25.4068706058
 30
0.0
 10
297.7522934627
 20
25.4068706058
 30
0.0
 10
297.5848018506
 20
25.5712217502
 30
0.0
 10
297.5848018506
 20
25.7481347655
 30
0.0
 10
297.5848018506
 20
25.9260946034
 30
0.0
 10
297.7945589242
 20
26.0522367237
 30
0.0
 10
297.9221404256
 20
26.1401698201
 30
0.0
 10
297.9221404256
 20
26.1401698201
 30
0.0
 10
297.9443854053
 20
26.1553487475
 30
0.0
 10
297.9443854053
 20
26.1553487475
 30
0.0
  0
SPLINE
  5
241
330
225
100
AcDbEntity
  8
0
  6
Continuous
 62
     7
100
AcDbSpline
 70
     3
 71
     3
 72
    23
 73
    19
 74
     0
 42
0.000000001
 43
0.0000001
 40
0.0
 40
0.0
 40
0.0
 40
0.0
 40
1.0
 40
1.0
 40
1.0
 40
2.0
 40
2.0
 40
2.0
 40
3.0
 40
3.0
 40
3.0
 40
4.0
 40
4.0
 40
4.0
 40
5.0
 40
5.0
 40
5.0
 40
6.0
 40
6.0
 40
6.0
 40
6.0
 10
297.9937169192
 20
26.4463654235
 30
0.0
 10
297.9937169192
 20
26.4463654235
 30
0.0
 10
297.9320852401
 20
26.5248771167
 30
0.0
 10
297.9320852401
 20
26.5248771167
 30
0.0
 10
297.8781738774
 20
26.5934439954
 30
0.0
 10
297.8213837527
 20
26.6625342854
 30
0.0
 10
297.8213837527
 20
26.7562249059
 30
0.0
 10
297.8213837527
 20
26.8750392683
 30
0.0
 10
297.9172988712
 20
26.9525041389
 30
0.0
 10
298.0282620642
 20
26.9525041389
 30
0.0
 10
298.1515254225
 20
26.9525041389
 30
0.0
 10
298.2448234846
 20
26.8813202037
 30
0.0
 10
298.2448234846
 20
26.750990793
 30
0.0
 10
298.2448234846
 20
26.6159506808
 30
0.0
 10
298.1167185719
 20
26.5395326327
 30
0.0
 10
298.0231588042
 20
26.4657316412
 30
0.0
 10
298.0231588042
 20
26.4657316412
 30
0.0
 10
297.9937169192
 20
26.4463654235
 30
0.0
 10
297.9937169192
 20
26.4463654235
 30
0.0
  0
SPLINE
  5
242
330
225
100
AcDbEntity
  8
0
  6
Continuous
 62
     7
100
AcDbSpline
 70
     3
 71
     3
 72
    50
 73
    46
 74
     0
 42
0.000000001
 43
0.0000001
 40
0.0
 40
0.0
 40
0.0
 40
0.0
 40
1.0
 40
1.0
 40
1.0
 40
2.0
 40
2.0
 40
2.0
 40
3.0
 40
3.0
 40
3.0
 40
4.0
 40
4.0
 40
4.0
 40
5.0
 40
5.0
 40
5.0
 40
6.0
 40
6.0
 40
6.0
 40
7.0
 40
7.0
 40
7.0
 40
8.0
 40
8.0
 40
8.0
 40
9.0
 40
9.0
 40
9.0
 40
10.0
 40
10.0
 40
10.0
 40
11.0
 40
11.0
 40
11.0
 40
12.0
 40
12.0
 40
12.0
 40
13.0
 40
13.0
 40
13.0
 40
14.0
 40
14.0
 40
14.0
 40
15.0
 40
15.0
 40
15.0
 40
15.0
 10
298.6958731619
 20
25.2393789937
 30
0.0
 10
298.6958731619
 20
25.2393789937
 30
0.0
 10
298.9812631666
 20
25.2393789937
 30
0.0
 10
298.9812631666
 20
25.2393789937
 30
0.0
 10
298.9812631666
 20
25.2393789937
 30
0.0
 10
298.6488969988
 20
25.6502568547
 30
0.0
 10
298.6488969988
 20
25.6502568547
 30
0.0
 10
298.6488969988
 20
25.6502568547
 30
0.0
 10
298.8754032336
 20
25.9161497889
 30
0.0
 10
298.8754032336
 20
25.9161497889
 30
0.0
 10
298.8754032336
 20
25.9161497889
 30
0.0
 10
298.7271469863
 20
26.068985885
 30
0.0
 10
298.7271469863
 20
26.068985885
 30
0.0
 10
298.7271469863
 20
26.068985885
 30
0.0
 10
298.5112398301
 20
25.8177484668
 30
0.0
 10
298.5112398301
 20
25.8177484668
 30
0.0
 10
298.5112398301
 20
25.8177484668
 30
0.0
 10
298.1241771827
 20
26.2856781581
 30
0.0
 10
298.1241771827
 20
26.2856781581
 30
0.0
 10
298.2796303352
 20
26.3997818189
 30
0.0
 10
298.4619083162
 20
26.5395326327
 30
0.0
 10
298.4619083162
 20
26.7488971479
 30
0.0
 10
298.4619083162
 20
26.992806808
 30
0.0
 10
298.2598715591
 20
27.1362215009
 30
0.0
 10
298.0333653243
 20
27.1362215009
 30
0.0
 10
297.7891939585
 20
27.1362215009
 30
0.0
 10
297.6048223323
 20
26.98547905
 30
0.0
 10
297.6048223323
 20
26.729007519
 30
0.0
 10
297.6048223323
 20
26.5714607213
 30
0.0
 10
297.7034853601
 20
26.4338035526
 30
0.0
 10
297.8088218818
 20
26.3228403596
 30
0.0
 10
297.8088218818
 20
26.3228403596
 30
0.0
 10
297.69327884
 20
26.2390945535
 30
0.0
 10
297.69327884
 20
26.2390945535
 30
0.0
 10
297.5155807077
 20
26.110858788
 30
0.0
 10
297.3682404302
 20
25.9831464337
 30
0.0
 10
297.3682404302
 20
25.7460411203
 30
0.0
 10
297.3682404302
 20
25.4257134122
 30
0.0
 10
297.6268056064
 20
25.1995997358
 30
0.0
 10
297.9371885001
 20
25.1995997358
 30
0.0
 10
298.1561052713
 20
25.1995997358
 30
0.0
 10
298.353300474
 20
25.3246950336
 30
0.0
 10
298.4935746991
 20
25.4906164119
 30
0.0
 10
298.4935746991
 20
25.4906164119
 30
0.0
 10
298.6958731619
 20
25.2393789937
 30
0.0
 10
298.6958731619
 20
25.2393789937
 30
0.0
  0
LWPOLYLINE
  5
243
330
225
100
AcDbEntity
  8
0
  6
Continuous
 62
     7
100
AcDbPolyline
 90
        2
 70
     0
 43
0.2
 10
300.6313172516
 20
27.0959188318
 10
300.3999694624
 20
27.0959188318
  0
LWPOLYLINE
  5
244
330
225
100
AcDbEntity
  8
0
  6
Continuous
 62
     7
100
AcDbPolyline
 90
        2
 70
     0
 43
0.2
 10
300.3999694624
 20
27.0959188318
 10
300.3999694624
 20
25.2388555824
  0
LWPOLYLINE
  5
245
330
225
100
AcDbEntity
  8
0
  6
Continuous
 62
     7
100
AcDbPolyline
 90
        2
 70
     0
 43
0.2
 10
300.3999694624
 20
25.2388555824
 10
301.1952929143
 20
25.2388555824
  0
LWPOLYLINE
  5
246
330
225
100
AcDbEntity
  8
0
  6
Continuous
 62
     7
100
AcDbPolyline
 90
        2
 70
     0
 43
0.2
 10
301.1952929143
 20
25.2388555824
 10
301.1952929143
 20
25.450837154
  0
LWPOLYLINE
  5
247
330
225
100
AcDbEntity
  8
0
  6
Continuous
 62
     7
100
AcDbPolyline
 90
        2
 70
     0
 43
0.2
 10
301.1952929143
 20
25.450837154
 10
300.6313172516
 20
25.450837154
  0
LWPOLYLINE
  5
248
330
225
100
AcDbEntity
  8
0
  6
Continuous
 62
     7
100
AcDbPolyline
 90
        2
 70
     0
 43
0.2
 10
300.6313172516
 20
25.450837154
 10
300.6313172516
 20
27.0959188318
  0
LWPOLYLINE
  5
249
330
225
100
AcDbEntity
  8
0
  6
Continuous
 62
     7
100
AcDbPolyline
 90
        2
 70
     0
 43
0.2
 10
302.8743963258
 20
26.3914072383
 10
302.6532550567
 20
26.3914072383
  0
LWPOLYLINE
  5
24A
330
225
100
AcDbEntity
  8
0
  6
Continuous
 62
     7
100
AcDbPolyline
 90
        2
 70
     0
 43
0.2
 10
302.6532550567
 20
26.3914072383
 10
302.6532550567
 20
25.2393789937
  0
LWPOLYLINE
  5
24B
330
225
100
AcDbEntity
  8
0
  6
Continuous
 62
     7
100
AcDbPolyline
 90
        2
 70
     0
 43
0.2
 10
302.6532550567
 20
25.2393789937
 10
302.8743963258
 20
25.2393789937
  0
LWPOLYLINE
  5
24C
330
225
100
AcDbEntity
  8
0
  6
Continuous
 62
     7
100
AcDbPolyline
 90
        2
 70
     0
 43
0.2
 10
302.8743963258
 20
25.2393789937
 10
302.8743963258
 20
26.3914072383
  0
LWPOLYLINE
  5
24D
330
225
100
AcDbEntity
  8
0
  6
Continuous
 62
     7
100
AcDbPolyline
 90
        2
 70
     1
 43
0.2
 10
302.6113730486
 20
26.9213611673
 42
1.0
 10
302.9165400395
 20
26.9213611673
 42
1.0
  0
SPLINE
  5
24E
330
225
100
AcDbEntity
  8
0
  6
Continuous
 62
     7
100
AcDbSpline
 70
     3
 71
     3
 72
    17
 73
    13
 74
     0
 42
0.000000001
 43
0.0000001
 40
0.0
 40
0.0
 40
0.0
 40
0.0
 40
1.0
 40
1.0
 40
1.0
 40
2.0
 40
2.0
 40
2.0
 40
3.0
 40
3.0
 40
3.0
 40
4.0
 40
4.0
 40
4.0
 40
4.0
 10
305.0046802674
 20
25.3969257913
 30
0.0
 10
304.7707154217
 20
25.3969257913
 30
0.0
 10
304.6403860111
 20
25.5989625484
 30
0.0
 10
304.6403860111
 20
25.8151314103
 30
0.0
 10
304.6403860111
 20
26.0297300384
 30
0.0
 10
304.7762112403
 20
26.2286263278
 30
0.0
 10
305.0046802674
 20
26.2286263278
 30
0.0
 10
305.2441409316
 20
26.2286263278
 30
0.0
 10
305.3797044552
 20
26.0396748528
 30
0.0
 10
305.3797044552
 20
25.8151314103
 30
0.0
 10
305.3797044552
 20
25.589017734
 30
0.0
 10
305.2464962824
 20
25.3969257913
 30
0.0
 10
305.0046802674
 20
25.3969257913
 30
0.0
  0
SPLINE
  5
24F
330
225
100
AcDbEntity
  8
0
  6
Continuous
 62
     7
100
AcDbSpline
 70
     3
 71
     3
 72
    50
 73
    46
 74
     0
 42
0.000000001
 43
0.0000001
 40
0.0
 40
0.0
 40
0.0
 40
0.0
 40
1.0
 40
1.0
 40
1.0
 40
2.0
 40
2.0
 40
2.0
 40
3.0
 40
3.0
 40
3.0
 40
4.0
 40
4.0
 40
4.0
 40
5.0
 40
5.0
 40
5.0
 40
6.0
 40
6.0
 40
6.0
 40
7.0
 40
7.0
 40
7.0
 40
8.0
 40
8.0
 40
8.0
 40
9.0
 40
9.0
 40
9.0
 40
10.0
 40
10.0
 40
10.0
 40
11.0
 40
11.0
 40
11.0
 40
12.0
 40
12.0
 40
12.0
 40
13.0
 40
13.0
 40
13.0
 40
14.0
 40
14.0
 40
14.0
 40
15.0
 40
15.0
 40
15.0
 40
15.0
 10
305.5888072647
 20
26.3919306496
 30
0.0
 10
305.5888072647
 20
26.3919306496
 30
0.0
 10
305.3671425843
 20
26.3919306496
 30
0.0
 10
305.3671425843
 20
26.3919306496
 30
0.0
 10
305.3671425843
 20
26.3919306496
 30
0.0
 10
305.3671425843
 20
26.194604594
 30
0.0
 10
305.3671425843
 20
26.194604594
 30
0.0
 10
305.3671425843
 20
26.194604594
 30
0.0
 10
305.3624318827
 20
26.194604594
 30
0.0
 10
305.3624318827
 20
26.194604594
 30
0.0
 10
305.2710966129
 20
26.3374958756
 30
0.0
 10
305.1331777386
 20
26.4259523833
 30
0.0
 10
304.9604520136
 20
26.4259523833
 30
0.0
 10
304.6280858458
 20
26.4259523833
 30
0.0
 10
304.4189830363
 20
26.138076175
 30
0.0
 10
304.4189830363
 20
25.8224591684
 30
0.0
 10
304.4189830363
 20
25.492710057
 30
0.0
 10
304.6160473862
 20
25.1995997358
 30
0.0
 10
304.9709202393
 20
25.1995997358
 30
0.0
 10
305.1331777386
 20
25.1995997358
 30
0.0
 10
305.2731902581
 20
25.2880562435
 30
0.0
 10
305.3624318827
 20
25.4189090654
 30
0.0
 10
305.3624318827
 20
25.4189090654
 30
0.0
 10
305.3671425843
 20
25.4189090654
 30
0.0
 10
305.3671425843
 20
25.4189090654
 30
0.0
 10
305.3671425843
 20
25.4189090654
 30
0.0
 10
305.3671425843
 20
25.1995997358
 30
0.0
 10
305.3671425843
 20
25.1995997358
 30
0.0
 10
305.3671425843
 20
24.9630178337
 30
0.0
 10
305.3106141652
 20
24.7761600039
 30
0.0
 10
305.0373934729
 20
24.7761600039
 30
0.0
 10
304.8350950101
 20
24.7761600039
 30
0.0
 10
304.6924654342
 20
24.894450955
 30
0.0
 10
304.6924654342
 20
25.1006750024
 30
0.0
 10
304.6924654342
 20
25.1006750024
 30
0.0
 10
304.4708007538
 20
25.1006750024
 30
0.0
 10
304.4708007538
 20
25.1006750024
 30
0.0
 10
304.475773161
 20
24.7761600039
 30
0.0
 10
304.7068592446
 20
24.5793573597
 30
0.0
 10
305.0271869528
 20
24.5793573597
 30
0.0
 10
305.4752270152
 20
24.5793573597
 30
0.0
 10
305.5888072647
 20
24.8646165116
 30
0.0
 10
305.5888072647
 20
25.2613622678
 30
0.0
 10
305.5888072647
 20
25.2613622678
 30
0.0
 10
305.5888072647
 20
26.3919306496
 30
0.0
 10
305.5888072647
 20
26.3919306496
 30
0.0
  0
SPLINE
  5
250
330
225
100
AcDbEntity
  8
0
  6
Continuous
 62
     7
100
AcDbSpline
 70
     3
 71
     3
 72
    44
 73
    40
 74
     0
 42
0.000000001
 43
0.0000001
 40
0.0
 40
0.0
 40
0.0
 40
0.0
 40
1.0
 40
1.0
 40
1.0
 40
2.0
 40
2.0
 40
2.0
 40
3.0
 40
3.0
 40
3.0
 40
4.0
 40
4.0
 40
4.0
 40
5.0
 40
5.0
 40
5.0
 40
6.0
 40
6.0
 40
6.0
 40
7.0
 40
7.0
 40
7.0
 40
8.0
 40
8.0
 40
8.0
 40
9.0
 40
9.0
 40
9.0
 40
10.0
 40
10.0
 40
10.0
 40
11.0
 40
11.0
 40
11.0
 40
12.0
 40
12.0
 40
12.0
 40
13.0
 40
13.0
 40
13.0
 40
13.0
 10
307.1577326001
 20
27.3769906933
 30
0.0
 10
307.1577326001
 20
27.3769906933
 30
0.0
 10
307.1577326001
 20
25.2388555824
 30
0.0
 10
307.1577326001
 20
25.2388555824
 30
0.0
 10
307.1577326001
 20
25.2388555824
 30
0.0
 10
307.3791355748
 20
25.2388555824
 30
0.0
 10
307.3791355748
 20
25.2388555824
 30
0.0
 10
307.3791355748
 20
25.2388555824
 30
0.0
 10
307.3791355748
 20
25.7685478057
 30
0.0
 10
307.3791355748
 20
25.7685478057
 30
0.0
 10
307.3791355748
 20
25.9784357322
 30
0.0
 10
307.3791355748
 20
26.229149739
 30
0.0
 10
307.6643947267
 20
26.229149739
 30
0.0
 10
307.89129352
 20
26.229149739
 30
0.0
 10
307.9182492013
 20
26.0962032719
 30
0.0
 10
307.9182492013
 20
25.899924039
 30
0.0
 10
307.9182492013
 20
25.899924039
 30
0.0
 10
307.9182492013
 20
25.2388555824
 30
0.0
 10
307.9182492013
 20
25.2388555824
 30
0.0
 10
307.9182492013
 20
25.2388555824
 30
0.0
 10
308.1401755874
 20
25.2388555824
 30
0.0
 10
308.1401755874
 20
25.2388555824
 30
0.0
 10
308.1401755874
 20
25.2388555824
 30
0.0
 10
308.1401755874
 20
25.9260946034
 30
0.0
 10
308.1401755874
 20
25.9260946034
 30
0.0
 10
308.1401755874
 20
26.2066430537
 30
0.0
 10
308.0561680757
 20
26.4264757946
 30
0.0
 10
307.7311296659
 20
26.4264757946
 30
0.0
 10
307.5913788521
 20
26.4264757946
 30
0.0
 10
307.4531982721
 20
26.360002561
 30
0.0
 10
307.3838462764
 20
26.2370009084
 30
0.0
 10
307.3838462764
 20
26.2370009084
 30
0.0
 10
307.3791355748
 20
26.2370009084
 30
0.0
 10
307.3791355748
 20
26.2370009084
 30
0.0
 10
307.3791355748
 20
26.2370009084
 30
0.0
 10
307.3791355748
 20
27.3769906933
 30
0.0
 10
307.3791355748
 20
27.3769906933
 30
0.0
 10
307.3791355748
 20
27.3769906933
 30
0.0
 10
307.1577326001
 20
27.3769906933
 30
0.0
 10
307.1577326001
 20
27.3769906933
 30
0.0
  0
LWPOLYLINE
  5
251
330
225
100
AcDbEntity
  8
0
  6
Continuous
 62
     7
100
AcDbPolyline
 90
        2
 70
     0
 43
0.2
 10
309.9799662643
 20
26.1846597796
 10
310.1963968318
 20
26.1846597796
  0
LWPOLYLINE
  5
252
330
225
100
AcDbEntity
  8
0
  6
Continuous
 62
     7
100
AcDbPolyline
 90
        2
 70
     0
 43
0.2
 10
310.1963968318
 20
26.1846597796
 10
310.1963968318
 20
26.3914072383
  0
LWPOLYLINE
  5
253
330
225
100
AcDbEntity
  8
0
  6
Continuous
 62
     7
100
AcDbPolyline
 90
        2
 70
     0
 43
0.2
 10
310.1963968318
 20
26.3914072383
 10
309.9799662643
 20
26.3914072383
  0
LWPOLYLINE
  5
254
330
225
100
AcDbEntity
  8
0
  6
Continuous
 62
     7
100
AcDbPolyline
 90
        2
 70
     0
 43
0.2
 10
309.9799662643
 20
26.3914072383
 10
309.9799662643
 20
26.8321195427
  0
LWPOLYLINE
  5
255
330
225
100
AcDbEntity
  8
0
  6
Continuous
 62
     7
100
AcDbPolyline
 90
        2
 70
     0
 43
0.2
 10
309.9799662643
 20
26.8321195427
 10
309.7583015838
 20
26.8321195427
  0
LWPOLYLINE
  5
256
330
225
100
AcDbEntity
  8
0
  6
Continuous
 62
     7
100
AcDbPolyline
 90
        2
 70
     0
 43
0.2
 10
309.7583015838
 20
26.8321195427
 10
309.7583015838
 20
26.3914072383
  0
LWPOLYLINE
  5
257
330
225
100
AcDbEntity
  8
0
  6
Continuous
 62
     7
100
AcDbPolyline
 90
        2
 70
     0
 43
0.2
 10
309.7583015838
 20
26.3914072383
 10
309.637655282
 20
26.3914072383
  0
LWPOLYLINE
  5
258
330
225
100
AcDbEntity
  8
0
  6
Continuous
 62
     7
100
AcDbPolyline
 90
        2
 70
     0
 43
0.2
 10
309.637655282
 20
26.3914072383
 10
309.637655282
 20
26.1846597796
  0
LWPOLYLINE
  5
259
330
225
100
AcDbEntity
  8
0
  6
Continuous
 62
     7
100
AcDbPolyline
 90
        2
 70
     0
 43
0.2
 10
309.637655282
 20
26.1846597796
 10
309.7583015838
 20
26.1846597796
  0
LWPOLYLINE
  5
25A
330
225
100
AcDbEntity
  8
0
  6
Continuous
 62
     7
100
AcDbPolyline
 90
        2
 70
     0
 43
0.2
 10
309.7583015838
 20
26.1846597796
 10
309.7583015838
 20
25.2388555824
  0
LWPOLYLINE
  5
25B
330
225
100
AcDbEntity
  8
0
  6
Continuous
 62
     7
100
AcDbPolyline
 90
        2
 70
     0
 43
0.2
 10
309.7583015838
 20
25.2388555824
 10
309.9799662643
 20
25.2388555824
  0
LWPOLYLINE
  5
25C
330
225
100
AcDbEntity
  8
0
  6
Continuous
 62
     7
100
AcDbPolyline
 90
        2
 70
     0
 43
0.2
 10
309.9799662643
 20
25.2388555824
 10
309.9799662643
 20
26.1846597796
  0
SPLINE
  5
25D
330
225
100
AcDbEntity
  8
0
  6
Continuous
 62
     7
100
AcDbSpline
 70
     3
 71
     3
 72
    20
 73
    16
 74
     0
 42
0.000000001
 43
0.0000001
 40
0.0
 40
0.0
 40
0.0
 40
0.0
 40
1.0
 40
1.0
 40
1.0
 40
2.0
 40
2.0
 40
2.0
 40
3.0
 40
3.0
 40
3.0
 40
4.0
 40
4.0
 40
4.0
 40
5.0
 40
5.0
 40
5.0
 40
5.0
 10
297.7619765715
 20
35.5997820258
 30
0.0
 10
297.7619765715
 20
35.5997820258
 30
0.0
 10
300.078333226
 20
32.7702206036
 30
0.0
 10
300.078333226
 20
32.7702206036
 30
0.0
 10
299.4266861726
 20
32.1180501389
 30
0.0
 10
298.6498129686
 20
31.3821338681
 30
0.0
 10
297.6786233239
 20
31.3821338681
 30
0.0
 10
296.6800854395
 20
31.3821338681
 30
0.0
 10
295.7367674459
 20
32.3117123154
 30
0.0
 10
295.7367674459
 20
33.3109044639
 30
0.0
 10
295.7367674459
 20
34.3100966125
 30
0.0
 10
296.915620519
 20
35.0167018511
 30
0.0
 10
297.6371429794
 20
35.516559631
 30
0.0
 10
297.6371429794
 20
35.516559631
 30
0.0
 10
297.7619765715
 20
35.5997820258
 30
0.0
 10
297.7619765715
 20
35.5997820258
 30
0.0
  0
SPLINE
  5
25E
330
225
100
AcDbEntity
  8
0
  6
Continuous
 62
     7
100
AcDbSpline
 70
     3
 71
     3
 72
    23
 73
    19
 74
     0
 42
0.000000001
 43
0.0000001
 40
0.0
 40
0.0
 40
0.0
 40
0.0
 40
1.0
 40
1.0
 40
1.0
 40
2.0
 40
2.0
 40
2.0
 40
3.0
 40
3.0
 40
3.0
 40
4.0
 40
4.0
 40
4.0
 40
5.0
 40
5.0
 40
5.0
 40
6.0
 40
6.0
 40
6.0
 40
6.0
 10
298.0393845541
 20
37.2375359455
 30
0.0
 10
298.0393845541
 20
37.2375359455
 30
0.0
 10
297.6928862815
 20
37.6808653064
 30
0.0
 10
297.6928862815
 20
37.6808653064
 30
0.0
 10
297.3870832366
 20
38.0689747763
 30
0.0
 10
297.0681949094
 20
38.4574768047
 30
0.0
 10
297.0681949094
 20
38.9844211188
 30
0.0
 10
297.0681949094
 20
39.6505928354
 30
0.0
 10
297.6095330339
 20
40.0943147547
 30
0.0
 10
298.2334392891
 20
40.0943147547
 30
0.0
 10
298.9272209511
 20
40.0943147547
 30
0.0
 10
299.4544269708
 20
39.69207318
 30
0.0
 10
299.4544269708
 20
38.957072879
 30
0.0
 10
299.4544269708
 20
38.1938083685
 30
0.0
 10
298.7331662162
 20
37.7636951427
 30
0.0
 10
298.2060910493
 20
37.3479757273
 30
0.0
 10
298.2060910493
 20
37.3479757273
 30
0.0
 10
298.0393845541
 20
37.2375359455
 30
0.0
 10
298.0393845541
 20
37.2375359455
 30
0.0
  0
SPLINE
  5
25F
330
225
100
AcDbEntity
  8
0
  6
Continuous
 62
     7
100
AcDbSpline
 70
     3
 71
     3
 72
    50
 73
    46
 74
     0
 42
0.000000001
 43
0.0000001
 40
0.0
 40
0.0
 40
0.0
 40
0.0
 40
1.0
 40
1.0
 40
1.0
 40
2.0
 40
2.0
 40
2.0
 40
3.0
 40
3.0
 40
3.0
 40
4.0
 40
4.0
 40
4.0
 40
5.0
 40
5.0
 40
5.0
 40
6.0
 40
6.0
 40
6.0
 40
7.0
 40
7.0
 40
7.0
 40
8.0
 40
8.0
 40
8.0
 40
9.0
 40
9.0
 40
9.0
 40
10.0
 40
10.0
 40
10.0
 40
11.0
 40
11.0
 40
11.0
 40
12.0
 40
12.0
 40
12.0
 40
13.0
 40
13.0
 40
13.0
 40
14.0
 40
14.0
 40
14.0
 40
15.0
 40
15.0
 40
15.0
 40
15.0
 10
301.992971717
 20
30.4389467274
 30
0.0
 10
301.992971717
 20
30.4389467274
 30
0.0
 10
303.6021997216
 20
30.4389467274
 30
0.0
 10
303.6021997216
 20
30.4389467274
 30
0.0
 10
303.6021997216
 20
30.4389467274
 30
0.0
 10
301.7291724279
 20
32.7560884988
 30
0.0
 10
301.7291724279
 20
32.7560884988
 30
0.0
 10
301.7291724279
 20
32.7560884988
 30
0.0
 10
303.0055108534
 20
34.2535681934
 30
0.0
 10
303.0055108534
 20
34.2535681934
 30
0.0
 10
303.0055108534
 20
34.2535681934
 30
0.0
 10
302.1732869057
 20
35.1145797619
 30
0.0
 10
302.1732869057
 20
35.1145797619
 30
0.0
 10
302.1732869057
 20
35.1145797619
 30
0.0
 10
300.9526917824
 20
33.6992756395
 30
0.0
 10
300.9526917824
 20
33.6992756395
 30
0.0
 10
300.9526917824
 20
33.6992756395
 30
0.0
 10
298.7747774135
 20
36.334651474
 30
0.0
 10
298.7747774135
 20
36.334651474
 30
0.0
 10
299.648350853
 20
36.9726898339
 30
0.0
 10
300.6750220942
 20
37.7636951427
 30
0.0
 10
300.6750220942
 20
38.9425482158
 30
0.0
 10
300.6750220942
 20
40.3162411408
 30
0.0
 10
299.5371259543
 20
41.1207242902
 30
0.0
 10
298.2618343514
 20
41.1207242902
 30
0.0
 10
296.8884031321
 20
41.1207242902
 30
0.0
 10
295.8474689333
 20
40.2744990906
 30
0.0
 10
295.8474689333
 20
38.8318467284
 30
0.0
 10
295.8474689333
 20
37.944272037
 30
0.0
 10
296.4028083097
 20
37.167398833
 30
0.0
 10
296.9989737666
 20
36.5429691665
 30
0.0
 10
296.9989737666
 20
36.5429691665
 30
0.0
 10
296.3470650076
 20
36.0713755962
 30
0.0
 10
296.3470650076
 20
36.0713755962
 30
0.0
 10
295.3485271231
 20
35.3501148415
 30
0.0
 10
294.5156489113
 20
34.6288540868
 30
0.0
 10
294.5156489113
 20
33.2972957704
 30
0.0
 10
294.5156489113
 20
31.4936204724
 30
0.0
 10
295.9726950839
 20
30.2170203413
 30
0.0
 10
297.7202345213
 20
30.2170203413
 30
0.0
 10
298.9550926022
 20
30.2170203413
 30
0.0
 10
300.0644628269
 20
30.9251958138
 30
0.0
 10
300.8553372828
 20
31.8537274385
 30
0.0
 10
300.8553372828
 20
31.8537274385
 30
0.0
 10
301.992971717
 20
30.4389467274
 30
0.0
 10
301.992971717
 20
30.4389467274
 30
0.0
  0
LINE
  5
260
330
225
100
AcDbEntity
  8
0
  6
Continuous
 62
     7
100
AcDbLine
 10
287.795833092
 20
28.412821632
 30
0.0
 11
310.2097438196
 21
28.412821632
 31
0.0
  0
LINE
  5
261
330
225
100
AcDbEntity
  8
0
  6
Continuous
 62
     7
100
AcDbLine
 10
310.2097438196
 20
28.412821632
 30
0.0
 11
310.2097438196
 21
50.8267323597
 31
0.0
  0
LINE
  5
262
330
225
100
AcDbEntity
  8
0
  6
Continuous
 62
     7
100
AcDbLine
 10
310.2097438196
 20
50.8267323597
 30
0.0
 11
287.795833092
 21
50.8267323597
 31
0.0
  0
LINE
  5
263
330
225
100
AcDbEntity
  8
0
  6
Continuous
 62
     7
100
AcDbLine
 10
287.795833092
 20
50.8267323597
 30
0.0
 11
287.795833092
 21
28.412821632
 31
0.0
  0
ENDBLK
  5
264
330
225
100
AcDbEntity
  8
0
  6
ByBlock
 62
     0
100
AcDbBlockEnd
  0
BLOCK
  5
265
330
226
100
AcDbEntity
  8
0
100
AcDbBlockBegin
  2
PROIEZIONE_EU_BL0
 70
     0
 10
300.1766759846
 20
63.3280448597
 30
0.0
  3
PROIEZIONE_EU_BL0
  1

  0
LWPOLYLINE
  5
266
330
226
100
AcDbEntity
  8
DEFAULT_1
  6
CENTER
 62
     7
100
AcDbPolyline
 90
        2
 70
     0
 43
0.25
 10
306.3032966463
 20
68.3277389916
 10
306.3033376287
 20
58.3283507278
  0
LWPOLYLINE
  5
267
330
226
100
AcDbEntity
  8
DEFAULT_1
  6
CENTER
 62
     7
100
AcDbPolyline
 90
        2
 70
     0
 43
0.25
 10
312.3033264714
 20
63.3283159948
 10
288.0500254979
 20
63.3280453344
  0
LWPOLYLINE
  5
268
330
226
100
AcDbEntity
  8
0
  6
Continuous
 62
     7
100
AcDbPolyline
 90
        2
 70
     1
 43
0.25
 10
302.7561864705
 20
63.3094971055
 42
1.0
 10
309.8625155691
 20
63.3094971055
 42
1.0
  0
LWPOLYLINE
  5
269
330
226
100
AcDbEntity
  8
0
  6
Continuous
 62
     7
100
AcDbPolyline
 90
        2
 70
     1
 43
0.25
 10
304.3059302989
 20
63.3273951501
 42
1.0
 10
308.3176820489
 20
63.3273951501
 42
1.0
  0
LWPOLYLINE
  5
26A
330
226
100
AcDbEntity
  8
0
  6
Continuous
 62
     7
100
AcDbPolyline
 90
        2
 70
     0
 43
0.25
 10
300.3033242653
 20
66.9032483549
 10
300.3033239108
 20
59.8030454466
  0
LWPOLYLINE
  5
26B
330
226
100
AcDbEntity
  8
0
  6
Continuous
 62
     7
100
AcDbPolyline
 90
        2
 70
     0
 43
0.25
 10
300.3033523472
 20
59.8030170102
 10
290.308795076
 20
61.3231104231
  0
LWPOLYLINE
  5
26C
330
226
100
AcDbEntity
  8
0
  6
Continuous
 62
     7
100
AcDbPolyline
 90
        2
 70
     0
 43
0.25
 10
290.3064850904
 20
61.3224328815
 10
290.3038181863
 20
65.328071493
  0
LWPOLYLINE
  5
26D
330
226
100
AcDbEntity
  8
0
  6
Continuous
 62
     7
100
AcDbPolyline
 90
        2
 70
     0
 43
0.25
 10
290.3038099102
 20
65.3280632169
 10
300.3035531475
 20
66.903220437
  0
ENDBLK
  5
26E
330
226
100
AcDbEntity
  8
0
  6
ByBlock
 62
     0
100
AcDbBlockEnd
  0
ENDSEC
  0
SECTION
  2
ENTITIES
  0
LINE
  5
2A2
330
1B
100
AcDbEntity
 67
     1
  8
0
  6
Continuous
 62
     7
100
AcDbLine
 10
0.0
 20
0.0
 30
0.0
 11
420.0
 21
0.0
 31
0.0
  0
LINE
  5
2A3
330
1B
100
AcDbEntity
 67
     1
  8
0
  6
Continuous
 62
     7
100
AcDbLine
 10
420.0
 20
0.0
 30
0.0
 11
420.0
 21
297.0
 31
0.0
  0
LINE
  5
2A4
330
1B
100
AcDbEntity
 67
     1
  8
0
  6
Continuous
 62
     7
100
AcDbLine
 10
0.0
 20
297.0
 30
0.0
 11
420.0
 21
297.0
 31
0.0
  0
LINE
  5
2A5
330
1B
100
AcDbEntity
 67
     1
  8
0
  6
Continuous
 62
     7
100
AcDbLine
 10
0.0
 20
0.0
 30
0.0
 11
0.0
 21
297.0
 31
0.0
  0
VIEWPORT
  5
2A6
330
1B
100
AcDbEntity
 67
     1
  8
0
100
AcDbViewport
 10
0.0
 20
0.0
 30
0.0
 40
495.0770428015564
 41
350.0901945525292
 68
     1
 69
     1
 12
234.0175097276264
 22
148.5
 13
0.0
 23
0.0
 14
1.0
 24
1.0
 15
0.0
 25
0.0
 16
0.0
 26
0.0
 36
1.0
 17
0.0
 27
0.0
 37
0.0
 42
50.0
 43
0.0
 44
0.0
 45
350.0901945525292
 50
0.0
 51
0.0
 72
   100
 90
   557216
  1

281
     0
 71
     1
 74
     0
110
0.0
120
0.0
130
0.0
111
1.0
121
0.0
131
0.0
112
0.0
122
1.0
132
0.0
 79
     0
146
0.0
170
     0
 61
     5
348
535
292
     1
282
     1
141
0.0
142
0.0
 63
   256
  0
LINE
  5
2A7
330
1B
100
AcDbEntity
 67
     1
  8
7_ALL_FEATURES
  6
Continuous
 62
     7
100
AcDbLine
 10
87.6499341729
 20
129.0964613601
 30
0.0
 11
87.8305174006
 21
128.9158781325
 31
0.0
  0
SPLINE
  5
2A8
330
1B
100
AcDbEntity
 67
     1
  8
7_ALL_FEATURES
  6
Continuous
 62
     7
100
AcDbSpline
 70
     0
 71
     3
 72
    18
 73
    14
 74
     0
 42
0.000000001
 43
0.0000001
 40
0.0
 40
0.0
 40
0.0
 40
0.0
 40
0.188318627
 40
0.3699694337
 40
0.5383432632
 40
0.6875101832
 40
0.8118268372
 40
0.8633975077
 40
0.9073248784
 40
0.9431945216
 40
0.9706275178
 40
0.9894837153
 40
1.0
 40
1.0
 40
1.0
 40
1.0
 10
84.6538936673
 20
129.250138055
 30
0.0
 10
84.8426016979
 20
129.2496415644
 30
0.0
 10
85.2133344932
 20
129.2468982062
 30
0.0
 10
85.7527193884
 20
129.2375073357
 30
0.0
 10
86.2527580457
 20
129.2232942589
 30
0.0
 10
86.6951545367
 20
129.2049101749
 30
0.0
 10
87.0203621892
 20
129.1856541075
 30
0.0
 10
87.2398976459
 20
129.1679177329
 30
0.0
 10
87.3709695182
 20
129.1549435595
 30
0.0
 10
87.4774237978
 20
129.1415192153
 30
0.0
 10
87.5591252171
 20
129.1281699637
 30
0.0
 10
87.6135739052
 20
129.1144828343
 30
0.0
 10
87.6424826345
 20
129.1039128985
 30
0.0
 10
87.6499341729
 20
129.0964613601
 30
0.0
  0
ARC
  5
2A9
330
1B
100
AcDbEntity
 67
     1
  8
7_ALL_FEATURES
  6
Continuous
 62
     7
100
AcDbCircle
 10
84.4999615883
 20
70.7641848344
 30
0.0
 40
58.486155791
100
AcDbArc
 50
89.84920074639999
 51
90.0010040659
  0
ARC
  5
2AA
330
1B
100
AcDbEntity
 67
     1
  8
7_ALL_FEATURES
  6
Continuous
 62
     7
100
AcDbCircle
 10
77.6093422524
 20
128.3494373233
 30
0.0
 40
0.9009033205
100
AcDbArc
 50
90.0140554692
 51
135.1113412427
  0
ARC
  5
2AB
330
1B
100
AcDbEntity
 67
     1
  8
7_ALL_FEATURES
  6
Continuous
 62
     7
100
AcDbCircle
 10
77.6103581636
 20
128.3479528489
 30
0.0
 40
0.9026707749
100
AcDbArc
 50
135.0900928528
 51
169.9451398691
  0
LINE
  5
2AC
330
1B
100
AcDbEntity
 67
     1
  8
7_ALL_FEATURES
  6
Continuous
 62
     7
100
AcDbLine
 10
84.4989366619
 20
129.2503406164
 30
0.0
 11
77.609121248
 21
129.2503406167
 31
0.0
  0
LINE
  5
2AD
330
1B
100
AcDbEntity
 67
     1
  8
7_ALL_FEATURES
  6
Continuous
 62
     7
100
AcDbLine
 10
77.4907514593
 20
127.466986747
 30
0.0
 11
77.4244364609
 21
127.5332394711
 31
0.0
  0
LINE
  5
2AE
330
1B
100
AcDbEntity
 67
     1
  8
7_ALL_FEATURES
  6
Continuous
 62
     7
100
AcDbLine
 10
77.4244364609
 20
127.5332394711
 30
0.0
 11
77.3506078524
 21
127.6069987495
 31
0.0
  0
LINE
  5
2AF
330
1B
100
AcDbEntity
 67
     1
  8
7_ALL_FEATURES
  6
Continuous
 62
     7
100
AcDbLine
 10
77.3506078524
 20
127.6069987495
 30
0.0
 11
76.9402872846
 21
128.016933998
 31
0.0
  0
LINE
  5
2B0
330
1B
100
AcDbEntity
 67
     1
  8
7_ALL_FEATURES
  6
Continuous
 62
     7
100
AcDbLine
 10
76.9402872846
 20
128.016933998
 30
0.0
 11
76.1413431498
 21
128.016933998
 31
0.0
  0
LINE
  5
2B1
330
1B
100
AcDbEntity
 67
     1
  8
7_ALL_FEATURES
  6
Continuous
 62
     7
100
AcDbLine
 10
76.141343152
 20
67.6169340024
 30
0.0
 11
76.1413431498
 21
128.016933998
 31
0.0
  0
ARC
  5
2B2
330
1B
100
AcDbEntity
 67
     1
  8
7_ALL_FEATURES
  6
Continuous
 62
     7
100
AcDbCircle
 10
77.0428394509
 20
67.619486162
 30
0.0
 40
0.9015090985
100
AcDbArc
 50
180.1622050824
 51
269.8377943437
  0
LINE
  5
2B3
330
1B
100
AcDbEntity
 67
     1
  8
7_ALL_FEATURES
  6
Continuous
 62
     7
100
AcDbLine
 10
137.440287278
 20
66.7179898654
 30
0.0
 11
77.0402872823
 21
66.7179898632
 31
0.0
  0
ARC
  5
2B4
330
1B
100
AcDbEntity
 67
     1
  8
7_ALL_FEATURES
  6
Continuous
 62
     7
100
AcDbCircle
 10
137.4383882728
 20
128.0151203435
 30
0.0
 40
0.900809578
100
AcDbArc
 50
0.1153522647
 51
89.8792072533
  0
SPLINE
  5
2B5
330
1B
100
AcDbEntity
 67
     1
  8
7_ALL_FEATURES
  6
Continuous
 62
     7
100
AcDbSpline
 70
     0
 71
     3
 72
    11
 73
     7
 74
     0
 42
0.000000001
 43
0.0000001
 40
0.0
 40
0.0
 40
0.0
 40
0.0
 40
0.2498885486
 40
0.4999420701
 40
0.7500556111
 40
1.0
 40
1.0
 40
1.0
 40
1.0
 10
76.5440086493
 20
128.5037397462
 30
0.0
 10
76.4277085091
 20
128.5034329556
 30
0.0
 10
76.1928385465
 20
128.4554864407
 30
0.0
 10
75.895347652
 20
128.2571727855
 30
0.0
 10
75.6946498347
 20
127.9609462436
 30
0.0
 10
75.646241125
 20
127.7261244004
 30
0.0
 10
75.6452260172
 20
127.6098022961
 30
0.0
  0
ARC
  5
2B6
330
1B
100
AcDbEntity
 67
     1
  8
7_ALL_FEATURES
  6
Continuous
 62
     7
100
AcDbCircle
 10
137.4377349131
 20
67.6194863696
 30
0.0
 40
0.9015090986
100
AcDbArc
 50
270.1622181324
 51
359.8377812937999
  0
LINE
  5
2B7
330
1B
100
AcDbEntity
 67
     1
  8
7_ALL_FEATURES
  6
Continuous
 62
     7
100
AcDbLine
 10
75.6452260172
 20
127.6098022961
 30
0.0
 11
75.5919854588
 21
121.5089193882
 31
0.0
  0
LINE
  5
2B8
330
1B
100
AcDbEntity
 67
     1
  8
7_ALL_FEATURES
  6
Continuous
 62
     7
100
AcDbLine
 10
137.4402872846
 20
128.9158781306
 30
0.0
 11
77.0402872846
 21
128.9158781329
 31
0.0
  0
LINE
  5
2B9
330
1B
100
AcDbEntity
 67
     1
  8
7_ALL_FEATURES
  6
Continuous
 62
     7
100
AcDbLine
 10
77.0402872846
 20
128.9158781329
 30
0.0
 11
77.0402872846
 21
128.116933998
 31
0.0
  0
LINE
  5
2BA
330
1B
100
AcDbEntity
 67
     1
  8
7_ALL_FEATURES
  6
Continuous
 62
     7
100
AcDbLine
 10
138.3392314194
 20
128.0169339958
 30
0.0
 11
138.3392314172
 21
67.6169339958
 31
0.0
  0
LINE
  5
2BB
330
1B
100
AcDbEntity
 67
     1
  8
7_ALL_FEATURES
  6
Continuous
 62
     7
100
AcDbLine
 10
76.5440070721
 20
128.503141845
 30
0.0
 11
77.0402872846
 21
128.5044509929
 31
0.0
  0
LINE
  5
2BC
330
1B
100
AcDbEntity
 67
     1
  8
7_ALL_FEATURES
  6
Continuous
 62
     7
100
AcDbLine
 10
76.1413431501
 20
117.9386479043
 30
0.0
 11
75.7197301829
 21
118.3602608715
 31
0.0
  0
SPLINE
  5
2BD
330
1B
100
AcDbEntity
 67
     1
  8
7_ALL_FEATURES
  6
Continuous
 62
     7
100
AcDbSpline
 70
     0
 71
     3
 72
    18
 73
    14
 74
     0
 42
0.000000001
 43
0.0000001
 40
0.0
 40
0.0
 40
0.0
 40
0.0
 40
0.0104802471
 40
0.0294559357
 40
0.0571017449
 40
0.0932297441
 40
0.1375409813
 40
0.1896324155
 40
0.3151035561
 40
0.4649336024
 40
0.6334018741
 40
0.8140923621
 40
1.0
 40
1.0
 40
1.0
 40
1.0
 10
75.7197301829
 20
118.3602608715
 30
0.0
 10
75.7119268049
 20
118.3680642495
 30
0.0
 10
75.7012624159
 20
118.3987972628
 30
0.0
 10
75.6874926731
 20
118.4564000304
 30
0.0
 10
75.6744002396
 20
118.5430703762
 30
0.0
 10
75.6614099438
 20
118.6559587979
 30
0.0
 10
75.6491957821
 20
118.7950605776
 30
0.0
 10
75.6329543422
 20
119.0281041414
 30
0.0
 10
75.6163318454
 20
119.3724992204
 30
0.0
 10
75.6018262444
 20
119.8395659387
 30
0.0
 10
75.5925432211
 20
120.3649332118
 30
0.0
 10
75.5888649957
 20
120.928351968
 30
0.0
 10
75.5902919172
 20
121.3143832122
 30
0.0
 10
75.5919960717
 20
121.5101355221
 30
0.0
  0
LINE
  5
2BE
330
1B
100
AcDbEntity
 67
     1
  8
7_ALL_FEATURES
  6
Continuous
 62
     7
100
AcDbLine
 10
77.0402872846
 20
128.116933998
 30
0.0
 11
77.4501035026
 21
127.7065879208
 31
0.0
  0
LINE
  5
2BF
330
1B
100
AcDbEntity
 67
     1
  8
7_ALL_FEATURES
  6
Continuous
 62
     7
100
AcDbLine
 10
77.4949801991
 20
127.603849517
 30
0.0
 11
77.5750549714
 21
127.5238264001
 31
0.0
  0
LINE
  5
2C0
330
1B
100
AcDbEntity
 67
     1
  8
7_ALL_FEATURES
  6
Continuous
 62
     7
100
AcDbLine
 10
77.5750549714
 20
127.5238264001
 30
0.0
 11
77.5909634738
 21
127.50792816
 31
0.0
  0
LINE
  5
2C1
330
1B
100
AcDbEntity
 67
     1
  8
7_ALL_FEATURES
  6
Continuous
 62
     7
100
AcDbLine
 10
77.3541319407
 20
127.6034779705
 30
0.0
 11
77.4949801991
 21
127.603849517
 31
0.0
  0
LINE
  5
2C2
330
1B
100
AcDbEntity
 67
     1
  8
7_ALL_FEATURES
  6
Continuous
 62
     9
100
AcDbLine
 10
136.9874993584
 20
68.1697219198
 30
0.0
 11
137.5402872824
 21
67.6169339958
 31
0.0
  0
ARC
  5
2C3
330
1B
100
AcDbEntity
 67
     1
  8
7_ALL_FEATURES
  6
Continuous
 62
     7
100
AcDbCircle
 10
77.0402560278
 20
67.6169027435
 30
0.0
 40
0.0999687503
100
AcDbArc
 50
179.9820868604
 51
270.0179131354
  0
LINE
  5
2C4
330
1B
100
AcDbEntity
 67
     1
  8
7_ALL_FEATURES
  6
Continuous
 62
     7
100
AcDbLine
 10
77.0402872823
 20
66.7179898632
 30
0.0
 11
77.0402872824
 21
67.516933998
 31
0.0
  0
LINE
  5
2C5
330
1B
100
AcDbEntity
 67
     1
  8
7_ALL_FEATURES
  6
Continuous
 62
     7
100
AcDbLine
 10
76.9402872824
 20
67.616933998
 30
0.0
 11
76.1413412893
 21
67.6169340024
 31
0.0
  0
LINE
  5
2C6
330
1B
100
AcDbEntity
 67
     1
  8
7_ALL_FEATURES
  6
Continuous
 62
     9
100
AcDbLine
 10
87.6499341729
 20
129.0964613601
 30
0.0
 11
87.6494578087
 21
128.9158781325
 31
0.0
  0
LINE
  5
2C7
330
1B
100
AcDbEntity
 67
     1
  8
7_ALL_FEATURES
  6
Continuous
 62
     9
100
AcDbLine
 10
137.4402872824
 20
67.5169339958
 30
0.0
 11
136.888228301
 21
68.0689929772
 31
0.0
  0
LINE
  5
2C8
330
1B
100
AcDbEntity
 67
     1
  8
7_ALL_FEATURES
  6
Continuous
 62
     7
100
AcDbLine
 10
77.0402872824
 20
67.516933998
 30
0.0
 11
77.5909634738
 21
67.516933998
 31
0.0
  0
LINE
  5
2C9
330
1B
100
AcDbEntity
 67
     1
  8
7_ALL_FEATURES
  6
Continuous
 62
     7
100
AcDbLine
 10
136.888228301
 20
67.5169339958
 30
0.0
 11
137.4402872824
 21
67.5169339958
 31
0.0
  0
LINE
  5
2CA
330
1B
100
AcDbEntity
 67
     1
  8
7_ALL_FEATURES
  6
Continuous
 62
     9
100
AcDbLine
 10
77.5909634738
 20
68.0676101895
 30
0.0
 11
77.0402872824
 21
67.516933998
 31
0.0
  0
LINE
  5
2CB
330
1B
100
AcDbEntity
 67
     1
  8
7_ALL_FEATURES
  6
Continuous
 62
     9
100
AcDbLine
 10
76.9402872824
 20
67.616933998
 30
0.0
 11
77.4930752042
 21
68.1697219198
 31
0.0
  0
LINE
  5
2CC
330
1B
100
AcDbEntity
 67
     1
  8
7_ALL_FEATURES
  6
Continuous
 62
     7
100
AcDbLine
 10
76.9402872846
 20
128.016933998
 30
0.0
 11
76.9402872846
 21
127.466986747
 31
0.0
  0
LINE
  5
2CD
330
1B
100
AcDbEntity
 67
     1
  8
7_ALL_FEATURES
  6
Continuous
 62
     7
100
AcDbLine
 10
76.9402872824
 20
68.1697219198
 30
0.0
 11
76.9402872824
 21
67.616933998
 31
0.0
  0
LINE
  5
2CE
330
1B
100
AcDbEntity
 67
     1
  8
7_ALL_FEATURES
  6
Continuous
 62
     7
100
AcDbLine
 10
77.5049098487
 20
127.6038233234
 30
0.0
 11
77.5045494663
 21
127.4672072549
 31
0.0
  0
ARC
  5
2CF
330
1B
100
AcDbEntity
 67
     1
  8
7_ALL_FEATURES
  6
Continuous
 62
     7
100
AcDbCircle
 10
137.4403185369
 20
67.6169027412
 30
0.0
 40
0.0999687503
100
AcDbArc
 50
269.9820868604
 51
0.0179131354
  0
ARC
  5
2D0
330
1B
100
AcDbEntity
 67
     1
  8
7_ALL_FEATURES
  6
Continuous
 62
     7
100
AcDbCircle
 10
137.4403195168
 20
128.016966228
 30
0.0
 40
0.099967773
100
AcDbArc
 50
359.9815263695
 51
90.01847362620002
  0
LINE
  5
2D1
330
1B
100
AcDbEntity
 67
     1
  8
7_ALL_FEATURES
  6
Continuous
 62
     7
100
AcDbLine
 10
137.5402872846
 20
128.0169339958
 30
0.0
 11
138.3392314194
 21
128.0169339958
 31
0.0
  0
LINE
  5
2D2
330
1B
100
AcDbEntity
 67
     1
  8
7_ALL_FEATURES
  6
Continuous
 62
     9
100
AcDbLine
 10
137.4402872846
 20
128.9158781306
 30
0.0
 11
137.4402872846
 21
128.1169339958
 31
0.0
  0
SPLINE
  5
2D3
330
1B
100
AcDbEntity
 67
     1
  8
7_ALL_FEATURES
  6
Continuous
 62
     9
100
AcDbSpline
 70
     0
 71
     3
 72
     8
 73
     4
 74
     0
 42
0.000000001
 43
0.0000001
 40
0.0
 40
0.0
 40
0.0
 40
0.0
 40
1.0
 40
1.0
 40
1.0
 40
1.0
 10
76.1413440916
 20
121.5074429754
 30
0.0
 10
75.9582243152
 20
121.5078394463
 30
0.0
 10
75.7751022699
 20
121.5078044052
 30
0.0
 10
75.5919854588
 20
121.5089193882
 30
0.0
  0
LINE
  5
2D4
330
1B
100
AcDbEntity
 67
     1
  8
7_ALL_FEATURES
  6
Continuous
 62
     9
100
AcDbLine
 10
75.7197301829
 20
118.3602608715
 30
0.0
 11
76.1413431501
 21
118.3576937053
 31
0.0
  0
LINE
  5
2D5
330
1B
100
AcDbEntity
 67
     1
  8
7_ALL_FEATURES
  6
Continuous
 62
     7
100
AcDbLine
 10
77.4501035026
 20
127.7065879208
 30
0.0
 11
77.2514495979
 21
127.7060638876
 31
0.0
  0
LINE
  5
2D6
330
1B
100
AcDbEntity
 67
     1
  8
7_ALL_FEATURES
  6
Continuous
 62
     7
100
AcDbLine
 10
137.4402872846
 20
128.1169339958
 30
0.0
 11
136.888228301
 21
128.1169339958
 31
0.0
  0
LINE
  5
2D7
330
1B
100
AcDbEntity
 67
     1
  8
7_ALL_FEATURES
  6
Continuous
 62
     7
100
AcDbLine
 10
77.5909634738
 20
128.116933998
 30
0.0
 11
77.0402872846
 21
128.116933998
 31
0.0
  0
LINE
  5
2D8
330
1B
100
AcDbEntity
 67
     1
  8
7_ALL_FEATURES
  6
Continuous
 62
     9
100
AcDbLine
 10
136.888228301
 20
127.5648750123
 30
0.0
 11
137.4402872846
 21
128.1169339958
 31
0.0
  0
LINE
  5
2D9
330
1B
100
AcDbEntity
 67
     1
  8
7_ALL_FEATURES
  6
Continuous
 62
     7
100
AcDbLine
 10
138.3392314172
 20
67.6169339958
 30
0.0
 11
137.5402872824
 21
67.6169339958
 31
0.0
  0
LINE
  5
2DA
330
1B
100
AcDbEntity
 67
     1
  8
7_ALL_FEATURES
  6
Continuous
 62
     9
100
AcDbLine
 10
84.4985055536
 20
128.9158781326
 30
0.0
 11
84.4989366619
 21
129.2503406164
 31
0.0
  0
LINE
  5
2DB
330
1B
100
AcDbEntity
 67
     1
  8
7_ALL_FEATURES
  6
Continuous
 62
     7
100
AcDbLine
 10
137.4402872824
 20
67.5169339958
 30
0.0
 11
137.440287278
 21
66.7179882084
 31
0.0
  0
LINE
  5
2DC
330
1B
100
AcDbEntity
 67
     1
  8
7_ALL_FEATURES
  6
Continuous
 62
     9
100
AcDbLine
 10
137.5402872846
 20
128.0169339958
 30
0.0
 11
136.9903400358
 21
127.466986747
 31
0.0
  0
LINE
  5
2DD
330
1B
100
AcDbEntity
 67
     1
  8
7_ALL_FEATURES
  6
Continuous
 62
     7
100
AcDbLine
 10
137.5402872824
 20
67.6169339958
 30
0.0
 11
137.5402872824
 21
68.1697219198
 31
0.0
  0
LINE
  5
2DE
330
1B
100
AcDbEntity
 67
     1
  8
7_ALL_FEATURES
  6
Continuous
 62
     7
100
AcDbLine
 10
137.5402872846
 20
127.466986747
 30
0.0
 11
137.5402872846
 21
128.0169339958
 31
0.0
  0
LINE
  5
2DF
330
1B
100
AcDbEntity
 67
     1
  8
7_ALL_FEATURES
  6
Continuous
 62
     7
100
AcDbLine
 10
137.6911937747
 20
68.1728513133
 30
0.0
 11
137.689960356
 21
68.1697219045
 31
0.0
  0
SPLINE
  5
2E0
330
1B
100
AcDbEntity
 67
     1
  8
7_ALL_FEATURES
  6
Continuous
 62
     7
100
AcDbSpline
 70
     0
 71
     3
 72
    10
 73
     6
 74
     0
 42
0.000000001
 43
0.0000001
 40
0.0
 40
0.0
 40
0.0
 40
0.0
 40
0.3236369643
 40
0.6106851596
 40
1.0
 40
1.0
 40
1.0
 40
1.0
 10
136.7911937747
 20
127.3699522049
 30
0.0
 10
136.8044371875
 20
127.3778690087
 30
0.0
 10
136.8296590667
 20
127.3931447521
 30
0.0
 10
136.8678019803
 20
127.4189168927
 30
0.0
 10
136.8926754259
 20
127.4484969745
 30
0.0
 10
136.8910567282
 20
127.466986747
 30
0.0
  0
LINE
  5
2E1
330
1B
100
AcDbEntity
 67
     1
  8
7_ALL_FEATURES
  6
Continuous
 62
     7
100
AcDbLine
 10
137.6911937747
 20
127.4638565073
 30
0.0
 11
137.6911937747
 21
68.1728508647
 31
0.0
  0
SPLINE
  5
2E2
330
1B
100
AcDbEntity
 67
     1
  8
7_ALL_FEATURES
  6
Continuous
 62
     7
100
AcDbSpline
 70
     0
 71
     3
 72
    10
 73
     6
 74
     0
 42
0.000000001
 43
0.0000001
 40
0.0
 40
0.0
 40
0.0
 40
0.0
 40
0.3893149773
 40
0.6763630634
 40
1.0
 40
1.0
 40
1.0
 40
1.0
 10
136.8910567282
 20
68.1697219041
 30
0.0
 10
136.8926754848
 20
68.1882116678
 30
0.0
 10
136.8678018326
 20
68.2177916839
 30
0.0
 10
136.8296589219
 20
68.2435637115
 30
0.0
 10
136.8044370506
 20
68.2588394324
 30
0.0
 10
136.7911937747
 20
68.2667564461
 30
0.0
  0
LINE
  5
2E3
330
1B
100
AcDbEntity
 67
     1
  8
7_ALL_FEATURES
  6
Continuous
 62
     7
100
AcDbLine
 10
137.689960356
 20
127.466986747
 30
0.0
 11
136.8910567282
 21
127.466986747
 31
0.0
  0
LINE
  5
2E4
330
1B
100
AcDbEntity
 67
     1
  8
7_ALL_FEATURES
  6
Continuous
 62
     7
100
AcDbLine
 10
76.7879980002
 20
127.4638573535
 30
0.0
 11
76.7892314189
 21
127.4669867623
 31
0.0
  0
LINE
  5
2E5
330
1B
100
AcDbEntity
 67
     1
  8
7_ALL_FEATURES
  6
Continuous
 62
     7
100
AcDbLine
 10
76.7879980002
 20
68.1728521595
 30
0.0
 11
76.7879980002
 21
127.4638578021
 31
0.0
  0
LINE
  5
2E6
330
1B
100
AcDbEntity
 67
     1
  8
7_ALL_FEATURES
  6
Continuous
 62
     7
100
AcDbLine
 10
77.5940928673
 20
67.3667564461
 30
0.0
 11
77.5909634586
 21
67.3679898649
 31
0.0
  0
LINE
  5
2E7
330
1B
100
AcDbEntity
 67
     1
  8
7_ALL_FEATURES
  6
Continuous
 62
     7
100
AcDbLine
 10
136.8910567282
 20
127.466986747
 30
0.0
 11
136.7987995744
 21
127.3747295932
 31
0.0
  0
LINE
  5
2E8
330
1B
100
AcDbEntity
 67
     1
  8
7_ALL_FEATURES
  6
Continuous
 62
     7
100
AcDbLine
 10
136.7987996134
 20
68.2619790345
 30
0.0
 11
136.8910567282
 21
68.1697219198
 31
0.0
  0
LINE
  5
2E9
330
1B
100
AcDbEntity
 67
     1
  8
7_ALL_FEATURES
  6
Continuous
 62
     7
100
AcDbLine
 10
136.8850980614
 20
67.3667564461
 30
0.0
 11
77.5940924158
 21
67.3667564461
 31
0.0
  0
LINE
  5
2EA
330
1B
100
AcDbEntity
 67
     1
  8
7_ALL_FEATURES
  6
Continuous
 62
     7
100
AcDbLine
 10
136.8850989075
 20
128.2699522206
 30
0.0
 11
136.8882283163
 21
128.2687188019
 31
0.0
  0
LINE
  5
2EB
330
1B
100
AcDbEntity
 67
     1
  8
7_ALL_FEATURES
  6
Continuous
 62
     7
100
AcDbLine
 10
77.5940937135
 20
128.2699522206
 30
0.0
 11
136.8850993561
 21
128.2699522206
 31
0.0
  0
LINE
  5
2EC
330
1B
100
AcDbEntity
 67
     1
  8
7_ALL_FEATURES
  6
Continuous
 62
     7
100
AcDbLine
 10
136.8910567282
 20
68.1697219198
 30
0.0
 11
137.689960356
 21
68.1697219198
 31
0.0
  0
LINE
  5
2ED
330
1B
100
AcDbEntity
 67
     1
  8
7_ALL_FEATURES
  6
Continuous
 62
     7
100
AcDbLine
 10
136.888228301
 20
67.3679898649
 30
0.0
 11
136.888228301
 21
68.1668934927
 31
0.0
  0
LINE
  5
2EE
330
1B
100
AcDbEntity
 67
     1
  8
7_ALL_FEATURES
  6
Continuous
 62
     7
100
AcDbLine
 10
137.689960356
 20
127.466986747
 30
0.0
 11
137.6911937747
 21
127.4638573327
 31
0.0
  0
LINE
  5
2EF
330
1B
100
AcDbEntity
 67
     1
  8
7_ALL_FEATURES
  6
Continuous
 62
     7
100
AcDbLine
 10
136.888228301
 20
68.1668934927
 30
0.0
 11
136.7959711472
 21
68.2591506465
 31
0.0
  0
SPLINE
  5
2F0
330
1B
100
AcDbEntity
 67
     1
  8
7_ALL_FEATURES
  6
Continuous
 62
     7
100
AcDbSpline
 70
     0
 71
     3
 72
    10
 73
     6
 74
     0
 42
0.000000001
 43
0.0000001
 40
0.0
 40
0.0
 40
0.0
 40
0.0
 40
0.3236369643
 40
0.6106851596
 40
1.0
 40
1.0
 40
1.0
 40
1.0
 10
136.791193759
 20
68.2667564461
 30
0.0
 10
136.7991105627
 20
68.2535130333
 30
0.0
 10
136.8143863062
 20
68.2282911541
 30
0.0
 10
136.8401584467
 20
68.1901482406
 30
0.0
 10
136.8697385285
 20
68.1652747949
 30
0.0
 10
136.888228301
 20
68.1668934927
 30
0.0
  0
LINE
  5
2F1
330
1B
100
AcDbEntity
 67
     1
  8
7_ALL_FEATURES
  6
Continuous
 62
     7
100
AcDbLine
 10
76.7892314189
 20
68.1697219198
 30
0.0
 11
76.7879980002
 21
68.172851334
 31
0.0
  0
SPLINE
  5
2F2
330
1B
100
AcDbEntity
 67
     1
  8
7_ALL_FEATURES
  6
Continuous
 62
     7
100
AcDbSpline
 70
     0
 71
     3
 72
    10
 73
     6
 74
     0
 42
0.000000001
 43
0.0000001
 40
0.0
 40
0.0
 40
0.0
 40
0.0
 40
0.3893149773
 40
0.6763630634
 40
1.0
 40
1.0
 40
1.0
 40
1.0
 10
77.5881350467
 20
127.4669867627
 30
0.0
 10
77.5865162901
 20
127.448496999
 30
0.0
 10
77.6113899423
 20
127.4189169829
 30
0.0
 10
77.649532853
 20
127.3931449552
 30
0.0
 10
77.6747547243
 20
127.3778692344
 30
0.0
 10
77.6879980002
 20
127.3699522206
 30
0.0
  0
LINE
  5
2F3
330
1B
100
AcDbEntity
 67
     1
  8
7_ALL_FEATURES
  6
Continuous
 62
     7
100
AcDbLine
 10
77.5881350467
 20
127.466986747
 30
0.0
 11
76.7892314189
 21
127.466986747
 31
0.0
  0
LINE
  5
2F4
330
1B
100
AcDbEntity
 67
     1
  8
7_ALL_FEATURES
  6
Continuous
 62
     7
100
AcDbLine
 10
77.5909634738
 20
128.2687188019
 30
0.0
 11
77.5909634738
 21
127.4698151741
 31
0.0
  0
LINE
  5
2F5
330
1B
100
AcDbEntity
 67
     1
  8
7_ALL_FEATURES
  6
Continuous
 62
     7
100
AcDbLine
 10
77.6803921614
 20
127.3747296323
 30
0.0
 11
77.5881350467
 21
127.466986747
 31
0.0
  0
LINE
  5
2F6
330
1B
100
AcDbEntity
 67
     1
  8
7_ALL_FEATURES
  6
Continuous
 62
     7
100
AcDbLine
 10
76.7892314189
 20
68.1697219198
 30
0.0
 11
77.5881350467
 21
68.1697219198
 31
0.0
  0
LINE
  5
2F7
330
1B
100
AcDbEntity
 67
     1
  8
7_ALL_FEATURES
  6
Continuous
 62
     7
100
AcDbLine
 10
77.5909634738
 20
127.4698151741
 30
0.0
 11
77.6832206276
 21
127.3775580203
 31
0.0
  0
LINE
  5
2F8
330
1B
100
AcDbEntity
 67
     1
  8
7_ALL_FEATURES
  6
Continuous
 62
     7
100
AcDbLine
 10
136.7959711863
 20
127.3775580594
 30
0.0
 11
136.888228301
 21
127.4698151741
 31
0.0
  0
SPLINE
  5
2F9
330
1B
100
AcDbEntity
 67
     1
  8
7_ALL_FEATURES
  6
Continuous
 62
     7
100
AcDbSpline
 70
     0
 71
     3
 72
    10
 73
     6
 74
     0
 42
0.000000001
 43
0.0000001
 40
0.0
 40
0.0
 40
0.0
 40
0.0
 40
0.3236369643
 40
0.6106851596
 40
1.0
 40
1.0
 40
1.0
 40
1.0
 10
77.6879980159
 20
127.3699522206
 30
0.0
 10
77.6800812122
 20
127.3831956334
 30
0.0
 10
77.6648054687
 20
127.4084175127
 30
0.0
 10
77.6390333282
 20
127.4465604262
 30
0.0
 10
77.6094532463
 20
127.4714338718
 30
0.0
 10
77.5909634738
 20
127.4698151741
 30
0.0
  0
LINE
  5
2FA
330
1B
100
AcDbEntity
 67
     1
  8
7_ALL_FEATURES
  6
Continuous
 62
     7
100
AcDbLine
 10
77.5909634738
 20
68.1668934927
 30
0.0
 11
77.5909634738
 21
67.3679898649
 31
0.0
  0
SPLINE
  5
2FB
330
1B
100
AcDbEntity
 67
     1
  8
7_ALL_FEATURES
  6
Continuous
 62
     7
100
AcDbSpline
 70
     0
 71
     3
 72
    10
 73
     6
 74
     0
 42
0.000000001
 43
0.0000001
 40
0.0
 40
0.0
 40
0.0
 40
0.0
 40
0.3893149773
 40
0.6763630634
 40
1.0
 40
1.0
 40
1.0
 40
1.0
 10
136.8882283168
 20
127.4698151741
 30
0.0
 10
136.869738553
 20
127.4714339308
 30
0.0
 10
136.840158537
 20
127.4465602785
 30
0.0
 10
136.8143865093
 20
127.4084173678
 30
0.0
 10
136.7991107885
 20
127.3831954965
 30
0.0
 10
136.7911937747
 20
127.3699522206
 30
0.0
  0
LINE
  5
2FC
330
1B
100
AcDbEntity
 67
     1
  8
7_ALL_FEATURES
  6
Continuous
 62
     7
100
AcDbLine
 10
136.888228301
 20
127.4698151741
 30
0.0
 11
136.888228301
 21
128.2687188019
 31
0.0
  0
LINE
  5
2FD
330
1B
100
AcDbEntity
 67
     1
  8
7_ALL_FEATURES
  6
Continuous
 62
     7
100
AcDbLine
 10
77.5909634738
 20
128.2687188019
 30
0.0
 11
77.5940928881
 21
128.2699522206
 31
0.0
  0
ARC
  5
2FE
330
1B
100
AcDbEntity
 67
     1
  8
7_ALL_FEATURES
  6
Continuous
 62
     7
100
AcDbCircle
 10
107.2395958874
 20
97.8183543334
 30
0.0
 40
10.0
100
AcDbArc
 50
180.0
 51
360.0
  0
ARC
  5
2FF
330
1B
100
AcDbEntity
 67
     1
  8
7_ALL_FEATURES
  6
Continuous
 62
     7
100
AcDbCircle
 10
107.2395958874
 20
97.8183543334
 30
0.0
 40
10.0
100
AcDbArc
 50
0.0
 51
180.0
  0
LINE
  5
300
330
1B
100
AcDbEntity
 67
     1
  8
7_ALL_FEATURES
  6
Continuous
 62
     7
100
AcDbLine
 10
136.888228301
 20
67.3679898649
 30
0.0
 11
136.8850988868
 21
67.3667564461
 31
0.0
  0
SPLINE
  5
301
330
1B
100
AcDbEntity
 67
     1
  8
7_ALL_FEATURES
  6
Continuous
 62
     7
100
AcDbSpline
 70
     0
 71
     3
 72
    14
 73
    10
 74
     0
 42
0.000000001
 43
0.0000001
 40
0.0
 40
0.0
 40
0.0
 40
0.0
 40
0.0231392423
 40
0.077473881
 40
0.1644779979
 40
0.2824295741
 40
0.4287729906
 40
0.5998793306
 40
1.0
 40
1.0
 40
1.0
 40
1.0
 10
137.6911778294
 20
127.4638567529
 30
0.0
 10
137.6911377305
 20
127.4590734762
 30
0.0
 10
137.6721533171
 20
127.4507608685
 30
0.0
 10
137.6426962871
 20
127.4436694955
 30
0.0
 10
137.5878580451
 20
127.4344176025
 30
0.0
 10
137.5165903025
 20
127.4257184027
 30
0.0
 10
137.4267344202
 20
127.4165807544
 30
0.0
 10
137.2790823721
 20
127.4037756061
 30
0.0
 10
137.1612467102
 20
127.3951734705
 30
0.0
 10
137.0787344726
 20
127.3893898782
 30
0.0
  0
ARC
  5
302
330
1B
100
AcDbEntity
 67
     1
  8
7_ALL_FEATURES
  6
Continuous
 62
     7
100
AcDbCircle
 10
133.4230485823
 20
179.6570318194
 30
0.0
 40
52.3953283549
100
AcDbArc
 50
273.8032408832
 51
274.0008468618
  0
LINE
  5
303
330
1B
100
AcDbEntity
 67
     1
  8
7_ALL_FEATURES
  6
Continuous
 62
     7
100
AcDbLine
 10
136.8984485274
 20
127.3770927544
 30
0.0
 11
136.7911937747
 21
127.3699522054
 31
0.0
  0
SPLINE
  5
304
330
1B
100
AcDbEntity
 67
     1
  8
7_ALL_FEATURES
  6
Continuous
 62
     7
100
AcDbSpline
 70
     0
 71
     3
 72
    10
 73
     6
 74
     0
 42
0.000000001
 43
0.0000001
 40
0.0
 40
0.0
 40
0.0
 40
0.0
 40
0.3893306487
 40
0.6760524303
 40
1.0
 40
1.0
 40
1.0
 40
1.0
 10
77.5881350467
 20
68.1697219198
 30
0.0
 10
77.5865162929
 20
68.1882123326
 30
0.0
 10
77.6113849042
 20
68.2177741555
 30
0.0
 10
77.6495158013
 20
68.2435639499
 30
0.0
 10
77.6747421459
 20
68.2588318781
 30
0.0
 10
77.6879980357
 20
68.2667564901
 30
0.0
  0
SPLINE
  5
305
330
1B
100
AcDbEntity
 67
     1
  8
7_ALL_FEATURES
  6
Continuous
 62
     7
100
AcDbSpline
 70
     0
 71
     3
 72
    14
 73
    10
 74
     0
 42
0.000000001
 43
0.0000001
 40
0.0
 40
0.0
 40
0.0
 40
0.0
 40
0.0231392423
 40
0.077473881
 40
0.1644779979
 40
0.2824295741
 40
0.4287729906
 40
0.5998793306
 40
1.0
 40
1.0
 40
1.0
 40
1.0
 10
77.5940934679
 20
128.2699362754
 30
0.0
 10
77.5988767447
 20
128.2698961764
 30
0.0
 10
77.6071893524
 20
128.2509117631
 30
0.0
 10
77.6142807254
 20
128.2214547331
 30
0.0
 10
77.6235326184
 20
128.166616491
 30
0.0
 10
77.6322318181
 20
128.0953487485
 30
0.0
 10
77.6413694664
 20
128.0054928662
 30
0.0
 10
77.6541746148
 20
127.8578408181
 30
0.0
 10
77.6627767504
 20
127.7400051561
 30
0.0
 10
77.6685603426
 20
127.6574929186
 30
0.0
  0
ARC
  5
306
330
1B
100
AcDbEntity
 67
     1
  8
7_ALL_FEATURES
  6
Continuous
 62
     7
100
AcDbCircle
 10
25.0885285378
 20
123.9801778063
 30
0.0
 40
52.7084660281
100
AcDbArc
 50
3.801266206
 51
4.0006084654
  0
LINE
  5
307
330
1B
100
AcDbEntity
 67
     1
  8
7_ALL_FEATURES
  6
Continuous
 62
     7
100
AcDbLine
 10
77.6810361214
 20
127.4745357012
 30
0.0
 11
77.6879980155
 21
127.3699522206
 31
0.0
  0
LINE
  5
308
330
1B
100
AcDbEntity
 67
     1
  8
7_ALL_FEATURES
  6
Continuous
 62
     9
100
AcDbLine
 10
136.7911937747
 20
127.3699522206
 30
0.0
 11
136.7911937747
 21
68.2667564461
 31
0.0
  0
LINE
  5
309
330
1B
100
AcDbEntity
 67
     1
  8
7_ALL_FEATURES
  6
Continuous
 62
     7
100
AcDbLine
 10
136.7911937747
 20
68.2667564461
 30
0.0
 11
136.8984483175
 21
68.2596156926
 31
0.0
  0
ARC
  5
30A
330
1B
100
AcDbEntity
 67
     1
  8
7_ALL_FEATURES
  6
Continuous
 62
     7
100
AcDbCircle
 10
132.7248121982
 20
5.7417903838
 30
0.0
 40
62.656984605
100
AcDbArc
 50
86.01542844059999
 51
86.1806504316
  0
SPLINE
  5
30B
330
1B
100
AcDbEntity
 67
     1
  8
7_ALL_FEATURES
  6
Continuous
 62
     7
100
AcDbSpline
 70
     0
 71
     3
 72
    14
 73
    10
 74
     0
 42
0.000000001
 43
0.0000001
 40
0.0
 40
0.0
 40
0.0
 40
0.0
 40
0.4001190807
 40
0.5712254898
 40
0.7175692558
 40
0.8355212731
 40
0.9225258428
 40
0.9768608083
 40
1.0
 40
1.0
 40
1.0
 40
1.0
 10
137.0787113507
 20
68.2473203949
 30
0.0
 10
137.1612263581
 20
68.241536766
 30
0.0
 10
137.2790661191
 20
68.2329343536
 30
0.0
 10
137.4267234548
 20
68.220128888
 30
0.0
 10
137.5165829096
 20
68.2109910791
 30
0.0
 10
137.5878535539
 20
68.2022917055
 30
0.0
 10
137.6426942489
 20
68.1930397752
 30
0.0
 10
137.6721523187
 20
68.185947863
 30
0.0
 10
137.6911377221
 20
68.1776351853
 30
0.0
 10
137.6911778264
 20
68.1728517401
 30
0.0
  0
SPLINE
  5
30C
330
1B
100
AcDbEntity
 67
     1
  8
7_ALL_FEATURES
  6
Continuous
 62
     7
100
AcDbSpline
 70
     0
 71
     3
 72
    14
 73
    10
 74
     0
 42
0.000000001
 43
0.0000001
 40
0.0
 40
0.0
 40
0.0
 40
0.0
 40
0.0231392423
 40
0.077473881
 40
0.1644779979
 40
0.2824295741
 40
0.4287729906
 40
0.5998793306
 40
1.0
 40
1.0
 40
1.0
 40
1.0
 10
76.7880139455
 20
68.1728519138
 30
0.0
 10
76.7880540444
 20
68.1776351906
 30
0.0
 10
76.8070384578
 20
68.1859477983
 30
0.0
 10
76.8364954877
 20
68.1930391713
 30
0.0
 10
76.8913337298
 20
68.2022910643
 30
0.0
 10
76.9626014724
 20
68.2109902641
 30
0.0
 10
77.0524573547
 20
68.2201279123
 30
0.0
 10
77.2001094028
 20
68.2329330607
 30
0.0
 10
77.3179450647
 20
68.2415351963
 30
0.0
 10
77.4004573022
 20
68.2473187886
 30
0.0
  0
ARC
  5
30D
330
1B
100
AcDbEntity
 67
     1
  8
7_ALL_FEATURES
  6
Continuous
 62
     7
100
AcDbCircle
 10
81.0777725921
 20
15.667284348
 30
0.0
 40
52.7084686697
100
AcDbArc
 50
93.8012661913
 51
94.0006084581
  0
LINE
  5
30E
330
1B
100
AcDbEntity
 67
     1
  8
7_ALL_FEATURES
  6
Continuous
 62
     7
100
AcDbLine
 10
77.5834145356
 20
68.2597945684
 30
0.0
 11
77.6879980002
 21
68.2667564614
 31
0.0
  0
LINE
  5
30F
330
1B
100
AcDbEntity
 67
     1
  8
7_ALL_FEATURES
  6
Continuous
 62
     7
100
AcDbLine
 10
136.7911937747
 20
127.3699522206
 30
0.0
 11
136.7981558723
 21
127.4745354822
 31
0.0
  0
ARC
  5
310
330
1B
100
AcDbEntity
 67
     1
  8
7_ALL_FEATURES
  6
Continuous
 62
     7
100
AcDbCircle
 10
199.9108777671
 20
123.2628877758
 30
0.0
 40
63.2530919511
100
AcDbArc
 50
176.0160997791
 51
176.1821897906
  0
SPLINE
  5
311
330
1B
100
AcDbEntity
 67
     1
  8
7_ALL_FEATURES
  6
Continuous
 62
     7
100
AcDbSpline
 70
     0
 71
     3
 72
    14
 73
    10
 74
     0
 42
0.000000001
 43
0.0000001
 40
0.0
 40
0.0
 40
0.0
 40
0.0
 40
0.4001190807
 40
0.5712254898
 40
0.7175692558
 40
0.8355212731
 40
0.9225258428
 40
0.9768608083
 40
1.0
 40
1.0
 40
1.0
 40
1.0
 10
136.8106298259
 20
127.6574697967
 30
0.0
 10
136.8164134549
 20
127.739984804
 30
0.0
 10
136.8250158672
 20
127.857824565
 30
0.0
 10
136.8378213329
 20
128.0054819008
 30
0.0
 10
136.8469591418
 20
128.0953413556
 30
0.0
 10
136.8556585153
 20
128.1666119998
 30
0.0
 10
136.8649104456
 20
128.2214526949
 30
0.0
 10
136.8720023578
 20
128.2509107646
 30
0.0
 10
136.8803150355
 20
128.2698961681
 30
0.0
 10
136.8850984808
 20
128.2699362723
 30
0.0
  0
LINE
  5
312
330
1B
100
AcDbEntity
 67
     1
  8
7_ALL_FEATURES
  6
Continuous
 62
     9
100
AcDbLine
 10
77.6879980002
 20
127.3699522206
 30
0.0
 11
136.7911937747
 21
127.3699522206
 31
0.0
  0
LINE
  5
313
330
1B
100
AcDbEntity
 67
     1
  8
7_ALL_FEATURES
  6
Continuous
 62
     9
100
AcDbLine
 10
77.6879980002
 20
68.2667564461
 30
0.0
 11
77.6879980002
 21
127.3699522206
 31
0.0
  0
LINE
  5
314
330
1B
100
AcDbEntity
 67
     1
  8
7_ALL_FEATURES
  6
Continuous
 62
     7
100
AcDbLine
 10
77.6879980002
 20
127.3699522206
 30
0.0
 11
77.5807434573
 21
127.3770929742
 31
0.0
  0
ARC
  5
315
330
1B
100
AcDbEntity
 67
     1
  8
7_ALL_FEATURES
  6
Continuous
 62
     7
100
AcDbCircle
 10
81.7543795768
 20
189.8949182845
 30
0.0
 40
62.6569846066
100
AcDbArc
 50
266.0154284406
 51
266.1806504316
  0
SPLINE
  5
316
330
1B
100
AcDbEntity
 67
     1
  8
7_ALL_FEATURES
  6
Continuous
 62
     7
100
AcDbSpline
 70
     0
 71
     3
 72
    14
 73
    10
 74
     0
 42
0.000000001
 43
0.0000001
 40
0.0
 40
0.0
 40
0.0
 40
0.0
 40
0.4001190807
 40
0.5712254898
 40
0.7175692558
 40
0.8355212731
 40
0.9225258428
 40
0.9768608083
 40
1.0
 40
1.0
 40
1.0
 40
1.0
 10
77.4004804242
 20
127.3893882719
 30
0.0
 10
77.3179654168
 20
127.3951719008
 30
0.0
 10
77.2001256558
 20
127.4037743132
 30
0.0
 10
77.0524683201
 20
127.4165797788
 30
0.0
 10
76.9626088653
 20
127.4257175877
 30
0.0
 10
76.891338221
 20
127.4344169613
 30
0.0
 10
76.836497526
 20
127.4436688916
 30
0.0
 10
76.8070394562
 20
127.4507608038
 30
0.0
 10
76.7880540527
 20
127.4590734815
 30
0.0
 10
76.7880139485
 20
127.4638569267
 30
0.0
  0
SPLINE
  5
317
330
1B
100
AcDbEntity
 67
     1
  8
7_ALL_FEATURES
  6
Continuous
 62
     7
100
AcDbSpline
 70
     0
 71
     3
 72
    14
 73
    10
 74
     0
 42
0.000000001
 43
0.0000001
 40
0.0
 40
0.0
 40
0.0
 40
0.0
 40
0.0231392423
 40
0.077473881
 40
0.1644779979
 40
0.2824295741
 40
0.4287729906
 40
0.5998793306
 40
1.0
 40
1.0
 40
1.0
 40
1.0
 10
136.885098307
 20
67.3667723914
 30
0.0
 10
136.8803150302
 20
67.3668124904
 30
0.0
 10
136.8720024225
 20
67.3857969037
 30
0.0
 10
136.8649110495
 20
67.4152539337
 30
0.0
 10
136.8556591565
 20
67.4700921758
 30
0.0
 10
136.8469599567
 20
67.5413599183
 30
0.0
 10
136.8378223085
 20
67.6312158006
 30
0.0
 10
136.8250171601
 20
67.7788678487
 30
0.0
 10
136.8164150245
 20
67.8967035107
 30
0.0
 10
136.8106314323
 20
67.9792157482
 30
0.0
  0
ARC
  5
318
330
1B
100
AcDbEntity
 67
     1
  8
7_ALL_FEATURES
  6
Continuous
 62
     7
100
AcDbCircle
 10
189.3906632124
 20
71.6565308588
 30
0.0
 40
52.7084660033
100
AcDbArc
 50
183.8012662059
 51
184.0006084655
  0
LINE
  5
319
330
1B
100
AcDbEntity
 67
     1
  8
7_ALL_FEATURES
  6
Continuous
 62
     7
100
AcDbLine
 10
136.7981556535
 20
68.1621729656
 30
0.0
 11
136.7911937594
 21
68.2667564461
 31
0.0
  0
LINE
  5
31A
330
1B
100
AcDbEntity
 67
     1
  8
7_ALL_FEATURES
  6
Continuous
 62
     9
100
AcDbLine
 10
136.7911937747
 20
68.2667564461
 30
0.0
 11
77.6879980002
 21
68.2667564461
 31
0.0
  0
LINE
  5
31B
330
1B
100
AcDbEntity
 67
     1
  8
7_ALL_FEATURES
  6
Continuous
 62
     7
100
AcDbLine
 10
77.6879980002
 20
68.2667564461
 30
0.0
 11
77.6808574665
 21
68.1595018897
 31
0.0
  0
ARC
  5
31C
330
1B
100
AcDbEntity
 67
     1
  8
7_ALL_FEATURES
  6
Continuous
 62
     7
100
AcDbCircle
 10
15.2065148474
 20
72.3302486799
 30
0.0
 40
62.6134060285
100
AcDbArc
 50
356.0153010851
 51
356.1806380711
  0
SPLINE
  5
31D
330
1B
100
AcDbEntity
 67
     1
  8
7_ALL_FEATURES
  6
Continuous
 62
     7
100
AcDbSpline
 70
     0
 71
     3
 72
    14
 73
    10
 74
     0
 42
0.000000001
 43
0.0000001
 40
0.0
 40
0.0
 40
0.0
 40
0.0
 40
0.4001190806
 40
0.5712254891
 40
0.7175692558
 40
0.8355212736
 40
0.9225258428
 40
0.9768608076
 40
1.0
 40
1.0
 40
1.0
 40
1.0
 10
77.668561949
 20
67.9792388701
 30
0.0
 10
77.6627782171
 20
67.8967238699
 30
0.0
 10
77.6541759008
 20
67.7788841028
 30
0.0
 10
77.6413704647
 20
67.6312267639
 30
0.0
 10
77.6322326344
 20
67.5413673111
 30
0.0
 10
77.6235332535
 20
67.4700966676
 30
0.0
 10
77.6142813279
 20
67.4152559723
 30
0.0
 10
77.6071894185
 20
67.3857979013
 30
0.0
 10
77.5988767395
 20
67.3668124986
 30
0.0
 10
77.5940932942
 20
67.3667723944
 30
0.0
  0
ARC
  5
31E
330
1B
100
AcDbEntity
 67
     1
  8
7_ALL_FEATURES
  6
Continuous
 62
     7
100
AcDbCircle
 10
155.7392126051
 20
102.3179898649
 30
0.0
 40
0.5
100
AcDbArc
 50
101.5347586825
 51
180.0
  0
ARC
  5
31F
330
1B
100
AcDbEntity
 67
     1
  8
7_ALL_FEATURES
  6
Continuous
 62
     7
100
AcDbCircle
 10
155.7392126051
 20
93.3179898649
 30
0.0
 40
0.5
100
AcDbArc
 50
180.0
 51
258.4652413175
  0
ARC
  5
320
330
1B
100
AcDbEntity
 67
     1
  8
7_ALL_FEATURES
  6
Continuous
 62
     7
100
AcDbCircle
 10
111.7392314189
 20
49.3180086787
 30
0.0
 40
0.5
100
AcDbArc
 50
11.5347586825
 51
90.0
  0
ARC
  5
321
330
1B
100
AcDbEntity
 67
     1
  8
7_ALL_FEATURES
  6
Continuous
 62
     7
100
AcDbCircle
 10
102.7392314189
 20
49.3180086787
 30
0.0
 40
0.5
100
AcDbArc
 50
90.0
 51
168.4652413175
  0
ARC
  5
322
330
1B
100
AcDbEntity
 67
     1
  8
7_ALL_FEATURES
  6
Continuous
 62
     7
100
AcDbCircle
 10
58.7392502327
 20
93.3179898649
 30
0.0
 40
0.5
100
AcDbArc
 50
281.5347586825001
 51
360.0
  0
ARC
  5
323
330
1B
100
AcDbEntity
 67
     1
  8
7_ALL_FEATURES
  6
Continuous
 62
     7
100
AcDbCircle
 10
58.7392502327
 20
102.3179898649
 30
0.0
 40
0.5
100
AcDbArc
 50
0.0
 51
78.46524131749999
  0
ARC
  5
324
330
1B
100
AcDbEntity
 67
     1
  8
7_ALL_FEATURES
  6
Continuous
 62
     7
100
AcDbCircle
 10
102.7392314189
 20
146.3179710511
 30
0.0
 40
0.5
100
AcDbArc
 50
191.5347586825
 51
270.0
  0
ARC
  5
325
330
1B
100
AcDbEntity
 67
     1
  8
7_ALL_FEATURES
  6
Continuous
 62
     7
100
AcDbCircle
 10
111.7392314189
 20
146.3179710511
 30
0.0
 40
0.5
100
AcDbArc
 50
270.0
 51
348.4652413175
  0
SPLINE
  5
326
330
1B
100
AcDbEntity
 67
     1
  8
7_ALL_FEATURES
  6
Continuous
 62
     7
100
AcDbSpline
 70
     0
 71
     3
 72
     9
 73
     5
 74
     0
 42
0.000000001
 43
0.0000001
 40
0.0
 40
0.0
 40
0.0
 40
0.0
 40
0.2145427309
 40
1.0
 40
1.0
 40
1.0
 40
1.0
 10
57.7100283002
 20
102.8180614335
 30
0.0
 10
57.7907861054
 20
102.8180559075
 30
0.0
 10
58.1672038607
 20
102.8168216204
 30
0.0
 10
58.5436057241
 20
102.8124263896
 30
0.0
 10
58.8392314189
 20
102.8078916534
 30
0.0
  0
SPLINE
  5
327
330
1B
100
AcDbEntity
 67
     1
  8
7_ALL_FEATURES
  6
Continuous
 62
     7
100
AcDbSpline
 70
     0
 71
     3
 72
     9
 73
     5
 74
     0
 42
0.000000001
 43
0.0000001
 40
0.0
 40
0.0
 40
0.0
 40
0.0
 40
0.2145427309
 40
1.0
 40
1.0
 40
1.0
 40
1.0
 10
102.2391598503
 20
48.2887867461
 30
0.0
 10
102.2391653762
 20
48.3695445513
 30
0.0
 10
102.2403996633
 20
48.7459623066
 30
0.0
 10
102.2447948942
 20
49.1223641701
 30
0.0
 10
102.2493296304
 20
49.4179898649
 30
0.0
  0
SPLINE
  5
328
330
1B
100
AcDbEntity
 67
     1
  8
7_ALL_FEATURES
  6
Continuous
 62
     7
100
AcDbSpline
 70
     0
 71
     3
 72
     9
 73
     5
 74
     0
 42
0.000000001
 43
0.0000001
 40
0.0
 40
0.0
 40
0.0
 40
0.0
 40
0.2145427309
 40
1.0
 40
1.0
 40
1.0
 40
1.0
 10
156.7684345377
 20
92.8179182962
 30
0.0
 10
156.6876767325
 20
92.8179238222
 30
0.0
 10
156.3112589772
 20
92.8191581093
 30
0.0
 10
155.9348571137
 20
92.8235533401
 30
0.0
 10
155.6392314189
 20
92.8280880763
 30
0.0
  0
SPLINE
  5
329
330
1B
100
AcDbEntity
 67
     1
  8
7_ALL_FEATURES
  6
Continuous
 62
     7
100
AcDbSpline
 70
     0
 71
     3
 72
     9
 73
     5
 74
     0
 42
0.000000001
 43
0.0000001
 40
0.0
 40
0.0
 40
0.0
 40
0.0
 40
0.2145427309
 40
1.0
 40
1.0
 40
1.0
 40
1.0
 10
112.2393029876
 20
147.3471929836
 30
0.0
 10
112.2392974616
 20
147.2664351784
 30
0.0
 10
112.2380631745
 20
146.8900174231
 30
0.0
 10
112.2336679437
 20
146.5136155596
 30
0.0
 10
112.2291332074
 20
146.2179898649
 30
0.0
  0
LINE
  5
32A
330
1B
100
AcDbEntity
 67
     1
  8
7_ALL_FEATURES
  6
Continuous
 62
     7
100
AcDbLine
 10
112.2291332075
 20
146.3179898649
 30
0.0
 11
112.1657217005
 21
146.3179898649
 31
0.0
  0
LINE
  5
32B
330
1B
100
AcDbEntity
 67
     1
  8
7_ALL_FEATURES
  6
Continuous
 62
     7
100
AcDbLine
 10
112.1657217005
 20
146.3179898649
 30
0.0
 11
111.8991213492
 21
146.3179898649
 31
0.0
  0
LINE
  5
32C
330
1B
100
AcDbEntity
 67
     1
  8
7_ALL_FEATURES
  6
Continuous
 62
     7
100
AcDbLine
 10
111.8991213492
 20
146.3179898649
 30
0.0
 11
111.7392314189
 21
146.3179898649
 31
0.0
  0
LINE
  5
32D
330
1B
100
AcDbEntity
 67
     1
  8
7_ALL_FEATURES
  6
Continuous
 62
     7
100
AcDbLine
 10
102.7392314189
 20
145.8179710511
 30
0.0
 11
111.7392314189
 21
145.8179710511
 31
0.0
  0
SPLINE
  5
32E
330
1B
100
AcDbEntity
 67
     1
  8
7_ALL_FEATURES
  6
Continuous
 62
     7
100
AcDbSpline
 70
     0
 71
     3
 72
     9
 73
     5
 74
     0
 42
0.000000001
 43
0.0000001
 40
0.0
 40
0.0
 40
0.0
 40
0.0
 40
0.2757167815
 40
1.0
 40
1.0
 40
1.0
 40
1.0
 10
102.2493150383
 20
146.2179896412
 30
0.0
 10
102.247725127
 20
146.3216998178
 30
0.0
 10
102.2425672122
 20
146.6978549683
 30
0.0
 10
102.2391785813
 20
147.0740447101
 30
0.0
 10
102.2391598512
 20
147.3465140397
 30
0.0
  0
LINE
  5
32F
330
1B
100
AcDbEntity
 67
     1
  8
7_ALL_FEATURES
  6
Continuous
 62
     7
100
AcDbLine
 10
102.2493296304
 20
147.8179898649
 30
0.0
 11
58.742059846
 21
147.8179898649
 31
0.0
  0
LINE
  5
330
330
1B
100
AcDbEntity
 67
     1
  8
7_ALL_FEATURES
  6
Continuous
 62
     7
100
AcDbLine
 10
102.7392314189
 20
146.3179898649
 30
0.0
 11
102.570641001
 21
146.3179898649
 31
0.0
  0
LINE
  5
331
330
1B
100
AcDbEntity
 67
     1
  8
7_ALL_FEATURES
  6
Continuous
 62
     7
100
AcDbLine
 10
102.570641001
 20
146.3179898649
 30
0.0
 11
102.2493296304
 21
146.3179898649
 31
0.0
  0
LINE
  5
332
330
1B
100
AcDbEntity
 67
     1
  8
7_ALL_FEATURES
  6
Continuous
 62
     7
100
AcDbLine
 10
111.7392314189
 20
146.3179898649
 30
0.0
 11
102.7392314189
 21
146.3179898649
 31
0.0
  0
SPLINE
  5
333
330
1B
100
AcDbEntity
 67
     1
  8
7_ALL_FEATURES
  6
Continuous
 62
     7
100
AcDbSpline
 70
     0
 71
     3
 72
     9
 73
     5
 74
     0
 42
0.000000001
 43
0.0000001
 40
0.0
 40
0.0
 40
0.0
 40
0.0
 40
0.2757167815
 40
1.0
 40
1.0
 40
1.0
 40
1.0
 10
155.6392311952
 20
102.8079062455
 30
0.0
 10
155.7429413719
 20
102.8094961568
 30
0.0
 10
156.1190965224
 20
102.8146540716
 30
0.0
 10
156.4952862641
 20
102.8180427025
 30
0.0
 10
156.7677555938
 20
102.8180614326
 30
0.0
  0
LINE
  5
334
330
1B
100
AcDbEntity
 67
     1
  8
7_ALL_FEATURES
  6
Continuous
 62
     7
100
AcDbLine
 10
157.2392314189
 20
102.8078916534
 30
0.0
 11
157.2392314189
 21
146.3151614377
 31
0.0
  0
LINE
  5
335
330
1B
100
AcDbEntity
 67
     1
  8
7_ALL_FEATURES
  6
Continuous
 62
     7
100
AcDbLine
 10
155.7364029918
 20
147.8179898649
 30
0.0
 11
112.2291332075
 21
147.8179898649
 31
0.0
  0
LINE
  5
336
330
1B
100
AcDbEntity
 67
     1
  8
7_ALL_FEATURES
  6
Continuous
 62
     7
100
AcDbLine
 10
102.7392314189
 20
147.8179898649
 30
0.0
 11
111.7392314189
 21
147.8179898649
 31
0.0
  0
LINE
  5
337
330
1B
100
AcDbEntity
 67
     1
  8
7_ALL_FEATURES
  6
Continuous
 62
     7
100
AcDbLine
 10
102.2493296304
 20
147.8179898649
 30
0.0
 11
102.7392314189
 21
147.8179898649
 31
0.0
  0
LINE
  5
338
330
1B
100
AcDbEntity
 67
     1
  8
7_ALL_FEATURES
  6
Continuous
 62
     7
100
AcDbLine
 10
111.7392314189
 20
147.8179898649
 30
0.0
 11
112.2291332075
 21
147.8179898649
 31
0.0
  0
LINE
  5
339
330
1B
100
AcDbEntity
 67
     1
  8
7_ALL_FEATURES
  6
Continuous
 62
     7
100
AcDbLine
 10
155.2392126051
 20
102.3179898649
 30
0.0
 11
155.2392126051
 21
93.3179898649
 31
0.0
  0
LINE
  5
33A
330
1B
100
AcDbEntity
 67
     1
  8
7_ALL_FEATURES
  6
Continuous
 62
     7
100
AcDbLine
 10
157.2392314189
 20
49.320818292
 30
0.0
 11
157.2392314189
 21
92.8280880763
 31
0.0
  0
SPLINE
  5
33B
330
1B
100
AcDbEntity
 67
     1
  8
7_ALL_FEATURES
  6
Continuous
 62
     7
100
AcDbSpline
 70
     0
 71
     3
 72
     9
 73
     5
 74
     0
 42
0.000000001
 43
0.0000001
 40
0.0
 40
0.0
 40
0.0
 40
0.0
 40
0.6019556693
 40
1.0
 40
1.0
 40
1.0
 40
1.0
 10
58.8392314189
 20
146.2179898649
 30
0.0
 10
58.8241863911
 20
146.2423104161
 30
0.0
 10
58.8019949473
 20
146.2818914512
 30
0.0
 10
58.7609702871
 20
146.3179898649
 30
0.0
 10
58.742059846
 20
146.3179898649
 30
0.0
  0
LINE
  5
33C
330
1B
100
AcDbEntity
 67
     1
  8
7_ALL_FEATURES
  6
Continuous
 62
     7
100
AcDbLine
 10
58.742059846
 20
147.8179898649
 30
0.0
 11
58.742059846
 21
146.3179898649
 31
0.0
  0
LINE
  5
33D
330
1B
100
AcDbEntity
 67
     1
  8
7_ALL_FEATURES
  6
Continuous
 62
     7
100
AcDbLine
 10
58.742059846
 20
47.8179898649
 30
0.0
 11
102.2493296304
 21
47.8179898649
 31
0.0
  0
LINE
  5
33E
330
1B
100
AcDbEntity
 67
     1
  8
7_ALL_FEATURES
  6
Continuous
 62
     7
100
AcDbLine
 10
58.742059846
 20
49.3179898649
 30
0.0
 11
58.742059846
 21
47.8179898649
 31
0.0
  0
LINE
  5
33F
330
1B
100
AcDbEntity
 67
     1
  8
7_ALL_FEATURES
  6
Continuous
 62
     7
100
AcDbLine
 10
57.2392314189
 20
49.320818292
 30
0.0
 11
58.7392314189
 21
49.320818292
 31
0.0
  0
SPLINE
  5
340
330
1B
100
AcDbEntity
 67
     1
  8
7_ALL_FEATURES
  6
Continuous
 62
     7
100
AcDbSpline
 70
     0
 71
     3
 72
     9
 73
     5
 74
     0
 42
0.000000001
 43
0.0000001
 40
0.0
 40
0.0
 40
0.0
 40
0.0
 40
0.2757167815
 40
1.0
 40
1.0
 40
1.0
 40
1.0
 10
58.8392316426
 20
92.8280734842
 30
0.0
 10
58.735521466
 20
92.8264835729
 30
0.0
 10
58.3593663155
 20
92.8213256582
 30
0.0
 10
57.9831765737
 20
92.8179370272
 30
0.0
 10
57.7107072441
 20
92.8179182971
 30
0.0
  0
LINE
  5
341
330
1B
100
AcDbEntity
 67
     1
  8
7_ALL_FEATURES
  6
Continuous
 62
     7
100
AcDbLine
 10
57.2392314189
 20
92.8280880763
 30
0.0
 11
57.2392314189
 21
49.320818292
 31
0.0
  0
LINE
  5
342
330
1B
100
AcDbEntity
 67
     1
  8
7_ALL_FEATURES
  6
Continuous
 62
     7
100
AcDbLine
 10
155.7364029918
 20
146.3179898649
 30
0.0
 11
155.7364029918
 21
147.8179898649
 31
0.0
  0
LINE
  5
343
330
1B
100
AcDbEntity
 67
     1
  8
7_ALL_FEATURES
  6
Continuous
 62
     7
100
AcDbLine
 10
157.2392314189
 20
146.3151614377
 30
0.0
 11
155.7392314189
 21
146.3151614377
 31
0.0
  0
LINE
  5
344
330
1B
100
AcDbEntity
 67
     1
  8
7_ALL_FEATURES
  6
Continuous
 62
     7
100
AcDbLine
 10
157.2392314189
 20
93.3179898649
 30
0.0
 11
157.2392314189
 21
92.8280880763
 31
0.0
  0
LINE
  5
345
330
1B
100
AcDbEntity
 67
     1
  8
7_ALL_FEATURES
  6
Continuous
 62
     7
100
AcDbLine
 10
157.2392314189
 20
102.3179898649
 30
0.0
 11
157.2392314189
 21
93.3179898649
 31
0.0
  0
LINE
  5
346
330
1B
100
AcDbEntity
 67
     1
  8
7_ALL_FEATURES
  6
Continuous
 62
     7
100
AcDbLine
 10
157.2392314189
 20
102.8078916534
 30
0.0
 11
157.2392314189
 21
102.3179898649
 31
0.0
  0
LINE
  5
347
330
1B
100
AcDbEntity
 67
     1
  8
7_ALL_FEATURES
  6
Continuous
 62
     7
100
AcDbLine
 10
57.2392314189
 20
146.3151614377
 30
0.0
 11
57.2392314189
 21
102.8078916534
 31
0.0
  0
LINE
  5
348
330
1B
100
AcDbEntity
 67
     1
  8
7_ALL_FEATURES
  6
Continuous
 62
     7
100
AcDbLine
 10
58.7392314189
 20
146.3151614377
 30
0.0
 11
57.2392314189
 21
146.3151614377
 31
0.0
  0
LINE
  5
349
330
1B
100
AcDbEntity
 67
     1
  8
7_ALL_FEATURES
  6
Continuous
 62
     7
100
AcDbLine
 10
57.2392314189
 20
92.8280880763
 30
0.0
 11
57.2392314189
 21
93.3179898649
 31
0.0
  0
LINE
  5
34A
330
1B
100
AcDbEntity
 67
     1
  8
7_ALL_FEATURES
  6
Continuous
 62
     7
100
AcDbLine
 10
57.2392314189
 20
93.3179898649
 30
0.0
 11
57.2392314189
 21
102.3179898649
 31
0.0
  0
LINE
  5
34B
330
1B
100
AcDbEntity
 67
     1
  8
7_ALL_FEATURES
  6
Continuous
 62
     7
100
AcDbLine
 10
57.2392314189
 20
102.3179898649
 30
0.0
 11
57.2392314189
 21
102.8078916534
 31
0.0
  0
LINE
  5
34C
330
1B
100
AcDbEntity
 67
     1
  8
7_ALL_FEATURES
  6
Continuous
 62
     7
100
AcDbLine
 10
155.7392314189
 20
102.3179898649
 30
0.0
 11
155.7392314189
 21
102.4865802827
 31
0.0
  0
LINE
  5
34D
330
1B
100
AcDbEntity
 67
     1
  8
7_ALL_FEATURES
  6
Continuous
 62
     7
100
AcDbLine
 10
155.7392314189
 20
102.4865802827
 30
0.0
 11
155.7392314189
 21
102.8078916534
 31
0.0
  0
LINE
  5
34E
330
1B
100
AcDbEntity
 67
     1
  8
7_ALL_FEATURES
  6
Continuous
 62
     7
100
AcDbLine
 10
155.7392314189
 20
93.3179898649
 30
0.0
 11
155.7392314189
 21
102.3179898649
 31
0.0
  0
LINE
  5
34F
330
1B
100
AcDbEntity
 67
     1
  8
7_ALL_FEATURES
  6
Continuous
 62
     7
100
AcDbLine
 10
155.7392314189
 20
92.8280880763
 30
0.0
 11
155.7392314189
 21
92.8914995833
 31
0.0
  0
LINE
  5
350
330
1B
100
AcDbEntity
 67
     1
  8
7_ALL_FEATURES
  6
Continuous
 62
     7
100
AcDbLine
 10
155.7392314189
 20
92.8914995833
 30
0.0
 11
155.7392314189
 21
93.1580999346
 31
0.0
  0
LINE
  5
351
330
1B
100
AcDbEntity
 67
     1
  8
7_ALL_FEATURES
  6
Continuous
 62
     7
100
AcDbLine
 10
155.7392314189
 20
93.1580999346
 30
0.0
 11
155.7392314189
 21
93.3179898649
 31
0.0
  0
LINE
  5
352
330
1B
100
AcDbEntity
 67
     1
  8
7_ALL_FEATURES
  6
Continuous
 62
     7
100
AcDbLine
 10
58.7392314189
 20
102.8078916534
 30
0.0
 11
58.7392314189
 21
102.7444801464
 31
0.0
  0
LINE
  5
353
330
1B
100
AcDbEntity
 67
     1
  8
7_ALL_FEATURES
  6
Continuous
 62
     7
100
AcDbLine
 10
58.7392314189
 20
102.7444801464
 30
0.0
 11
58.7392314189
 21
102.4778797951
 31
0.0
  0
LINE
  5
354
330
1B
100
AcDbEntity
 67
     1
  8
7_ALL_FEATURES
  6
Continuous
 62
     7
100
AcDbLine
 10
58.7392314189
 20
102.4778797951
 30
0.0
 11
58.7392314189
 21
102.3179898649
 31
0.0
  0
LINE
  5
355
330
1B
100
AcDbEntity
 67
     1
  8
7_ALL_FEATURES
  6
Continuous
 62
     7
100
AcDbLine
 10
58.7392314189
 20
102.3179898649
 30
0.0
 11
58.7392314189
 21
93.3179898649
 31
0.0
  0
LINE
  5
356
330
1B
100
AcDbEntity
 67
     1
  8
7_ALL_FEATURES
  6
Continuous
 62
     7
100
AcDbLine
 10
58.7392314189
 20
93.3179898649
 30
0.0
 11
58.7392314189
 21
93.149399447
 31
0.0
  0
LINE
  5
357
330
1B
100
AcDbEntity
 67
     1
  8
7_ALL_FEATURES
  6
Continuous
 62
     7
100
AcDbLine
 10
58.7392314189
 20
93.149399447
 30
0.0
 11
58.7392314189
 21
92.8280880763
 31
0.0
  0
SPLINE
  5
358
330
1B
100
AcDbEntity
 67
     1
  8
7_ALL_FEATURES
  6
Continuous
 62
     7
100
AcDbSpline
 70
     0
 71
     3
 72
     9
 73
     5
 74
     0
 42
0.000000001
 43
0.0000001
 40
0.0
 40
0.0
 40
0.0
 40
0.0
 40
0.3980443307
 40
1.0
 40
1.0
 40
1.0
 40
1.0
 10
58.7392314189
 20
146.3151614377
 30
0.0
 10
58.7392314189
 20
146.2962509967
 30
0.0
 10
58.7753298337
 20
146.2552263384
 30
0.0
 10
58.8149108642
 20
146.233034887
 30
0.0
 10
58.8392314189
 20
146.2179898649
 30
0.0
  0
SPLINE
  5
359
330
1B
100
AcDbEntity
 67
     1
  8
7_ALL_FEATURES
  6
Continuous
 62
     7
100
AcDbSpline
 70
     0
 71
     3
 72
     9
 73
     5
 74
     0
 42
0.000000001
 43
0.0000001
 40
0.0
 40
0.0
 40
0.0
 40
0.0
 40
0.3980443307
 40
1.0
 40
1.0
 40
1.0
 40
1.0
 10
155.7392314189
 20
49.320818292
 30
0.0
 10
155.7392314189
 20
49.339728733
 30
0.0
 10
155.7031330041
 20
49.3807533913
 30
0.0
 10
155.6635519736
 20
49.4029448427
 30
0.0
 10
155.6392314189
 20
49.4179898649
 30
0.0
  0
LINE
  5
35A
330
1B
100
AcDbEntity
 67
     1
  8
7_ALL_FEATURES
  6
Continuous
 62
     7
100
AcDbLine
 10
155.7392314189
 20
49.320818292
 30
0.0
 11
157.2392314189
 21
49.320818292
 31
0.0
  0
LINE
  5
35B
330
1B
100
AcDbEntity
 67
     1
  8
7_ALL_FEATURES
  6
Continuous
 62
     7
100
AcDbLine
 10
155.7364029918
 20
47.8179898649
 30
0.0
 11
155.7364029918
 21
49.3179898649
 31
0.0
  0
LINE
  5
35C
330
1B
100
AcDbEntity
 67
     1
  8
7_ALL_FEATURES
  6
Continuous
 62
     7
100
AcDbLine
 10
59.2392502327
 20
93.3179898649
 30
0.0
 11
59.2392502327
 21
102.3179898649
 31
0.0
  0
LINE
  5
35D
330
1B
100
AcDbEntity
 67
     1
  8
7_ALL_FEATURES
  6
Continuous
 62
     7
100
AcDbLine
 10
111.7392314189
 20
49.8180086787
 30
0.0
 11
102.7392314189
 21
49.8180086787
 31
0.0
  0
SPLINE
  5
35E
330
1B
100
AcDbEntity
 67
     1
  8
7_ALL_FEATURES
  6
Continuous
 62
     7
100
AcDbSpline
 70
     0
 71
     3
 72
     9
 73
     5
 74
     0
 42
0.000000001
 43
0.0000001
 40
0.0
 40
0.0
 40
0.0
 40
0.0
 40
0.6019556693
 40
1.0
 40
1.0
 40
1.0
 40
1.0
 10
155.6392314189
 20
49.4179898649
 30
0.0
 10
155.6542764467
 20
49.3936693137
 30
0.0
 10
155.6764678906
 20
49.3540882785
 30
0.0
 10
155.7174925508
 20
49.3179898649
 30
0.0
 10
155.7364029918
 20
49.3179898649
 30
0.0
  0
SPLINE
  5
35F
330
1B
100
AcDbEntity
 67
     1
  8
7_ALL_FEATURES
  6
Continuous
 62
     7
100
AcDbSpline
 70
     0
 71
     3
 72
     9
 73
     5
 74
     0
 42
0.000000001
 43
0.0000001
 40
0.0
 40
0.0
 40
0.0
 40
0.0
 40
0.2757167815
 40
1.0
 40
1.0
 40
1.0
 40
1.0
 10
112.2291477996
 20
49.4179900886
 30
0.0
 10
112.2307377109
 20
49.3142799119
 30
0.0
 10
112.2358956256
 20
48.9381247614
 30
0.0
 10
112.2392842566
 20
48.5619350196
 30
0.0
 10
112.2393029867
 20
48.28946569
 30
0.0
  0
LINE
  5
360
330
1B
100
AcDbEntity
 67
     1
  8
7_ALL_FEATURES
  6
Continuous
 62
     7
100
AcDbLine
 10
112.2291332075
 20
47.8179898649
 30
0.0
 11
155.7364029918
 21
47.8179898649
 31
0.0
  0
LINE
  5
361
330
1B
100
AcDbEntity
 67
     1
  8
7_ALL_FEATURES
  6
Continuous
 62
     7
100
AcDbLine
 10
111.7392314189
 20
49.3179898649
 30
0.0
 11
111.9078218368
 21
49.3179898649
 31
0.0
  0
LINE
  5
362
330
1B
100
AcDbEntity
 67
     1
  8
7_ALL_FEATURES
  6
Continuous
 62
     7
100
AcDbLine
 10
111.9078218368
 20
49.3179898649
 30
0.0
 11
112.2291332075
 21
49.3179898649
 31
0.0
  0
LINE
  5
363
330
1B
100
AcDbEntity
 67
     1
  8
7_ALL_FEATURES
  6
Continuous
 62
     7
100
AcDbLine
 10
102.7392314189
 20
49.3179898649
 30
0.0
 11
111.7392314189
 21
49.3179898649
 31
0.0
  0
LINE
  5
364
330
1B
100
AcDbEntity
 67
     1
  8
7_ALL_FEATURES
  6
Continuous
 62
     7
100
AcDbLine
 10
102.2493296304
 20
49.3179898649
 30
0.0
 11
102.3127411374
 21
49.3179898649
 31
0.0
  0
LINE
  5
365
330
1B
100
AcDbEntity
 67
     1
  8
7_ALL_FEATURES
  6
Continuous
 62
     7
100
AcDbLine
 10
102.3127411374
 20
49.3179898649
 30
0.0
 11
102.5793414887
 21
49.3179898649
 31
0.0
  0
LINE
  5
366
330
1B
100
AcDbEntity
 67
     1
  8
7_ALL_FEATURES
  6
Continuous
 62
     7
100
AcDbLine
 10
102.5793414887
 20
49.3179898649
 30
0.0
 11
102.7392314189
 21
49.3179898649
 31
0.0
  0
LINE
  5
367
330
1B
100
AcDbEntity
 67
     1
  8
7_ALL_FEATURES
  6
Continuous
 62
     7
100
AcDbLine
 10
112.2291332075
 20
47.8179898649
 30
0.0
 11
111.7392314189
 21
47.8179898649
 31
0.0
  0
LINE
  5
368
330
1B
100
AcDbEntity
 67
     1
  8
7_ALL_FEATURES
  6
Continuous
 62
     7
100
AcDbLine
 10
111.7392314189
 20
47.8179898649
 30
0.0
 11
102.7392314189
 21
47.8179898649
 31
0.0
  0
LINE
  5
369
330
1B
100
AcDbEntity
 67
     1
  8
7_ALL_FEATURES
  6
Continuous
 62
     7
100
AcDbLine
 10
102.7392314189
 20
47.8179898649
 30
0.0
 11
102.2493296304
 21
47.8179898649
 31
0.0
  0
SPLINE
  5
36A
330
1B
100
AcDbEntity
 67
     1
  8
7_ALL_FEATURES
  6
Continuous
 62
     7
100
AcDbSpline
 70
     0
 71
     3
 72
    17
 73
    13
 74
     0
 42
0.000000001
 43
0.0000001
 40
0.0
 40
0.0
 40
0.0
 40
0.0
 40
0.0048355654
 40
0.0174471102
 40
0.0381223251
 40
0.0668404937
 40
0.1481550711
 40
0.2608230861
 40
0.4040284419
 40
0.5761622501
 40
0.7754212193
 40
1.0
 40
1.0
 40
1.0
 40
1.0
 10
102.2493150383
 20
47.8179900888
 30
0.0
 10
102.2485552188
 20
47.8179877759
 30
0.0
 10
102.2477558907
 20
47.821717907
 30
0.0
 10
102.2467637008
 20
47.8266575355
 30
0.0
 10
102.2458152466
 20
47.8368928094
 30
0.0
 10
102.2443837278
 20
47.8570612527
 30
0.0
 10
102.2429636348
 20
47.8922677304
 30
0.0
 10
102.2415804479
 20
47.9451196269
 30
0.0
 10
102.240503106
 20
48.0124092788
 30
0.0
 10
102.2397162693
 20
48.0932502101
 30
0.0
 10
102.2392478835
 20
48.1869009161
 30
0.0
 10
102.2391574356
 20
48.2534981895
 30
0.0
 10
102.2391598503
 20
48.2887867461
 30
0.0
  0
LINE
  5
36B
330
1B
100
AcDbEntity
 67
     1
  8
7_ALL_FEATURES
  6
Continuous
 62
     9
100
AcDbLine
 10
102.2493296304
 20
49.4179898649
 30
0.0
 11
58.8392314189
 21
49.4179898649
 31
0.0
  0
LINE
  5
36C
330
1B
100
AcDbEntity
 67
     1
  8
7_ALL_FEATURES
  6
Continuous
 62
     7
100
AcDbLine
 10
58.8392314189
 20
49.4179898649
 30
0.0
 11
58.8352939896
 21
49.3162246779
 31
0.0
  0
LINE
  5
36D
330
1B
100
AcDbEntity
 67
     1
  8
7_ALL_FEATURES
  6
Continuous
 62
     7
100
AcDbLine
 10
58.8392314189
 20
49.4179898649
 30
0.0
 11
58.8352638639
 21
49.3170438583
 31
0.0
  0
SPLINE
  5
36E
330
1B
100
AcDbEntity
 67
     1
  8
7_ALL_FEATURES
  6
Continuous
 62
     7
100
AcDbSpline
 70
     0
 71
     3
 72
    18
 73
    14
 74
     0
 42
0.000000001
 43
0.0000001
 40
0.0
 40
0.0
 40
0.0
 40
0.0
 40
0.197800551
 40
0.3862288203
 40
0.5585938662
 40
0.70889533
 40
0.8317072063
 40
0.8815019572
 40
0.9229113578
 40
0.9555367466
 40
0.9792088998
 40
0.9938687503
 40
1.0
 40
1.0
 40
1.0
 40
1.0
 10
58.8352939896
 20
49.3162246779
 30
0.0
 10
58.831455225
 20
49.2171468192
 30
0.0
 10
58.8239170937
 20
49.0236865657
 30
0.0
 10
58.8124944571
 20
48.7439139534
 30
0.0
 10
58.8011074673
 20
48.4879583685
 30
0.0
 10
58.7898063875
 20
48.2649644796
 30
0.0
 10
58.7799288169
 20
48.1033260768
 30
0.0
 10
58.7717352807
 20
47.9964633979
 30
0.0
 10
58.7659989146
 20
47.9344201278
 30
0.0
 10
58.760529886
 20
47.8863581458
 30
0.0
 10
58.7547298639
 20
47.8498071193
 30
0.0
 10
58.7502485254
 20
47.8306501577
 30
0.0
 10
58.7451332797
 20
47.8179898649
 30
0.0
 10
58.742059846
 20
47.8179898649
 30
0.0
  0
SPLINE
  5
36F
330
1B
100
AcDbEntity
 67
     1
  8
7_ALL_FEATURES
  6
Continuous
 62
     7
100
AcDbSpline
 70
     0
 71
     3
 72
    17
 73
    13
 74
     0
 42
0.000000001
 43
0.0000001
 40
0.0
 40
0.0
 40
0.0
 40
0.0
 40
0.2245649302
 40
0.42381775
 40
0.5959515445
 40
0.7391614561
 40
0.8518354851
 40
0.9331550317
 40
0.961875122
 40
0.9825517889
 40
0.9951642343
 40
1.0
 40
1.0
 40
1.0
 40
1.0
 10
112.2393029867
 20
48.28946569
 30
0.0
 10
112.2393054158
 20
48.2541284135
 30
0.0
 10
112.2392148354
 20
48.1874382292
 30
0.0
 10
112.2387457337
 20
48.0936555931
 30
0.0
 10
112.2379576982
 20
48.012698314
 30
0.0
 10
112.2368787631
 20
47.9453099388
 30
0.0
 10
112.2354935438
 20
47.892379384
 30
0.0
 10
112.2340714272
 20
47.8571200503
 30
0.0
 10
112.2326378201
 20
47.8369212609
 30
0.0
 10
112.2316881183
 20
47.8266704385
 30
0.0
 10
112.2306943922
 20
47.8217234641
 30
0.0
 10
112.2298941544
 20
47.817987557
 30
0.0
 10
112.2291332074
 20
47.8179898649
 30
0.0
  0
LINE
  5
370
330
1B
100
AcDbEntity
 67
     1
  8
7_ALL_FEATURES
  6
Continuous
 62
     9
100
AcDbLine
 10
58.8392314189
 20
146.2179898649
 30
0.0
 11
102.2493296304
 21
146.2179898649
 31
0.0
  0
SPLINE
  5
371
330
1B
100
AcDbEntity
 67
     1
  8
7_ALL_FEATURES
  6
Continuous
 62
     7
100
AcDbSpline
 70
     0
 71
     3
 72
     9
 73
     5
 74
     0
 42
0.000000001
 43
0.0000001
 40
0.0
 40
0.0
 40
0.0
 40
0.0
 40
0.3980443307
 40
1.0
 40
1.0
 40
1.0
 40
1.0
 10
58.7392314189
 20
49.320818292
 30
0.0
 10
58.7392314189
 20
49.339728733
 30
0.0
 10
58.7753298326
 20
49.3807533932
 30
0.0
 10
58.8149108677
 20
49.4029448371
 30
0.0
 10
58.8392314189
 20
49.4179898649
 30
0.0
  0
SPLINE
  5
372
330
1B
100
AcDbEntity
 67
     1
  8
7_ALL_FEATURES
  6
Continuous
 62
     7
100
AcDbSpline
 70
     0
 71
     3
 72
    17
 73
    13
 74
     0
 42
0.000000001
 43
0.0000001
 40
0.0
 40
0.0
 40
0.0
 40
0.0
 40
0.2245649302
 40
0.42381775
 40
0.5959515445
 40
0.7391614561
 40
0.8518354851
 40
0.9331550317
 40
0.961875122
 40
0.9825517889
 40
0.9951642343
 40
1.0
 40
1.0
 40
1.0
 40
1.0
 10
102.2391598512
 20
147.3465140397
 30
0.0
 10
102.239157422
 20
147.3818513162
 30
0.0
 10
102.2392480024
 20
147.4485415006
 30
0.0
 10
102.2397171041
 20
147.5423241367
 30
0.0
 10
102.2405051396
 20
147.6232814158
 30
0.0
 10
102.2415840747
 20
147.6906697909
 30
0.0
 10
102.2429692941
 20
147.7436003458
 30
0.0
 10
102.2443914107
 20
147.7788596794
 30
0.0
 10
102.2458250177
 20
147.7990584688
 30
0.0
 10
102.2467747195
 20
147.8093092912
 30
0.0
 10
102.2477684456
 20
147.8142562657
 30
0.0
 10
102.2485686834
 20
147.8179921727
 30
0.0
 10
102.2493296304
 20
147.8179898648
 30
0.0
  0
SPLINE
  5
373
330
1B
100
AcDbEntity
 67
     1
  8
7_ALL_FEATURES
  6
Continuous
 62
     7
100
AcDbSpline
 70
     0
 71
     3
 72
    17
 73
    13
 74
     0
 42
0.000000001
 43
0.0000001
 40
0.0
 40
0.0
 40
0.0
 40
0.0
 40
0.0048355654
 40
0.0174471102
 40
0.0381223251
 40
0.0668404937
 40
0.1481550711
 40
0.2608230861
 40
0.4040284419
 40
0.5761622501
 40
0.7754212193
 40
1.0
 40
1.0
 40
1.0
 40
1.0
 10
157.239231195
 20
92.8280734842
 30
0.0
 10
157.2392335078
 20
92.8273136647
 30
0.0
 10
157.2355033768
 20
92.8265143367
 30
0.0
 10
157.2305637483
 20
92.8255221467
 30
0.0
 10
157.2203284744
 20
92.8245736925
 30
0.0
 10
157.2001600311
 20
92.8231421738
 30
0.0
 10
157.1649535533
 20
92.8217220808
 30
0.0
 10
157.1121016568
 20
92.8203388938
 30
0.0
 10
157.044812005
 20
92.8192615519
 30
0.0
 10
156.9639710737
 20
92.8184747152
 30
0.0
 10
156.8703203677
 20
92.8180063294
 30
0.0
 10
156.8037230943
 20
92.8179158815
 30
0.0
 10
156.7684345377
 20
92.8179182962
 30
0.0
  0
LINE
  5
374
330
1B
100
AcDbEntity
 67
     1
  8
7_ALL_FEATURES
  6
Continuous
 62
     9
100
AcDbLine
 10
155.6392314189
 20
92.8280880763
 30
0.0
 11
155.6392314189
 21
49.4179898649
 31
0.0
  0
LINE
  5
375
330
1B
100
AcDbEntity
 67
     1
  8
7_ALL_FEATURES
  6
Continuous
 62
     9
100
AcDbLine
 10
155.7392314189
 20
102.3179898649
 30
0.0
 11
157.2392314189
 21
102.3179898649
 31
0.0
  0
LINE
  5
376
330
1B
100
AcDbEntity
 67
     1
  8
7_ALL_FEATURES
  6
Continuous
 62
     9
100
AcDbLine
 10
157.2392314189
 20
93.3179898649
 30
0.0
 11
155.7392314189
 21
93.3179898649
 31
0.0
  0
SPLINE
  5
377
330
1B
100
AcDbEntity
 67
     1
  8
7_ALL_FEATURES
  6
Continuous
 62
     7
100
AcDbSpline
 70
     0
 71
     3
 72
    18
 73
    14
 74
     0
 42
0.000000001
 43
0.0000001
 40
0.0
 40
0.0
 40
0.0
 40
0.0
 40
0.006131249
 40
0.0207910993
 40
0.0444632522
 40
0.0770886406
 40
0.1184980405
 40
0.1682927907
 40
0.2911046657
 40
0.4414061283
 40
0.6137711738
 40
0.8021994458
 40
1.0
 40
1.0
 40
1.0
 40
1.0
 10
57.2392314189
 20
49.320818292
 30
0.0
 10
57.2392314189
 20
49.3238917251
 30
0.0
 10
57.2518917119
 20
49.3290069686
 30
0.0
 10
57.2710486704
 20
49.3334883084
 30
0.0
 10
57.3075996947
 20
49.3392883306
 30
0.0
 10
57.3556616727
 20
49.3447573599
 30
0.0
 10
57.4177049384
 20
49.3504937254
 30
0.0
 10
57.5245676093
 20
49.3586872615
 30
0.0
 10
57.6862060007
 20
49.3685648316
 30
0.0
 10
57.9091998746
 20
49.3798659109
 30
0.0
 10
58.1651554446
 20
49.3912529006
 30
0.0
 10
58.4449280427
 20
49.4026755357
 30
0.0
 10
58.6383882876
 20
49.4102136653
 30
0.0
 10
58.7374661418
 20
49.4140524306
 30
0.0
  0
LINE
  5
378
330
1B
100
AcDbEntity
 67
     1
  8
7_ALL_FEATURES
  6
Continuous
 62
     7
100
AcDbLine
 10
58.7374661418
 20
49.4140524306
 30
0.0
 11
58.8392314189
 21
49.4179898649
 31
0.0
  0
LINE
  5
379
330
1B
100
AcDbEntity
 67
     1
  8
7_ALL_FEATURES
  6
Continuous
 62
     7
100
AcDbLine
 10
58.7382854031
 20
49.4140222994
 30
0.0
 11
58.8392314189
 21
49.4179898649
 31
0.0
  0
LINE
  5
37A
330
1B
100
AcDbEntity
 67
     1
  8
7_ALL_FEATURES
  6
Continuous
 62
     7
100
AcDbLine
 10
155.6392314189
 20
49.4179898649
 30
0.0
 11
155.7437483528
 21
49.4139458134
 31
0.0
  0
LINE
  5
37B
330
1B
100
AcDbEntity
 67
     1
  8
7_ALL_FEATURES
  6
Continuous
 62
     7
100
AcDbLine
 10
155.6392314189
 20
49.4179898649
 30
0.0
 11
155.7428904937
 21
49.4139156762
 31
0.0
  0
SPLINE
  5
37C
330
1B
100
AcDbEntity
 67
     1
  8
7_ALL_FEATURES
  6
Continuous
 62
     7
100
AcDbSpline
 70
     0
 71
     3
 72
    18
 73
    14
 74
     0
 42
0.000000001
 43
0.0000001
 40
0.0
 40
0.0
 40
0.0
 40
0.0
 40
0.1978863087
 40
0.3863493586
 40
0.5587131591
 40
0.7089898851
 40
0.8317678354
 40
0.8815456422
 40
0.9229391933
 40
0.9555514467
 40
0.9792141526
 40
0.9938687157
 40
1.0
 40
1.0
 40
1.0
 40
1.0
 10
155.7437483528
 20
49.4139458134
 30
0.0
 10
155.8426876903
 20
49.4101119852
 30
0.0
 10
156.0358539682
 20
49.4025833878
 30
0.0
 10
156.3151738098
 20
49.3911734478
 30
0.0
 10
156.5706648589
 20
49.3797993033
 30
0.0
 10
156.7932201439
 20
49.3685108898
 30
0.0
 10
156.9545241892
 20
49.3586442268
 30
0.0
 10
157.0611575242
 20
49.3504599683
 30
0.0
 10
157.123063297
 20
49.3447299199
 30
0.0
 10
157.171018772
 20
49.3392675337
 30
0.0
 10
157.2074852553
 20
49.3334730304
 30
0.0
 10
157.2266040366
 20
49.3289985088
 30
0.0
 10
157.2392314189
 20
49.3238861165
 30
0.0
 10
157.2392314189
 20
49.320818292
 30
0.0
  0
LINE
  5
37D
330
1B
100
AcDbEntity
 67
     1
  8
7_ALL_FEATURES
  6
Continuous
 62
     9
100
AcDbLine
 10
58.8392314189
 20
49.4179898649
 30
0.0
 11
58.8392314189
 21
92.8280880763
 31
0.0
  0
LINE
  5
37E
330
1B
100
AcDbEntity
 67
     1
  8
7_ALL_FEATURES
  6
Continuous
 62
     9
100
AcDbLine
 10
58.7392314189
 20
93.3179898649
 30
0.0
 11
57.2392314189
 21
93.3179898649
 31
0.0
  0
LINE
  5
37F
330
1B
100
AcDbEntity
 67
     1
  8
7_ALL_FEATURES
  6
Continuous
 62
     9
100
AcDbLine
 10
57.2392314189
 20
102.3179898649
 30
0.0
 11
58.7392314189
 21
102.3179898649
 31
0.0
  0
LINE
  5
380
330
1B
100
AcDbEntity
 67
     1
  8
7_ALL_FEATURES
  6
Continuous
 62
     9
100
AcDbLine
 10
102.7392314189
 20
146.3179898649
 30
0.0
 11
102.7392314189
 21
147.8179898649
 31
0.0
  0
SPLINE
  5
381
330
1B
100
AcDbEntity
 67
     1
  8
7_ALL_FEATURES
  6
Continuous
 62
     7
100
AcDbSpline
 70
     0
 71
     3
 72
    17
 73
    13
 74
     0
 42
0.000000001
 43
0.0000001
 40
0.0
 40
0.0
 40
0.0
 40
0.0
 40
0.0048355654
 40
0.0174471102
 40
0.0381223251
 40
0.0668404937
 40
0.1481550711
 40
0.2608230861
 40
0.4040284419
 40
0.5761622501
 40
0.7754212193
 40
1.0
 40
1.0
 40
1.0
 40
1.0
 10
57.2392316428
 20
102.8079062455
 30
0.0
 10
57.23922933
 20
102.808666065
 30
0.0
 10
57.2429594611
 20
102.8094653931
 30
0.0
 10
57.2478990896
 20
102.810457583
 30
0.0
 10
57.2581343634
 20
102.8114060372
 30
0.0
 10
57.2783028068
 20
102.812837556
 30
0.0
 10
57.3135092845
 20
102.8142576489
 30
0.0
 10
57.366361181
 20
102.8156408359
 30
0.0
 10
57.4336508328
 20
102.8167181778
 30
0.0
 10
57.5144917641
 20
102.8175050145
 30
0.0
 10
57.6081424702
 20
102.8179734003
 30
0.0
 10
57.6747397435
 20
102.8180638482
 30
0.0
 10
57.7100283002
 20
102.8180614335
 30
0.0
  0
LINE
  5
382
330
1B
100
AcDbEntity
 67
     1
  8
7_ALL_FEATURES
  6
Continuous
 62
     9
100
AcDbLine
 10
58.8392314189
 20
102.8078916534
 30
0.0
 11
58.8392314189
 21
146.2179898649
 31
0.0
  0
SPLINE
  5
383
330
1B
100
AcDbEntity
 67
     1
  8
7_ALL_FEATURES
  6
Continuous
 62
     7
100
AcDbSpline
 70
     0
 71
     3
 72
    17
 73
    13
 74
     0
 42
0.000000001
 43
0.0000001
 40
0.0
 40
0.0
 40
0.0
 40
0.0
 40
0.2245649302
 40
0.42381775
 40
0.5959515445
 40
0.7391614561
 40
0.8518354851
 40
0.9331550317
 40
0.961875122
 40
0.9825517889
 40
0.9951642343
 40
1.0
 40
1.0
 40
1.0
 40
1.0
 10
57.7107072441
 20
92.8179182971
 30
0.0
 10
57.6753699676
 20
92.817915868
 30
0.0
 10
57.6086797832
 20
92.8180064484
 30
0.0
 10
57.5148971471
 20
92.8184755501
 30
0.0
 10
57.433939868
 20
92.8192635855
 30
0.0
 10
57.3665514929
 20
92.8203425207
 30
0.0
 10
57.313620938
 20
92.82172774
 30
0.0
 10
57.2783616044
 20
92.8231498566
 30
0.0
 10
57.258162815
 20
92.8245834637
 30
0.0
 10
57.2479119926
 20
92.8255331654
 30
0.0
 10
57.2429650181
 20
92.8265268916
 30
0.0
 10
57.2392291111
 20
92.8273271294
 30
0.0
 10
57.239231419
 20
92.8280880763
 30
0.0
  0
SPLINE
  5
384
330
1B
100
AcDbEntity
 67
     1
  8
7_ALL_FEATURES
  6
Continuous
 62
     7
100
AcDbSpline
 70
     0
 71
     3
 72
     9
 73
     5
 74
     0
 42
0.000000001
 43
0.0000001
 40
0.0
 40
0.0
 40
0.0
 40
0.0
 40
0.3980443307
 40
1.0
 40
1.0
 40
1.0
 40
1.0
 10
155.7392314189
 20
146.3151614377
 30
0.0
 10
155.7392314189
 20
146.2962509967
 30
0.0
 10
155.7031330053
 20
146.2552263365
 30
0.0
 10
155.6635519701
 20
146.2330348926
 30
0.0
 10
155.6392314189
 20
146.2179898649
 30
0.0
  0
LINE
  5
385
330
1B
100
AcDbEntity
 67
     1
  8
7_ALL_FEATURES
  6
Continuous
 62
     7
100
AcDbLine
 10
58.8392314189
 20
146.2179898649
 30
0.0
 11
58.737466232
 21
146.2219272942
 31
0.0
  0
LINE
  5
386
330
1B
100
AcDbEntity
 67
     1
  8
7_ALL_FEATURES
  6
Continuous
 62
     7
100
AcDbLine
 10
58.8392314189
 20
146.2179898649
 30
0.0
 11
58.7382854124
 21
146.2219574199
 31
0.0
  0
SPLINE
  5
387
330
1B
100
AcDbEntity
 67
     1
  8
7_ALL_FEATURES
  6
Continuous
 62
     7
100
AcDbSpline
 70
     0
 71
     3
 72
    18
 73
    14
 74
     0
 42
0.000000001
 43
0.0000001
 40
0.0
 40
0.0
 40
0.0
 40
0.0
 40
0.197800551
 40
0.3862288203
 40
0.5585938662
 40
0.70889533
 40
0.8317072063
 40
0.8815019572
 40
0.9229113578
 40
0.9555367466
 40
0.9792088998
 40
0.9938687503
 40
1.0
 40
1.0
 40
1.0
 40
1.0
 10
58.737466232
 20
146.2219272942
 30
0.0
 10
58.6383883733
 20
146.2257660588
 30
0.0
 10
58.4449281198
 20
146.2333041901
 30
0.0
 10
58.1651555075
 20
146.2447268267
 30
0.0
 10
57.9091999226
 20
146.2561138165
 30
0.0
 10
57.6862060337
 20
146.2674148963
 30
0.0
 10
57.5245676308
 20
146.2772924669
 30
0.0
 10
57.417704952
 20
146.2854860031
 30
0.0
 10
57.3556616818
 20
146.2912223691
 30
0.0
 10
57.3075996999
 20
146.2966913978
 30
0.0
 10
57.2710486733
 20
146.3024914199
 30
0.0
 10
57.2518917118
 20
146.3069727584
 30
0.0
 10
57.2392314189
 20
146.3120880041
 30
0.0
 10
57.2392314189
 20
146.3151614377
 30
0.0
  0
SPLINE
  5
388
330
1B
100
AcDbEntity
 67
     1
  8
7_ALL_FEATURES
  6
Continuous
 62
     7
100
AcDbSpline
 70
     0
 71
     3
 72
    18
 73
    14
 74
     0
 42
0.000000001
 43
0.0000001
 40
0.0
 40
0.0
 40
0.0
 40
0.0
 40
0.0061312836
 40
0.0207858465
 40
0.0444485521
 40
0.077060805
 40
0.1184543555
 40
0.1682321615
 40
0.2910101104
 40
0.4412868352
 40
0.6136506353
 40
0.8021136879
 40
1.0
 40
1.0
 40
1.0
 40
1.0
 10
157.2392314189
 20
146.3151614377
 30
0.0
 10
157.2392314189
 20
146.3120936138
 30
0.0
 10
157.2266040366
 20
146.3069812237
 30
0.0
 10
157.2074852584
 20
146.3025067008
 30
0.0
 10
157.1710187774
 20
146.2967121974
 30
0.0
 10
157.1230633065
 20
146.2912498106
 30
0.0
 10
157.0611575385
 20
146.2855197627
 30
0.0
 10
156.9545242117
 20
146.2773355044
 30
0.0
 10
156.7932201783
 20
146.2674688419
 30
0.0
 10
156.5706649089
 20
146.2561804289
 30
0.0
 10
156.3151738755
 20
146.2448062845
 30
0.0
 10
156.0358540487
 20
146.2333963461
 30
0.0
 10
155.84268778
 20
146.2258677503
 30
0.0
 10
155.743748447
 20
146.2220339215
 30
0.0
  0
LINE
  5
389
330
1B
100
AcDbEntity
 67
     1
  8
7_ALL_FEATURES
  6
Continuous
 62
     7
100
AcDbLine
 10
155.743748447
 20
146.2220339215
 30
0.0
 11
155.6392314189
 21
146.2179898649
 31
0.0
  0
LINE
  5
38A
330
1B
100
AcDbEntity
 67
     1
  8
7_ALL_FEATURES
  6
Continuous
 62
     7
100
AcDbLine
 10
155.7428905027
 20
146.2220640643
 30
0.0
 11
155.6392314189
 21
146.2179898649
 31
0.0
  0
SPLINE
  5
38B
330
1B
100
AcDbEntity
 67
     1
  8
7_ALL_FEATURES
  6
Continuous
 62
     7
100
AcDbSpline
 70
     0
 71
     3
 72
    18
 73
    14
 74
     0
 42
0.000000001
 43
0.0000001
 40
0.0
 40
0.0
 40
0.0
 40
0.0
 40
0.006131249
 40
0.0207910993
 40
0.0444632522
 40
0.0770886406
 40
0.1184980405
 40
0.1682927907
 40
0.2911046657
 40
0.4414061283
 40
0.6137711738
 40
0.8021994458
 40
1.0
 40
1.0
 40
1.0
 40
1.0
 10
155.7364029918
 20
47.8179898649
 30
0.0
 10
155.7333295586
 20
47.8179898649
 30
0.0
 10
155.7282143152
 20
47.8306501578
 30
0.0
 10
155.7237329754
 20
47.8498071164
 30
0.0
 10
155.7179329532
 20
47.8863581407
 30
0.0
 10
155.7124639239
 20
47.9344201187
 30
0.0
 10
155.7067275584
 20
47.9964633843
 30
0.0
 10
155.6985340223
 20
48.1033260552
 30
0.0
 10
155.6886564522
 20
48.2649644467
 30
0.0
 10
155.6773553729
 20
48.4879583205
 30
0.0
 10
155.6659683832
 20
48.7439138905
 30
0.0
 10
155.6545457481
 20
49.0236864887
 30
0.0
 10
155.6470076185
 20
49.2171467335
 30
0.0
 10
155.6431688532
 20
49.3162245878
 30
0.0
  0
LINE
  5
38C
330
1B
100
AcDbEntity
 67
     1
  8
7_ALL_FEATURES
  6
Continuous
 62
     7
100
AcDbLine
 10
155.6431688532
 20
49.3162245878
 30
0.0
 11
155.6392314189
 21
49.4179898649
 31
0.0
  0
LINE
  5
38D
330
1B
100
AcDbEntity
 67
     1
  8
7_ALL_FEATURES
  6
Continuous
 62
     7
100
AcDbLine
 10
155.6431989844
 20
49.3170438491
 30
0.0
 11
155.6392314189
 21
49.4179898649
 31
0.0
  0
LINE
  5
38E
330
1B
100
AcDbEntity
 67
     1
  8
7_ALL_FEATURES
  6
Continuous
 62
     9
100
AcDbLine
 10
155.6392314189
 20
49.4179898649
 30
0.0
 11
112.2291332074
 21
49.4179898649
 31
0.0
  0
LINE
  5
38F
330
1B
100
AcDbEntity
 67
     1
  8
7_ALL_FEATURES
  6
Continuous
 62
     9
100
AcDbLine
 10
111.7392314189
 20
147.8179898649
 30
0.0
 11
111.7392314189
 21
146.3179898649
 31
0.0
  0
LINE
  5
390
330
1B
100
AcDbEntity
 67
     1
  8
7_ALL_FEATURES
  6
Continuous
 62
     9
100
AcDbLine
 10
155.6392314189
 20
146.2179898649
 30
0.0
 11
155.6392314189
 21
102.8078916534
 31
0.0
  0
SPLINE
  5
391
330
1B
100
AcDbEntity
 67
     1
  8
7_ALL_FEATURES
  6
Continuous
 62
     7
100
AcDbSpline
 70
     0
 71
     3
 72
    17
 73
    13
 74
     0
 42
0.000000001
 43
0.0000001
 40
0.0
 40
0.0
 40
0.0
 40
0.0
 40
0.2245649302
 40
0.42381775
 40
0.5959515445
 40
0.7391614561
 40
0.8518354851
 40
0.9331550317
 40
0.961875122
 40
0.9825517889
 40
0.9951642343
 40
1.0
 40
1.0
 40
1.0
 40
1.0
 10
156.7677555938
 20
102.8180614326
 30
0.0
 10
156.8030928703
 20
102.8180638618
 30
0.0
 10
156.8697830546
 20
102.8179732813
 30
0.0
 10
156.9635656907
 20
102.8175041797
 30
0.0
 10
157.0445229698
 20
102.8167161442
 30
0.0
 10
157.111911345
 20
102.815637209
 30
0.0
 10
157.1648418998
 20
102.8142519897
 30
0.0
 10
157.2001012335
 20
102.8128298731
 30
0.0
 10
157.2203000228
 20
102.8113962661
 30
0.0
 10
157.2305508452
 20
102.8104465643
 30
0.0
 10
157.2354978197
 20
102.8094528381
 30
0.0
 10
157.2392337268
 20
102.8086526004
 30
0.0
 10
157.2392314189
 20
102.8078916534
 30
0.0
  0
LINE
  5
392
330
1B
100
AcDbEntity
 67
     1
  8
7_ALL_FEATURES
  6
Continuous
 62
     7
100
AcDbLine
 10
155.6392314189
 20
146.2179898649
 30
0.0
 11
155.6431688482
 21
146.3197550518
 31
0.0
  0
LINE
  5
393
330
1B
100
AcDbEntity
 67
     1
  8
7_ALL_FEATURES
  6
Continuous
 62
     7
100
AcDbLine
 10
155.6392314189
 20
146.2179898649
 30
0.0
 11
155.6431989739
 21
146.3189358714
 31
0.0
  0
SPLINE
  5
394
330
1B
100
AcDbEntity
 67
     1
  8
7_ALL_FEATURES
  6
Continuous
 62
     7
100
AcDbSpline
 70
     0
 71
     3
 72
    18
 73
    14
 74
     0
 42
0.000000001
 43
0.0000001
 40
0.0
 40
0.0
 40
0.0
 40
0.0
 40
0.197800551
 40
0.3862288203
 40
0.5585938662
 40
0.70889533
 40
0.8317072063
 40
0.8815019572
 40
0.9229113578
 40
0.9555367466
 40
0.9792088998
 40
0.9938687503
 40
1.0
 40
1.0
 40
1.0
 40
1.0
 10
155.6431688482
 20
146.3197550518
 30
0.0
 10
155.6470076129
 20
146.4188329105
 30
0.0
 10
155.6545457441
 20
146.612293164
 30
0.0
 10
155.6659683807
 20
146.8920657763
 30
0.0
 10
155.6773553706
 20
147.1480213612
 30
0.0
 10
155.6886564503
 20
147.3710152501
 30
0.0
 10
155.6985340209
 20
147.5326536529
 30
0.0
 10
155.7067275571
 20
147.6395163318
 30
0.0
 10
155.7124639232
 20
147.7015596019
 30
0.0
 10
155.7179329518
 20
147.7496215839
 30
0.0
 10
155.7237329739
 20
147.7861726104
 30
0.0
 10
155.7282143124
 20
147.805329572
 30
0.0
 10
155.7333295581
 20
147.8179898649
 30
0.0
 10
155.7364029918
 20
147.8179898649
 30
0.0
  0
LINE
  5
395
330
1B
100
AcDbEntity
 67
     1
  8
7_ALL_FEATURES
  6
Continuous
 62
     9
100
AcDbLine
 10
112.2291332075
 20
146.2179898649
 30
0.0
 11
155.6392314189
 21
146.2179898649
 31
0.0
  0
LINE
  5
396
330
1B
100
AcDbEntity
 67
     1
  8
7_ALL_FEATURES
  6
Continuous
 62
     9
100
AcDbLine
 10
102.7392314189
 20
47.8179898649
 30
0.0
 11
102.7392314189
 21
49.3179898649
 31
0.0
  0
SPLINE
  5
397
330
1B
100
AcDbEntity
 67
     1
  8
7_ALL_FEATURES
  6
Continuous
 62
     7
100
AcDbSpline
 70
     0
 71
     3
 72
    17
 73
    13
 74
     0
 42
0.000000001
 43
0.0000001
 40
0.0
 40
0.0
 40
0.0
 40
0.0
 40
0.0048355654
 40
0.0174471102
 40
0.0381223251
 40
0.0668404937
 40
0.1481550711
 40
0.2608230861
 40
0.4040284419
 40
0.5761622501
 40
0.7754212193
 40
1.0
 40
1.0
 40
1.0
 40
1.0
 10
112.2291477996
 20
147.817989641
 30
0.0
 10
112.2299076191
 20
147.8179919538
 30
0.0
 10
112.2307069471
 20
147.8142618227
 30
0.0
 10
112.2316991371
 20
147.8093221942
 30
0.0
 10
112.2326475913
 20
147.7990869203
 30
0.0
 10
112.23407911
 20
147.778918477
 30
0.0
 10
112.235499203
 20
147.7437119993
 30
0.0
 10
112.23688239
 20
147.6908601028
 30
0.0
 10
112.2379597319
 20
147.623570451
 30
0.0
 10
112.2387465686
 20
147.5427295197
 30
0.0
 10
112.2392149544
 20
147.4490788136
 30
0.0
 10
112.2393054022
 20
147.3824815403
 30
0.0
 10
112.2393029876
 20
147.3471929836
 30
0.0
  0
LINE
  5
398
330
1B
100
AcDbEntity
 67
     1
  8
7_ALL_FEATURES
  6
Continuous
 62
     9
100
AcDbLine
 10
111.7392314189
 20
49.3179898649
 30
0.0
 11
111.7392314189
 21
47.8179898649
 31
0.0
  0
SPLINE
  5
399
330
1B
100
AcDbEntity
 67
     1
  8
7_ALL_FEATURES
  6
Continuous
 62
     7
100
AcDbSpline
 70
     0
 71
     3
 72
    18
 73
    14
 74
     0
 42
0.000000001
 43
0.0000001
 40
0.0
 40
0.0
 40
0.0
 40
0.0
 40
0.0061312836
 40
0.0207858465
 40
0.0444485521
 40
0.077060805
 40
0.1184543555
 40
0.1682321615
 40
0.2910101104
 40
0.4412868352
 40
0.6136506353
 40
0.8021136879
 40
1.0
 40
1.0
 40
1.0
 40
1.0
 10
58.742059846
 20
147.8179898649
 30
0.0
 10
58.74512767
 20
147.8179898649
 30
0.0
 10
58.7502400601
 20
147.8053624825
 30
0.0
 10
58.754714583
 20
147.7862437043
 30
0.0
 10
58.7605090864
 20
147.7497772233
 30
0.0
 10
58.7659714732
 20
147.7018217524
 30
0.0
 10
58.7717015211
 20
147.6399159844
 30
0.0
 10
58.7798857794
 20
147.5332826576
 30
0.0
 10
58.7897524419
 20
147.3719786242
 30
0.0
 10
58.8010408549
 20
147.1494233549
 30
0.0
 10
58.8124149993
 20
146.8939323215
 30
0.0
 10
58.8238249377
 20
146.6146124947
 30
0.0
 10
58.8313535335
 20
146.4214462259
 30
0.0
 10
58.8351873623
 20
146.322506893
 30
0.0
  0
LINE
  5
39A
330
1B
100
AcDbEntity
 67
     1
  8
7_ALL_FEATURES
  6
Continuous
 62
     7
100
AcDbLine
 10
58.8351873623
 20
146.322506893
 30
0.0
 11
58.8392314189
 21
146.2179898649
 31
0.0
  0
LINE
  5
39B
330
1B
100
AcDbEntity
 67
     1
  8
7_ALL_FEATURES
  6
Continuous
 62
     7
100
AcDbLine
 10
58.8351572195
 20
146.3216489486
 30
0.0
 11
58.8392314189
 21
146.2179898649
 31
0.0
  0
LINE
  5
39C
330
1B
100
AcDbEntity
 67
     1
  8
7_ALL_FEATURES
  6
Continuous
 62
     7
100
AcDbLine
 10
136.8850979478
 20
270.2076911574
 30
0.0
 11
136.8779881321
 21
270.3144912792
 31
0.0
  0
SPLINE
  5
39D
330
1B
100
AcDbEntity
 67
     1
  8
7_ALL_FEATURES
  6
Continuous
 62
     7
100
AcDbSpline
 70
     0
 71
     3
 72
    16
 73
    12
 74
     0
 42
0.000000001
 43
0.0000001
 40
0.0
 40
0.0
 40
0.0
 40
0.0
 40
0.1996857314
 40
0.388218984
 40
0.5596316175
 40
0.7084984642
 40
0.8299303386
 40
0.9201103126
 40
0.9764198432
 40
0.991811715
 40
1.0
 40
1.0
 40
1.0
 40
1.0
 10
136.8779881321
 20
270.3144912792
 30
0.0
 10
136.874426839
 20
270.367736867
 30
0.0
 10
136.8674312791
 20
270.471251027
 30
0.0
 10
136.8567858951
 20
270.6204235726
 30
0.0
 10
136.8461690474
 20
270.7560062701
 30
0.0
 10
136.8356698959
 20
270.8735270206
 30
0.0
 10
136.8251905703
 20
270.9694642787
 30
0.0
 10
136.815306692
 20
271.0400018412
 30
0.0
 10
136.8059268733
 20
271.0830423665
 30
0.0
 10
136.7985365821
 20
271.1024062622
 30
0.0
 10
136.7933820188
 20
271.1076857416
 30
0.0
 10
136.7911937594
 20
271.1076857416
 30
0.0
  0
LINE
  5
39E
330
1B
100
AcDbEntity
 67
     1
  8
7_ALL_FEATURES
  6
Continuous
 62
     7
100
AcDbLine
 10
137.689960356
 20
270.160583381
 30
0.0
 11
137.0582947568
 21
258.1076857416
 31
0.0
  0
ARC
  5
39F
330
1B
100
AcDbEntity
 67
     1
  8
7_ALL_FEATURES
  6
Continuous
 62
     7
100
AcDbCircle
 10
136.7911937747
 20
270.2076857416
 30
0.0
 40
0.9
100
AcDbArc
 50
356.9999999999999
 51
90.0
  0
ARC
  5
3A0
330
1B
100
AcDbEntity
 67
     1
  8
7_ALL_FEATURES
  6
Continuous
 62
     7
100
AcDbCircle
 10
77.6879980002
 20
270.2076857416
 30
0.0
 40
0.9
100
AcDbArc
 50
90.0
 51
183.0
  0
LINE
  5
3A1
330
1B
100
AcDbEntity
 67
     1
  8
7_ALL_FEATURES
  6
Continuous
 62
     7
100
AcDbLine
 10
77.5909634738
 20
270.160583381
 30
0.0
 11
78.2226290731
 21
258.1076857416
 31
0.0
  0
LINE
  5
3A2
330
1B
100
AcDbEntity
 67
     1
  8
7_ALL_FEATURES
  6
Continuous
 62
     7
100
AcDbLine
 10
136.2565627018
 20
258.1076857416
 30
0.0
 11
136.888228301
 21
270.160583381
 31
0.0
  0
LINE
  5
3A3
330
1B
100
AcDbEntity
 67
     1
  8
7_ALL_FEATURES
  6
Continuous
 62
     7
100
AcDbLine
 10
77.4208970181
 20
258.1076857416
 30
0.0
 11
76.7892314189
 21
270.160583381
 31
0.0
  0
LINE
  5
3A4
330
1B
100
AcDbEntity
 67
     1
  8
7_ALL_FEATURES
  6
Continuous
 62
     7
100
AcDbLine
 10
136.7911937747
 20
271.1076857416
 30
0.0
 11
77.6879980002
 21
271.1076857416
 31
0.0
  0
SPLINE
  5
3A5
330
1B
100
AcDbEntity
 67
     1
  8
7_ALL_FEATURES
  6
Continuous
 62
     7
100
AcDbSpline
 70
     0
 71
     3
 72
    16
 73
    12
 74
     0
 42
0.000000001
 43
0.0000001
 40
0.0
 40
0.0
 40
0.0
 40
0.0
 40
0.008188275
 40
0.023580119
 40
0.0798895954
 40
0.170069465
 40
0.2915012909
 40
0.4403680672
 40
0.6117807008
 40
0.8003140597
 40
1.0
 40
1.0
 40
1.0
 40
1.0
 10
77.6879980002
 20
271.1076857416
 30
0.0
 10
77.6858097442
 20
271.1076857416
 30
0.0
 10
77.6806551839
 20
271.1024062832
 30
0.0
 10
77.6732648903
 20
271.0830424138
 30
0.0
 10
77.6638850953
 20
271.0400019538
 30
0.0
 10
77.6540012189
 20
270.9694644669
 30
0.0
 10
77.6435218888
 20
270.8735273003
 30
0.0
 10
77.6330227138
 20
270.75600662
 30
0.0
 10
77.6224059471
 20
270.6204239487
 30
0.0
 10
77.6117605903
 20
270.4712513637
 30
0.0
 10
77.6047647958
 20
270.3677371675
 30
0.0
 10
77.601203449
 20
270.3144915439
 30
0.0
  0
LINE
  5
3A6
330
1B
100
AcDbEntity
 67
     1
  8
7_ALL_FEATURES
  6
Continuous
 62
     7
100
AcDbLine
 10
77.601203449
 20
270.3144915439
 30
0.0
 11
77.5940931794
 21
270.207683947
 31
0.0
  0
LINE
  5
3A7
330
1B
100
AcDbEntity
 67
     1
  8
7_ALL_FEATURES
  6
Continuous
 62
     7
100
AcDbLine
 10
77.5940927526
 20
270.2076839842
 30
0.0
 11
77.5909634586
 21
270.160583381
 31
0.0
  0
LINE
  5
3A8
330
1B
100
AcDbEntity
 67
     1
  8
7_ALL_FEATURES
  6
Continuous
 62
     7
100
AcDbLine
 10
76.7892314189
 20
270.160583381
 30
0.0
 11
77.5881350467
 21
270.2024521459
 31
0.0
  0
LINE
  5
3A9
330
1B
100
AcDbEntity
 67
     1
  8
7_ALL_FEATURES
  6
Continuous
 62
     7
100
AcDbLine
 10
136.8910567282
 20
270.2024521459
 30
0.0
 11
137.689960356
 21
270.160583381
 31
0.0
  0
LINE
  5
3AA
330
1B
100
AcDbEntity
 67
     1
  8
7_ALL_FEATURES
  6
Continuous
 62
     9
100
AcDbLine
 10
77.5909634738
 20
270.160583381
 30
0.0
 11
136.888228301
 21
270.160583381
 31
0.0
  0
LINE
  5
3AB
330
1B
100
AcDbEntity
 67
     1
  8
7_ALL_FEATURES
  6
Continuous
 62
     7
100
AcDbLine
 10
136.888228301
 20
270.160583381
 30
0.0
 11
136.8850985276
 21
270.2076912048
 31
0.0
  0
LINE
  5
3AC
330
1B
100
AcDbEntity
 67
     1
  8
7_ALL_FEATURES
  6
Continuous
 62
     7
100
AcDbLine
 10
75.5908575492
 20
250.3557447153
 30
0.0
 11
76.3897740424
 21
250.3970820254
 31
0.0
  0
SPLINE
  5
3AD
330
1B
100
AcDbEntity
 67
     1
  8
7_ALL_FEATURES
  6
Continuous
 62
     7
100
AcDbSpline
 70
     0
 71
     3
 72
    14
 73
    10
 74
     0
 42
0.000000001
 43
0.0000001
 40
0.0
 40
0.0
 40
0.0
 40
0.0
 40
0.0194686652
 40
0.0763342343
 40
0.1685068987
 40
0.2928010258
 40
0.4443159225
 40
0.6178152202
 40
1.0
 40
1.0
 40
1.0
 40
1.0
 10
76.9402872824
 20
258.1076857416
 30
0.0
 10
76.9403653757
 20
258.1083299832
 30
0.0
 10
76.9442773083
 20
258.1068662578
 30
0.0
 10
76.9486048461
 20
258.1082411322
 30
0.0
 10
76.9584254526
 20
258.1074589208
 30
0.0
 10
76.9703937851
 20
258.1077679072
 30
0.0
 10
76.9854781885
 20
258.1076486528
 30
0.0
 10
77.0090062106
 20
258.107711972
 30
0.0
 10
77.0275477615
 20
258.1077030744
 30
0.0
 10
77.0402872824
 20
258.1076857416
 30
0.0
  0
LINE
  5
3AE
330
1B
100
AcDbEntity
 67
     1
  8
7_ALL_FEATURES
  6
Continuous
 62
     7
100
AcDbLine
 10
111.2402872824
 20
221.2689728827
 30
0.0
 11
111.2402872824
 21
221.4687089164
 31
0.0
  0
LINE
  5
3AF
330
1B
100
AcDbEntity
 67
     1
  8
7_ALL_FEATURES
  6
Continuous
 62
     7
100
AcDbLine
 10
111.2402872824
 20
221.4687089164
 30
0.0
 11
103.2402872824
 21
221.4687089164
 31
0.0
  0
LINE
  5
3B0
330
1B
100
AcDbEntity
 67
     1
  8
7_ALL_FEATURES
  6
Continuous
 62
     7
100
AcDbLine
 10
103.2402872824
 20
221.4687089164
 30
0.0
 11
103.2402872824
 21
221.2689728827
 31
0.0
  0
LINE
  5
3B1
330
1B
100
AcDbEntity
 67
     1
  8
7_ALL_FEATURES
  6
Continuous
 62
     7
100
AcDbLine
 10
111.2402872824
 20
221.3100614382
 30
0.0
 11
103.2402872824
 21
221.3100614382
 31
0.0
  0
LINE
  5
3B2
330
1B
100
AcDbEntity
 67
     1
  8
7_ALL_FEATURES
  6
Continuous
 62
     7
100
AcDbLine
 10
77.9392300219
 20
223.1076857416
 30
0.0
 11
76.141343152
 21
258.0665970996
 31
0.0
  0
LINE
  5
3B3
330
1B
100
AcDbEntity
 67
     1
  8
7_ALL_FEATURES
  6
Continuous
 62
     7
100
AcDbLine
 10
76.3909231777
 20
250.3931244372
 30
0.0
 11
76.4441425104
 21
250.0822268271
 31
0.0
  0
SPLINE
  5
3B4
330
1B
100
AcDbEntity
 67
     1
  8
7_ALL_FEATURES
  6
Continuous
 62
     7
100
AcDbSpline
 70
     0
 71
     3
 72
    13
 73
     9
 74
     0
 42
0.000000001
 43
0.0000001
 40
0.0
 40
0.0
 40
0.0
 40
0.0
 40
0.0231794546
 40
0.0826872173
 40
0.1766163325
 40
0.3013172734
 40
0.6235868595
 40
1.0
 40
1.0
 40
1.0
 40
1.0
 10
76.4441425104
 20
250.0822268271
 30
0.0
 10
76.4442758863
 20
250.0814476695
 30
0.0
 10
76.448176081
 20
250.0812861637
 30
0.0
 10
76.4531993818
 20
250.0804046801
 30
0.0
 10
76.4631963419
 20
250.0802658025
 30
0.0
 10
76.4813619073
 20
250.0800413319
 30
0.0
 10
76.5096272928
 20
250.0807161363
 30
0.0
 10
76.5333764994
 20
250.0816821219
 30
0.0
 10
76.5461964931
 20
250.0823396967
 30
0.0
  0
LINE
  5
3B5
330
1B
100
AcDbEntity
 67
     1
  8
7_ALL_FEATURES
  6
Continuous
 62
     7
100
AcDbLine
 10
76.9402872824
 20
258.1076857416
 30
0.0
 11
76.1413412893
 21
258.0665970905
 31
0.0
  0
LINE
  5
3B6
330
1B
100
AcDbEntity
 67
     1
  8
7_ALL_FEATURES
  6
Continuous
 62
     7
100
AcDbLine
 10
77.0402872824
 20
258.1076857416
 30
0.0
 11
137.4402872824
 21
258.1076857416
 31
0.0
  0
LINE
  5
3B7
330
1B
100
AcDbEntity
 67
     1
  8
7_ALL_FEATURES
  6
Continuous
 62
     7
100
AcDbLine
 10
112.7402872824
 20
219.159955781
 30
0.0
 11
112.7402872824
 21
218.5497668371
 31
0.0
  0
LINE
  5
3B8
330
1B
100
AcDbEntity
 67
     1
  8
7_ALL_FEATURES
  6
Continuous
 62
     7
100
AcDbLine
 10
101.7402872824
 20
218.5164831552
 30
0.0
 11
101.7402872824
 21
219.1871676536
 31
0.0
  0
LINE
  5
3B9
330
1B
100
AcDbEntity
 67
     1
  8
7_ALL_FEATURES
  6
Continuous
 62
     7
100
AcDbLine
 10
138.3392314172
 20
258.0665971861
 30
0.0
 11
137.5402872824
 21
258.1076857416
 31
0.0
  0
LINE
  5
3BA
330
1B
100
AcDbEntity
 67
     1
  8
7_ALL_FEATURES
  6
Continuous
 62
     7
100
AcDbLine
 10
138.3392314172
 20
258.0665971861
 30
0.0
 11
136.541344543
 21
223.1076857416
 31
0.0
  0
ARC
  5
3BB
330
1B
100
AcDbEntity
 67
     1
  8
7_ALL_FEATURES
  6
Continuous
 62
     7
100
AcDbCircle
 10
75.7585016543
 20
265.4568977972
 30
0.0
 40
17.433151196
100
AcDbArc
 50
272.5823987195
 51
272.9473846966
  0
LINE
  5
3BC
330
1B
100
AcDbEntity
 67
     1
  8
7_ALL_FEATURES
  6
Continuous
 62
     7
100
AcDbLine
 10
137.4402872824
 20
258.1076857416
 30
0.0
 11
137.5268367497
 21
258.107680998
 31
0.0
  0
LINE
  5
3BD
330
1B
100
AcDbEntity
 67
     1
  8
7_ALL_FEATURES
  6
Continuous
 62
     7
100
AcDbLine
 10
137.5268367497
 20
258.107680998
 30
0.0
 11
137.5402872931
 21
258.1076856804
 31
0.0
  0
LINE
  5
3BE
330
1B
100
AcDbEntity
 67
     1
  8
7_ALL_FEATURES
  6
Continuous
 62
     7
100
AcDbLine
 10
137.5268367497
 20
258.107680998
 30
0.0
 11
137.5402872824
 21
258.1076857416
 31
0.0
  0
SPLINE
  5
3BF
330
1B
100
AcDbEntity
 67
     1
  8
7_ALL_FEATURES
  6
Continuous
 62
     7
100
AcDbSpline
 70
     0
 71
     3
 72
    13
 73
     9
 74
     0
 42
0.000000001
 43
0.0000001
 40
0.0
 40
0.0
 40
0.0
 40
0.0
 40
0.3919429155
 40
0.7153214616
 40
0.8366896492
 40
0.9272893443
 40
0.9827285047
 40
1.0
 40
1.0
 40
1.0
 40
1.0
 10
77.467282609
 20
232.1296780353
 30
0.0
 10
77.4538644712
 20
232.12898978
 30
0.0
 10
77.4294790074
 20
232.1279399717
 30
0.0
 10
77.4004363146
 20
232.1275273548
 30
0.0
 10
77.3826075241
 20
232.1276090407
 30
0.0
 10
77.3725201046
 20
232.1283389294
 30
0.0
 10
77.3686180602
 20
232.1283277239
 30
0.0
 10
77.3644928318
 20
232.1295134074
 30
0.0
 10
77.364835707
 20
232.1299960858
 30
0.0
  0
LINE
  5
3C0
330
1B
100
AcDbEntity
 67
     1
  8
7_ALL_FEATURES
  6
Continuous
 62
     7
100
AcDbLine
 10
76.6178425684
 20
230.4046270008
 30
0.0
 11
76.671087725
 21
230.0935785325
 31
0.0
  0
SPLINE
  5
3C1
330
1B
100
AcDbEntity
 67
     1
  8
7_ALL_FEATURES
  6
Continuous
 62
     7
100
AcDbSpline
 70
     0
 71
     3
 72
    16
 73
    12
 74
     0
 42
0.000000001
 43
0.0000001
 40
0.0
 40
0.0
 40
0.0
 40
0.0
 40
0.0076673711
 40
0.0226235268
 40
0.0772722616
 40
0.1648623652
 40
0.2833025205
 40
0.4298438362
 40
0.6008804975
 40
0.7924478745
 40
1.0
 40
1.0
 40
1.0
 40
1.0
 10
76.671087725
 20
230.0935785325
 30
0.0
 10
76.6713575847
 20
230.0920020611
 30
0.0
 10
76.6759563772
 20
230.0889677535
 30
0.0
 10
76.6908704896
 20
230.0847938455
 30
0.0
 10
76.7241282983
 20
230.0805609728
 30
0.0
 10
76.7780345681
 20
230.0772661752
 30
0.0
 10
76.8517209678
 20
230.0751667281
 30
0.0
 10
76.9426167113
 20
230.0745739615
 30
0.0
 10
77.0488431327
 20
230.0754771958
 30
0.0
 10
77.1677474644
 20
230.0779184851
 30
0.0
 10
77.2509677542
 20
230.0804477661
 30
0.0
 10
77.2942367458
 20
230.0819498343
 30
0.0
  0
ARC
  5
3C2
330
1B
100
AcDbEntity
 67
     1
  8
7_ALL_FEATURES
  6
Continuous
 62
     7
100
AcDbCircle
 10
76.7157096734
 20
246.6681890391
 30
0.0
 40
16.5963256335
100
AcDbArc
 50
271.9976636405
 51
272.9501315036999
  0
SPLINE
  5
3C3
330
1B
100
AcDbEntity
 67
     1
  8
7_ALL_FEATURES
  6
Continuous
 62
     7
100
AcDbSpline
 70
     0
 71
     3
 72
    16
 73
    12
 74
     0
 42
0.000000001
 43
0.0000001
 40
0.0
 40
0.0
 40
0.0
 40
0.0
 40
0.0094156657
 40
0.0278670407
 40
0.0552278868
 40
0.0912170765
 40
0.1875932657
 40
0.3132615844
 40
0.4634430281
 40
0.6323632519
 40
1.0
 40
1.0
 40
1.0
 40
1.0
 10
76.6178577794
 20
230.4045381408
 30
0.0
 10
76.6162024255
 20
230.4142852553
 30
0.0
 10
76.6137611262
 20
230.443489888
 30
0.0
 10
76.608892941
 20
230.5012435464
 30
0.0
 10
76.6029756231
 20
230.5869511128
 30
0.0
 10
76.5918735128
 20
230.7542902166
 30
0.0
 10
76.5753939605
 20
231.0247384601
 30
0.0
 10
76.5526581105
 20
231.414919936
 30
0.0
 10
76.5265037463
 20
231.8812078696
 30
0.0
 10
76.4872284699
 20
232.6012293287
 30
0.0
 10
76.4576600238
 20
233.1638518374
 30
0.0
 10
76.4378333784
 20
233.5493699442
 30
0.0
  0
LINE
  5
3C4
330
1B
100
AcDbEntity
 67
     1
  8
7_ALL_FEATURES
  6
Continuous
 62
     7
100
AcDbLine
 10
76.4378333784
 20
233.5493699442
 30
0.0
 11
75.7197301829
 21
247.5124876334
 31
0.0
  0
SPLINE
  5
3C5
330
1B
100
AcDbEntity
 67
     1
  8
7_ALL_FEATURES
  6
Continuous
 62
     7
100
AcDbSpline
 70
     0
 71
     3
 72
    24
 73
    20
 74
     0
 42
0.000000001
 43
0.0000001
 40
0.0
 40
0.0
 40
0.0
 40
0.0
 40
0.1976678997
 40
0.3863507786
 40
0.5591474742
 40
0.6376554079
 40
0.7099280815
 40
0.7753247066
 40
0.8332359868
 40
0.8831537201
 40
0.9246502166
 40
0.9421155403
 40
0.9573414918
 40
0.9702931472
 40
0.9809356806
 40
0.9892353525
 40
0.995175834
 40
0.9987579833
 40
1.0
 40
1.0
 40
1.0
 40
1.0
 10
75.7197301829
 20
247.5124876334
 30
0.0
 10
75.7100979385
 20
247.6997812756
 30
0.0
 10
75.6914796914
 20
248.0658658646
 30
0.0
 10
75.665172619
 20
248.595715069
 30
0.0
 10
75.6450399646
 20
249.0126759988
 30
0.0
 10
75.6306377731
 20
249.3193380923
 30
0.0
 10
75.6212219918
 20
249.5242242284
 30
0.0
 10
75.6129248347
 20
249.70959917
 30
0.0
 10
75.6058192268
 20
249.8737976081
 30
0.0
 10
75.5999703962
 20
250.015349579
 30
0.0
 10
75.5959682683
 20
250.1185805792
 30
0.0
 10
75.5934755303
 20
250.1889123309
 30
0.0
 10
75.5920343626
 20
250.2322193933
 30
0.0
 10
75.5910045006
 20
250.2689588929
 30
0.0
 10
75.5901220546
 20
250.2994215617
 30
0.0
 10
75.590093373
 20
250.3224817145
 30
0.0
 10
75.5891832236
 20
250.3406274864
 30
0.0
 10
75.5908791695
 20
250.3486537383
 30
0.0
 10
75.5896913651
 20
250.3555340905
 30
0.0
 10
75.5908610964
 20
250.3556766544
 30
0.0
  0
LINE
  5
3C6
330
1B
100
AcDbEntity
 67
     1
  8
7_ALL_FEATURES
  6
Continuous
 62
     7
100
AcDbLine
 10
76.3909125649
 20
250.3931864354
 30
0.0
 11
76.3897195769
 21
250.3981351783
 31
0.0
  0
LINE
  5
3C7
330
1B
100
AcDbEntity
 67
     1
  8
7_ALL_FEATURES
  6
Continuous
 62
     7
100
AcDbLine
 10
76.5451508182
 20
248.1177908724
 30
0.0
 11
76.4441425104
 21
250.0822268271
 31
0.0
  0
LINE
  5
3C8
330
1B
100
AcDbEntity
 67
     1
  8
7_ALL_FEATURES
  6
Continuous
 62
     7
100
AcDbLine
 10
77.3622686749
 20
232.1597286335
 30
0.0
 11
76.5415746608
 21
248.1176045732
 31
0.0
  0
LINE
  5
3C9
330
1B
100
AcDbEntity
 67
     1
  8
7_ALL_FEATURES
  6
Continuous
 62
     7
100
AcDbLine
 10
77.3673768771
 20
232.1298874501
 30
0.0
 11
77.3622686749
 21
232.1597286335
 31
0.0
  0
LINE
  5
3CA
330
1B
100
AcDbEntity
 67
     1
  8
7_ALL_FEATURES
  6
Continuous
 62
     7
100
AcDbLine
 10
77.4700042181
 20
230.1349158425
 30
0.0
 11
77.3673768771
 21
232.1298874501
 31
0.0
  0
LINE
  5
3CB
330
1B
100
AcDbEntity
 67
     1
  8
7_ALL_FEATURES
  6
Continuous
 62
     9
100
AcDbLine
 10
76.6178425684
 20
230.4046270008
 30
0.0
 11
77.4167894836
 21
230.4457865909
 31
0.0
  0
LINE
  5
3CC
330
1B
100
AcDbEntity
 67
     1
  8
7_ALL_FEATURES
  6
Continuous
 62
     7
100
AcDbLine
 10
77.0402872823
 20
258.0665971861
 30
0.0
 11
77.0402872824
 21
258.1076857416
 31
0.0
  0
SPLINE
  5
3CD
330
1B
100
AcDbEntity
 67
     1
  8
7_ALL_FEATURES
  6
Continuous
 62
     7
100
AcDbSpline
 70
     0
 71
     3
 72
    17
 73
    13
 74
     0
 42
0.000000001
 43
0.0000001
 40
0.0
 40
0.0
 40
0.0
 40
0.0
 40
0.0066010204
 40
0.0212975552
 40
0.0448159594
 40
0.0771781231
 40
0.1674285615
 40
0.2892268803
 40
0.4385969951
 40
0.6106486362
 40
0.799863656
 40
1.0
 40
1.0
 40
1.0
 40
1.0
 10
76.1413412937
 20
258.066597004
 30
0.0
 10
76.14143419
 20
258.0648349079
 30
0.0
 10
76.1478388499
 20
258.0616404788
 30
0.0
 10
76.1585426856
 20
258.0593637647
 30
0.0
 10
76.1777655751
 20
258.0565453782
 30
0.0
 10
76.216387145
 20
258.0533278151
 30
0.0
 10
76.2819147956
 20
258.0506373428
 30
0.0
 10
76.3784175469
 20
258.0493691049
 30
0.0
 10
76.4969389426
 20
258.0498797369
 30
0.0
 10
76.6334085595
 20
258.0522409731
 30
0.0
 10
76.7834286394
 20
258.0563732415
 30
0.0
 10
76.8874390161
 20
258.0601637266
 30
0.0
 10
76.9408944787
 20
258.0623261708
 30
0.0
  0
ARC
  5
3CE
330
1B
100
AcDbEntity
 67
     1
  8
7_ALL_FEATURES
  6
Continuous
 62
     7
100
AcDbCircle
 10
76.1406937803
 20
277.8432589498
 30
0.0
 40
19.7971114753
100
AcDbArc
 50
272.3165306885
 51
272.6044539673
  0
SPLINE
  5
3CF
330
1B
100
AcDbEntity
 67
     1
  8
7_ALL_FEATURES
  6
Continuous
 62
     7
100
AcDbSpline
 70
     0
 71
     3
 72
    25
 73
    21
 74
     0
 42
0.000000001
 43
0.0000001
 40
0.0
 40
0.0
 40
0.0
 40
0.0
 40
0.0003393146
 40
0.0012511773
 40
0.0048440863
 40
0.0107986203
 40
0.0191063701
 40
0.0297470259
 40
0.0426906648
 40
0.0579068233
 40
0.0753649407
 40
0.1168632629
 40
0.1667903786
 40
0.2246998304
 40
0.2900763996
 40
0.3623337914
 40
0.4408429408
 40
0.6136484658
 40
0.8023293576
 40
1.0
 40
1.0
 40
1.0
 40
1.0
 10
76.3897736173
 20
250.397090776
 30
0.0
 10
76.3894528281
 20
250.3970635397
 30
0.0
 10
76.389335202
 20
250.3953909645
 30
0.0
 10
76.3887233533
 20
250.391535224
 30
0.0
 10
76.3887731792
 20
250.3808698987
 30
0.0
 10
76.3886988193
 20
250.364360438
 30
0.0
 10
76.3891631393
 20
250.3405452619
 30
0.0
 10
76.3898764554
 20
250.3103685428
 30
0.0
 10
76.390965971
 20
250.2735437419
 30
0.0
 10
76.3923853247
 20
250.2302935455
 30
0.0
 10
76.3948860273
 20
250.1599587427
 30
0.0
 10
76.3988836996
 20
250.0567289795
 30
0.0
 10
76.4047357673
 20
249.9151591771
 30
0.0
 10
76.4118403412
 20
249.7509675706
 30
0.0
 10
76.4201356105
 20
249.5656204071
 30
0.0
 10
76.4295498387
 20
249.3607589521
 30
0.0
 10
76.4439527967
 20
249.054090176
 30
0.0
 10
76.4640868866
 20
248.6371058519
 30
0.0
 10
76.4903947024
 20
248.1072274433
 30
0.0
 10
76.509013933
 20
247.7411282813
 30
0.0
 10
76.5186466761
 20
247.5538249434
 30
0.0
  0
ARC
  5
3D0
330
1B
100
AcDbEntity
 67
     1
  8
7_ALL_FEATURES
  6
Continuous
 62
     7
100
AcDbCircle
 10
138.3407784492
 20
277.8822783566
 30
0.0
 40
19.8361314625
100
AcDbArc
 50
267.3980772683
 51
267.6854380251
  0
SPLINE
  5
3D1
330
1B
100
AcDbEntity
 67
     1
  8
7_ALL_FEATURES
  6
Continuous
 62
     7
100
AcDbSpline
 70
     0
 71
     3
 72
    17
 73
    13
 74
     0
 42
0.000000001
 43
0.0000001
 40
0.0
 40
0.0
 40
0.0
 40
0.0
 40
0.2001357932
 40
0.3893499511
 40
0.5614005859
 40
0.7107698931
 40
0.832567516
 40
0.9228176281
 40
0.9551798591
 40
0.9786986136
 40
0.9933961102
 40
1.0
 40
1.0
 40
1.0
 40
1.0
 10
137.5396815836
 20
258.0623299407
 30
0.0
 10
137.5931370546
 20
258.0601693259
 30
0.0
 10
137.6971473037
 20
258.056381515
 30
0.0
 10
137.8471669441
 20
258.0522491494
 30
0.0
 10
137.9836360015
 20
258.049884368
 30
0.0
 10
138.1021568023
 20
258.0493678036
 30
0.0
 10
138.1986594744
 20
258.0506309238
 30
0.0
 10
138.2641866642
 20
258.0533195126
 30
0.0
 10
138.3028088783
 20
258.0565375389
 30
0.0
 10
138.3220309822
 20
258.0593578524
 30
0.0
 10
138.3327373468
 20
258.06163594
 30
0.0
 10
138.3391401263
 20
258.0648342367
 30
0.0
 10
138.3392330698
 20
258.0665971011
 30
0.0
  0
LINE
  5
3D2
330
1B
100
AcDbEntity
 67
     1
  8
7_ALL_FEATURES
  6
Continuous
 62
     7
100
AcDbLine
 10
137.4402872824
 20
258.1076857416
 30
0.0
 11
137.440287278
 21
258.0665971011
 31
0.0
  0
SPLINE
  5
3D3
330
1B
100
AcDbEntity
 67
     1
  8
7_ALL_FEATURES
  6
Continuous
 62
     7
100
AcDbSpline
 70
     0
 71
     3
 72
    13
 73
     9
 74
     0
 42
0.000000001
 43
0.0000001
 40
0.0
 40
0.0
 40
0.0
 40
0.0
 40
0.3782548018
 40
0.7002501582
 40
0.8244439169
 40
0.917808517
 40
0.9769249029
 40
1.0
 40
1.0
 40
1.0
 40
1.0
 10
77.5698687798
 20
230.1349469369
 30
0.0
 10
77.557261761
 20
230.1343002862
 30
0.0
 10
77.5339679658
 20
230.1333609912
 30
0.0
 10
77.5062726732
 20
230.1327245493
 30
0.0
 10
77.4885380054
 20
230.1329602826
 30
0.0
 10
77.478811241
 20
230.1331174283
 30
0.0
 10
77.4739177867
 20
230.133975175
 30
0.0
 10
77.4701341521
 20
230.1341567923
 30
0.0
 10
77.4700042181
 20
230.1349158425
 30
0.0
  0
LINE
  5
3D4
330
1B
100
AcDbEntity
 67
     1
  8
7_ALL_FEATURES
  6
Continuous
 62
     7
100
AcDbLine
 10
77.4700042181
 20
230.1349158425
 30
0.0
 11
77.4167894836
 21
230.4457865909
 31
0.0
  0
LINE
  5
3D5
330
1B
100
AcDbEntity
 67
     1
  8
7_ALL_FEATURES
  6
Continuous
 62
     9
100
AcDbLine
 10
75.7197301829
 20
247.5124876334
 30
0.0
 11
76.5186466761
 21
247.5538249434
 31
0.0
  0
LINE
  5
3D6
330
1B
100
AcDbEntity
 67
     1
  8
7_ALL_FEATURES
  6
Continuous
 62
     7
100
AcDbLine
 10
76.5186466761
 20
247.5538249434
 30
0.0
 11
77.2367498715
 21
233.5907072543
 31
0.0
  0
LINE
  5
3D7
330
1B
100
AcDbEntity
 67
     1
  8
7_ALL_FEATURES
  6
Continuous
 62
     7
100
AcDbLine
 10
103.2402872824
 20
221.2689728827
 30
0.0
 11
111.2402872824
 21
221.2689728827
 31
0.0
  0
LINE
  5
3D8
330
1B
100
AcDbEntity
 67
     1
  8
7_ALL_FEATURES
  6
Continuous
 62
     9
100
AcDbLine
 10
77.0402872823
 20
258.0665971861
 30
0.0
 11
78.8381741567
 21
223.1076857416
 31
0.0
  0
LINE
  5
3D9
330
1B
100
AcDbEntity
 67
     1
  8
7_ALL_FEATURES
  6
Continuous
 62
     7
100
AcDbLine
 10
76.5415746608
 20
248.1176045732
 30
0.0
 11
76.54670032
 21
248.0876614097
 31
0.0
  0
LINE
  5
3DA
330
1B
100
AcDbEntity
 67
     1
  8
7_ALL_FEATURES
  6
Continuous
 62
     7
100
AcDbLine
 10
137.440287278
 20
258.0665970996
 30
0.0
 11
77.0402872823
 21
258.0665971861
 31
0.0
  0
LINE
  5
3DB
330
1B
100
AcDbEntity
 67
     1
  8
7_ALL_FEATURES
  6
Continuous
 62
     9
100
AcDbLine
 10
135.6424004081
 20
223.1076857416
 30
0.0
 11
137.440287278
 21
258.0665970996
 31
0.0
  0
SPLINE
  5
3DC
330
1B
100
AcDbEntity
 67
     1
  8
7_ALL_FEATURES
  6
Continuous
 62
     7
100
AcDbSpline
 70
     0
 71
     3
 72
    13
 73
     9
 74
     0
 42
0.000000001
 43
0.0000001
 40
0.0
 40
0.0
 40
0.0
 40
0.0
 40
0.3889148969
 40
0.7160905769
 40
0.8371150509
 40
0.9262057299
 40
0.9813677455
 40
1.0
 40
1.0
 40
1.0
 40
1.0
 10
76.6512992543
 20
248.0877682438
 30
0.0
 10
76.637478125
 20
248.0870297327
 30
0.0
 10
76.6121260682
 20
248.0859230045
 30
0.0
 10
76.581990136
 20
248.0853175505
 30
0.0
 10
76.5633668484
 20
248.0854755088
 30
0.0
 10
76.553063294
 20
248.0860148567
 30
0.0
 10
76.5488799094
 20
248.0863794496
 30
0.0
 10
76.5446339228
 20
248.0872341051
 30
0.0
 10
76.5449044908
 20
248.0878394837
 30
0.0
  0
SPLINE
  5
3DD
330
1B
100
AcDbEntity
 67
     1
  8
7_ALL_FEATURES
  6
Continuous
 62
     7
100
AcDbSpline
 70
     0
 71
     3
 72
    16
 73
    12
 74
     0
 42
0.000000001
 43
0.0000001
 40
0.0
 40
0.0
 40
0.0
 40
0.0
 40
0.3676200933
 40
0.5365264591
 40
0.6867191207
 40
0.8123988692
 40
0.9087578247
 40
0.9447528021
 40
0.9721414945
 40
0.9906257439
 40
1.0
 40
1.0
 40
1.0
 40
1.0
 10
77.2367498715
 20
233.5907072543
 30
0.0
 10
77.25657562
 20
233.2052065899
 30
0.0
 10
77.2861416035
 20
232.6426159855
 30
0.0
 10
77.3254168789
 20
231.9226148141
 30
0.0
 10
77.3515709377
 20
231.4563174971
 30
0.0
 10
77.3743076075
 20
231.0661306231
 30
0.0
 10
77.390784489
 20
230.7956816124
 30
0.0
 10
77.4018937538
 20
230.6283265649
 30
0.0
 10
77.4078037229
 20
230.5425469295
 30
0.0
 10
77.4126938375
 20
230.4847776874
 30
0.0
 10
77.4151004659
 20
230.4555752933
 30
0.0
 10
77.4167742726
 20
230.4458754509
 30
0.0
  0
LINE
  5
3DE
330
1B
100
AcDbEntity
 67
     1
  8
7_ALL_FEATURES
  6
Continuous
 62
     9
100
AcDbLine
 10
77.2367498715
 20
233.5907072543
 30
0.0
 11
76.4378333784
 21
233.5493699442
 31
0.0
  0
LINE
  5
3DF
330
1B
100
AcDbEntity
 67
     1
  8
7_ALL_FEATURES
  6
Continuous
 62
     7
100
AcDbLine
 10
111.7392314189
 20
223.1076857416
 30
0.0
 11
112.2291332074
 21
223.1076857416
 31
0.0
  0
LINE
  5
3E0
330
1B
100
AcDbEntity
 67
     1
  8
7_ALL_FEATURES
  6
Continuous
 62
     7
100
AcDbLine
 10
102.2493296304
 20
223.1076857416
 30
0.0
 11
102.7392314189
 21
223.1076857416
 31
0.0
  0
SPLINE
  5
3E1
330
1B
100
AcDbEntity
 67
     1
  8
7_ALL_FEATURES
  6
Continuous
 62
     7
100
AcDbSpline
 70
     0
 71
     3
 72
     9
 73
     5
 74
     0
 42
0.000000001
 43
0.0000001
 40
0.0
 40
0.0
 40
0.0
 40
0.0
 40
0.2145427309
 40
1.0
 40
1.0
 40
1.0
 40
1.0
 10
102.2391598503
 20
191.5784826228
 30
0.0
 10
102.2391653762
 20
191.659240428
 30
0.0
 10
102.2403996633
 20
192.0356581833
 30
0.0
 10
102.2447948942
 20
192.4120600468
 30
0.0
 10
102.2493296304
 20
192.7076857416
 30
0.0
  0
SPLINE
  5
3E2
330
1B
100
AcDbEntity
 67
     1
  8
7_ALL_FEATURES
  6
Continuous
 62
     7
100
AcDbSpline
 70
     0
 71
     3
 72
     9
 73
     5
 74
     0
 42
0.000000001
 43
0.0000001
 40
0.0
 40
0.0
 40
0.0
 40
0.0
 40
0.2145427309
 40
1.0
 40
1.0
 40
1.0
 40
1.0
 10
112.2393029876
 20
222.6368888603
 30
0.0
 10
112.2392974616
 20
222.5561310551
 30
0.0
 10
112.2380631745
 20
222.1797132998
 30
0.0
 10
112.2336679437
 20
221.8033114363
 30
0.0
 10
112.2291332074
 20
221.5076857416
 30
0.0
  0
LINE
  5
3E3
330
1B
100
AcDbEntity
 67
     1
  8
7_ALL_FEATURES
  6
Continuous
 62
     7
100
AcDbLine
 10
102.7392314189
 20
221.6076857416
 30
0.0
 11
102.570641001
 21
221.6076857416
 31
0.0
  0
LINE
  5
3E4
330
1B
100
AcDbEntity
 67
     1
  8
7_ALL_FEATURES
  6
Continuous
 62
     7
100
AcDbLine
 10
102.570641001
 20
221.6076857416
 30
0.0
 11
102.2493296304
 21
221.6076857416
 31
0.0
  0
LINE
  5
3E5
330
1B
100
AcDbEntity
 67
     1
  8
7_ALL_FEATURES
  6
Continuous
 62
     7
100
AcDbLine
 10
112.2291332075
 20
221.6076857416
 30
0.0
 11
112.1657217005
 21
221.6076857416
 31
0.0
  0
LINE
  5
3E6
330
1B
100
AcDbEntity
 67
     1
  8
7_ALL_FEATURES
  6
Continuous
 62
     7
100
AcDbLine
 10
112.1657217005
 20
221.6076857416
 30
0.0
 11
111.8991213492
 21
221.6076857416
 31
0.0
  0
LINE
  5
3E7
330
1B
100
AcDbEntity
 67
     1
  8
7_ALL_FEATURES
  6
Continuous
 62
     7
100
AcDbLine
 10
111.8991213492
 20
221.6076857416
 30
0.0
 11
111.7392314189
 21
221.6076857416
 31
0.0
  0
ARC
  5
3E8
330
1B
100
AcDbEntity
 67
     1
  8
7_ALL_FEATURES
  6
Continuous
 62
     7
100
AcDbCircle
 10
155.6392314189
 20
221.5076857416
 30
0.0
 40
1.6
100
AcDbArc
 50
0.0
 51
90.0
  0
LINE
  5
3E9
330
1B
100
AcDbEntity
 67
     1
  8
7_ALL_FEATURES
  6
Continuous
 62
     7
100
AcDbLine
 10
58.742059846
 20
191.1076857416
 30
0.0
 11
102.2493296304
 21
191.1076857416
 31
0.0
  0
SPLINE
  5
3EA
330
1B
100
AcDbEntity
 67
     1
  8
7_ALL_FEATURES
  6
Continuous
 62
     7
100
AcDbSpline
 70
     0
 71
     3
 72
     9
 73
     5
 74
     0
 42
0.000000001
 43
0.0000001
 40
0.0
 40
0.0
 40
0.0
 40
0.0
 40
0.2757167815
 40
1.0
 40
1.0
 40
1.0
 40
1.0
 10
112.2291477996
 20
192.7076859653
 30
0.0
 10
112.2307377109
 20
192.6039757886
 30
0.0
 10
112.2358956256
 20
192.2278206381
 30
0.0
 10
112.2392842566
 20
191.8516308963
 30
0.0
 10
112.2393029867
 20
191.5791615667
 30
0.0
  0
LINE
  5
3EB
330
1B
100
AcDbEntity
 67
     1
  8
7_ALL_FEATURES
  6
Continuous
 62
     7
100
AcDbLine
 10
112.2291332075
 20
191.1076857416
 30
0.0
 11
155.7364029918
 21
191.1076857416
 31
0.0
  0
SPLINE
  5
3EC
330
1B
100
AcDbEntity
 67
     1
  8
7_ALL_FEATURES
  6
Continuous
 62
     7
100
AcDbSpline
 70
     0
 71
     3
 72
     9
 73
     5
 74
     0
 42
0.000000001
 43
0.0000001
 40
0.0
 40
0.0
 40
0.0
 40
0.0
 40
0.2757167815
 40
1.0
 40
1.0
 40
1.0
 40
1.0
 10
102.2493150383
 20
221.5076855179
 30
0.0
 10
102.247725127
 20
221.6113956945
 30
0.0
 10
102.2425672122
 20
221.987550845
 30
0.0
 10
102.2391785813
 20
222.3637405868
 30
0.0
 10
102.2391598512
 20
222.6362099164
 30
0.0
  0
LINE
  5
3ED
330
1B
100
AcDbEntity
 67
     1
  8
7_ALL_FEATURES
  6
Continuous
 62
     7
100
AcDbLine
 10
102.2493296304
 20
223.1076857416
 30
0.0
 11
58.8392314189
 21
223.1076857416
 31
0.0
  0
SPLINE
  5
3EE
330
1B
100
AcDbEntity
 67
     1
  8
7_ALL_FEATURES
  6
Continuous
 62
     7
100
AcDbSpline
 70
     0
 71
     3
 72
    18
 73
    14
 74
     0
 42
0.000000001
 43
0.0000001
 40
0.0
 40
0.0
 40
0.0
 40
0.0
 40
0.0061312836
 40
0.0207858465
 40
0.0444485521
 40
0.077060805
 40
0.1184543555
 40
0.1682321615
 40
0.2910101104
 40
0.4412868352
 40
0.6136506353
 40
0.8021136879
 40
1.0
 40
1.0
 40
1.0
 40
1.0
 10
58.8392314189
 20
223.1076857416
 30
0.0
 10
58.836163595
 20
223.1076857416
 30
0.0
 10
58.8310512049
 20
223.0950583592
 30
0.0
 10
58.826576682
 20
223.075939581
 30
0.0
 10
58.8207821786
 20
223.0394731
 30
0.0
 10
58.8153197917
 20
222.9915176291
 30
0.0
 10
58.8095897439
 20
222.9296118611
 30
0.0
 10
58.8014054856
 20
222.8229785343
 30
0.0
 10
58.7915388231
 20
222.6616745009
 30
0.0
 10
58.7802504101
 20
222.4391192316
 30
0.0
 10
58.7688762657
 20
222.1836281982
 30
0.0
 10
58.7574663272
 20
221.9043083714
 30
0.0
 10
58.7499377315
 20
221.7111421026
 30
0.0
 10
58.7461039027
 20
221.6122027697
 30
0.0
  0
LINE
  5
3EF
330
1B
100
AcDbEntity
 67
     1
  8
7_ALL_FEATURES
  6
Continuous
 62
     7
100
AcDbLine
 10
58.7461039027
 20
221.6122027697
 30
0.0
 11
58.742059846
 21
221.5076857416
 31
0.0
  0
LINE
  5
3F0
330
1B
100
AcDbEntity
 67
     1
  8
7_ALL_FEATURES
  6
Continuous
 62
     7
100
AcDbLine
 10
58.7461340455
 20
221.6113448253
 30
0.0
 11
58.742059846
 21
221.5076857416
 31
0.0
  0
ARC
  5
3F1
330
1B
100
AcDbEntity
 67
     1
  8
7_ALL_FEATURES
  6
Continuous
 62
     7
100
AcDbCircle
 10
58.8392314189
 20
221.5076857416
 30
0.0
 40
1.6
100
AcDbArc
 50
90.0
 51
180.0
  0
LINE
  5
3F2
330
1B
100
AcDbEntity
 67
     1
  8
7_ALL_FEATURES
  6
Continuous
 62
     7
100
AcDbLine
 10
57.2392314189
 20
191.1076857416
 30
0.0
 11
58.7392314189
 21
191.1076857416
 31
0.0
  0
LINE
  5
3F3
330
1B
100
AcDbEntity
 67
     1
  8
7_ALL_FEATURES
  6
Continuous
 62
     7
100
AcDbLine
 10
57.2392314189
 20
191.1076857416
 30
0.0
 11
57.2392314189
 21
193.1076857416
 31
0.0
  0
LINE
  5
3F4
330
1B
100
AcDbEntity
 67
     1
  8
7_ALL_FEATURES
  6
Continuous
 62
     7
100
AcDbLine
 10
57.2392314189
 20
221.5076857416
 30
0.0
 11
57.2392314189
 21
193.1076857416
 31
0.0
  0
LINE
  5
3F5
330
1B
100
AcDbEntity
 67
     1
  8
7_ALL_FEATURES
  6
Continuous
 62
     7
100
AcDbLine
 10
157.2392314189
 20
193.1076857416
 30
0.0
 11
157.2392314189
 21
191.1076857416
 31
0.0
  0
LINE
  5
3F6
330
1B
100
AcDbEntity
 67
     1
  8
7_ALL_FEATURES
  6
Continuous
 62
     7
100
AcDbLine
 10
157.2392314189
 20
193.1076857416
 30
0.0
 11
157.2392314189
 21
221.5076857416
 31
0.0
  0
LINE
  5
3F7
330
1B
100
AcDbEntity
 67
     1
  8
7_ALL_FEATURES
  6
Continuous
 62
     7
100
AcDbLine
 10
111.7392314189
 20
223.1076857416
 30
0.0
 11
102.7392314189
 21
223.1076857416
 31
0.0
  0
LINE
  5
3F8
330
1B
100
AcDbEntity
 67
     1
  8
7_ALL_FEATURES
  6
Continuous
 62
     7
100
AcDbLine
 10
102.7392314189
 20
221.6076857416
 30
0.0
 11
111.7392314189
 21
221.6076857416
 31
0.0
  0
LINE
  5
3F9
330
1B
100
AcDbEntity
 67
     1
  8
7_ALL_FEATURES
  6
Continuous
 62
     7
100
AcDbLine
 10
155.7392314189
 20
191.1076857416
 30
0.0
 11
157.2392314189
 21
191.1076857416
 31
0.0
  0
LINE
  5
3FA
330
1B
100
AcDbEntity
 67
     1
  8
7_ALL_FEATURES
  6
Continuous
 62
     7
100
AcDbLine
 10
155.7364029918
 20
221.5076857416
 30
0.0
 11
155.7323589403
 21
221.6122026755
 31
0.0
  0
LINE
  5
3FB
330
1B
100
AcDbEntity
 67
     1
  8
7_ALL_FEATURES
  6
Continuous
 62
     7
100
AcDbLine
 10
155.7364029918
 20
221.5076857416
 30
0.0
 11
155.7323288031
 21
221.6113448164
 31
0.0
  0
SPLINE
  5
3FC
330
1B
100
AcDbEntity
 67
     1
  8
7_ALL_FEATURES
  6
Continuous
 62
     7
100
AcDbSpline
 70
     0
 71
     3
 72
    18
 73
    14
 74
     0
 42
0.000000001
 43
0.0000001
 40
0.0
 40
0.0
 40
0.0
 40
0.0
 40
0.1978863087
 40
0.3863493586
 40
0.5587131591
 40
0.7089898851
 40
0.8317678354
 40
0.8815456422
 40
0.9229391933
 40
0.9555514467
 40
0.9792141526
 40
0.9938687157
 40
1.0
 40
1.0
 40
1.0
 40
1.0
 10
155.7323589403
 20
221.6122026755
 30
0.0
 10
155.7285251121
 20
221.711142013
 30
0.0
 10
155.7209965147
 20
221.9043082909
 30
0.0
 10
155.7095865748
 20
222.1836281325
 30
0.0
 10
155.6982124302
 20
222.4391191816
 30
0.0
 10
155.6869240167
 20
222.6616744666
 30
0.0
 10
155.6770573537
 20
222.8229785118
 30
0.0
 10
155.6688730952
 20
222.9296118469
 30
0.0
 10
155.6631430469
 20
222.9915176196
 30
0.0
 10
155.6576806607
 20
223.0394730947
 30
0.0
 10
155.6518861574
 20
223.075939578
 30
0.0
 10
155.6474116358
 20
223.0950583593
 30
0.0
 10
155.6422992434
 20
223.1076857416
 30
0.0
 10
155.6392314189
 20
223.1076857416
 30
0.0
  0
LINE
  5
3FD
330
1B
100
AcDbEntity
 67
     1
  8
7_ALL_FEATURES
  6
Continuous
 62
     7
100
AcDbLine
 10
155.6392314189
 20
223.1076857416
 30
0.0
 11
112.2291332074
 21
223.1076857416
 31
0.0
  0
LINE
  5
3FE
330
1B
100
AcDbEntity
 67
     1
  8
7_ALL_FEATURES
  6
Continuous
 62
     7
100
AcDbLine
 10
120.4653419583
 20
208.5076857416
 30
0.0
 11
119.8618302005
 21
208.5076857416
 31
0.0
  0
ARC
  5
3FF
330
1B
100
AcDbEntity
 67
     1
  8
7_ALL_FEATURES
  6
Continuous
 62
     7
100
AcDbCircle
 10
107.2392314189
 20
207.1076857416
 30
0.0
 40
12.7
100
AcDbArc
 50
6.3289328187
 51
173.6710671813
  0
LINE
  5
400
330
1B
100
AcDbEntity
 67
     1
  8
7_ALL_FEATURES
  6
Continuous
 62
     7
100
AcDbLine
 10
94.6166326374
 20
208.5076857416
 30
0.0
 11
94.0131208795
 21
208.5076857416
 31
0.0
  0
ARC
  5
401
330
1B
100
AcDbEntity
 67
     1
  8
7_ALL_FEATURES
  6
Continuous
 62
     7
100
AcDbCircle
 10
107.2392314189
 20
207.1076857416
 30
0.0
 40
13.3
100
AcDbArc
 50
6.0423284191
 51
173.9576715809
  0
ARC
  5
402
330
1B
100
AcDbEntity
 67
     1
  8
7_ALL_FEATURES
  6
Continuous
 62
     7
100
AcDbCircle
 10
107.2392314189
 20
207.1076857416
 30
0.0
 40
13.3
100
AcDbArc
 50
270.0
 51
353.9576715809
  0
LINE
  5
403
330
1B
100
AcDbEntity
 67
     1
  8
7_ALL_FEATURES
  6
Continuous
 62
     7
100
AcDbLine
 10
155.7364029918
 20
192.7076857416
 30
0.0
 11
155.7364029918
 21
192.6076857416
 31
0.0
  0
LINE
  5
404
330
1B
100
AcDbEntity
 67
     1
  8
7_ALL_FEATURES
  6
Continuous
 62
     7
100
AcDbLine
 10
155.7364029918
 20
192.6076857416
 30
0.0
 11
155.7364029918
 21
191.1076857416
 31
0.0
  0
ARC
  5
405
330
1B
100
AcDbEntity
 67
     1
  8
7_ALL_FEATURES
  6
Continuous
 62
     7
100
AcDbCircle
 10
107.2392314189
 20
207.1076857416
 30
0.0
 40
13.3
100
AcDbArc
 50
186.0423284191
 51
270.0
  0
LINE
  5
406
330
1B
100
AcDbEntity
 67
     1
  8
7_ALL_FEATURES
  6
Continuous
 62
     7
100
AcDbLine
 10
94.0131208795
 20
205.7076857416
 30
0.0
 11
94.6166326374
 21
205.7076857416
 31
0.0
  0
ARC
  5
407
330
1B
100
AcDbEntity
 67
     1
  8
7_ALL_FEATURES
  6
Continuous
 62
     7
100
AcDbCircle
 10
107.2392314189
 20
207.1076857416
 30
0.0
 40
12.7
100
AcDbArc
 50
186.3289328187
 51
270.0
  0
LINE
  5
408
330
1B
100
AcDbEntity
 67
     1
  8
7_ALL_FEATURES
  6
Continuous
 62
     7
100
AcDbLine
 10
102.7392314189
 20
191.1076857416
 30
0.0
 11
102.2493296304
 21
191.1076857416
 31
0.0
  0
LINE
  5
409
330
1B
100
AcDbEntity
 67
     1
  8
7_ALL_FEATURES
  6
Continuous
 62
     7
100
AcDbLine
 10
111.7392314189
 20
191.1076857416
 30
0.0
 11
102.7392314189
 21
191.1076857416
 31
0.0
  0
LINE
  5
40A
330
1B
100
AcDbEntity
 67
     1
  8
7_ALL_FEATURES
  6
Continuous
 62
     7
100
AcDbLine
 10
112.2291332075
 20
191.1076857416
 30
0.0
 11
111.7392314189
 21
191.1076857416
 31
0.0
  0
ARC
  5
40B
330
1B
100
AcDbEntity
 67
     1
  8
7_ALL_FEATURES
  6
Continuous
 62
     7
100
AcDbCircle
 10
107.2392314189
 20
207.1076857416
 30
0.0
 40
12.7
100
AcDbArc
 50
270.0
 51
353.6710671813
  0
LINE
  5
40C
330
1B
100
AcDbEntity
 67
     1
  8
7_ALL_FEATURES
  6
Continuous
 62
     7
100
AcDbLine
 10
119.8618302005
 20
205.7076857416
 30
0.0
 11
120.4653419583
 21
205.7076857416
 31
0.0
  0
ARC
  5
40D
330
1B
100
AcDbEntity
 67
     1
  8
7_ALL_FEATURES
  6
Continuous
 62
     7
100
AcDbCircle
 10
111.7392314189
 20
221.6076669278
 30
0.0
 40
0.5
100
AcDbArc
 50
270.0
 51
348.4652413175
  0
LINE
  5
40E
330
1B
100
AcDbEntity
 67
     1
  8
7_ALL_FEATURES
  6
Continuous
 62
     7
100
AcDbLine
 10
111.7392314189
 20
221.1076669278
 30
0.0
 11
102.7392314189
 21
221.1076669278
 31
0.0
  0
ARC
  5
40F
330
1B
100
AcDbEntity
 67
     1
  8
7_ALL_FEATURES
  6
Continuous
 62
     7
100
AcDbCircle
 10
102.7392314189
 20
221.6076669278
 30
0.0
 40
0.5
100
AcDbArc
 50
191.5347586825
 51
270.0
  0
ARC
  5
410
330
1B
100
AcDbEntity
 67
     1
  8
7_ALL_FEATURES
  6
Continuous
 62
     7
100
AcDbCircle
 10
102.7392314189
 20
192.6077045554
 30
0.0
 40
0.5
100
AcDbArc
 50
90.0
 51
168.4652413175
  0
LINE
  5
411
330
1B
100
AcDbEntity
 67
     1
  8
7_ALL_FEATURES
  6
Continuous
 62
     7
100
AcDbLine
 10
58.742059846
 20
192.7076857416
 30
0.0
 11
58.742059846
 21
221.5076857416
 31
0.0
  0
LINE
  5
412
330
1B
100
AcDbEntity
 67
     1
  8
7_ALL_FEATURES
  6
Continuous
 62
     7
100
AcDbLine
 10
58.742059846
 20
191.1076857416
 30
0.0
 11
58.742059846
 21
192.6076857416
 31
0.0
  0
LINE
  5
413
330
1B
100
AcDbEntity
 67
     1
  8
7_ALL_FEATURES
  6
Continuous
 62
     7
100
AcDbLine
 10
58.742059846
 20
192.6076857416
 30
0.0
 11
58.742059846
 21
192.7076857416
 31
0.0
  0
LINE
  5
414
330
1B
100
AcDbEntity
 67
     1
  8
7_ALL_FEATURES
  6
Continuous
 62
     7
100
AcDbLine
 10
102.7392314189
 20
193.1077045554
 30
0.0
 11
111.7392314189
 21
193.1077045554
 31
0.0
  0
ARC
  5
415
330
1B
100
AcDbEntity
 67
     1
  8
7_ALL_FEATURES
  6
Continuous
 62
     7
100
AcDbCircle
 10
111.7392314189
 20
192.6077045554
 30
0.0
 40
0.5
100
AcDbArc
 50
11.5347586825
 51
90.0
  0
LINE
  5
416
330
1B
100
AcDbEntity
 67
     1
  8
7_ALL_FEATURES
  6
Continuous
 62
     7
100
AcDbLine
 10
155.7364029918
 20
192.7076857416
 30
0.0
 11
155.7364029918
 21
221.5076857416
 31
0.0
  0
LINE
  5
417
330
1B
100
AcDbEntity
 67
     1
  8
7_ALL_FEATURES
  6
Continuous
 62
     7
100
AcDbLine
 10
111.7392314189
 20
192.6076857416
 30
0.0
 11
111.9078218368
 21
192.6076857416
 31
0.0
  0
LINE
  5
418
330
1B
100
AcDbEntity
 67
     1
  8
7_ALL_FEATURES
  6
Continuous
 62
     7
100
AcDbLine
 10
111.9078218368
 20
192.6076857416
 30
0.0
 11
112.2291332075
 21
192.6076857416
 31
0.0
  0
LINE
  5
419
330
1B
100
AcDbEntity
 67
     1
  8
7_ALL_FEATURES
  6
Continuous
 62
     7
100
AcDbLine
 10
102.7392314189
 20
192.6076857416
 30
0.0
 11
111.7392314189
 21
192.6076857416
 31
0.0
  0
LINE
  5
41A
330
1B
100
AcDbEntity
 67
     1
  8
7_ALL_FEATURES
  6
Continuous
 62
     7
100
AcDbLine
 10
102.2493296304
 20
192.6076857416
 30
0.0
 11
102.3127411374
 21
192.6076857416
 31
0.0
  0
LINE
  5
41B
330
1B
100
AcDbEntity
 67
     1
  8
7_ALL_FEATURES
  6
Continuous
 62
     7
100
AcDbLine
 10
102.3127411374
 20
192.6076857416
 30
0.0
 11
102.5793414887
 21
192.6076857416
 31
0.0
  0
LINE
  5
41C
330
1B
100
AcDbEntity
 67
     1
  8
7_ALL_FEATURES
  6
Continuous
 62
     7
100
AcDbLine
 10
102.5793414887
 20
192.6076857416
 30
0.0
 11
102.7392314189
 21
192.6076857416
 31
0.0
  0
SPLINE
  5
41D
330
1B
100
AcDbEntity
 67
     1
  8
7_ALL_FEATURES
  6
Continuous
 62
     7
100
AcDbSpline
 70
     0
 71
     3
 72
    17
 73
    13
 74
     0
 42
0.000000001
 43
0.0000001
 40
0.0
 40
0.0
 40
0.0
 40
0.0
 40
0.0048355654
 40
0.0174471102
 40
0.0381223251
 40
0.0668404937
 40
0.1481550711
 40
0.2608230861
 40
0.4040284419
 40
0.5761622501
 40
0.7754212193
 40
1.0
 40
1.0
 40
1.0
 40
1.0
 10
112.2291477996
 20
223.1076855177
 30
0.0
 10
112.2299076191
 20
223.1076878305
 30
0.0
 10
112.2307069471
 20
223.1039576994
 30
0.0
 10
112.2316991371
 20
223.0990180709
 30
0.0
 10
112.2326475913
 20
223.088782797
 30
0.0
 10
112.23407911
 20
223.0686143537
 30
0.0
 10
112.235499203
 20
223.033407876
 30
0.0
 10
112.23688239
 20
222.9805559795
 30
0.0
 10
112.2379597319
 20
222.9132663277
 30
0.0
 10
112.2387465686
 20
222.8324253964
 30
0.0
 10
112.2392149544
 20
222.7387746903
 30
0.0
 10
112.2393054022
 20
222.672177417
 30
0.0
 10
112.2393029876
 20
222.6368888603
 30
0.0
  0
LINE
  5
41E
330
1B
100
AcDbEntity
 67
     1
  8
7_ALL_FEATURES
  6
Continuous
 62
     9
100
AcDbLine
 10
112.2291332075
 20
221.5076857416
 30
0.0
 11
155.7364029918
 21
221.5076857416
 31
0.0
  0
LINE
  5
41F
330
1B
100
AcDbEntity
 67
     1
  8
7_ALL_FEATURES
  6
Continuous
 62
     9
100
AcDbLine
 10
157.2392314189
 20
193.1076857416
 30
0.0
 11
155.7392314189
 21
193.1076857416
 31
0.0
  0
LINE
  5
420
330
1B
100
AcDbEntity
 67
     1
  8
7_ALL_FEATURES
  6
Continuous
 62
     9
100
AcDbLine
 10
155.7364029918
 20
192.7076857416
 30
0.0
 11
112.2291332075
 21
192.7076857416
 31
0.0
  0
SPLINE
  5
421
330
1B
100
AcDbEntity
 67
     1
  8
7_ALL_FEATURES
  6
Continuous
 62
     7
100
AcDbSpline
 70
     0
 71
     3
 72
    17
 73
    13
 74
     0
 42
0.000000001
 43
0.0000001
 40
0.0
 40
0.0
 40
0.0
 40
0.0
 40
0.2245649302
 40
0.42381775
 40
0.5959515445
 40
0.7391614561
 40
0.8518354851
 40
0.9331550317
 40
0.961875122
 40
0.9825517889
 40
0.9951642343
 40
1.0
 40
1.0
 40
1.0
 40
1.0
 10
112.2393029867
 20
191.5791615667
 30
0.0
 10
112.2393054158
 20
191.5438242902
 30
0.0
 10
112.2392148354
 20
191.4771341059
 30
0.0
 10
112.2387457337
 20
191.3833514698
 30
0.0
 10
112.2379576982
 20
191.3023941907
 30
0.0
 10
112.2368787631
 20
191.2350058155
 30
0.0
 10
112.2354935438
 20
191.1820752607
 30
0.0
 10
112.2340714272
 20
191.146815927
 30
0.0
 10
112.2326378201
 20
191.1266171376
 30
0.0
 10
112.2316881183
 20
191.1163663153
 30
0.0
 10
112.2306943922
 20
191.1114193408
 30
0.0
 10
112.2298941544
 20
191.1076834337
 30
0.0
 10
112.2291332074
 20
191.1076857416
 30
0.0
  0
LINE
  5
422
330
1B
100
AcDbEntity
 67
     1
  8
7_ALL_FEATURES
  6
Continuous
 62
     7
100
AcDbLine
 10
155.7392314189
 20
221.5076857416
 30
0.0
 11
157.2392314189
 21
221.5076857416
 31
0.0
  0
SPLINE
  5
423
330
1B
100
AcDbEntity
 67
     1
  8
7_ALL_FEATURES
  6
Continuous
 62
     7
100
AcDbSpline
 70
     0
 71
     3
 72
    17
 73
    13
 74
     0
 42
0.000000001
 43
0.0000001
 40
0.0
 40
0.0
 40
0.0
 40
0.0
 40
0.0048355654
 40
0.0174471102
 40
0.0381223251
 40
0.0668404937
 40
0.1481550711
 40
0.2608230861
 40
0.4040284419
 40
0.5761622501
 40
0.7754212193
 40
1.0
 40
1.0
 40
1.0
 40
1.0
 10
102.2493150383
 20
191.1076859655
 30
0.0
 10
102.2485552188
 20
191.1076836527
 30
0.0
 10
102.2477558907
 20
191.1114137837
 30
0.0
 10
102.2467637008
 20
191.1163534122
 30
0.0
 10
102.2458152466
 20
191.1265886861
 30
0.0
 10
102.2443837278
 20
191.1467571294
 30
0.0
 10
102.2429636348
 20
191.1819636071
 30
0.0
 10
102.2415804479
 20
191.2348155036
 30
0.0
 10
102.240503106
 20
191.3021051555
 30
0.0
 10
102.2397162693
 20
191.3829460868
 30
0.0
 10
102.2392478835
 20
191.4765967928
 30
0.0
 10
102.2391574356
 20
191.5431940662
 30
0.0
 10
102.2391598503
 20
191.5784826228
 30
0.0
  0
LINE
  5
424
330
1B
100
AcDbEntity
 67
     1
  8
7_ALL_FEATURES
  6
Continuous
 62
     9
100
AcDbLine
 10
58.742059846
 20
221.5076857416
 30
0.0
 11
102.2493296304
 21
221.5076857416
 31
0.0
  0
LINE
  5
425
330
1B
100
AcDbEntity
 67
     1
  8
7_ALL_FEATURES
  6
Continuous
 62
     9
100
AcDbLine
 10
102.2493296304
 20
192.7076857416
 30
0.0
 11
58.742059846
 21
192.7076857416
 31
0.0
  0
LINE
  5
426
330
1B
100
AcDbEntity
 67
     1
  8
7_ALL_FEATURES
  6
Continuous
 62
     7
100
AcDbLine
 10
57.2392314189
 20
221.5076857416
 30
0.0
 11
58.7392314189
 21
221.5076857416
 31
0.0
  0
LINE
  5
427
330
1B
100
AcDbEntity
 67
     1
  8
7_ALL_FEATURES
  6
Continuous
 62
     9
100
AcDbLine
 10
111.7392314189
 20
192.6076857416
 30
0.0
 11
111.7392314189
 21
191.1076857416
 31
0.0
  0
LINE
  5
428
330
1B
100
AcDbEntity
 67
     1
  8
7_ALL_FEATURES
  6
Continuous
 62
     9
100
AcDbLine
 10
102.7392314189
 20
221.6076857416
 30
0.0
 11
102.7392314189
 21
223.1076857416
 31
0.0
  0
LINE
  5
429
330
1B
100
AcDbEntity
 67
     1
  8
7_ALL_FEATURES
  6
Continuous
 62
     9
100
AcDbLine
 10
102.7392314189
 20
191.1076857416
 30
0.0
 11
102.7392314189
 21
192.6076857416
 31
0.0
  0
SPLINE
  5
42A
330
1B
100
AcDbEntity
 67
     1
  8
7_ALL_FEATURES
  6
Continuous
 62
     7
100
AcDbSpline
 70
     0
 71
     3
 72
    17
 73
    13
 74
     0
 42
0.000000001
 43
0.0000001
 40
0.0
 40
0.0
 40
0.0
 40
0.0
 40
0.2245649302
 40
0.42381775
 40
0.5959515445
 40
0.7391614561
 40
0.8518354851
 40
0.9331550317
 40
0.961875122
 40
0.9825517889
 40
0.9951642343
 40
1.0
 40
1.0
 40
1.0
 40
1.0
 10
102.2391598512
 20
222.6362099164
 30
0.0
 10
102.239157422
 20
222.6715471929
 30
0.0
 10
102.2392480024
 20
222.7382373773
 30
0.0
 10
102.2397171041
 20
222.8320200134
 30
0.0
 10
102.2405051396
 20
222.9129772925
 30
0.0
 10
102.2415840747
 20
222.9803656676
 30
0.0
 10
102.2429692941
 20
223.0332962225
 30
0.0
 10
102.2443914107
 20
223.0685555561
 30
0.0
 10
102.2458250177
 20
223.0887543455
 30
0.0
 10
102.2467747195
 20
223.0990051679
 30
0.0
 10
102.2477684456
 20
223.1039521424
 30
0.0
 10
102.2485686834
 20
223.1076880494
 30
0.0
 10
102.2493296304
 20
223.1076857415
 30
0.0
  0
LINE
  5
42B
330
1B
100
AcDbEntity
 67
     1
  8
7_ALL_FEATURES
  6
Continuous
 62
     9
100
AcDbLine
 10
111.7392314189
 20
223.1076857416
 30
0.0
 11
111.7392314189
 21
221.6076857416
 31
0.0
  0
LINE
  5
42C
330
1B
100
AcDbEntity
 67
     1
  8
7_ALL_FEATURES
  6
Continuous
 62
     9
100
AcDbLine
 10
58.7392314189
 20
193.1076857416
 30
0.0
 11
57.2392314189
 21
193.1076857416
 31
0.0
  0
LINE
  5
42D
330
1B
100
AcDbEntity
 67
     1
  8
7_ALL_FEATURES
  6
Continuous
 62
     7
100
AcDbLine
 10
300.1043859026
 20
270.2076911574
 30
0.0
 11
300.0972760869
 21
270.3144912803
 31
0.0
  0
SPLINE
  5
42E
330
1B
100
AcDbEntity
 67
     1
  8
7_ALL_FEATURES
  6
Continuous
 62
     7
100
AcDbSpline
 70
     0
 71
     3
 72
    16
 73
    12
 74
     0
 42
0.000000001
 43
0.0000001
 40
0.0
 40
0.0
 40
0.0
 40
0.0
 40
0.1996857314
 40
0.388218984
 40
0.5596316176
 40
0.7084984643
 40
0.8299303386
 40
0.9201103126
 40
0.9764198432
 40
0.9918117149
 40
1.0
 40
1.0
 40
1.0
 40
1.0
 10
300.0972760869
 20
270.3144912803
 30
0.0
 10
300.0937147938
 20
270.367736868
 30
0.0
 10
300.0867192339
 20
270.4712510279
 30
0.0
 10
300.0760738499
 20
270.6204235733
 30
0.0
 10
300.0654570022
 20
270.7560062706
 30
0.0
 10
300.0549578507
 20
270.8735270209
 30
0.0
 10
300.0444785251
 20
270.969464279
 30
0.0
 10
300.0345946468
 20
271.0400018414
 30
0.0
 10
300.0252148282
 20
271.0830423665
 30
0.0
 10
300.017824537
 20
271.1024062622
 30
0.0
 10
300.0126699736
 20
271.1076857416
 30
0.0
 10
300.0104817143
 20
271.1076857416
 30
0.0
  0
LINE
  5
42F
330
1B
100
AcDbEntity
 67
     1
  8
7_ALL_FEATURES
  6
Continuous
 62
     7
100
AcDbLine
 10
300.9092483108
 20
270.160583381
 30
0.0
 11
300.2775827116
 21
258.1076857416
 31
0.0
  0
LINE
  5
430
330
1B
100
AcDbEntity
 67
     1
  8
7_ALL_FEATURES
  6
Continuous
 62
     7
100
AcDbLine
 10
240.640184973
 20
258.1076857416
 30
0.0
 11
240.0085193738
 21
270.160583381
 31
0.0
  0
LINE
  5
431
330
1B
100
AcDbEntity
 67
     1
  8
7_ALL_FEATURES
  6
Continuous
 62
     7
100
AcDbLine
 10
300.0104817295
 20
271.1076857416
 30
0.0
 11
240.907285955
 21
271.1076857416
 31
0.0
  0
SPLINE
  5
432
330
1B
100
AcDbEntity
 67
     1
  8
7_ALL_FEATURES
  6
Continuous
 62
     7
100
AcDbSpline
 70
     0
 71
     3
 72
    16
 73
    12
 74
     0
 42
0.000000001
 43
0.0000001
 40
0.0
 40
0.0
 40
0.0
 40
0.0
 40
0.0081884867
 40
0.0235803185
 40
0.0798897205
 40
0.1700695763
 40
0.2915013923
 40
0.4403681467
 40
0.6117807552
 40
0.8003140878
 40
1.0
 40
1.0
 40
1.0
 40
1.0
 10
240.907285955
 20
271.1076857416
 30
0.0
 10
240.9050976422
 20
271.1076857416
 30
0.0
 10
240.8999429024
 20
271.1024064208
 30
0.0
 10
240.8925527328
 20
271.0830423097
 30
0.0
 10
240.8831731635
 20
271.0400019789
 30
0.0
 10
240.8732891905
 20
270.9694644443
 30
0.0
 10
240.8628098175
 20
270.8735273124
 30
0.0
 10
240.852310666
 20
270.7560066167
 30
0.0
 10
240.8416939092
 20
270.6204239491
 30
0.0
 10
240.8310485443
 20
270.4712513636
 30
0.0
 10
240.8240527497
 20
270.3677371676
 30
0.0
 10
240.8204914032
 20
270.3144915439
 30
0.0
  0
LINE
  5
433
330
1B
100
AcDbEntity
 67
     1
  8
7_ALL_FEATURES
  6
Continuous
 62
     7
100
AcDbLine
 10
240.8204914032
 20
270.3144915439
 30
0.0
 11
240.8133811342
 21
270.2076839469
 31
0.0
  0
LINE
  5
434
330
1B
100
AcDbEntity
 67
     1
  8
7_ALL_FEATURES
  6
Continuous
 62
     7
100
AcDbLine
 10
299.4758506567
 20
258.1076857416
 30
0.0
 11
300.1075162559
 21
270.160583381
 31
0.0
  0
ARC
  5
435
330
1B
100
AcDbEntity
 67
     1
  8
7_ALL_FEATURES
  6
Continuous
 62
     7
100
AcDbCircle
 10
240.907285955
 20
270.2076857416
 30
0.0
 40
0.9
100
AcDbArc
 50
90.0
 51
183.0
  0
LINE
  5
436
330
1B
100
AcDbEntity
 67
     1
  8
7_ALL_FEATURES
  6
Continuous
 62
     7
100
AcDbLine
 10
240.8102514287
 20
270.160583381
 30
0.0
 11
241.4419170279
 21
258.1076857416
 31
0.0
  0
ARC
  5
437
330
1B
100
AcDbEntity
 67
     1
  8
7_ALL_FEATURES
  6
Continuous
 62
     7
100
AcDbCircle
 10
300.0104817295
 20
270.2076857416
 30
0.0
 40
0.9
100
AcDbArc
 50
356.9999999999999
 51
90.0
  0
LINE
  5
438
330
1B
100
AcDbEntity
 67
     1
  8
7_ALL_FEATURES
  6
Continuous
 62
     9
100
AcDbLine
 10
240.8102514287
 20
270.160583381
 30
0.0
 11
300.1075162559
 21
270.160583381
 31
0.0
  0
LINE
  5
439
330
1B
100
AcDbEntity
 67
     1
  8
7_ALL_FEATURES
  6
Continuous
 62
     7
100
AcDbLine
 10
300.1075162559
 20
270.160583381
 30
0.0
 11
300.1043864825
 21
270.2076912048
 31
0.0
  0
LINE
  5
43A
330
1B
100
AcDbEntity
 67
     1
  8
7_ALL_FEATURES
  6
Continuous
 62
     7
100
AcDbLine
 10
240.8133807075
 20
270.2076839841
 30
0.0
 11
240.8102514134
 21
270.160583381
 31
0.0
  0
LINE
  5
43B
330
1B
100
AcDbEntity
 67
     1
  8
7_ALL_FEATURES
  6
Continuous
 62
     7
100
AcDbLine
 10
240.0085193738
 20
270.160583381
 30
0.0
 11
240.8074230016
 21
270.2024521459
 31
0.0
  0
LINE
  5
43C
330
1B
100
AcDbEntity
 67
     1
  8
7_ALL_FEATURES
  6
Continuous
 62
     7
100
AcDbLine
 10
300.110344683
 20
270.2024521459
 30
0.0
 11
300.9092483108
 21
270.160583381
 31
0.0
  0
ARC
  5
43D
330
1B
100
AcDbEntity
 67
     1
  8
7_ALL_FEATURES
  6
Continuous
 62
     7
100
AcDbCircle
 10
239.763538686
 20
250.2405553548
 30
0.0
 40
17.1767708607
100
AcDbArc
 50
272.1584412482
 51
272.9376080938001
  0
SPLINE
  5
43E
330
1B
100
AcDbEntity
 67
     1
  8
7_ALL_FEATURES
  6
Continuous
 62
     7
100
AcDbSpline
 70
     0
 71
     3
 72
    16
 73
    12
 74
     0
 42
0.000000001
 43
0.0000001
 40
0.0
 40
0.0
 40
0.0
 40
0.0
 40
0.2068748238
 40
0.3987820544
 40
0.5707609337
 40
0.7181768497
 40
0.8371809899
 40
0.924680646
 40
0.9786408731
 40
0.9929621811
 40
1.0
 40
1.0
 40
1.0
 40
1.0
 10
240.4104673491
 20
233.0759714535
 30
0.0
 10
240.3644048232
 20
233.0742451231
 30
0.0
 10
240.27559539
 20
233.0713051141
 30
0.0
 10
240.1484604817
 20
233.0683581693
 30
0.0
 10
240.0345149368
 20
233.0670832174
 30
0.0
 10
239.9368983409
 20
233.0674299706
 30
0.0
 10
239.8578681481
 20
233.0695183684
 30
0.0
 10
239.8003584073
 20
233.072697348
 30
0.0
 10
239.7650859206
 20
233.0773727439
 30
0.0
 10
239.7496044237
 20
233.0814167224
 30
0.0
 10
239.7450003879
 20
233.0849092433
 30
0.0
 10
239.7450007545
 20
233.0864773766
 30
0.0
  0
LINE
  5
43F
330
1B
100
AcDbEntity
 67
     1
  8
7_ALL_FEATURES
  6
Continuous
 62
     7
100
AcDbLine
 10
274.4603041777
 20
221.4687089164
 30
0.0
 11
266.4603041777
 21
221.4687089164
 31
0.0
  0
LINE
  5
440
330
1B
100
AcDbEntity
 67
     1
  8
7_ALL_FEATURES
  6
Continuous
 62
     7
100
AcDbLine
 10
266.4603041777
 20
221.4687089164
 30
0.0
 11
266.4603041777
 21
221.2689728827
 31
0.0
  0
SPLINE
  5
441
330
1B
100
AcDbEntity
 67
     1
  8
7_ALL_FEATURES
  6
Continuous
 62
     7
100
AcDbSpline
 70
     0
 71
     3
 72
     9
 73
     5
 74
     0
 42
0.000000001
 43
0.0000001
 40
0.0
 40
0.0
 40
0.0
 40
0.0
 40
0.7464984453
 40
1.0
 40
1.0
 40
1.0
 40
1.0
 10
239.0268975593
 20
247.4039284368
 30
0.0
 10
239.0268972013
 20
247.4049317251
 30
0.0
 10
239.0272323371
 20
247.4058161553
 30
0.0
 10
239.0267598638
 20
247.4079310902
 30
0.0
 10
239.0271001207
 20
247.4079485429
 30
0.0
  0
LINE
  5
442
330
1B
100
AcDbEntity
 67
     1
  8
7_ALL_FEATURES
  6
Continuous
 62
     7
100
AcDbLine
 10
239.7450007545
 20
233.0864779392
 30
0.0
 11
239.026897559
 21
247.0495950726
 31
0.0
  0
LINE
  5
443
330
1B
100
AcDbEntity
 67
     1
  8
7_ALL_FEATURES
  6
Continuous
 62
     7
100
AcDbLine
 10
274.4603041777
 20
221.3100614382
 30
0.0
 11
266.4603041777
 21
221.3100614382
 31
0.0
  0
LINE
  5
444
330
1B
100
AcDbEntity
 67
     1
  8
7_ALL_FEATURES
  6
Continuous
 62
     7
100
AcDbLine
 10
274.4603041777
 20
221.2689728827
 30
0.0
 11
274.4603041777
 21
221.4687089164
 31
0.0
  0
LINE
  5
445
330
1B
100
AcDbEntity
 67
     1
  8
7_ALL_FEATURES
  6
Continuous
 62
     7
100
AcDbLine
 10
240.2603041777
 20
258.1076857416
 30
0.0
 11
240.2603041776
 21
258.0665971861
 31
0.0
  0
LINE
  5
446
330
1B
100
AcDbEntity
 67
     1
  8
7_ALL_FEATURES
  6
Continuous
 62
     7
100
AcDbLine
 10
239.0271001207
 20
247.4079485429
 30
0.0
 11
239.8260470353
 21
247.4489288527
 31
0.0
  0
SPLINE
  5
447
330
1B
100
AcDbEntity
 67
     1
  8
7_ALL_FEATURES
  6
Continuous
 62
     7
100
AcDbSpline
 70
     0
 71
     3
 72
     9
 73
     5
 74
     0
 42
0.000000001
 43
0.0000001
 40
0.0
 40
0.0
 40
0.0
 40
0.0
 40
0.6005271845
 40
1.0
 40
1.0
 40
1.0
 40
1.0
 10
239.925733068
 20
247.0905628893
 30
0.0
 10
239.9073189926
 20
247.0896181727
 30
0.0
 10
239.8766519416
 20
247.0885962878
 30
0.0
 10
239.8458943489
 20
247.0881140683
 30
0.0
 10
239.8336600537
 20
247.0889844696
 30
0.0
  0
SPLINE
  5
448
330
1B
100
AcDbEntity
 67
     1
  8
7_ALL_FEATURES
  6
Continuous
 62
     7
100
AcDbSpline
 70
     0
 71
     3
 72
     9
 73
     5
 74
     0
 42
0.000000001
 43
0.0000001
 40
0.0
 40
0.0
 40
0.0
 40
0.0
 40
0.7294301406
 40
1.0
 40
1.0
 40
1.0
 40
1.0
 10
239.8336600537
 20
247.0889844696
 30
0.0
 10
239.8317064623
 20
247.0891234567
 30
0.0
 10
239.8297740609
 20
247.0895126281
 30
0.0
 10
239.8258427153
 20
247.089848901
 30
0.0
 10
239.8258444737
 20
247.0905753824
 30
0.0
  0
LINE
  5
449
330
1B
100
AcDbEntity
 67
     1
  8
7_ALL_FEATURES
  6
Continuous
 62
     7
100
AcDbLine
 10
300.6603041777
 20
258.1076857416
 30
0.0
 11
300.746853645
 21
258.107680998
 31
0.0
  0
LINE
  5
44A
330
1B
100
AcDbEntity
 67
     1
  8
7_ALL_FEATURES
  6
Continuous
 62
     7
100
AcDbLine
 10
300.746853645
 20
258.107680998
 30
0.0
 11
300.7603041884
 21
258.1076856804
 31
0.0
  0
LINE
  5
44B
330
1B
100
AcDbEntity
 67
     1
  8
7_ALL_FEATURES
  6
Continuous
 62
     7
100
AcDbLine
 10
300.746853645
 20
258.107680998
 30
0.0
 11
300.7603041777
 21
258.1076857416
 31
0.0
  0
LINE
  5
44C
330
1B
100
AcDbEntity
 67
     1
  8
7_ALL_FEATURES
  6
Continuous
 62
     7
100
AcDbLine
 10
239.0268975593
 20
247.4039284368
 30
0.0
 11
239.026897559
 21
247.0495950726
 31
0.0
  0
LINE
  5
44D
330
1B
100
AcDbEntity
 67
     1
  8
7_ALL_FEATURES
  6
Continuous
 62
     7
100
AcDbLine
 10
240.2603041777
 20
258.1076857416
 30
0.0
 11
300.6603041777
 21
258.1076857416
 31
0.0
  0
LINE
  5
44E
330
1B
100
AcDbEntity
 67
     1
  8
7_ALL_FEATURES
  6
Continuous
 62
     7
100
AcDbLine
 10
239.9257345977
 20
247.0905629678
 30
0.0
 11
240.724791215
 21
247.1315489045
 31
0.0
  0
LINE
  5
44F
330
1B
100
AcDbEntity
 67
     1
  8
7_ALL_FEATURES
  6
Continuous
 62
     7
100
AcDbLine
 10
240.724791215
 20
247.1315489045
 30
0.0
 11
240.8239996645
 21
247.1366375942
 31
0.0
  0
LINE
  5
450
330
1B
100
AcDbEntity
 67
     1
  8
7_ALL_FEATURES
  6
Continuous
 62
     7
100
AcDbLine
 10
241.5431566375
 20
233.1324854009
 30
0.0
 11
241.592181073
 21
232.1782616077
 31
0.0
  0
LINE
  5
451
330
1B
100
AcDbEntity
 67
     1
  8
7_ALL_FEATURES
  6
Continuous
 62
     7
100
AcDbLine
 10
241.592181073
 20
232.1782616077
 30
0.0
 11
241.5944181721
 21
232.1347181564
 31
0.0
  0
LINE
  5
452
330
1B
100
AcDbEntity
 67
     1
  8
7_ALL_FEATURES
  6
Continuous
 62
     7
100
AcDbLine
 10
241.6992685013
 20
230.0938852956
 30
0.0
 11
242.058193202
 21
223.1076857416
 31
0.0
  0
LINE
  5
453
330
1B
100
AcDbEntity
 67
     1
  8
7_ALL_FEATURES
  6
Continuous
 62
     7
100
AcDbLine
 10
240.6438235443
 20
233.0863559922
 30
0.0
 11
241.5431566375
 21
233.1324854009
 31
0.0
  0
LINE
  5
454
330
1B
100
AcDbEntity
 67
     1
  8
7_ALL_FEATURES
  6
Continuous
 62
     7
100
AcDbLine
 10
240.2603041776
 20
258.0665971861
 30
0.0
 11
240.6686585145
 21
250.1337793714
 31
0.0
  0
LINE
  5
455
330
1B
100
AcDbEntity
 67
     1
  8
7_ALL_FEATURES
  6
Continuous
 62
     7
100
AcDbLine
 10
240.6686585145
 20
250.1337793714
 30
0.0
 11
240.6713148747
 21
250.0821760948
 31
0.0
  0
LINE
  5
456
330
1B
100
AcDbEntity
 67
     1
  8
7_ALL_FEATURES
  6
Continuous
 62
     7
100
AcDbLine
 10
240.7761062515
 20
248.0464663543
 30
0.0
 11
240.8250534412
 21
247.09560309
 31
0.0
  0
LINE
  5
457
330
1B
100
AcDbEntity
 67
     1
  8
7_ALL_FEATURES
  6
Continuous
 62
     7
100
AcDbLine
 10
275.9603041777
 20
219.1582123248
 30
0.0
 11
275.9603041777
 21
218.4923656517
 31
0.0
  0
LINE
  5
458
330
1B
100
AcDbEntity
 67
     1
  8
7_ALL_FEATURES
  6
Continuous
 62
     7
100
AcDbLine
 10
240.2603041799
 20
258.1076857416
 30
0.0
 11
240.1737543818
 21
258.1076873125
 31
0.0
  0
LINE
  5
459
330
1B
100
AcDbEntity
 67
     1
  8
7_ALL_FEATURES
  6
Continuous
 62
     7
100
AcDbLine
 10
246.7707510554
 20
250.3931244372
 30
0.0
 11
240.6723004154
 21
250.0822268271
 31
0.0
  0
SPLINE
  5
45A
330
1B
100
AcDbEntity
 67
     1
  8
7_ALL_FEATURES
  6
Continuous
 62
     7
100
AcDbSpline
 70
     0
 71
     3
 72
    13
 73
     9
 74
     0
 42
0.000000001
 43
0.0000001
 40
0.0
 40
0.0
 40
0.0
 40
0.0
 40
0.383022629
 40
0.7061145978
 40
0.8293519449
 40
0.9210160337
 40
0.97825143
 40
1.0
 40
1.0
 40
1.0
 40
1.0
 10
240.6723004154
 20
250.0822268271
 30
0.0
 10
240.659531439
 20
250.0815758676
 30
0.0
 10
240.6360455616
 20
250.0806327795
 30
0.0
 10
240.6081522058
 20
250.0800336547
 30
0.0
 10
240.5905028311
 20
250.0802821677
 30
0.0
 10
240.5808691115
 20
250.0805146127
 30
0.0
 10
240.5762314876
 20
250.081299776
 30
0.0
 10
240.5724784068
 20
250.0816146727
 30
0.0
 10
240.5724411198
 20
250.0823396967
 30
0.0
  0
LINE
  5
45B
330
1B
100
AcDbEntity
 67
     1
  8
7_ALL_FEATURES
  6
Continuous
 62
     7
100
AcDbLine
 10
264.9603041777
 20
218.4938643805
 30
0.0
 11
264.9603041777
 21
219.1638140476
 31
0.0
  0
LINE
  5
45C
330
1B
100
AcDbEntity
 67
     1
  8
7_ALL_FEATURES
  6
Continuous
 62
     7
100
AcDbLine
 10
301.5592483125
 20
258.0665971861
 30
0.0
 11
300.7603041777
 21
258.1076857416
 31
0.0
  0
LINE
  5
45D
330
1B
100
AcDbEntity
 67
     1
  8
7_ALL_FEATURES
  6
Continuous
 62
     7
100
AcDbLine
 10
239.3613600428
 20
258.0665971861
 30
0.0
 11
240.1603041777
 21
258.1076857416
 31
0.0
  0
LINE
  5
45E
330
1B
100
AcDbEntity
 67
     1
  8
7_ALL_FEATURES
  6
Continuous
 62
     7
100
AcDbLine
 10
301.5592483125
 20
258.0665971861
 30
0.0
 11
299.7613614383
 21
223.1076857416
 31
0.0
  0
LINE
  5
45F
330
1B
100
AcDbEntity
 67
     1
  8
7_ALL_FEATURES
  6
Continuous
 62
     7
100
AcDbLine
 10
239.8766732663
 20
248.0466178407
 30
0.0
 11
239.7740963307
 21
250.0411693659
 31
0.0
  0
LINE
  5
460
330
1B
100
AcDbEntity
 67
     1
  8
7_ALL_FEATURES
  6
Continuous
 62
     7
100
AcDbLine
 10
239.7740963307
 20
250.0411693659
 30
0.0
 11
239.7717033402
 21
250.087699737
 31
0.0
  0
LINE
  5
461
330
1B
100
AcDbEntity
 67
     1
  8
7_ALL_FEATURES
  6
Continuous
 62
     7
100
AcDbLine
 10
239.7717033402
 20
250.087699737
 30
0.0
 11
239.3613600428
 21
258.0665971861
 31
0.0
  0
LINE
  5
462
330
1B
100
AcDbEntity
 67
     1
  8
7_ALL_FEATURES
  6
Continuous
 62
     7
100
AcDbLine
 10
241.1592469172
 20
223.1076857416
 30
0.0
 11
240.7999580385
 21
230.0938583814
 31
0.0
  0
LINE
  5
463
330
1B
100
AcDbEntity
 67
     1
  8
7_ALL_FEATURES
  6
Continuous
 62
     7
100
AcDbLine
 10
240.7999580385
 20
230.0938583814
 30
0.0
 11
240.6973718677
 21
232.0885894798
 31
0.0
  0
LINE
  5
464
330
1B
100
AcDbEntity
 67
     1
  8
7_ALL_FEATURES
  6
Continuous
 62
     7
100
AcDbLine
 10
240.6973718677
 20
232.0885894798
 30
0.0
 11
240.6951324963
 21
232.1321328144
 31
0.0
  0
LINE
  5
465
330
1B
100
AcDbEntity
 67
     1
  8
7_ALL_FEATURES
  6
Continuous
 62
     7
100
AcDbLine
 10
240.6951324963
 20
232.1321328144
 30
0.0
 11
240.6460522666
 21
233.0864706125
 31
0.0
  0
LINE
  5
466
330
1B
100
AcDbEntity
 67
     1
  8
7_ALL_FEATURES
  6
Continuous
 62
     7
100
AcDbLine
 10
239.925577348
 20
247.095705141
 30
0.0
 11
239.9073997495
 21
247.4491584449
 31
0.0
  0
LINE
  5
467
330
1B
100
AcDbEntity
 67
     1
  8
7_ALL_FEATURES
  6
Continuous
 62
     7
100
AcDbLine
 10
239.9073997495
 20
247.4491584449
 30
0.0
 11
239.8766732663
 21
248.0466178407
 31
0.0
  0
LINE
  5
468
330
1B
100
AcDbEntity
 67
     1
  8
7_ALL_FEATURES
  6
Continuous
 62
     7
100
AcDbLine
 10
240.7806058641
 20
248.0466979789
 30
0.0
 11
241.3642796683
 21
248.0764535351
 31
0.0
  0
SPLINE
  5
469
330
1B
100
AcDbEntity
 67
     1
  8
7_ALL_FEATURES
  6
Continuous
 62
     7
100
AcDbSpline
 70
     0
 71
     3
 72
    16
 73
    12
 74
     0
 42
0.000000001
 43
0.0000001
 40
0.0
 40
0.0
 40
0.0
 40
0.0
 40
0.0069935455
 40
0.0212824719
 40
0.0749338663
 40
0.1617989095
 40
0.2805062886
 40
0.428029143
 40
0.6003048909
 40
0.7926427391
 40
1.0
 40
1.0
 40
1.0
 40
1.0
 10
239.8755628157
 20
248.0468076212
 30
0.0
 10
239.8755245764
 20
248.0452383224
 30
0.0
 10
239.880150299
 20
248.0416769684
 30
0.0
 10
239.8956484671
 20
248.0376622196
 30
0.0
 10
239.9309608393
 20
248.0328620922
 30
0.0
 10
239.9886110089
 20
248.0296390855
 30
0.0
 10
240.0680412658
 20
248.0275093093
 30
0.0
 10
240.166400987
 20
248.0271642968
 30
0.0
 10
240.2813747881
 20
248.0284599387
 30
0.0
 10
240.4097186528
 20
248.0314507143
 30
0.0
 10
240.4993875913
 20
248.0344374203
 30
0.0
 10
240.5458976052
 20
248.0361951234
 30
0.0
  0
ARC
  5
46A
330
1B
100
AcDbEntity
 67
     1
  8
7_ALL_FEATURES
  6
Continuous
 62
     7
100
AcDbCircle
 10
239.8906894029
 20
265.3059666124
 30
0.0
 40
17.2821961877
100
AcDbArc
 50
272.1727368007
 51
272.9516513315
  0
SPLINE
  5
46B
330
1B
100
AcDbEntity
 67
     1
  8
7_ALL_FEATURES
  6
Continuous
 62
     7
100
AcDbSpline
 70
     0
 71
     3
 72
    11
 73
     7
 74
     0
 42
0.000000001
 43
0.0000001
 40
0.0
 40
0.0
 40
0.0
 40
0.0
 40
0.0728145829
 40
0.2722251812
 40
0.5891569956
 40
1.0
 40
1.0
 40
1.0
 40
1.0
 10
241.4963160026
 20
232.1296780353
 30
0.0
 10
241.4963781742
 20
232.1284691429
 30
0.0
 10
241.5031315692
 20
232.1287129693
 30
0.0
 10
241.5108610069
 20
232.1273250902
 30
0.0
 10
241.5273926862
 20
232.127649915
 30
0.0
 10
241.5391464668
 20
232.1276623886
 30
0.0
 10
241.5459750704
 20
232.1277989636
 30
0.0
  0
ARC
  5
46C
330
1B
100
AcDbEntity
 67
     1
  8
7_ALL_FEATURES
  6
Continuous
 62
     7
100
AcDbCircle
 10
241.5090320166
 20
233.9118973403
 30
0.0
 40
1.7844808228
100
AcDbArc
 50
271.1862454704
 51
273.0811123134
  0
LINE
  5
46D
330
1B
100
AcDbEntity
 67
     1
  8
7_ALL_FEATURES
  6
Continuous
 62
     7
100
AcDbLine
 10
240.5706502548
 20
250.1287342413
 30
0.0
 11
240.5730404655
 21
250.0822579214
 31
0.0
  0
LINE
  5
46E
330
1B
100
AcDbEntity
 67
     1
  8
7_ALL_FEATURES
  6
Continuous
 62
     7
100
AcDbLine
 10
240.1603041777
 20
258.1076857416
 30
0.0
 11
240.1626755212
 21
258.0615762837
 31
0.0
  0
LINE
  5
46F
330
1B
100
AcDbEntity
 67
     1
  8
7_ALL_FEATURES
  6
Continuous
 62
     7
100
AcDbLine
 10
240.1626755212
 20
258.0615762837
 30
0.0
 11
240.5706502548
 21
250.1287342413
 31
0.0
  0
LINE
  5
470
330
1B
100
AcDbEntity
 67
     1
  8
7_ALL_FEATURES
  6
Continuous
 62
     7
100
AcDbLine
 10
247.7947074051
 20
230.4046270008
 30
0.0
 11
241.6932975874
 21
230.0935785325
 31
0.0
  0
LINE
  5
471
330
1B
100
AcDbEntity
 67
     1
  8
7_ALL_FEATURES
  6
Continuous
 62
     7
100
AcDbLine
 10
241.6012730867
 20
230.0888458439
 30
0.0
 11
241.9603041777
 21
223.1076857416
 31
0.0
  0
ARC
  5
472
330
1B
100
AcDbEntity
 67
     1
  8
7_ALL_FEATURES
  6
Continuous
 62
     7
100
AcDbCircle
 10
240.82689957
 20
247.0747515598
 30
0.0
 40
17.0032609492
100
AcDbArc
 50
272.0291519079
 51
272.9207606879999
  0
SPLINE
  5
473
330
1B
100
AcDbEntity
 67
     1
  8
7_ALL_FEATURES
  6
Continuous
 62
     7
100
AcDbSpline
 70
     0
 71
     3
 72
    16
 73
    12
 74
     0
 42
0.000000001
 43
0.0000001
 40
0.0
 40
0.0
 40
0.0
 40
0.0
 40
0.2080974134
 40
0.4002536123
 40
0.5718324286
 40
0.7187070929
 40
0.8371372228
 40
0.9243473353
 40
0.9782508883
 40
0.9927288048
 40
1.0
 40
1.0
 40
1.0
 40
1.0
 10
241.4289506765
 20
230.0821526599
 30
0.0
 10
241.3851486117
 20
230.0806156435
 30
0.0
 10
241.300884775
 20
230.0780258573
 30
0.0
 10
241.180477327
 20
230.0755156122
 30
0.0
 10
241.0729138314
 20
230.0745762379
 30
0.0
 10
240.9809573197
 20
230.0751385947
 30
0.0
 10
240.9065654432
 20
230.0773037494
 30
0.0
 10
240.8523839292
 20
230.0805354697
 30
0.0
 10
240.819140212
 20
230.0850132398
 30
0.0
 10
240.8044297073
 20
230.0890566081
 30
0.0
 10
240.8000366945
 20
230.0923289593
 30
0.0
 10
240.7999580385
 20
230.0938583814
 30
0.0
  0
LINE
  5
474
330
1B
100
AcDbEntity
 67
     1
  8
7_ALL_FEATURES
  6
Continuous
 62
     7
100
AcDbLine
 10
241.4940766311
 20
232.1732213699
 30
0.0
 11
241.4963160026
 21
232.1296780353
 31
0.0
  0
LINE
  5
475
330
1B
100
AcDbEntity
 67
     1
  8
7_ALL_FEATURES
  6
Continuous
 62
     7
100
AcDbLine
 10
240.6779977933
 20
248.0414209924
 30
0.0
 11
240.7247919054
 21
247.1315354809
 31
0.0
  0
LINE
  5
476
330
1B
100
AcDbEntity
 67
     1
  8
7_ALL_FEATURES
  6
Continuous
 62
     7
100
AcDbLine
 10
241.4450026596
 20
233.127437482
 30
0.0
 11
241.4940766311
 21
232.1732213699
 31
0.0
  0
ARC
  5
477
330
1B
100
AcDbEntity
 67
     1
  8
7_ALL_FEATURES
  6
Continuous
 62
     7
100
AcDbCircle
 10
247.640751284
 20
233.3993619632
 30
0.0
 40
2.9986157793
100
AcDbArc
 50
272.9095764868
 51
353.2328231452
  0
LINE
  5
478
330
1B
100
AcDbEntity
 67
     1
  8
7_ALL_FEATURES
  6
Continuous
 62
     7
100
AcDbLine
 10
249.92184184
 20
247.5538249434
 30
0.0
 11
250.6399450355
 21
233.5907072543
 31
0.0
  0
ARC
  5
479
330
1B
100
AcDbEntity
 67
     1
  8
7_ALL_FEATURES
  6
Continuous
 62
     7
100
AcDbCircle
 10
246.9253744422
 20
247.3961212504
 30
0.0
 40
3.0008431854
100
AcDbArc
 50
3.0126899242
 51
92.9301744959
  0
LINE
  5
47A
330
1B
100
AcDbEntity
 67
     1
  8
7_ALL_FEATURES
  6
Continuous
 62
     7
100
AcDbLine
 10
241.6002936883
 20
232.1298874501
 30
0.0
 11
242.1856471243
 21
232.1597286335
 31
0.0
  0
LINE
  5
47B
330
1B
100
AcDbEntity
 67
     1
  8
7_ALL_FEATURES
  6
Continuous
 62
     7
100
AcDbLine
 10
241.3630580056
 20
248.0763912551
 30
0.0
 11
242.1842684104
 21
232.1185690299
 31
0.0
  0
LINE
  5
47C
330
1B
100
AcDbEntity
 67
     1
  8
7_ALL_FEATURES
  6
Continuous
 62
     9
100
AcDbLine
 10
298.8624173034
 20
223.1076857416
 30
0.0
 11
300.6603041733
 21
258.0665970996
 31
0.0
  0
LINE
  5
47D
330
1B
100
AcDbEntity
 67
     1
  8
7_ALL_FEATURES
  6
Continuous
 62
     7
100
AcDbLine
 10
239.8258444737
 20
247.0905753824
 30
0.0
 11
239.8258444739
 21
247.4449641736
 31
0.0
  0
LINE
  5
47E
330
1B
100
AcDbEntity
 67
     1
  8
7_ALL_FEATURES
  6
Continuous
 62
     7
100
AcDbLine
 10
266.4603041777
 20
221.2689728827
 30
0.0
 11
274.4603041777
 21
221.2689728827
 31
0.0
  0
LINE
  5
47F
330
1B
100
AcDbEntity
 67
     1
  8
7_ALL_FEATURES
  6
Continuous
 62
     7
100
AcDbLine
 10
240.6951324963
 20
232.1321328144
 30
0.0
 11
241.4940766311
 21
232.1732213699
 31
0.0
  0
LINE
  5
480
330
1B
100
AcDbEntity
 67
     1
  8
7_ALL_FEATURES
  6
Continuous
 62
     9
100
AcDbLine
 10
246.7707510554
 20
250.3931244372
 30
0.0
 11
246.7683187875
 21
250.3519111236
 31
0.0
  0
SPLINE
  5
481
330
1B
100
AcDbEntity
 67
     1
  8
7_ALL_FEATURES
  6
Continuous
 62
     7
100
AcDbSpline
 70
     0
 71
     3
 72
    10
 73
     6
 74
     0
 42
0.000000001
 43
0.0000001
 40
0.0
 40
0.0
 40
0.0
 40
0.0
 40
0.0967028177
 40
0.2882483252
 40
1.0
 40
1.0
 40
1.0
 40
1.0
 10
240.6973718677
 20
232.0885894798
 30
0.0
 10
240.6974493967
 20
232.0870819722
 30
0.0
 10
240.7017342861
 20
232.0838427717
 30
0.0
 10
240.716133981
 20
232.0798292367
 30
0.0
 10
240.7305606376
 20
232.0778357044
 30
0.0
 10
240.7416081494
 20
232.0766569948
 30
0.0
  0
SPLINE
  5
482
330
1B
100
AcDbEntity
 67
     1
  8
7_ALL_FEATURES
  6
Continuous
 62
     7
100
AcDbSpline
 70
     0
 71
     3
 72
    10
 73
     6
 74
     0
 42
0.000000001
 43
0.0000001
 40
0.0
 40
0.0
 40
0.0
 40
0.0
 40
0.1538005961
 40
0.3804316087
 40
1.0
 40
1.0
 40
1.0
 40
1.0
 10
240.7416081494
 20
232.0766569948
 30
0.0
 10
240.7708364491
 20
232.0735384936
 30
0.0
 10
240.8435581298
 20
232.0703565761
 30
0.0
 10
241.0346369784
 20
232.0683085706
 30
0.0
 10
241.1963832392
 20
232.072411801
 30
0.0
 10
241.3147246178
 20
232.0764774594
 30
0.0
  0
ARC
  5
483
330
1B
100
AcDbEntity
 67
     1
  8
7_ALL_FEATURES
  6
Continuous
 62
     7
100
AcDbCircle
 10
240.7582997073
 20
248.2297341168
 30
0.0
 40
16.1628372918
100
AcDbArc
 50
271.9728652273
 51
272.620197547
  0
ARC
  5
484
330
1B
100
AcDbEntity
 67
     1
  8
7_ALL_FEATURES
  6
Continuous
 62
     7
100
AcDbCircle
 10
240.7073742067
 20
249.4158282482
 30
0.0
 40
17.3500197711
100
AcDbArc
 50
272.6091340391001
 51
272.9183473738
  0
LINE
  5
485
330
1B
100
AcDbEntity
 67
     1
  8
7_ALL_FEATURES
  6
Continuous
 62
     7
100
AcDbLine
 10
242.186022854
 20
232.118658471
 30
0.0
 11
241.5907114166
 21
232.0883096309
 31
0.0
  0
LINE
  5
486
330
1B
100
AcDbEntity
 67
     1
  8
7_ALL_FEATURES
  6
Continuous
 62
     7
100
AcDbLine
 10
239.7723036654
 20
250.0877035949
 30
0.0
 11
240.5712453679
 21
250.1287920253
 31
0.0
  0
LINE
  5
487
330
1B
100
AcDbEntity
 67
     1
  8
7_ALL_FEATURES
  6
Continuous
 62
     9
100
AcDbLine
 10
249.9169773042
 20
247.5124876334
 30
0.0
 11
249.92184184
 21
247.5538249434
 31
0.0
  0
SPLINE
  5
488
330
1B
100
AcDbEntity
 67
     1
  8
7_ALL_FEATURES
  6
Continuous
 62
     7
100
AcDbSpline
 70
     0
 71
     3
 72
    17
 73
    13
 74
     0
 42
0.000000001
 43
0.0000001
 40
0.0
 40
0.0
 40
0.0
 40
0.0
 40
0.0068443416
 40
0.0214961638
 40
0.0449104893
 40
0.0771568073
 40
0.1672106843
 40
0.2889181373
 40
0.4382955211
 40
0.6104207325
 40
0.7997432311
 40
1.0
 40
1.0
 40
1.0
 40
1.0
 10
239.026897559
 20
247.0495950726
 30
0.0
 10
239.026897559
 20
247.0477635363
 30
0.0
 10
239.0329255704
 20
247.043918091
 30
0.0
 10
239.0438201058
 20
247.0414496539
 30
0.0
 10
239.0628183309
 20
247.0381951174
 30
0.0
 10
239.1014069946
 20
247.0346004969
 30
0.0
 10
239.1668359729
 20
247.0315441321
 30
0.0
 10
239.2633889315
 20
247.030127486
 30
0.0
 10
239.3820265498
 20
247.0306867142
 30
0.0
 10
239.5186904806
 20
247.0333299122
 30
0.0
 10
239.6689362804
 20
247.0379664773
 30
0.0
 10
239.7731010586
 20
247.042229299
 30
0.0
 10
239.8266342529
 20
247.0446618717
 30
0.0
  0
ARC
  5
489
330
1B
100
AcDbEntity
 67
     1
  8
7_ALL_FEATURES
  6
Continuous
 62
     7
100
AcDbCircle
 10
239.0266607262
 20
264.6492601518
 30
0.0
 40
17.6227647731
100
AcDbArc
 50
272.6017973711
 51
272.9363339349
  0
SPLINE
  5
48A
330
1B
100
AcDbEntity
 67
     1
  8
7_ALL_FEATURES
  6
Continuous
 62
     7
100
AcDbSpline
 70
     0
 71
     3
 72
     9
 73
     5
 74
     0
 42
0.000000001
 43
0.0000001
 40
0.0
 40
0.0
 40
0.0
 40
0.0
 40
0.2535307829
 40
1.0
 40
1.0
 40
1.0
 40
1.0
 10
239.8260470353
 20
247.4489288527
 30
0.0
 10
239.8257114113
 20
247.4489116375
 30
0.0
 10
239.8261741955
 20
247.4468262324
 30
0.0
 10
239.8258444739
 20
247.4459536486
 30
0.0
 10
239.8258444739
 20
247.4449641736
 30
0.0
  0
LINE
  5
48B
330
1B
100
AcDbEntity
 67
     1
  8
7_ALL_FEATURES
  6
Continuous
 62
     9
100
AcDbLine
 10
239.8258444739
 20
247.4449641736
 30
0.0
 11
239.0268975593
 21
247.4039284368
 31
0.0
  0
SPLINE
  5
48C
330
1B
100
AcDbEntity
 67
     1
  8
7_ALL_FEATURES
  6
Continuous
 62
     7
100
AcDbSpline
 70
     0
 71
     3
 72
    17
 73
    13
 74
     0
 42
0.000000001
 43
0.0000001
 40
0.0
 40
0.0
 40
0.0
 40
0.0
 40
0.0070714531
 40
0.0221526628
 40
0.0460015553
 40
0.0785577982
 40
0.1687910768
 40
0.2904007234
 40
0.4395315577
 40
0.611301263
 40
0.8002044052
 40
1.0
 40
1.0
 40
1.0
 40
1.0
 10
239.7734984295
 20
250.0411386978
 30
0.0
 10
239.7735956839
 20
250.0392476394
 30
0.0
 10
239.7799396626
 20
250.0355759911
 30
0.0
 10
239.7910764871
 20
250.0330296058
 30
0.0
 10
239.810441799
 20
250.0298633912
 30
0.0
 10
239.8492918467
 20
250.0262706821
 30
0.0
 10
239.9148781567
 20
250.0232469654
 30
0.0
 10
240.0114470011
 20
250.0218374603
 30
0.0
 10
240.1299765579
 20
250.0224086117
 30
0.0
 10
240.2664566022
 20
250.0250465445
 30
0.0
 10
240.4164707241
 20
250.0296756042
 30
0.0
 10
240.5204682134
 20
250.0339393513
 30
0.0
 10
240.5739129947
 20
250.0363747928
 30
0.0
  0
ARC
  5
48D
330
1B
100
AcDbEntity
 67
     1
  8
7_ALL_FEATURES
  6
Continuous
 62
     7
100
AcDbCircle
 10
239.7842853239
 20
267.3645018708
 30
0.0
 40
17.3461090705
100
AcDbArc
 50
272.6091138274
 51
272.9183885518
  0
LINE
  5
48E
330
1B
100
AcDbEntity
 67
     1
  8
7_ALL_FEATURES
  6
Continuous
 62
     7
100
AcDbLine
 10
250.6192057601
 20
233.0459338098
 30
0.0
 11
250.6350804996
 21
233.5493699442
 31
0.0
  0
LINE
  5
48F
330
1B
100
AcDbEntity
 67
     1
  8
7_ALL_FEATURES
  6
Continuous
 62
     9
100
AcDbLine
 10
239.925712838
 20
247.0494732961
 30
0.0
 11
240.6414518265
 21
233.1324722453
 31
0.0
  0
LINE
  5
490
330
1B
100
AcDbEntity
 67
     1
  8
7_ALL_FEATURES
  6
Continuous
 62
     9
100
AcDbLine
 10
240.6414518265
 20
233.1324722453
 30
0.0
 11
240.6438235443
 21
233.0863559922
 31
0.0
  0
LINE
  5
491
330
1B
100
AcDbEntity
 67
     1
  8
7_ALL_FEATURES
  6
Continuous
 62
     7
100
AcDbLine
 10
240.6674358796
 20
250.040889517
 30
0.0
 11
246.7683187875
 21
250.3519111236
 31
0.0
  0
LINE
  5
492
330
1B
100
AcDbEntity
 67
     1
  8
7_ALL_FEATURES
  6
Continuous
 62
     7
100
AcDbLine
 10
240.8250534412
 20
247.09560309
 30
0.0
 11
239.925712838
 21
247.0494732961
 31
0.0
  0
LINE
  5
493
330
1B
100
AcDbEntity
 67
     1
  8
7_ALL_FEATURES
  6
Continuous
 62
     9
100
AcDbLine
 10
250.6399450355
 20
233.5907072543
 30
0.0
 11
250.6350804996
 21
233.5493699442
 31
0.0
  0
LINE
  5
494
330
1B
100
AcDbEntity
 67
     1
  8
7_ALL_FEATURES
  6
Continuous
 62
     7
100
AcDbLine
 10
250.6350804996
 20
233.5493699442
 30
0.0
 11
249.9169773042
 21
247.5124876334
 31
0.0
  0
ARC
  5
495
330
1B
100
AcDbEntity
 67
     1
  8
7_ALL_FEATURES
  6
Continuous
 62
     7
100
AcDbCircle
 10
246.9203895472
 20
247.3545786988
 30
0.0
 40
3.0010102885
100
AcDbArc
 50
3.0164825757
 51
92.92767942219999
  0
LINE
  5
496
330
1B
100
AcDbEntity
 67
     1
  8
7_ALL_FEATURES
  6
Continuous
 62
     7
100
AcDbLine
 10
240.6674358796
 20
250.040889517
 30
0.0
 11
240.7750815606
 21
248.0464163512
 31
0.0
  0
LINE
  5
497
330
1B
100
AcDbEntity
 67
     1
  8
7_ALL_FEATURES
  6
Continuous
 62
     7
100
AcDbLine
 10
300.6603041733
 20
258.0665970996
 30
0.0
 11
240.2603041776
 21
258.0665971861
 31
0.0
  0
ARC
  5
498
330
1B
100
AcDbEntity
 67
     1
  8
7_ALL_FEATURES
  6
Continuous
 62
     7
100
AcDbCircle
 10
301.5607955256
 20
277.8822766384
 30
0.0
 40
19.8361297649
100
AcDbArc
 50
267.3980765218
 51
267.6854372954
  0
SPLINE
  5
499
330
1B
100
AcDbEntity
 67
     1
  8
7_ALL_FEATURES
  6
Continuous
 62
     7
100
AcDbSpline
 70
     0
 71
     3
 72
    17
 73
    13
 74
     0
 42
0.000000001
 43
0.0000001
 40
0.0
 40
0.0
 40
0.0
 40
0.0
 40
0.2001358109
 40
0.3893499888
 40
0.5614006412
 40
0.7107699595
 40
0.8325675838
 40
0.9228176847
 40
0.955179905
 40
0.9786986454
 40
0.9933961251
 40
1.0
 40
1.0
 40
1.0
 40
1.0
 10
300.7596984761
 20
258.0623299289
 30
0.0
 10
300.8131539662
 20
258.0601693127
 30
0.0
 10
300.9171642533
 20
258.0563814992
 30
0.0
 10
301.0671839489
 20
258.0522491308
 30
0.0
 10
301.203653056
 20
258.0498843473
 30
0.0
 10
301.3221738968
 20
258.0493677825
 30
0.0
 10
301.4186765949
 20
258.0506309022
 30
0.0
 10
301.4842037975
 20
258.0533194945
 30
0.0
 10
301.5228260114
 20
258.0565375199
 30
0.0
 10
301.5420481104
 20
258.05935784
 30
0.0
 10
301.5527544635
 20
258.0616359193
 30
0.0
 10
301.5591572363
 20
258.0648342291
 30
0.0
 10
301.5592501708
 20
258.0665970905
 30
0.0
  0
LINE
  5
49A
330
1B
100
AcDbEntity
 67
     1
  8
7_ALL_FEATURES
  6
Continuous
 62
     7
100
AcDbLine
 10
300.6603041777
 20
258.1076857416
 30
0.0
 11
300.6603041733
 21
258.0665970905
 31
0.0
  0
LINE
  5
49B
330
1B
100
AcDbEntity
 67
     1
  8
7_ALL_FEATURES
  6
Continuous
 62
     9
100
AcDbLine
 10
241.5907114166
 20
232.0883096309
 30
0.0
 11
241.6932975874
 21
230.0935785325
 31
0.0
  0
LINE
  5
49C
330
1B
100
AcDbEntity
 67
     1
  8
7_ALL_FEATURES
  6
Continuous
 62
     7
100
AcDbLine
 10
274.9592483108
 20
223.1076857416
 30
0.0
 11
275.4491500993
 21
223.1076857416
 31
0.0
  0
LINE
  5
49D
330
1B
100
AcDbEntity
 67
     1
  8
7_ALL_FEATURES
  6
Continuous
 62
     7
100
AcDbLine
 10
265.4693465223
 20
223.1076857416
 30
0.0
 11
265.9592483108
 21
223.1076857416
 31
0.0
  0
SPLINE
  5
49E
330
1B
100
AcDbEntity
 67
     1
  8
7_ALL_FEATURES
  6
Continuous
 62
     7
100
AcDbSpline
 70
     0
 71
     3
 72
     9
 73
     5
 74
     0
 42
0.000000001
 43
0.0000001
 40
0.0
 40
0.0
 40
0.0
 40
0.0
 40
0.2145427309
 40
1.0
 40
1.0
 40
1.0
 40
1.0
 10
275.4593198795
 20
222.6368888603
 30
0.0
 10
275.4593143535
 20
222.5561310551
 30
0.0
 10
275.4580800664
 20
222.1797132998
 30
0.0
 10
275.4536848356
 20
221.8033114363
 30
0.0
 10
275.4491500993
 20
221.5076857416
 30
0.0
  0
LINE
  5
49F
330
1B
100
AcDbEntity
 67
     1
  8
7_ALL_FEATURES
  6
Continuous
 62
     7
100
AcDbLine
 10
265.9592483108
 20
221.6076857416
 30
0.0
 11
265.7906578929
 21
221.6076857416
 31
0.0
  0
LINE
  5
4A0
330
1B
100
AcDbEntity
 67
     1
  8
7_ALL_FEATURES
  6
Continuous
 62
     7
100
AcDbLine
 10
265.7906578929
 20
221.6076857416
 30
0.0
 11
265.4693465223
 21
221.6076857416
 31
0.0
  0
LINE
  5
4A1
330
1B
100
AcDbEntity
 67
     1
  8
7_ALL_FEATURES
  6
Continuous
 62
     7
100
AcDbLine
 10
275.4491500993
 20
221.6076857416
 30
0.0
 11
275.3857385924
 21
221.6076857416
 31
0.0
  0
LINE
  5
4A2
330
1B
100
AcDbEntity
 67
     1
  8
7_ALL_FEATURES
  6
Continuous
 62
     7
100
AcDbLine
 10
275.3857385924
 20
221.6076857416
 30
0.0
 11
275.1191382411
 21
221.6076857416
 31
0.0
  0
LINE
  5
4A3
330
1B
100
AcDbEntity
 67
     1
  8
7_ALL_FEATURES
  6
Continuous
 62
     7
100
AcDbLine
 10
275.1191382411
 20
221.6076857416
 30
0.0
 11
274.9592483108
 21
221.6076857416
 31
0.0
  0
ARC
  5
4A4
330
1B
100
AcDbEntity
 67
     1
  8
7_ALL_FEATURES
  6
Continuous
 62
     7
100
AcDbCircle
 10
222.0592483108
 20
221.5076857416
 30
0.0
 40
1.6
100
AcDbArc
 50
90.0
 51
180.0
  0
ARC
  5
4A5
330
1B
100
AcDbEntity
 67
     1
  8
7_ALL_FEATURES
  6
Continuous
 62
     7
100
AcDbCircle
 10
222.0592483108
 20
192.7076857416
 30
0.0
 40
1.6
100
AcDbArc
 50
180.0
 51
270.0
  0
LINE
  5
4A6
330
1B
100
AcDbEntity
 67
     1
  8
7_ALL_FEATURES
  6
Continuous
 62
     7
100
AcDbLine
 10
220.4592483108
 20
221.5076857416
 30
0.0
 11
220.4592483108
 21
192.7076857416
 31
0.0
  0
LINE
  5
4A7
330
1B
100
AcDbEntity
 67
     1
  8
7_ALL_FEATURES
  6
Continuous
 62
     7
100
AcDbLine
 10
221.9592483108
 20
192.7076857416
 30
0.0
 11
221.9592483108
 21
193.1076857416
 31
0.0
  0
ARC
  5
4A8
330
1B
100
AcDbEntity
 67
     1
  8
7_ALL_FEATURES
  6
Continuous
 62
     7
100
AcDbCircle
 10
222.0592483108
 20
192.7076857416
 30
0.0
 40
0.1
100
AcDbArc
 50
180.0
 51
248.2131560031
  0
LINE
  5
4A9
330
1B
100
AcDbEntity
 67
     1
  8
7_ALL_FEATURES
  6
Continuous
 62
     7
100
AcDbLine
 10
223.9620767379
 20
191.1076857416
 30
0.0
 11
222.0592483108
 21
191.1076857416
 31
0.0
  0
ARC
  5
4AA
330
1B
100
AcDbEntity
 67
     1
  8
7_ALL_FEATURES
  6
Continuous
 62
     7
100
AcDbCircle
 10
318.8592483108
 20
221.5076857416
 30
0.0
 40
1.6
100
AcDbArc
 50
0.0
 51
90.0
  0
LINE
  5
4AB
330
1B
100
AcDbEntity
 67
     1
  8
7_ALL_FEATURES
  6
Continuous
 62
     7
100
AcDbLine
 10
318.9564198837
 20
221.5076857416
 30
0.0
 11
318.9523758322
 21
221.6122026755
 31
0.0
  0
LINE
  5
4AC
330
1B
100
AcDbEntity
 67
     1
  8
7_ALL_FEATURES
  6
Continuous
 62
     7
100
AcDbLine
 10
318.9564198837
 20
221.5076857416
 30
0.0
 11
318.952345695
 21
221.6113448164
 31
0.0
  0
SPLINE
  5
4AD
330
1B
100
AcDbEntity
 67
     1
  8
7_ALL_FEATURES
  6
Continuous
 62
     7
100
AcDbSpline
 70
     0
 71
     3
 72
    18
 73
    14
 74
     0
 42
0.000000001
 43
0.0000001
 40
0.0
 40
0.0
 40
0.0
 40
0.0
 40
0.1978863087
 40
0.3863493586
 40
0.5587131591
 40
0.7089898851
 40
0.8317678354
 40
0.8815456422
 40
0.9229391933
 40
0.9555514467
 40
0.9792141526
 40
0.9938687157
 40
1.0
 40
1.0
 40
1.0
 40
1.0
 10
318.9523758322
 20
221.6122026755
 30
0.0
 10
318.948542004
 20
221.711142013
 30
0.0
 10
318.9410134066
 20
221.9043082909
 30
0.0
 10
318.9296034666
 20
222.1836281325
 30
0.0
 10
318.9182293221
 20
222.4391191816
 30
0.0
 10
318.9069409086
 20
222.6616744666
 30
0.0
 10
318.8970742456
 20
222.8229785118
 30
0.0
 10
318.8888899871
 20
222.9296118469
 30
0.0
 10
318.8831599388
 20
222.9915176196
 30
0.0
 10
318.8776975526
 20
223.0394730947
 30
0.0
 10
318.8719030493
 20
223.075939578
 30
0.0
 10
318.8674285277
 20
223.0950583593
 30
0.0
 10
318.8623161353
 20
223.1076857416
 30
0.0
 10
318.8592483108
 20
223.1076857416
 30
0.0
  0
LINE
  5
4AE
330
1B
100
AcDbEntity
 67
     1
  8
7_ALL_FEATURES
  6
Continuous
 62
     7
100
AcDbLine
 10
318.8592483108
 20
223.1076857416
 30
0.0
 11
275.4491500993
 21
223.1076857416
 31
0.0
  0
SPLINE
  5
4AF
330
1B
100
AcDbEntity
 67
     1
  8
7_ALL_FEATURES
  6
Continuous
 62
     7
100
AcDbSpline
 70
     0
 71
     3
 72
     9
 73
     5
 74
     0
 42
0.000000001
 43
0.0000001
 40
0.0
 40
0.0
 40
0.0
 40
0.0
 40
0.2757167815
 40
1.0
 40
1.0
 40
1.0
 40
1.0
 10
265.4693319301
 20
221.5076855179
 30
0.0
 10
265.4677420189
 20
221.6113956945
 30
0.0
 10
265.4625841041
 20
221.987550845
 30
0.0
 10
265.4591954732
 20
222.3637405868
 30
0.0
 10
265.4591767431
 20
222.6362099164
 30
0.0
  0
LINE
  5
4B0
330
1B
100
AcDbEntity
 67
     1
  8
7_ALL_FEATURES
  6
Continuous
 62
     7
100
AcDbLine
 10
265.4693465223
 20
223.1076857416
 30
0.0
 11
222.0592483108
 21
223.1076857416
 31
0.0
  0
SPLINE
  5
4B1
330
1B
100
AcDbEntity
 67
     1
  8
7_ALL_FEATURES
  6
Continuous
 62
     7
100
AcDbSpline
 70
     0
 71
     3
 72
    18
 73
    14
 74
     0
 42
0.000000001
 43
0.0000001
 40
0.0
 40
0.0
 40
0.0
 40
0.0
 40
0.0061312836
 40
0.0207858465
 40
0.0444485521
 40
0.077060805
 40
0.1184543555
 40
0.1682321615
 40
0.2910101104
 40
0.4412868352
 40
0.6136506353
 40
0.8021136879
 40
1.0
 40
1.0
 40
1.0
 40
1.0
 10
222.0592483108
 20
223.1076857416
 30
0.0
 10
222.0561804869
 20
223.1076857416
 30
0.0
 10
222.0510680968
 20
223.0950583592
 30
0.0
 10
222.0465935738
 20
223.075939581
 30
0.0
 10
222.0407990705
 20
223.0394731
 30
0.0
 10
222.0353366836
 20
222.9915176291
 30
0.0
 10
222.0296066358
 20
222.9296118611
 30
0.0
 10
222.0214223775
 20
222.8229785343
 30
0.0
 10
222.011555715
 20
222.6616745009
 30
0.0
 10
222.000267302
 20
222.4391192316
 30
0.0
 10
221.9888931576
 20
222.1836281982
 30
0.0
 10
221.9774832191
 20
221.9043083714
 30
0.0
 10
221.9699546234
 20
221.7111421026
 30
0.0
 10
221.9661207946
 20
221.6122027697
 30
0.0
  0
LINE
  5
4B2
330
1B
100
AcDbEntity
 67
     1
  8
7_ALL_FEATURES
  6
Continuous
 62
     7
100
AcDbLine
 10
221.9661207946
 20
221.6122027697
 30
0.0
 11
221.9620767379
 21
221.5076857416
 31
0.0
  0
LINE
  5
4B3
330
1B
100
AcDbEntity
 67
     1
  8
7_ALL_FEATURES
  6
Continuous
 62
     7
100
AcDbLine
 10
221.9661509374
 20
221.6113448253
 30
0.0
 11
221.9620767379
 21
221.5076857416
 31
0.0
  0
LINE
  5
4B4
330
1B
100
AcDbEntity
 67
     1
  8
7_ALL_FEATURES
  6
Continuous
 62
     7
100
AcDbLine
 10
221.9620767379
 20
193.1076857416
 30
0.0
 11
221.9620767379
 21
221.5076857416
 31
0.0
  0
LINE
  5
4B5
330
1B
100
AcDbEntity
 67
     1
  8
7_ALL_FEATURES
  6
Continuous
 62
     7
100
AcDbLine
 10
257.2331377714
 20
205.7076857416
 30
0.0
 11
257.8366495293
 21
205.7076857416
 31
0.0
  0
ARC
  5
4B6
330
1B
100
AcDbEntity
 67
     1
  8
7_ALL_FEATURES
  6
Continuous
 62
     7
100
AcDbCircle
 10
270.4592483108
 20
207.1076857416
 30
0.0
 40
12.7
100
AcDbArc
 50
186.3289328187
 51
353.6710671813
  0
LINE
  5
4B7
330
1B
100
AcDbEntity
 67
     1
  8
7_ALL_FEATURES
  6
Continuous
 62
     7
100
AcDbLine
 10
283.0818470924
 20
205.7076857416
 30
0.0
 11
283.6853588502
 21
205.7076857416
 31
0.0
  0
ARC
  5
4B8
330
1B
100
AcDbEntity
 67
     1
  8
7_ALL_FEATURES
  6
Continuous
 62
     7
100
AcDbCircle
 10
270.4592483108
 20
207.1076857416
 30
0.0
 40
13.3
100
AcDbArc
 50
186.0423284191
 51
353.9576715809
  0
ARC
  5
4B9
330
1B
100
AcDbEntity
 67
     1
  8
7_ALL_FEATURES
  6
Continuous
 62
     7
100
AcDbCircle
 10
270.4592483108
 20
207.1076857416
 30
0.0
 40
13.3
100
AcDbArc
 50
90.0
 51
173.9576715809
  0
ARC
  5
4BA
330
1B
100
AcDbEntity
 67
     1
  8
7_ALL_FEATURES
  6
Continuous
 62
     7
100
AcDbCircle
 10
270.4592483108
 20
207.1076857416
 30
0.0
 40
13.3
100
AcDbArc
 50
6.0423284191
 51
90.0
  0
LINE
  5
4BB
330
1B
100
AcDbEntity
 67
     1
  8
7_ALL_FEATURES
  6
Continuous
 62
     7
100
AcDbLine
 10
283.6853588502
 20
208.5076857416
 30
0.0
 11
283.0818470924
 21
208.5076857416
 31
0.0
  0
ARC
  5
4BC
330
1B
100
AcDbEntity
 67
     1
  8
7_ALL_FEATURES
  6
Continuous
 62
     7
100
AcDbCircle
 10
270.4592483108
 20
207.1076857416
 30
0.0
 40
12.7
100
AcDbArc
 50
6.3289328187
 51
90.0
  0
ARC
  5
4BD
330
1B
100
AcDbEntity
 67
     1
  8
7_ALL_FEATURES
  6
Continuous
 62
     7
100
AcDbCircle
 10
270.4592483108
 20
207.1076857416
 30
0.0
 40
12.7
100
AcDbArc
 50
90.0
 51
173.6710671813
  0
LINE
  5
4BE
330
1B
100
AcDbEntity
 67
     1
  8
7_ALL_FEATURES
  6
Continuous
 62
     7
100
AcDbLine
 10
257.8366495293
 20
208.5076857416
 30
0.0
 11
257.2331377714
 21
208.5076857416
 31
0.0
  0
ARC
  5
4BF
330
1B
100
AcDbEntity
 67
     1
  8
7_ALL_FEATURES
  6
Continuous
 62
     7
100
AcDbCircle
 10
316.9564198837
 20
193.1076857416
 30
0.0
 40
2.0
100
AcDbArc
 50
270.0
 51
360.0
  0
ARC
  5
4C0
330
1B
100
AcDbEntity
 67
     1
  8
7_ALL_FEATURES
  6
Continuous
 62
     7
100
AcDbCircle
 10
274.9592483108
 20
221.6076669278
 30
0.0
 40
0.5
100
AcDbArc
 50
270.0
 51
348.4652413174
  0
LINE
  5
4C1
330
1B
100
AcDbEntity
 67
     1
  8
7_ALL_FEATURES
  6
Continuous
 62
     7
100
AcDbLine
 10
274.9592483108
 20
221.1076669278
 30
0.0
 11
265.9592483108
 21
221.1076669278
 31
0.0
  0
ARC
  5
4C2
330
1B
100
AcDbEntity
 67
     1
  8
7_ALL_FEATURES
  6
Continuous
 62
     7
100
AcDbCircle
 10
265.9592483108
 20
221.6076669278
 30
0.0
 40
0.5
100
AcDbArc
 50
191.5347586825
 51
270.0
  0
ARC
  5
4C3
330
1B
100
AcDbEntity
 67
     1
  8
7_ALL_FEATURES
  6
Continuous
 62
     7
100
AcDbCircle
 10
223.9620767379
 20
193.1076857416
 30
0.0
 40
2.0
100
AcDbArc
 50
180.0
 51
270.0
  0
LINE
  5
4C4
330
1B
100
AcDbEntity
 67
     1
  8
7_ALL_FEATURES
  6
Continuous
 62
     7
100
AcDbLine
 10
223.9620767379
 20
191.1076857416
 30
0.0
 11
316.9564198837
 21
191.1076857416
 31
0.0
  0
LINE
  5
4C5
330
1B
100
AcDbEntity
 67
     1
  8
7_ALL_FEATURES
  6
Continuous
 62
     7
100
AcDbLine
 10
318.9564198837
 20
221.5076857416
 30
0.0
 11
318.9564198837
 21
193.1076857416
 31
0.0
  0
LINE
  5
4C6
330
1B
100
AcDbEntity
 67
     1
  8
7_ALL_FEATURES
  6
Continuous
 62
     7
100
AcDbLine
 10
274.9592483108
 20
223.1076857416
 30
0.0
 11
265.9592483108
 21
223.1076857416
 31
0.0
  0
LINE
  5
4C7
330
1B
100
AcDbEntity
 67
     1
  8
7_ALL_FEATURES
  6
Continuous
 62
     7
100
AcDbLine
 10
265.9592483108
 20
221.6076857416
 30
0.0
 11
274.9592483108
 21
221.6076857416
 31
0.0
  0
LINE
  5
4C8
330
1B
100
AcDbEntity
 67
     1
  8
7_ALL_FEATURES
  6
Continuous
 62
     7
100
AcDbLine
 10
318.8592483108
 20
191.1076857416
 30
0.0
 11
316.9564198837
 21
191.1076857416
 31
0.0
  0
ARC
  5
4C9
330
1B
100
AcDbEntity
 67
     1
  8
7_ALL_FEATURES
  6
Continuous
 62
     7
100
AcDbCircle
 10
318.8592483108
 20
192.7076857416
 30
0.0
 40
1.6
100
AcDbArc
 50
270.0
 51
360.0
  0
ARC
  5
4CA
330
1B
100
AcDbEntity
 67
     1
  8
7_ALL_FEATURES
  6
Continuous
 62
     7
100
AcDbCircle
 10
318.8592483108
 20
192.7076857416
 30
0.0
 40
0.1
100
AcDbArc
 50
290.962604706
 51
360.0
  0
LINE
  5
4CB
330
1B
100
AcDbEntity
 67
     1
  8
7_ALL_FEATURES
  6
Continuous
 62
     7
100
AcDbLine
 10
318.9592483108
 20
193.1076857416
 30
0.0
 11
318.9592483108
 21
192.7076857416
 31
0.0
  0
LINE
  5
4CC
330
1B
100
AcDbEntity
 67
     1
  8
7_ALL_FEATURES
  6
Continuous
 62
     7
100
AcDbLine
 10
320.4592483108
 20
192.7076857416
 30
0.0
 11
320.4592483108
 21
221.5076857416
 31
0.0
  0
LINE
  5
4CD
330
1B
100
AcDbEntity
 67
     1
  8
7_ALL_FEATURES
  6
Continuous
 62
     7
100
AcDbLine
 10
318.9592483108
 20
221.5076857416
 30
0.0
 11
320.4592483108
 21
221.5076857416
 31
0.0
  0
SPLINE
  5
4CE
330
1B
100
AcDbEntity
 67
     1
  8
7_ALL_FEATURES
  6
Continuous
 62
     7
100
AcDbSpline
 70
     0
 71
     3
 72
    17
 73
    13
 74
     0
 42
0.000000001
 43
0.0000001
 40
0.0
 40
0.0
 40
0.0
 40
0.0
 40
0.0048355654
 40
0.0174471102
 40
0.0381223251
 40
0.0668404937
 40
0.1481550711
 40
0.2608230861
 40
0.4040284419
 40
0.5761622501
 40
0.7754212193
 40
1.0
 40
1.0
 40
1.0
 40
1.0
 10
275.4491646915
 20
223.1076855177
 30
0.0
 10
275.449924511
 20
223.1076878305
 30
0.0
 10
275.450723839
 20
223.1039576994
 30
0.0
 10
275.451716029
 20
223.0990180709
 30
0.0
 10
275.4526644831
 20
223.088782797
 30
0.0
 10
275.4540960019
 20
223.0686143537
 30
0.0
 10
275.4555160949
 20
223.033407876
 30
0.0
 10
275.4568992818
 20
222.9805559795
 30
0.0
 10
275.4579766238
 20
222.9132663277
 30
0.0
 10
275.4587634605
 20
222.8324253964
 30
0.0
 10
275.4592318463
 20
222.7387746903
 30
0.0
 10
275.4593222941
 20
222.672177417
 30
0.0
 10
275.4593198795
 20
222.6368888603
 30
0.0
  0
SPLINE
  5
4CF
330
1B
100
AcDbEntity
 67
     1
  8
7_ALL_FEATURES
  6
Continuous
 62
     7
100
AcDbSpline
 70
     0
 71
     3
 72
    17
 73
    13
 74
     0
 42
0.000000001
 43
0.0000001
 40
0.0
 40
0.0
 40
0.0
 40
0.0
 40
0.2245649302
 40
0.42381775
 40
0.5959515445
 40
0.7391614561
 40
0.8518354851
 40
0.9331550317
 40
0.961875122
 40
0.9825517889
 40
0.9951642343
 40
1.0
 40
1.0
 40
1.0
 40
1.0
 10
265.4591767431
 20
222.6362099164
 30
0.0
 10
265.4591743139
 20
222.6715471929
 30
0.0
 10
265.4592648943
 20
222.7382373773
 30
0.0
 10
265.459733996
 20
222.8320200134
 30
0.0
 10
265.4605220315
 20
222.9129772925
 30
0.0
 10
265.4616009666
 20
222.9803656676
 30
0.0
 10
265.462986186
 20
223.0332962225
 30
0.0
 10
265.4644083025
 20
223.0685555561
 30
0.0
 10
265.4658419096
 20
223.0887543455
 30
0.0
 10
265.4667916114
 20
223.0990051679
 30
0.0
 10
265.4677853375
 20
223.1039521424
 30
0.0
 10
265.4685855753
 20
223.1076880494
 30
0.0
 10
265.4693465223
 20
223.1076857415
 30
0.0
  0
LINE
  5
4D0
330
1B
100
AcDbEntity
 67
     1
  8
7_ALL_FEATURES
  6
Continuous
 62
     9
100
AcDbLine
 10
275.4491500993
 20
221.5076857416
 30
0.0
 11
318.9564198837
 21
221.5076857416
 31
0.0
  0
LINE
  5
4D1
330
1B
100
AcDbEntity
 67
     1
  8
7_ALL_FEATURES
  6
Continuous
 62
     7
100
AcDbLine
 10
220.4592483108
 20
221.5076857416
 30
0.0
 11
221.9592483108
 21
221.5076857416
 31
0.0
  0
LINE
  5
4D2
330
1B
100
AcDbEntity
 67
     1
  8
7_ALL_FEATURES
  6
Continuous
 62
     9
100
AcDbLine
 10
265.9592483108
 20
221.6076857416
 30
0.0
 11
265.9592483108
 21
223.1076857416
 31
0.0
  0
LINE
  5
4D3
330
1B
100
AcDbEntity
 67
     1
  8
7_ALL_FEATURES
  6
Continuous
 62
     9
100
AcDbLine
 10
221.9620767379
 20
221.5076857416
 30
0.0
 11
265.4693465223
 21
221.5076857416
 31
0.0
  0
LINE
  5
4D4
330
1B
100
AcDbEntity
 67
     1
  8
7_ALL_FEATURES
  6
Continuous
 62
     9
100
AcDbLine
 10
274.9592483108
 20
223.1076857416
 30
0.0
 11
274.9592483108
 21
221.6076857416
 31
0.0
  0
DIMENSION
  5
4D5
330
1B
100
AcDbEntity
 67
     1
  8
0
  6
Continuous
 62
     2
100
AcDbDimension
280
     0
  2
*D1
 10
39.1356027352
 20
147.8179898649
 30
0.0
 11
39.1356027352
 21
98.8748699779
 31
0.0
 70
   160
 71
     5
 42
-1.0
 73
     0
 74
     0
 75
     0
  3
DIMSTYLE_1
100
AcDbAlignedDimension
 13
53.2332886323
 23
47.8179898649
 33
0.0
 14
53.2332886323
 24
147.8179898649
 34
0.0
 50
90.0
100
AcDbRotatedDimension
  0
DIMENSION
  5
4D6
330
1B
100
AcDbEntity
 67
     1
  8
0
  6
Continuous
 62
     2
100
AcDbDimension
280
     0
  2
*D2
 10
157.2392314189
 20
160.7234698781
 30
0.0
 11
107.3681204224
 21
160.7234698781
 31
0.0
 70
   160
 71
     5
 42
-1.0
 73
     0
 74
     0
 75
     0
  3
DIMSTYLE_1
100
AcDbAlignedDimension
 13
57.2392314189
 23
151.0357805105
 33
0.0
 14
157.2392314189
 24
149.1475328814
 34
0.0
100
AcDbRotatedDimension
  0
DIMENSION
  5
4D7
330
1B
100
AcDbEntity
 67
     1
  8
0
  6
Continuous
 62
     2
100
AcDbDimension
280
     0
  2
*D3
 10
39.1356027352
 20
223.1076857416
 30
0.0
 11
39.1356027352
 21
207.0884884248
 31
0.0
 70
   160
 71
     5
 42
-1.0
 73
     0
 74
     0
 75
     0
  3
DIMSTYLE_1
100
AcDbAlignedDimension
 13
53.2332886323
 23
191.1076857416
 33
0.0
 14
53.2332886323
 24
223.1076857416
 34
0.0
 50
90.0
100
AcDbRotatedDimension
  0
DIMENSION
  5
4D8
330
1B
100
AcDbEntity
 67
     1
  8
0
  6
Continuous
 62
     2
100
AcDbDimension
280
     0
  2
*D4
 10
39.1356027352
 20
258.1076857416
 30
0.0
 11
39.1356027352
 21
240.6163694368
 31
0.0
 70
   160
 71
     5
 42
-1.0
 73
     0
 74
     0
 75
     0
  3
DIMSTYLE_1
100
AcDbAlignedDimension
 13
53.2332886323
 23
223.1076857416
 33
0.0
 14
55.1428843572
 24
258.1076857416
 34
0.0
 50
90.0
100
AcDbRotatedDimension
  0
DIMENSION
  5
4D9
330
1B
100
AcDbEntity
 67
     1
  8
0
  6
Continuous
 62
     2
100
AcDbDimension
280
     0
  2
*D5
 10
172.4087689291
 20
271.1076857416
 30
0.0
 11
172.4087689291
 21
231.0940639912
 31
0.0
 70
   160
 71
     5
 42
-1.0
 73
     0
 74
     0
 75
     0
  3
DIMSTYLE_1
100
AcDbAlignedDimension
 13
167.0440653081
 23
191.1076857416
 33
0.0
 14
152.6219210022
 24
271.1076857416
 34
0.0
 50
90.0
100
AcDbRotatedDimension
  0
LINE
  5
4DA
330
1B
100
AcDbEntity
 67
     1
  8
0
  6
Continuous
 62
     2
100
AcDbLine
 10
285.1766759846
 20
71.7030448597
 30
0.0
 11
415.1766759846
 21
71.7030448597
 31
0.0
  0
LINE
  5
4DB
330
1B
100
AcDbEntity
 67
     1
  8
0
  6
Continuous
 62
     2
100
AcDbLine
 10
285.1766759846
 20
71.7030448597
 30
0.0
 11
285.1766759846
 21
5.7030448597
 31
0.0
  0
LINE
  5
4DC
330
1B
100
AcDbEntity
 67
     1
  8
0
  6
Continuous
 62
     2
100
AcDbLine
 10
315.1766759846
 20
63.7030448597
 30
0.0
 11
415.1766759846
 21
63.7030448597
 31
0.0
  0
LINE
  5
4DD
330
1B
100
AcDbEntity
 67
     1
  8
0
  6
Continuous
 62
     2
100
AcDbLine
 10
285.1766759846
 20
55.7030448597
 30
0.0
 11
415.1766759846
 21
55.7030448597
 31
0.0
  0
LINE
  5
4DE
330
1B
100
AcDbEntity
 67
     1
  8
0
  6
Continuous
 62
     2
100
AcDbLine
 10
315.1766759846
 20
49.7030448597
 30
0.0
 11
415.1766759846
 21
49.7030448597
 31
0.0
  0
LINE
  5
4DF
330
1B
100
AcDbEntity
 67
     1
  8
0
  6
Continuous
 62
     2
100
AcDbLine
 10
315.1766759846
 20
43.7030448597
 30
0.0
 11
415.1766759846
 21
43.7030448597
 31
0.0
  0
LINE
  5
4E0
330
1B
100
AcDbEntity
 67
     1
  8
0
  6
Continuous
 62
     2
100
AcDbLine
 10
315.1766759846
 20
37.7030448597
 30
0.0
 11
415.1766759846
 21
37.7030448597
 31
0.0
  0
LINE
  5
4E1
330
1B
100
AcDbEntity
 67
     1
  8
0
  6
Continuous
 62
     2
100
AcDbLine
 10
315.1766759846
 20
31.7030448597
 30
0.0
 11
415.1766759846
 21
31.7030448597
 31
0.0
  0
LINE
  5
4E2
330
1B
100
AcDbEntity
 67
     1
  8
0
  6
Continuous
 62
     2
100
AcDbLine
 10
315.1766759846
 20
25.7030448597
 30
0.0
 11
415.1766759846
 21
25.7030448597
 31
0.0
  0
LINE
  5
4E3
330
1B
100
AcDbEntity
 67
     1
  8
0
  6
Continuous
 62
     2
100
AcDbLine
 10
285.1766759846
 20
19.7030448597
 30
0.0
 11
415.1766759846
 21
19.7030448597
 31
0.0
  0
LINE
  5
4E4
330
1B
100
AcDbEntity
 67
     1
  8
0
  6
Continuous
 62
     2
100
AcDbLine
 10
285.1766759846
 20
13.7030448597
 30
0.0
 11
415.1766759846
 21
13.7030448597
 31
0.0
  0
LINE
  5
4E5
330
1B
100
AcDbEntity
 67
     1
  8
0
  6
Continuous
 62
     2
100
AcDbLine
 10
285.1766759846
 20
9.7030448597
 30
0.0
 11
415.1766759846
 21
9.7030448597
 31
0.0
  0
LINE
  5
4E6
330
1B
100
AcDbEntity
 67
     1
  8
0
  6
Continuous
 62
     2
100
AcDbLine
 10
285.1766759846
 20
5.7030448597
 30
0.0
 11
415.1766759846
 21
5.7030448597
 31
0.0
  0
LINE
  5
4E7
330
1B
100
AcDbEntity
 67
     1
  8
0
  6
Continuous
 62
     2
100
AcDbLine
 10
315.1766759846
 20
71.7030448597
 30
0.0
 11
315.1766759846
 21
13.7030448597
 31
0.0
  0
LINE
  5
4E8
330
1B
100
AcDbEntity
 67
     1
  8
0
  6
Continuous
 62
     2
100
AcDbLine
 10
335.1766759846
 20
55.7030448597
 30
0.0
 11
335.1766759846
 21
49.7030448597
 31
0.0
  0
LINE
  5
4E9
330
1B
100
AcDbEntity
 67
     1
  8
0
  6
Continuous
 62
     2
100
AcDbLine
 10
365.1766759846
 20
25.7030448597
 30
0.0
 11
365.1766759846
 21
13.7030448597
 31
0.0
  0
LINE
  5
4EA
330
1B
100
AcDbEntity
 67
     1
  8
0
  6
Continuous
 62
     2
100
AcDbLine
 10
375.1766759846
 20
55.7030448597
 30
0.0
 11
375.1766759846
 21
49.7030448597
 31
0.0
  0
LINE
  5
4EB
330
1B
100
AcDbEntity
 67
     1
  8
0
  6
Continuous
 62
     2
100
AcDbLine
 10
375.1766759846
 20
43.7030448597
 30
0.0
 11
375.1766759846
 21
37.7030448597
 31
0.0
  0
LINE
  5
4EC
330
1B
100
AcDbEntity
 67
     1
  8
0
  6
Continuous
 62
     2
100
AcDbLine
 10
395.1766759846
 20
55.7030448597
 30
0.0
 11
395.1766759846
 21
49.7030448597
 31
0.0
  0
LINE
  5
4ED
330
1B
100
AcDbEntity
 67
     1
  8
0
  6
Continuous
 62
     2
100
AcDbLine
 10
405.1766759846
 20
43.7030448597
 30
0.0
 11
405.1766759846
 21
37.7030448597
 31
0.0
  0
LINE
  5
4EE
330
1B
100
AcDbEntity
 67
     1
  8
0
  6
Continuous
 62
     2
100
AcDbLine
 10
415.1766759846
 20
71.7030448597
 30
0.0
 11
415.1766759846
 21
5.7030448597
 31
0.0
  0
INSERT
  5
4EF
330
1B
100
AcDbEntity
 67
     1
  8
0
  6
Continuous
 62
     2
100
AcDbBlockReference
  2
PROIEZIONE_EU_BL0
 10
300.1766759846
 20
63.3280448597
 30
0.0
  0
MTEXT
  5
4F0
330
1B
100
AcDbEntity
 67
     1
  8
9_SOLID
  6
Continuous
 62
     2
100
AcDbMText
 10
316.6641759846
 20
70.0780448597
 30
0.0
 40
1.9
 41
142.3642857143
 46
0.0
 71
     1
 72
     1
  1
EN: Chamfer/radii unlisted 0.3x45°. Remove sharp edges.\PGen. tol.: hole H11, shaft h11, lenght Js12. UNI EN 22768 Medium Grande.
  7
TEXTSTYLE_3
 73
     1
 44
1.0
  0
MTEXT
  5
4F1
330
1B
100
AcDbEntity
 67
     1
  8
9_SOLID
  6
Continuous
 62
     2
100
AcDbMText
 10
316.6641759846
 20
62.0780448597
 30
0.0
 40
1.9
 41
148.2678571429
 46
0.0
 71
     1
 72
     1
  1
IT: Sm./rac. non quotati 0.3x45°. Eliminare spigoli taglienti.\PToll. gen.: foro H11, albero h11, lunghezza Js12. UNI EN 22768 Grado Medio.
  7
TEXTSTYLE_3
 73
     1
 44
1.0
  0
INSERT
  5
4F2
330
1B
100
AcDbEntity
 67
     1
  8
0
  6
Continuous
 62
     2
100
AcDbBlockReference
  2
LOGO2_BL1
 10
299.0027230294
 20
37.7030448597
 30
0.0
  0
MTEXT
  5
4F3
330
1B
100
AcDbEntity
 67
     1
  8
9_SOLID
  6
Continuous
 62
     2
100
AcDbMText
 10
316.6641759846
 20
53.9530448597
 30
0.0
 40
3.0
 41
21.4285714286
 46
0.0
 71
     1
 72
     1
  1
Pj: 761
  7
TEXTSTYLE_3
 73
     1
 44
1.0
  0
MTEXT
  5
4F4
330
1B
100
AcDbEntity
 67
     1
  8
0
  6
Continuous
 62
     2
100
AcDbMText
 10
336.6641759846
 20
53.9530448597
 30
0.0
 40
3.0
 41
41.5714285714
 46
0.0
 71
     1
 72
     1
  1
% Check:  %
  7
TEXTSTYLE_3
 73
     1
 44
1.0
  0
MTEXT
  5
4F5
330
1B
100
AcDbEntity
 67
     1
  8
9_SOLID
  6
Continuous
 62
     2
100
AcDbMText
 10
376.6641759846
 20
53.9530448597
 30
0.0
 40
3.0
 41
19.5
 46
0.0
 71
     1
 72
     1
  1
Rev:00
  7
TEXTSTYLE_3
 73
     1
 44
1.0
  0
MTEXT
  5
4F6
330
1B
100
AcDbEntity
 67
     1
  8
9_SOLID
  6
Continuous
 62
     2
100
AcDbMText
 10
396.6641759846
 20
54.2030448597
 30
0.0
 40
3.0
 41
19.7142857143
 46
0.0
 71
     1
 72
     1
  1
Ver: A
  7
TEXTSTYLE_3
 73
     1
 44
1.0
  0
MTEXT
  5
4F7
330
1B
100
AcDbEntity
 67
     1
  8
9_SOLID
  6
Continuous
 62
     2
100
AcDbMText
 10
316.6641759846
 20
47.9530448597
 30
0.0
 40
3.0
 41
42.9642857143
 46
0.0
 71
     1
 72
     1
  1
Neutral code: 
  7
TEXTSTYLE_3
 73
     1
 44
1.0
  0
MTEXT
  5
4F8
330
1B
100
AcDbEntity
 67
     1
  8
0
  6
Continuous
 62
     2
100
AcDbMText
 10
316.6641759846
 20
41.9530448597
 30
0.0
 40
3.0
 41
22.9285714286
 46
0.0
 71
     1
 72
     1
  1
Code:  
  7
TEXTSTYLE_3
 73
     1
 44
1.0
  0
MTEXT
  5
4F9
330
1B
100
AcDbEntity
 67
     1
  8
9_SOLID
  6
Continuous
 62
     2
100
AcDbMText
 10
376.6641759846
 20
42.2030448597
 30
0.0
 40
3.0
 41
27.8571428571
 46
0.0
 71
     1
 72
     1
  1
Scale: 1:1
  7
TEXTSTYLE_3
 73
     1
 44
1.0
  0
MTEXT
  5
4FA
330
1B
100
AcDbEntity
 67
     1
  8
9_SOLID
  6
Continuous
 62
     2
100
AcDbMText
 10
410.1766759846
 20
42.2030448597
 30
0.0
 40
3.0
 41
7.9285714286
 46
0.0
 71
     2
 72
     1
  1
A3
  7
TEXTSTYLE_3
 73
     1
 44
1.0
  0
MTEXT
  5
4FB
330
1B
100
AcDbEntity
 67
     1
  8
9_SOLID
  6
Continuous
 62
     2
100
AcDbMText
 10
316.6641759846
 20
36.2030448597
 30
0.0
 40
3.0
 41
104.3571428571
 46
0.0
 71
     1
 72
     1
  1
It descr.: CASSAFORMA ICE LED1.1
  7
TEXTSTYLE_3
 73
     1
 44
1.0
  0
MTEXT
  5
4FC
330
1B
100
AcDbEntity
 67
     1
  8
0
  6
Continuous
 62
     2
100
AcDbMText
 10
316.6641759846
 20
30.2030448597
 30
0.0
 40
3.0
 41
37.5
 46
0.0
 71
     1
 72
     1
  1
En descr.:  
  7
TEXTSTYLE_3
 73
     1
 44
1.0
  0
MTEXT
  5
4FD
330
1B
100
AcDbEntity
 67
     1
  8
9_SOLID
  6
Continuous
 62
     2
100
AcDbMText
 10
316.6641759846
 20
24.2030448597
 30
0.0
 40
3.0
 41
31.2857142857
 46
0.0
 71
     1
 72
     1
  1
Des.: S.Z.
  7
TEXTSTYLE_3
 73
     1
 44
1.0
  0
MTEXT
  5
4FE
330
1B
100
AcDbEntity
 67
     1
  8
9_SOLID
  6
Continuous
 62
     2
100
AcDbMText
 10
366.6641759846
 20
24.2030448597
 30
0.0
 40
3.0
 41
34.8214285714
 46
0.0
 71
     1
 72
     1
  1
Check: A.P.
  7
TEXTSTYLE_3
 73
     1
 44
1.0
  0
MTEXT
  5
4FF
330
1B
100
AcDbEntity
 67
     1
  8
9_SOLID
  6
Continuous
 62
     2
100
AcDbMText
 10
286.6641759846
 20
18.2030448597
 30
0.0
 40
3.0
 41
42.5357142857
 46
0.0
 71
     1
 72
     1
  1
Date: 17.12.18
  7
TEXTSTYLE_3
 73
     1
 44
1.0
  0
MTEXT
  5
500
330
1B
100
AcDbEntity
 67
     1
  8
0
  6
Continuous
 62
     2
100
AcDbMText
 10
316.6641759846
 20
18.2030448597
 30
0.0
 40
3.0
 41
21.75
 46
0.0
 71
     1
 72
     1
  1
Mat.:  
  7
TEXTSTYLE_3
 73
     1
 44
1.0
  0
MTEXT
  5
501
330
1B
100
AcDbEntity
 67
     1
  8
9_SOLID
  6
Continuous
 62
     2
100
AcDbMText
 10
366.6641759846
 20
17.7030448597
 30
0.0
 40
2.0
 41
42.3571428571
 46
0.0
 71
     1
 72
     1
  1
Disegno per catalogo
  7
TEXTSTYLE_3
 73
     1
 44
1.0
  0
MTEXT
  5
502
330
1B
100
AcDbEntity
 67
     1
  8
9_SOLID
  6
Continuous
 62
     2
100
AcDbMText
 10
286.6641759846
 20
12.6030448597
 30
0.0
 40
1.8
 41
176.2071428571
 46
0.0
 71
     1
 72
     1
  1
It: A norma di legge si diffida da qualsiasi riproduzione senza nostra autorizzazione esplicita.
  7
TEXTSTYLE_3
 73
     1
 44
1.0
  0
MTEXT
  5
503
330
1B
100
AcDbEntity
 67
     1
  8
9_SOLID
  6
Continuous
 62
     2
100
AcDbMText
 10
286.6641759846
 20
8.6030448597
 30
0.0
 40
1.8
 41
158.1428571429
 46
0.0
 71
     1
 72
     1
  1
En: According to the law, beware of any reproduction made without our authorization.
  7
TEXTSTYLE_3
 73
     1
 44
1.0
  0
ENDSEC
  0
SECTION
  2
OBJECTS
  0
DICTIONARY
  5
504
330
0
100
AcDbDictionary
281
     1
  3
ACAD_DETAILVIEWSTYLE
350
55A
  3
ACAD_GROUP
350
505
  3
ACAD_LAYOUT
350
52D
  3
ACAD_MATERIAL
350
549
  3
ACAD_MLEADERSTYLE
350
54F
  3
ACAD_MLINESTYLE
350
506
  3
ACAD_PLOTSETTINGS
350
508
  3
ACAD_PLOTSTYLENAME
350
509
  3
ACAD_SCALELIST
350
50B
  3
ACAD_SECTIONVIEWSTYLE
350
55B
  3
ACAD_TABLESTYLE
350
54D
  3
ACAD_VISUALSTYLE
350
530
  3
ACDB_RECOMPOSE_DATA
350
556
  3
AcDbVariableDictionary
350
552
  3
APPDATA
350
551
  0
DICTIONARY
  5
55A
102
{ACAD_REACTORS
330
504
102
}
330
504
100
AcDbDictionary
281
     1
  0
DICTIONARY
  5
505
102
{ACAD_REACTORS
330
504
102
}
330
504
100
AcDbDictionary
281
     1
  0
DICTIONARY
  5
52D
102
{ACAD_REACTORS
330
504
102
}
330
504
100
AcDbDictionary
281
     1
  3
Foglio 1
350
52F
  3
Model
350
52E
  0
DICTIONARY
  5
549
102
{ACAD_REACTORS
330
504
102
}
330
504
100
AcDbDictionary
281
     1
  3
ByBlock
350
54B
  3
ByLayer
350
54A
  3
Global
350
54C
  0
DICTIONARY
  5
54F
102
{ACAD_REACTORS
330
504
102
}
330
504
100
AcDbDictionary
281
     1
  3
Standard
350
550
  0
DICTIONARY
  5
506
102
{ACAD_REACTORS
330
504
102
}
330
504
100
AcDbDictionary
281
     1
  3
STANDARD
350
507
  0
DICTIONARY
  5
508
102
{ACAD_REACTORS
330
504
102
}
330
504
100
AcDbDictionary
281
     1
  0
ACDBDICTIONARYWDFLT
  5
509
102
{ACAD_REACTORS
330
504
102
}
330
504
100
AcDbDictionary
281
     1
  3
Normal
350
50A
100
AcDbDictionaryWithDefault
340
50A
  0
DICTIONARY
  5
50B
102
{ACAD_REACTORS
330
504
102
}
330
504
100
AcDbDictionary
281
     1
  3
A0
350
50C
  3
A1
350
50D
  3
A2
350
50E
  3
A3
350
50F
  3
A4
350
510
  3
A5
350
511
  3
A6
350
512
  3
A7
350
513
  3
A8
350
514
  3
A9
350
515
  3
B0
350
516
  3
B1
350
517
  3
B2
350
518
  3
B3
350
519
  3
B4
350
51A
  3
B5
350
51B
  3
B6
350
51C
  3
B7
350
51D
  3
B8
350
51E
  3
B9
350
51F
  3
C0
350
520
  3
C1
350
521
  3
C2
350
522
  3
C3
350
523
  3
C4
350
524
  3
C5
350
525
  3
C6
350
526
  3
C7
350
527
  3
C8
350
528
  3
C9
350
529
  3
D0
350
52A
  3
D1
350
52B
  3
D2
350
52C
  0
DICTIONARY
  5
55B
102
{ACAD_REACTORS
330
504
102
}
330
504
100
AcDbDictionary
281
     1
  0
DICTIONARY
  5
54D
102
{ACAD_REACTORS
330
504
102
}
330
504
100
AcDbDictionary
281
     1
  3
Standard
350
54E
  0
DICTIONARY
  5
530
102
{ACAD_REACTORS
330
504
102
}
330
504
100
AcDbDictionary
281
     1
  3
2dWireframe
350
535
  3
Basic
350
538
  3
Brighten
350
53C
  3
ColorChange
350
540
  3
Conceptual
350
53A
  3
Dim
350
53B
  3
EdgeColorOff
350
543
  3
Facepattern
350
53F
  3
Flat
350
531
  3
FlatWithEdges
350
532
  3
Gouraud
350
533
  3
GouraudWithEdges
350
534
  3
Hidden
350
537
  3
JitterOff
350
541
  3
Linepattern
350
53E
  3
OverhangOff
350
542
  3
Realistic
350
539
  3
Shaded
350
548
  3
Shaded with edges
350
547
  3
Shades of Gray
350
544
  3
Sketchy
350
545
  3
Thicken
350
53D
  3
Wireframe
350
536
  3
X-Ray
350
546
  0
XRECORD
  5
556
102
{ACAD_REACTORS
330
504
102
}
330
504
100
AcDbXrecord
280
     1
 90
        1
330
54E
  0
DICTIONARY
  5
552
102
{ACAD_REACTORS
330
504
102
}
330
504
100
AcDbDictionary
281
     1
  3
CANNOSCALE
350
553
  3
CMLEADERSTYLE
350
558
  3
CTABLESTYLE
350
557
  3
MSLTSCALE
350
559
  0
DICTIONARY
  5
551
102
{ACAD_REACTORS
330
504
102
}
330
504
100
AcDbDictionary
281
     1
  0
LAYOUT
  5
52F
102
{ACAD_REACTORS
330
52D
102
}
330
52D
100
AcDbPlotSettings
  1

  2
none_device
  4
ISO_A3_(420.00_x_297.00_MM)
  6

 40
7.5
 41
20.0
 42
7.5
 43
20.0
 44
420.0
 45
297.0
 46
0.0
 47
0.0
 48
0.0
 49
0.0
140
0.0
141
0.0
142
1.0
143
1.155642023346303
 70
   688
 72
     1
 73
     0
 74
     1
  7

 75
     0
 76
     0
 77
     2
 78
   300
147
0.8653198653198654
148
0.0
149
0.0
100
AcDbLayout
  1
Foglio 1
 70
     1
 71
     1
 10
0.0
 20
0.0
 11
412.5
 21
277.0
 12
0.0
 22
0.0
 32
0.0
 14
0.0
 24
0.0
 34
0.0
 15
422.7158426512667
 25
297.0
 35
0.0
146
0.0
 13
0.0
 23
0.0
 33
0.0
 16
1.0
 26
0.0
 36
0.0
 17
0.0
 27
1.0
 37
0.0
 76
     0
330
1B
331
2A6
  0
LAYOUT
  5
52E
102
{ACAD_REACTORS
330
52D
102
}
330
52D
100
AcDbPlotSettings
  1

  2
none_device
  4
Letter_(8.50_x_11.00_Inches)
  6

 40
6.35
 41
6.35
 42
6.35
 43
6.35
 44
215.9
 45
279.4
 46
0.0
 47
0.0
 48
0.0
 49
0.0
140
0.0
141
0.0
142
1.0
143
52.49999999846251
 70
  1712
 72
     0
 73
     0
 74
     0
  7

 75
     0
 76
     0
 77
     2
 78
   300
147
0.0190476190481769
148
-0.0000001562100806
149
0.0
100
AcDbLayout
  1
Model
 70
     1
 71
     0
 10
0.0
 20
0.0
 11
420.0
 21
297.0
 12
0.0
 22
0.0
 32
0.0
 14
0.0
 24
0.0
 34
0.0
 15
420.0
 25
297.0
 35
0.0
146
0.0
 13
0.0
 23
0.0
 33
0.0
 16
1.0
 26
0.0
 36
0.0
 17
0.0
 27
1.0
 37
0.0
 76
     0
330
1F
331
1F4
  0
MATERIAL
  5
54B
102
{ACAD_REACTORS
330
549
102
}
330
549
100
AcDbMaterial
  1
ByBlock
 72
     1
 94
      127
  0
MATERIAL
  5
54A
102
{ACAD_REACTORS
330
549
102
}
330
549
100
AcDbMaterial
  1
ByLayer
 72
     1
 94
      127
  0
MATERIAL
  5
54C
102
{ACAD_REACTORS
330
549
102
}
330
549
100
AcDbMaterial
  1
Global
 72
     1
 94
      127
  0
MLEADERSTYLE
  5
550
102
{ACAD_REACTORS
330
54F
102
}
330
54F
100
AcDbMLeaderStyle
179
     2
170
     2
171
     1
172
     0
 90
        2
 40
0.0
 41
0.0
173
     1
 91
-1056964608
340
14
 92
       -2
290
     1
 42
2.0
291
     1
 43
8.0
  3
Standard
341
0
 44
4.0
300

342
11
174
     1
178
     1
175
     1
176
     0
 93
-1056964608
 45
4.0
292
     0
297
     0
 46
4.0
343
0
 94
-1056964608
 47
1.0
 49
1.0
140
1.0
293
     1
141
0.0
294
     1
177
     0
142
1.0
295
     0
296
     0
143
3.75
271
     0
272
     9
273
     9
298
     0
  0
MLINESTYLE
  5
507
102
{ACAD_REACTORS
330
506
102
}
330
506
100
AcDbMlineStyle
  2
STANDARD
 70
     0
  3

 62
   256
 51
90.0
 52
90.0
 71
     2
 49
0.5
 62
   256
  6
BYLAYER
 49
-0.5
 62
   256
  6
BYLAYER
  0
ACDBPLACEHOLDER
  5
50A
102
{ACAD_REACTORS
330
509
102
}
330
509
  0
SCALE
  5
50C
102
{ACAD_REACTORS
330
50B
102
}
330
50B
100
AcDbScale
 70
     0
300
1:1
140
1.0
141
1.0
290
     1
  0
SCALE
  5
50D
102
{ACAD_REACTORS
330
50B
102
}
330
50B
100
AcDbScale
 70
     0
300
1:2
140
1.0
141
2.0
290
     0
  0
SCALE
  5
50E
102
{ACAD_REACTORS
330
50B
102
}
330
50B
100
AcDbScale
 70
     0
300
1:4
140
1.0
141
4.0
290
     0
  0
SCALE
  5
50F
102
{ACAD_REACTORS
330
50B
102
}
330
50B
100
AcDbScale
 70
     0
300
1:5
140
1.0
141
5.0
290
     0
  0
SCALE
  5
510
102
{ACAD_REACTORS
330
50B
102
}
330
50B
100
AcDbScale
 70
     0
300
1:8
140
1.0
141
8.0
290
     0
  0
SCALE
  5
511
102
{ACAD_REACTORS
330
50B
102
}
330
50B
100
AcDbScale
 70
     0
300
1:10
140
1.0
141
10.0
290
     0
  0
SCALE
  5
512
102
{ACAD_REACTORS
330
50B
102
}
330
50B
100
AcDbScale
 70
     0
300
1:16
140
1.0
141
16.0
290
     0
  0
SCALE
  5
513
102
{ACAD_REACTORS
330
50B
102
}
330
50B
100
AcDbScale
 70
     0
300
1:20
140
1.0
141
20.0
290
     0
  0
SCALE
  5
514
102
{ACAD_REACTORS
330
50B
102
}
330
50B
100
AcDbScale
 70
     0
300
1:30
140
1.0
141
30.0
290
     0
  0
SCALE
  5
515
102
{ACAD_REACTORS
330
50B
102
}
330
50B
100
AcDbScale
 70
     0
300
1:40
140
1.0
141
40.0
290
     0
  0
SCALE
  5
516
102
{ACAD_REACTORS
330
50B
102
}
330
50B
100
AcDbScale
 70
     0
300
1:50
140
1.0
141
50.0
290
     0
  0
SCALE
  5
517
102
{ACAD_REACTORS
330
50B
102
}
330
50B
100
AcDbScale
 70
     0
300
1:100
140
1.0
141
100.0
290
     0
  0
SCALE
  5
518
102
{ACAD_REACTORS
330
50B
102
}
330
50B
100
AcDbScale
 70
     0
300
2:1
140
2.0
141
1.0
290
     0
  0
SCALE
  5
519
102
{ACAD_REACTORS
330
50B
102
}
330
50B
100
AcDbScale
 70
     0
300
4:1
140
4.0
141
1.0
290
     0
  0
SCALE
  5
51A
102
{ACAD_REACTORS
330
50B
102
}
330
50B
100
AcDbScale
 70
     0
300
8:1
140
8.0
141
1.0
290
     0
  0
SCALE
  5
51B
102
{ACAD_REACTORS
330
50B
102
}
330
50B
100
AcDbScale
 70
     0
300
10:1
140
10.0
141
1.0
290
     0
  0
SCALE
  5
51C
102
{ACAD_REACTORS
330
50B
102
}
330
50B
100
AcDbScale
 70
     0
300
100:1
140
100.0
141
1.0
290
     0
  0
SCALE
  5
51D
102
{ACAD_REACTORS
330
50B
102
}
330
50B
100
AcDbScale
 70
     0
300
1/128" = 1'-0"
140
0.0078125
141
12.0
290
     0
  0
SCALE
  5
51E
102
{ACAD_REACTORS
330
50B
102
}
330
50B
100
AcDbScale
 70
     0
300
1/64" = 1'-0"
140
0.015625
141
12.0
290
     0
  0
SCALE
  5
51F
102
{ACAD_REACTORS
330
50B
102
}
330
50B
100
AcDbScale
 70
     0
300
1/32" = 1'-0"
140
0.03125
141
12.0
290
     0
  0
SCALE
  5
520
102
{ACAD_REACTORS
330
50B
102
}
330
50B
100
AcDbScale
 70
     0
300
1/16" = 1'-0"
140
0.0625
141
12.0
290
     0
  0
SCALE
  5
521
102
{ACAD_REACTORS
330
50B
102
}
330
50B
100
AcDbScale
 70
     0
300
3/32" = 1'-0"
140
0.09375
141
12.0
290
     0
  0
SCALE
  5
522
102
{ACAD_REACTORS
330
50B
102
}
330
50B
100
AcDbScale
 70
     0
300
1/8" = 1'-0"
140
0.125
141
12.0
290
     0
  0
SCALE
  5
523
102
{ACAD_REACTORS
330
50B
102
}
330
50B
100
AcDbScale
 70
     0
300
3/16" = 1'-0"
140
0.1875
141
12.0
290
     0
  0
SCALE
  5
524
102
{ACAD_REACTORS
330
50B
102
}
330
50B
100
AcDbScale
 70
     0
300
1/4" = 1'-0"
140
0.25
141
12.0
290
     0
  0
SCALE
  5
525
102
{ACAD_REACTORS
330
50B
102
}
330
50B
100
AcDbScale
 70
     0
300
3/8" = 1'-0"
140
0.375
141
12.0
290
     0
  0
SCALE
  5
526
102
{ACAD_REACTORS
330
50B
102
}
330
50B
100
AcDbScale
 70
     0
300
1/2" = 1'-0"
140
0.5
141
12.0
290
     0
  0
SCALE
  5
527
102
{ACAD_REACTORS
330
50B
102
}
330
50B
100
AcDbScale
 70
     0
300
3/4" = 1'-0"
140
0.75
141
12.0
290
     0
  0
SCALE
  5
528
102
{ACAD_REACTORS
330
50B
102
}
330
50B
100
AcDbScale
 70
     0
300
1" = 1'-0"
140
1.0
141
12.0
290
     0
  0
SCALE
  5
529
102
{ACAD_REACTORS
330
50B
102
}
330
50B
100
AcDbScale
 70
     0
300
1-1/2" = 1'-0"
140
1.5
141
12.0
290
     0
  0
SCALE
  5
52A
102
{ACAD_REACTORS
330
50B
102
}
330
50B
100
AcDbScale
 70
     0
300
3" = 1'-0"
140
3.0
141
12.0
290
     0
  0
SCALE
  5
52B
102
{ACAD_REACTORS
330
50B
102
}
330
50B
100
AcDbScale
 70
     0
300
6" = 1'-0"
140
6.0
141
12.0
290
     0
  0
SCALE
  5
52C
102
{ACAD_REACTORS
330
50B
102
}
330
50B
100
AcDbScale
 70
     0
300
1'-0" = 1'-0"
140
12.0
141
12.0
290
     0
  0
TABLESTYLE
  5
54E
102
{ACAD_REACTORS
330
54D
102
}
102
{ACAD_XDICTIONARY
360
554
102
}
330
54D
100
AcDbTableStyle
  3
Standard
 70
     0
 71
     0
 40
0.06
 41
0.06
280
     0
281
     0
  7
STANDARD
140
4.5
170
     2
 62
     0
 63
   257
283
     0
 90
        4
 91
        0
  1

274
    -2
284
     1
 64
     0
275
    -2
285
     1
 65
     0
276
    -2
286
     1
 66
     0
277
    -2
287
     1
 67
     0
278
    -2
288
     1
 68
     0
279
    -2
289
     1
 69
     0
  7
STANDARD
140
6.0
170
     5
 62
     0
 63
   257
283
     0
 90
        4
 91
        0
  1

274
    -2
284
     1
 64
     0
275
    -2
285
     1
 65
     0
276
    -2
286
     1
 66
     0
277
    -2
287
     1
 67
     0
278
    -2
288
     1
 68
     0
279
    -2
289
     1
 69
     0
  7
STANDARD
140
4.5
170
     5
 62
     0
 63
   257
283
     0
 90
        4
 91
        0
  1

274
    -2
284
     1
 64
     0
275
    -2
285
     1
 65
     0
276
    -2
286
     1
 66
     0
277
    -2
287
     1
 67
     0
278
    -2
288
     1
 68
     0
279
    -2
289
     1
 69
     0
  0
VISUALSTYLE
  5
535
102
{ACAD_REACTORS
330
530
102
}
330
530
100
AcDbVisualStyle
  2
2dWireframe
 70
     4
177
     3
291
     0
 70
    58
 90
        0
176
     1
 90
        2
176
     1
 90
        0
176
     1
 90
        0
176
     1
 40
0.6
176
     1
 40
30.0
176
     1
 62
     7
420
 16777215
176
     1
 90
        1
176
     1
 90
        4
176
     1
 62
     7
176
     1
 62
   257
176
     1
 90
        1
176
     1
 90
        1
176
     1
 40
1.0
176
     1
 90
        0
176
     1
 62
   257
176
     1
 40
1.0
176
     1
 90
        1
176
     1
 90
        6
176
     1
 90
        2
176
     1
 62
     7
176
     1
 90
        5
176
     1
 90
        0
176
     1
 90
        0
176
     1
290
     0
176
     1
 90
        1
176
     1
 40
0.0
176
     1
 90
        0
176
     1
290
     1
176
     1
290
     1
176
     1
290
     0
176
     1
290
     0
176
     1
290
     0
176
     1
290
     0
176
     1
290
     0
176
     1
290
     0
176
     1
290
     0
176
     1
 90
       50
176
     1
 40
0.0
176
     1
 40
1.0
176
     1
 90
        0
176
     1
 62
    18
420
        0
176
     1
 90
       50
176
     1
 90
        3
176
     1
 62
     5
420
      255
176
     1
290
     0
176
     1
 90
       50
176
     1
 90
       50
176
     1
 90
       50
176
     1
290
     0
176
     1
 90
       50
176
     1
 62
   256
176
     0
 40
1.0
176
     0
 90
        2
176
     1
  1
strokes_ogs.tif
176
     1
290
     0
176
     1
 40
1.0
176
     1
 40
1.0
176
     1
  0
VISUALSTYLE
  5
538
102
{ACAD_REACTORS
330
530
102
}
330
530
100
AcDbVisualStyle
  2
Basic
 70
     7
177
     3
291
     1
 70
    58
 90
        1
176
     1
 90
        0
176
     1
 90
        1
176
     1
 90
        0
176
     1
 40
0.6
176
     1
 40
30.0
176
     1
 62
     7
420
 16777215
176
     1
 90
        0
176
     1
 90
        4
176
     1
 62
     7
176
     1
 62
   257
176
     1
 90
        1
176
     1
 90
        1
176
     1
 40
1.0
176
     1
 90
        8
176
     1
 62
     7
176
     1
 40
1.0
176
     1
 90
        1
176
     1
 90
        6
176
     1
 90
        2
176
     1
 62
     7
176
     1
 90
        5
176
     1
 90
        0
176
     1
 90
        0
176
     1
290
     0
176
     1
 90
        1
176
     1
 40
0.0
176
     1
 90
        0
176
     1
290
     0
176
     1
290
     1
176
     1
290
     1
176
     1
290
     0
176
     1
290
     0
176
     1
290
     0
176
     1
290
     0
176
     1
290
     0
176
     1
290
     0
176
     1
 90
       50
176
     1
 40
0.0
176
     1
 40
1.0
176
     1
 90
        0
176
     1
 62
    18
420
        0
176
     1
 90
       50
176
     1
 90
        3
176
     1
 62
     5
420
      255
176
     1
290
     0
176
     1
 90
       50
176
     1
 90
       50
176
     1
 90
       50
176
     1
290
     0
176
     1
 90
       50
176
     1
 62
   256
176
     0
 40
1.0
176
     0
 90
        2
176
     1
  1
strokes_ogs.tif
176
     1
290
     0
176
     1
 40
1.0
176
     1
 40
1.0
176
     1
  0
VISUALSTYLE
  5
53C
102
{ACAD_REACTORS
330
530
102
}
330
530
100
AcDbVisualStyle
  2
Brighten
 70
    12
177
     3
291
     1
 70
    58
 90
        2
176
     1
 90
        2
176
     1
 90
        0
176
     1
 90
        0
176
     1
 40
0.6
176
     1
 40
30.0
176
     1
 62
     7
420
 16777215
176
     1
 90
        1
176
     1
 90
        4
176
     1
 62
     7
176
     1
 62
   257
176
     1
 90
        1
176
     1
 90
        1
176
     1
 40
1.0
176
     1
 90
        8
176
     1
 62
     7
176
     1
 40
1.0
176
     1
 90
        1
176
     1
 90
        6
176
     1
 90
        2
176
     1
 62
     7
176
     1
 90
        5
176
     1
 90
        0
176
     1
 90
        0
176
     1
290
     0
176
     1
 90
        1
176
     1
 40
50.0
176
     1
 90
        0
176
     1
290
     0
176
     1
290
     1
176
     1
290
     1
176
     1
290
     0
176
     1
290
     0
176
     1
290
     0
176
     1
290
     0
176
     1
290
     0
176
     1
290
     0
176
     1
 90
       50
176
     1
 40
0.0
176
     1
 40
1.0
176
     1
 90
        0
176
     1
 62
    18
420
        0
176
     1
 90
       50
176
     1
 90
        3
176
     1
 62
     5
420
      255
176
     1
290
     0
176
     1
 90
       50
176
     1
 90
       50
176
     1
 90
       50
176
     1
290
     0
176
     1
 90
       50
176
     1
 62
   256
176
     0
 40
1.0
176
     0
 90
        2
176
     1
  1
strokes_ogs.tif
176
     1
290
     0
176
     1
 40
1.0
176
     1
 40
1.0
176
     1
  0
VISUALSTYLE
  5
540
102
{ACAD_REACTORS
330
530
102
}
330
530
100
AcDbVisualStyle
  2
ColorChange
 70
    16
177
     3
291
     1
 70
    58
 90
        2
176
     1
 90
        2
176
     1
 90
        3
176
     1
 90
        0
176
     1
 40
0.6
176
     1
 40
30.0
176
     1
 62
     8
420
  8421504
176
     1
 90
        1
176
     1
 90
        4
176
     1
 62
     7
176
     1
 62
   257
176
     1
 90
        1
176
     1
 90
        1
176
     1
 40
1.0
176
     1
 90
        8
176
     1
 62
     8
420
  8421504
176
     1
 40
1.0
176
     1
 90
        1
176
     1
 90
        6
176
     1
 90
        2
176
     1
 62
     7
176
     1
 90
        5
176
     1
 90
        0
176
     1
 90
        0
176
     1
290
     0
176
     1
 90
        1
176
     1
 40
0.0
176
     1
 90
        0
176
     1
290
     0
176
     1
290
     1
176
     1
290
     1
176
     1
290
     0
176
     1
290
     0
176
     1
290
     0
176
     1
290
     0
176
     1
290
     0
176
     1
290
     0
176
     1
 90
       50
176
     1
 40
0.0
176
     1
 40
1.0
176
     1
 90
        0
176
     1
 62
    18
420
        0
176
     1
 90
       50
176
     1
 90
        3
176
     1
 62
     5
420
      255
176
     1
290
     0
176
     1
 90
       50
176
     1
 90
       50
176
     1
 90
       50
176
     1
290
     0
176
     1
 90
       50
176
     1
 62
   256
176
     0
 40
1.0
176
     0
 90
        2
176
     1
  1
strokes_ogs.tif
176
     1
290
     0
176
     1
 40
1.0
176
     1
 40
1.0
176
     1
  0
VISUALSTYLE
  5
53A
102
{ACAD_REACTORS
330
530
102
}
330
530
100
AcDbVisualStyle
  2
Conceptual
 70
     9
177
     3
291
     0
 70
    58
 90
        3
176
     1
 90
        2
176
     1
 90
        0
176
     1
 90
        0
176
     1
 40
0.6
176
     1
 40
30.0
176
     1
 62
     7
420
 16777215
176
     1
 90
        2
176
     1
 90
        2
176
     1
 62
     7
176
     1
 62
   257
176
     1
 90
        1
176
     1
 90
        1
176
     1
 40
179.0
176
     1
 90
        8
176
     1
 62
     7
176
     1
 40
1.0
176
     1
 90
        1
176
     1
 90
        6
176
     1
 90
        2
176
     1
 62
     7
176
     1
 90
        3
176
     1
 90
        0
176
     1
 90
        0
176
     1
290
     0
176
     1
 90
        1
176
     1
 40
0.0
176
     1
 90
        0
176
     1
290
     0
176
     1
290
     1
176
     1
290
     1
176
     1
290
     0
176
     1
290
     0
176
     1
290
     0
176
     1
290
     0
176
     1
290
     0
176
     1
290
     0
176
     1
 90
       50
176
     1
 40
0.0
176
     1
 40
1.0
176
     1
 90
        0
176
     1
 62
    18
420
        0
176
     1
 90
       50
176
     1
 90
        3
176
     1
 62
     5
420
      255
176
     1
290
     0
176
     1
 90
       50
176
     1
 90
       50
176
     1
 90
       50
176
     1
290
     0
176
     1
 90
       50
176
     1
 62
   256
176
     0
 40
1.0
176
     0
 90
        2
176
     1
  1
strokes_ogs.tif
176
     1
290
     0
176
     1
 40
1.0
176
     1
 40
1.0
176
     1
  0
VISUALSTYLE
  5
53B
102
{ACAD_REACTORS
330
530
102
}
330
530
100
AcDbVisualStyle
  2
Dim
 70
    11
177
     3
291
     1
 70
    58
 90
        2
176
     1
 90
        2
176
     1
 90
        0
176
     1
 90
        0
176
     1
 40
0.6
176
     1
 40
30.0
176
     1
 62
     7
420
 16777215
176
     1
 90
        1
176
     1
 90
        4
176
     1
 62
     7
176
     1
 62
   257
176
     1
 90
        1
176
     1
 90
        1
176
     1
 40
1.0
176
     1
 90
        8
176
     1
 62
     7
176
     1
 40
1.0
176
     1
 90
        1
176
     1
 90
        6
176
     1
 90
        2
176
     1
 62
     7
176
     1
 90
        5
176
     1
 90
        0
176
     1
 90
        0
176
     1
290
     0
176
     1
 90
        1
176
     1
 40
-50.0
176
     1
 90
        0
176
     1
290
     0
176
     1
290
     1
176
     1
290
     1
176
     1
290
     0
176
     1
290
     0
176
     1
290
     0
176
     1
290
     0
176
     1
290
     0
176
     1
290
     0
176
     1
 90
       50
176
     1
 40
0.0
176
     1
 40
1.0
176
     1
 90
        0
176
     1
 62
    18
420
        0
176
     1
 90
       50
176
     1
 90
        3
176
     1
 62
     5
420
      255
176
     1
290
     0
176
     1
 90
       50
176
     1
 90
       50
176
     1
 90
       50
176
     1
290
     0
176
     1
 90
       50
176
     1
 62
   256
176
     0
 40
1.0
176
     0
 90
        2
176
     1
  1
strokes_ogs.tif
176
     1
290
     0
176
     1
 40
1.0
176
     1
 40
1.0
176
     1
  0
VISUALSTYLE
  5
543
102
{ACAD_REACTORS
330
530
102
}
330
530
100
AcDbVisualStyle
  2
EdgeColorOff
 70
    22
177
     3
291
     1
 70
    58
 90
        2
176
     0
 90
        2
176
     0
 90
        0
176
     0
 90
        0
176
     0
 40
0.6
176
     0
 40
30.0
176
     0
 62
     7
420
 16777215
176
     0
 90
        1
176
     0
 90
        4
176
     0
 62
     7
176
     0
 62
   257
176
     0
 90
        1
176
     0
 90
        1
176
     0
 40
1.0
176
     0
 90
        8
176
     2
 62
     7
176
     0
 40
1.0
176
     0
 90
        1
176
     0
 90
        6
176
     0
 90
        2
176
     0
 62
     7
176
     0
 90
        5
176
     0
 90
        0
176
     0
 90
        0
176
     0
290
     0
176
     0
 90
        1
176
     0
 40
0.0
176
     0
 90
        0
176
     0
290
     0
176
     0
290
     1
176
     0
290
     1
176
     0
290
     0
176
     0
290
     0
176
     0
290
     0
176
     0
290
     0
176
     0
290
     0
176
     0
290
     0
176
     0
 90
       50
176
     0
 40
0.0
176
     0
 40
1.0
176
     0
 90
        0
176
     0
 62
    18
420
        0
176
     0
 90
       50
176
     0
 90
        3
176
     0
 62
     5
420
      255
176
     0
290
     0
176
     0
 90
       50
176
     0
 90
       50
176
     0
 90
       50
176
     0
290
     0
176
     0
 90
       50
176
     0
 62
   256
176
     0
 40
1.0
176
     0
 90
        2
176
     0
  1
strokes_ogs.tif
176
     0
290
     0
176
     0
 40
1.0
176
     0
 40
1.0
176
     0
  0
VISUALSTYLE
  5
53F
102
{ACAD_REACTORS
330
530
102
}
330
530
100
AcDbVisualStyle
  2
Facepattern
 70
    15
177
     3
291
     1
 70
    58
 90
        2
176
     1
 90
        2
176
     1
 90
        0
176
     1
 90
        0
176
     1
 40
0.6
176
     1
 40
30.0
176
     1
 62
     7
420
 16777215
176
     1
 90
        1
176
     1
 90
        4
176
     1
 62
     7
176
     1
 62
   257
176
     1
 90
        1
176
     1
 90
        1
176
     1
 40
1.0
176
     1
 90
        8
176
     1
 62
     7
176
     1
 40
1.0
176
     1
 90
        1
176
     1
 90
        6
176
     1
 90
        2
176
     1
 62
     7
176
     1
 90
        5
176
     1
 90
        0
176
     1
 90
        0
176
     1
290
     0
176
     1
 90
        1
176
     1
 40
0.0
176
     1
 90
        0
176
     1
290
     0
176
     1
290
     1
176
     1
290
     1
176
     1
290
     0
176
     1
290
     0
176
     1
290
     0
176
     1
290
     0
176
     1
290
     0
176
     1
290
     0
176
     1
 90
       50
176
     1
 40
0.0
176
     1
 40
1.0
176
     1
 90
        0
176
     1
 62
    18
420
        0
176
     1
 90
       50
176
     1
 90
        3
176
     1
 62
     5
420
      255
176
     1
290
     0
176
     1
 90
       50
176
     1
 90
       50
176
     1
 90
       50
176
     1
290
     0
176
     1
 90
       50
176
     1
 62
   256
176
     0
 40
1.0
176
     0
 90
        2
176
     1
  1
strokes_ogs.tif
176
     1
290
     0
176
     1
 40
1.0
176
     1
 40
1.0
176
     1
  0
VISUALSTYLE
  5
531
102
{ACAD_REACTORS
330
530
102
}
330
530
100
AcDbVisualStyle
  2
Flat
 70
     0
177
     3
291
     1
 70
    58
 90
        2
176
     1
 90
        1
176
     1
 90
        1
176
     1
 90
        2
176
     1
 40
0.6
176
     1
 40
30.0
176
     1
 62
     7
420
 16777215
176
     1
 90
        0
176
     1
 90
        0
176
     1
 62
     7
176
     1
 62
   257
176
     1
 90
        1
176
     1
 90
        1
176
     1
 40
1.0
176
     1
 90
        8
176
     1
 62
     7
176
     1
 40
1.0
176
     1
 90
        1
176
     1
 90
        6
176
     1
 90
        2
176
     1
 62
     7
176
     1
 90
        5
176
     1
 90
        0
176
     1
 90
        0
176
     1
290
     0
176
     1
 90
       13
176
     1
 40
0.0
176
     1
 90
        0
176
     1
290
     0
176
     1
290
     1
176
     1
290
     1
176
     1
290
     0
176
     1
290
     0
176
     1
290
     0
176
     1
290
     0
176
     1
290
     0
176
     1
290
     0
176
     1
 90
       50
176
     1
 40
0.0
176
     1
 40
1.0
176
     1
 90
        0
176
     1
 62
    18
420
        0
176
     1
 90
       50
176
     1
 90
        3
176
     1
 62
     5
420
      255
176
     1
290
     0
176
     1
 90
       50
176
     1
 90
       50
176
     1
 90
       50
176
     1
290
     0
176
     1
 90
       50
176
     1
 62
   256
176
     0
 40
1.0
176
     0
 90
        2
176
     1
  1
strokes_ogs.tif
176
     1
290
     0
176
     1
 40
1.0
176
     1
 40
1.0
176
     1
  0
VISUALSTYLE
  5
532
102
{ACAD_REACTORS
330
530
102
}
330
530
100
AcDbVisualStyle
  2
FlatWithEdges
 70
     1
177
     3
291
     1
 70
    58
 90
        2
176
     1
 90
        1
176
     1
 90
        1
176
     1
 90
        2
176
     1
 40
0.6
176
     1
 40
30.0
176
     1
 62
     7
420
 16777215
176
     1
 90
        1
176
     1
 90
        0
176
     1
 62
     7
176
     1
 62
   257
176
     1
 90
        1
176
     1
 90
        1
176
     1
 40
1.0
176
     1
 90
        0
176
     1
 62
   257
176
     1
 40
1.0
176
     1
 90
        1
176
     1
 90
        6
176
     1
 90
        2
176
     1
 62
     7
176
     1
 90
        5
176
     1
 90
        0
176
     1
 90
        0
176
     1
290
     0
176
     1
 90
       13
176
     1
 40
0.0
176
     1
 90
        0
176
     1
290
     0
176
     1
290
     1
176
     1
290
     1
176
     1
290
     0
176
     1
290
     0
176
     1
290
     0
176
     1
290
     0
176
     1
290
     0
176
     1
290
     0
176
     1
 90
       50
176
     1
 40
0.0
176
     1
 40
1.0
176
     1
 90
        0
176
     1
 62
    18
420
        0
176
     1
 90
       50
176
     1
 90
        3
176
     1
 62
     5
420
      255
176
     1
290
     0
176
     1
 90
       50
176
     1
 90
       50
176
     1
 90
       50
176
     1
290
     0
176
     1
 90
       50
176
     1
 62
   256
176
     0
 40
1.0
176
     0
 90
        2
176
     1
  1
strokes_ogs.tif
176
     1
290
     0
176
     1
 40
1.0
176
     1
 40
1.0
176
     1
  0
VISUALSTYLE
  5
533
102
{ACAD_REACTORS
330
530
102
}
330
530
100
AcDbVisualStyle
  2
Gouraud
 70
     2
177
     3
291
     1
 70
    58
 90
        2
176
     1
 90
        2
176
     1
 90
        1
176
     1
 90
        2
176
     1
 40
0.6
176
     1
 40
30.0
176
     1
 62
     7
420
 16777215
176
     1
 90
        0
176
     1
 90
        0
176
     1
 62
     7
176
     1
 62
   257
176
     1
 90
        1
176
     1
 90
        1
176
     1
 40
1.0
176
     1
 90
        0
176
     1
 62
     7
176
     1
 40
1.0
176
     1
 90
        1
176
     1
 90
        6
176
     1
 90
        2
176
     1
 62
     7
176
     1
 90
        5
176
     1
 90
        0
176
     1
 90
        0
176
     1
290
     0
176
     1
 90
       13
176
     1
 40
0.0
176
     1
 90
        0
176
     1
290
     0
176
     1
290
     1
176
     1
290
     1
176
     1
290
     0
176
     1
290
     0
176
     1
290
     0
176
     1
290
     0
176
     1
290
     0
176
     1
290
     0
176
     1
 90
       50
176
     1
 40
0.0
176
     1
 40
1.0
176
     1
 90
        0
176
     1
 62
    18
420
        0
176
     1
 90
       50
176
     1
 90
        3
176
     1
 62
     5
420
      255
176
     1
290
     0
176
     1
 90
       50
176
     1
 90
       50
176
     1
 90
       50
176
     1
290
     0
176
     1
 90
       50
176
     1
 62
   256
176
     0
 40
1.0
176
     0
 90
        2
176
     1
  1
strokes_ogs.tif
176
     1
290
     0
176
     1
 40
1.0
176
     1
 40
1.0
176
     1
  0
VISUALSTYLE
  5
534
102
{ACAD_REACTORS
330
530
102
}
330
530
100
AcDbVisualStyle
  2
GouraudWithEdges
 70
     3
177
     3
291
     1
 70
    58
 90
        2
176
     1
 90
        2
176
     1
 90
        1
176
     1
 90
        2
176
     1
 40
0.6
176
     1
 40
30.0
176
     1
 62
     7
420
 16777215
176
     1
 90
        1
176
     1
 90
        0
176
     1
 62
     7
176
     1
 62
   257
176
     1
 90
        1
176
     1
 90
        1
176
     1
 40
1.0
176
     1
 90
        0
176
     1
 62
   257
176
     1
 40
1.0
176
     1
 90
        1
176
     1
 90
        6
176
     1
 90
        2
176
     1
 62
     7
176
     1
 90
        5
176
     1
 90
        0
176
     1
 90
        0
176
     1
290
     0
176
     1
 90
       13
176
     1
 40
0.0
176
     1
 90
        0
176
     1
290
     0
176
     1
290
     1
176
     1
290
     1
176
     1
290
     0
176
     1
290
     0
176
     1
290
     0
176
     1
290
     0
176
     1
290
     0
176
     1
290
     0
176
     1
 90
       50
176
     1
 40
0.0
176
     1
 40
1.0
176
     1
 90
        0
176
     1
 62
    18
420
        0
176
     1
 90
       50
176
     1
 90
        3
176
     1
 62
     5
420
      255
176
     1
290
     0
176
     1
 90
       50
176
     1
 90
       50
176
     1
 90
       50
176
     1
290
     0
176
     1
 90
       50
176
     1
 62
   256
176
     0
 40
1.0
176
     0
 90
        2
176
     1
  1
strokes_ogs.tif
176
     1
290
     0
176
     1
 40
1.0
176
     1
 40
1.0
176
     1
  0
VISUALSTYLE
  5
537
102
{ACAD_REACTORS
330
530
102
}
330
530
100
AcDbVisualStyle
  2
Hidden
 70
     6
177
     3
291
     0
 70
    58
 90
        1
176
     1
 90
        2
176
     1
 90
        2
176
     1
 90
        0
176
     1
 40
0.6
176
     1
 40
30.0
176
     1
 62
     7
420
 16777215
176
     1
 90
        2
176
     1
 90
        2
176
     1
 62
     7
176
     1
 62
   257
176
     1
 90
        2
176
     1
 90
        1
176
     1
 40
40.0
176
     1
 90
        0
176
     1
 62
   257
176
     1
 40
1.0
176
     1
 90
        1
176
     1
 90
        6
176
     1
 90
        2
176
     1
 62
     7
176
     1
 90
        3
176
     1
 90
        0
176
     1
 90
        0
176
     1
290
     0
176
     1
 90
        1
176
     1
 40
0.0
176
     1
 90
        0
176
     1
290
     0
176
     1
290
     1
176
     1
290
     1
176
     1
290
     0
176
     1
290
     0
176
     1
290
     0
176
     1
290
     0
176
     1
290
     0
176
     1
290
     0
176
     1
 90
       50
176
     1
 40
0.0
176
     1
 40
1.0
176
     1
 90
        0
176
     1
 62
    18
420
        0
176
     1
 90
       50
176
     1
 90
        3
176
     1
 62
     5
420
      255
176
     1
290
     0
176
     1
 90
       50
176
     1
 90
       50
176
     1
 90
       50
176
     1
290
     0
176
     1
 90
       50
176
     1
 62
   256
176
     0
 40
1.0
176
     0
 90
        2
176
     1
  1
strokes_ogs.tif
176
     1
290
     0
176
     1
 40
1.0
176
     1
 40
1.0
176
     1
  0
VISUALSTYLE
  5
541
102
{ACAD_REACTORS
330
530
102
}
330
530
100
AcDbVisualStyle
  2
JitterOff
 70
    20
177
     3
291
     1
 70
    58
 90
        2
176
     0
 90
        2
176
     0
 90
        0
176
     0
 90
        0
176
     0
 40
0.6
176
     0
 40
30.0
176
     0
 62
     7
420
 16777215
176
     0
 90
        1
176
     0
 90
        4
176
     0
 62
     7
176
     0
 62
   257
176
     0
 90
        1
176
     0
 90
        1
176
     0
 40
1.0
176
     0
 90
       10
176
     2
 62
     7
176
     0
 40
1.0
176
     0
 90
        1
176
     0
 90
        6
176
     0
 90
        2
176
     0
 62
     7
176
     0
 90
        5
176
     0
 90
        0
176
     0
 90
        0
176
     0
290
     0
176
     0
 90
        1
176
     0
 40
0.0
176
     0
 90
        0
176
     0
290
     0
176
     0
290
     1
176
     0
290
     1
176
     0
290
     0
176
     0
290
     0
176
     0
290
     0
176
     0
290
     0
176
     0
290
     0
176
     0
290
     0
176
     0
 90
       50
176
     0
 40
0.0
176
     0
 40
1.0
176
     0
 90
        0
176
     0
 62
    18
420
        0
176
     0
 90
       50
176
     0
 90
        3
176
     0
 62
     5
420
      255
176
     0
290
     0
176
     0
 90
       50
176
     0
 90
       50
176
     0
 90
       50
176
     0
290
     0
176
     0
 90
       50
176
     0
 62
   256
176
     0
 40
1.0
176
     0
 90
        2
176
     0
  1
strokes_ogs.tif
176
     0
290
     0
176
     0
 40
1.0
176
     0
 40
1.0
176
     0
  0
VISUALSTYLE
  5
53E
102
{ACAD_REACTORS
330
530
102
}
330
530
100
AcDbVisualStyle
  2
Linepattern
 70
    14
177
     3
291
     1
 70
    58
 90
        2
176
     1
 90
        2
176
     1
 90
        0
176
     1
 90
        0
176
     1
 40
0.6
176
     1
 40
30.0
176
     1
 62
     7
420
 16777215
176
     1
 90
        1
176
     1
 90
        4
176
     1
 62
     7
176
     1
 62
   257
176
     1
 90
        7
176
     1
 90
        7
176
     1
 40
1.0
176
     1
 90
        8
176
     1
 62
     7
176
     1
 40
1.0
176
     1
 90
        1
176
     1
 90
        6
176
     1
 90
        2
176
     1
 62
     7
176
     1
 90
        5
176
     1
 90
        0
176
     1
 90
        0
176
     1
290
     0
176
     1
 90
        1
176
     1
 40
0.0
176
     1
 90
        0
176
     1
290
     0
176
     1
290
     1
176
     1
290
     1
176
     1
290
     0
176
     1
290
     0
176
     1
290
     0
176
     1
290
     0
176
     1
290
     0
176
     1
290
     0
176
     1
 90
       50
176
     1
 40
0.0
176
     1
 40
1.0
176
     1
 90
        0
176
     1
 62
    18
420
        0
176
     1
 90
       50
176
     1
 90
        3
176
     1
 62
     5
420
      255
176
     1
290
     0
176
     1
 90
       50
176
     1
 90
       50
176
     1
 90
       50
176
     1
290
     0
176
     1
 90
       50
176
     1
 62
   256
176
     0
 40
1.0
176
     0
 90
        2
176
     1
  1
strokes_ogs.tif
176
     1
290
     0
176
     1
 40
1.0
176
     1
 40
1.0
176
     1
  0
VISUALSTYLE
  5
542
102
{ACAD_REACTORS
330
530
102
}
330
530
100
AcDbVisualStyle
  2
OverhangOff
 70
    21
177
     3
291
     1
 70
    58
 90
        2
176
     0
 90
        2
176
     0
 90
        0
176
     0
 90
        0
176
     0
 40
0.6
176
     0
 40
30.0
176
     0
 62
     7
420
 16777215
176
     0
 90
        1
176
     0
 90
        4
176
     0
 62
     7
176
     0
 62
   257
176
     0
 90
        1
176
     0
 90
        1
176
     0
 40
1.0
176
     0
 90
        9
176
     2
 62
     7
176
     0
 40
1.0
176
     0
 90
        1
176
     0
 90
        6
176
     0
 90
        2
176
     0
 62
     7
176
     0
 90
        5
176
     0
 90
        0
176
     0
 90
        0
176
     0
290
     0
176
     0
 90
        1
176
     0
 40
0.0
176
     0
 90
        0
176
     0
290
     0
176
     0
290
     1
176
     0
290
     1
176
     0
290
     0
176
     0
290
     0
176
     0
290
     0
176
     0
290
     0
176
     0
290
     0
176
     0
290
     0
176
     0
 90
       50
176
     0
 40
0.0
176
     0
 40
1.0
176
     0
 90
        0
176
     0
 62
    18
420
        0
176
     0
 90
       50
176
     0
 90
        3
176
     0
 62
     5
420
      255
176
     0
290
     0
176
     0
 90
       50
176
     0
 90
       50
176
     0
 90
       50
176
     0
290
     0
176
     0
 90
       50
176
     0
 62
   256
176
     0
 40
1.0
176
     0
 90
        2
176
     0
  1
strokes_ogs.tif
176
     0
290
     0
176
     0
 40
1.0
176
     0
 40
1.0
176
     0
  0
VISUALSTYLE
  5
539
102
{ACAD_REACTORS
330
530
102
}
330
530
100
AcDbVisualStyle
  2
Realistic
 70
     8
177
     3
291
     0
 70
    58
 90
        2
176
     1
 90
        3
176
     1
 90
        0
176
     1
 90
        2
176
     1
 40
0.6
176
     1
 40
30.0
176
     1
 62
     7
420
 16777215
176
     1
 90
        0
176
     1
 90
        0
176
     1
 62
     7
176
     1
 62
   257
176
     1
 90
        1
176
     1
 90
        1
176
     1
 40
1.0
176
     1
 90
        8
176
     1
 62
   257
176
     1
 40
1.0
176
     1
 90
        1
176
     1
 90
        6
176
     1
 90
        2
176
     1
 62
     7
176
     1
 90
        3
176
     1
 90
        0
176
     1
 90
        0
176
     1
290
     0
176
     1
 90
       13
176
     1
 40
0.0
176
     1
 90
        0
176
     1
290
     0
176
     1
290
     1
176
     1
290
     1
176
     1
290
     0
176
     1
290
     0
176
     1
290
     0
176
     1
290
     0
176
     1
290
     0
176
     1
290
     0
176
     1
 90
       50
176
     1
 40
0.0
176
     1
 40
1.0
176
     1
 90
        0
176
     1
 62
    18
420
        0
176
     1
 90
       50
176
     1
 90
        3
176
     1
 62
     5
420
      255
176
     1
290
     0
176
     1
 90
       50
176
     1
 90
       50
176
     1
 90
       50
176
     1
290
     0
176
     1
 90
       50
176
     1
 62
   256
176
     0
 40
1.0
176
     0
 90
        2
176
     1
  1
strokes_ogs.tif
176
     1
290
     0
176
     1
 40
1.0
176
     1
 40
1.0
176
     1
  0
VISUALSTYLE
  5
548
102
{ACAD_REACTORS
330
530
102
}
330
530
100
AcDbVisualStyle
  2
Shaded
 70
    27
177
     3
291
     0
 70
    58
 90
        2
176
     1
 90
        2
176
     1
 90
        1
176
     1
 90
        2
176
     1
 40
0.6
176
     1
 40
30.0
176
     1
 62
     7
420
 16777215
176
     1
 90
        0
176
     1
 90
        4
176
     1
 62
     7
176
     1
 62
   257
176
     1
 90
        1
176
     1
 90
        1
176
     1
 40
1.0
176
     1
 90
        8
176
     1
 62
   257
176
     1
 40
1.0
176
     1
 90
        1
176
     1
 90
        6
176
     1
 90
        2
176
     1
 62
     8
420
  7895160
176
     1
 90
        3
176
     1
 90
        0
176
     1
 90
        0
176
     1
290
     0
176
     1
 90
        5
176
     1
 40
0.0
176
     1
 90
        0
176
     1
290
     0
176
     1
290
     1
176
     1
290
     1
176
     1
290
     0
176
     1
290
     0
176
     1
290
     0
176
     1
290
     0
176
     1
290
     0
176
     1
290
     0
176
     1
 90
       50
176
     1
 40
0.0
176
     1
 40
1.0
176
     1
 90
        0
176
     1
 62
    18
420
        0
176
     1
 90
       50
176
     1
 90
        3
176
     1
 62
     5
420
      255
176
     1
290
     0
176
     1
 90
       50
176
     1
 90
       50
176
     1
 90
       50
176
     1
290
     0
176
     1
 90
       50
176
     1
 62
   256
176
     0
 40
1.0
176
     0
 90
        2
176
     1
  1
strokes_ogs.tif
176
     1
290
     0
176
     1
 40
1.0
176
     1
 40
1.0
176
     1
  0
VISUALSTYLE
  5
547
102
{ACAD_REACTORS
330
530
102
}
330
530
100
AcDbVisualStyle
  2
Shaded with edges
 70
    26
177
     3
291
     0
 70
    58
 90
        2
176
     1
 90
        2
176
     1
 90
        1
176
     1
 90
        2
176
     1
 40
0.6
176
     1
 40
30.0
176
     1
 62
     7
420
 16777215
176
     1
 90
        1
176
     1
 90
       10
176
     1
 62
     7
176
     1
 62
   257
176
     1
 90
        2
176
     1
 90
        1
176
     1
 40
1.0
176
     1
 90
        8
176
     1
 62
   257
176
     1
 40
1.0
176
     1
 90
        1
176
     1
 90
        6
176
     1
 90
        2
176
     1
 62
     7
176
     1
 90
        3
176
     1
 90
        0
176
     1
 90
        0
176
     1
290
     0
176
     1
 90
        5
176
     1
 40
0.0
176
     1
 90
        0
176
     1
290
     0
176
     1
290
     1
176
     1
290
     1
176
     1
290
     0
176
     1
290
     0
176
     1
290
     0
176
     1
290
     0
176
     1
290
     0
176
     1
290
     0
176
     1
 90
       50
176
     1
 40
0.0
176
     1
 40
1.0
176
     1
 90
        0
176
     1
 62
    18
420
        0
176
     1
 90
       50
176
     1
 90
        3
176
     1
 62
     5
420
      255
176
     1
290
     0
176
     1
 90
       50
176
     1
 90
       50
176
     1
 90
       50
176
     1
290
     0
176
     1
 90
       50
176
     1
 62
   256
176
     0
 40
1.0
176
     0
 90
        2
176
     1
  1
strokes_ogs.tif
176
     1
290
     0
176
     1
 40
1.0
176
     1
 40
1.0
176
     1
  0
VISUALSTYLE
  5
544
102
{ACAD_REACTORS
330
530
102
}
330
530
100
AcDbVisualStyle
  2
Shades of Gray
 70
    23
177
     3
291
     0
 70
    58
 90
        2
176
     1
 90
        2
176
     1
 90
        3
176
     1
 90
        0
176
     1
 40
0.6
176
     1
 40
30.0
176
     1
 62
     7
420
 16777215
176
     1
 90
        2
176
     1
 90
        2
176
     1
 62
     7
176
     1
 62
     7
176
     1
 90
        1
176
     1
 90
        1
176
     1
 40
40.0
176
     1
 90
        8
176
     1
 62
     7
176
     1
 40
1.0
176
     1
 90
        1
176
     1
 90
        6
176
     1
 90
        2
176
     1
 62
     7
176
     1
 90
        3
176
     1
 90
        0
176
     1
 90
        0
176
     1
290
     0
176
     1
 90
        1
176
     1
 40
0.0
176
     1
 90
        0
176
     1
290
     0
176
     1
290
     1
176
     1
290
     1
176
     1
290
     0
176
     1
290
     0
176
     1
290
     0
176
     1
290
     0
176
     1
290
     0
176
     1
290
     0
176
     1
 90
       50
176
     1
 40
0.0
176
     1
 40
1.0
176
     1
 90
        0
176
     1
 62
    18
420
        0
176
     1
 90
       50
176
     1
 90
        3
176
     1
 62
     5
420
      255
176
     1
290
     0
176
     1
 90
       50
176
     1
 90
       50
176
     1
 90
       50
176
     1
290
     0
176
     1
 90
       50
176
     1
 62
   256
176
     0
 40
1.0
176
     0
 90
        2
176
     1
  1
strokes_ogs.tif
176
     1
290
     0
176
     1
 40
1.0
176
     1
 40
1.0
176
     1
  0
VISUALSTYLE
  5
545
102
{ACAD_REACTORS
330
530
102
}
330
530
100
AcDbVisualStyle
  2
Sketchy
 70
    24
177
     3
291
     0
 70
    58
 90
        1
176
     1
 90
        2
176
     1
 90
        2
176
     1
 90
        0
176
     1
 40
0.6
176
     1
 40
30.0
176
     1
 62
     7
420
 16777215
176
     1
 90
        2
176
     1
 90
        2
176
     1
 62
     7
176
     1
 62
     7
176
     1
 90
        1
176
     1
 90
        1
176
     1
 40
40.0
176
     1
 90
       11
176
     1
 62
     7
176
     1
 40
1.0
176
     1
 90
        1
176
     1
 90
        6
176
     1
 90
        2
176
     1
 62
     7
176
     1
 90
        6
176
     1
 90
        0
176
     1
 90
        0
176
     1
290
     0
176
     1
 90
        1
176
     1
 40
0.0
176
     1
 90
        0
176
     1
290
     0
176
     1
290
     1
176
     1
290
     1
176
     1
290
     0
176
     1
290
     0
176
     1
290
     0
176
     1
290
     0
176
     1
290
     0
176
     1
290
     0
176
     1
 90
       50
176
     1
 40
0.0
176
     1
 40
1.0
176
     1
 90
        0
176
     1
 62
    18
420
        0
176
     1
 90
       50
176
     1
 90
        3
176
     1
 62
     5
420
      255
176
     1
290
     0
176
     1
 90
       50
176
     1
 90
       50
176
     1
 90
       50
176
     1
290
     0
176
     1
 90
       50
176
     1
 62
   256
176
     0
 40
1.0
176
     0
 90
        2
176
     1
  1
strokes_ogs.tif
176
     1
290
     0
176
     1
 40
1.0
176
     1
 40
1.0
176
     1
  0
VISUALSTYLE
  5
53D
102
{ACAD_REACTORS
330
530
102
}
330
530
100
AcDbVisualStyle
  2
Thicken
 70
    13
177
     3
291
     1
 70
    58
 90
        2
176
     1
 90
        2
176
     1
 90
        0
176
     1
 90
        0
176
     1
 40
0.6
176
     1
 40
30.0
176
     1
 62
     7
420
 16777215
176
     1
 90
        1
176
     1
 90
        4
176
     1
 62
     7
176
     1
 62
   257
176
     1
 90
        1
176
     1
 90
        1
176
     1
 40
1.0
176
     1
 90
       12
176
     1
 62
     7
176
     1
 40
1.0
176
     1
 90
        1
176
     1
 90
        6
176
     1
 90
        2
176
     1
 62
     7
176
     1
 90
        5
176
     1
 90
        0
176
     1
 90
        0
176
     1
290
     0
176
     1
 90
        1
176
     1
 40
0.0
176
     1
 90
        0
176
     1
290
     0
176
     1
290
     1
176
     1
290
     1
176
     1
290
     0
176
     1
290
     0
176
     1
290
     0
176
     1
290
     0
176
     1
290
     0
176
     1
290
     0
176
     1
 90
       50
176
     1
 40
0.0
176
     1
 40
1.0
176
     1
 90
        0
176
     1
 62
    18
420
        0
176
     1
 90
       50
176
     1
 90
        3
176
     1
 62
     5
420
      255
176
     1
290
     0
176
     1
 90
       50
176
     1
 90
       50
176
     1
 90
       50
176
     1
290
     0
176
     1
 90
       50
176
     1
 62
   256
176
     0
 40
1.0
176
     0
 90
        2
176
     1
  1
strokes_ogs.tif
176
     1
290
     0
176
     1
 40
1.0
176
     1
 40
1.0
176
     1
  0
VISUALSTYLE
  5
536
102
{ACAD_REACTORS
330
530
102
}
330
530
100
AcDbVisualStyle
  2
Wireframe
 70
     5
177
     3
291
     0
 70
    58
 90
        0
176
     1
 90
        2
176
     1
 90
        0
176
     1
 90
        0
176
     1
 40
0.6
176
     1
 40
30.0
176
     1
 62
     7
420
 16777215
176
     1
 90
        1
176
     1
 90
        4
176
     1
 62
     7
176
     1
 62
   257
176
     1
 90
        1
176
     1
 90
        1
176
     1
 40
1.0
176
     1
 90
        0
176
     1
 62
   257
176
     1
 40
1.0
176
     1
 90
        1
176
     1
 90
        6
176
     1
 90
        2
176
     1
 62
     7
176
     1
 90
        3
176
     1
 90
        0
176
     1
 90
        0
176
     1
290
     0
176
     1
 90
        1
176
     1
 40
0.0
176
     1
 90
        0
176
     1
290
     0
176
     1
290
     1
176
     1
290
     1
176
     1
290
     0
176
     1
290
     0
176
     1
290
     0
176
     1
290
     0
176
     1
290
     0
176
     1
290
     0
176
     1
 90
       50
176
     1
 40
0.0
176
     1
 40
1.0
176
     1
 90
        0
176
     1
 62
    18
420
        0
176
     1
 90
       50
176
     1
 90
        3
176
     1
 62
     5
420
      255
176
     1
290
     0
176
     1
 90
       50
176
     1
 90
       50
176
     1
 90
       50
176
     1
290
     0
176
     1
 90
       50
176
     1
 62
   256
176
     0
 40
1.0
176
     0
 90
        2
176
     1
  1
strokes_ogs.tif
176
     1
290
     0
176
     1
 40
1.0
176
     1
 40
1.0
176
     1
  0
VISUALSTYLE
  5
546
102
{ACAD_REACTORS
330
530
102
}
330
530
100
AcDbVisualStyle
  2
X-Ray
 70
    25
177
     3
291
     0
 70
    58
 90
        2
176
     1
 90
        2
176
     1
 90
        1
176
     1
 90
        1
176
     1
 40
0.5
176
     1
 40
30.0
176
     1
 62
     7
420
 16777215
176
     1
 90
        1
176
     1
 90
        0
176
     1
 62
     7
176
     1
 62
   257
176
     1
 90
        1
176
     1
 90
        1
176
     1
 40
1.0
176
     1
 90
        8
176
     1
 62
     7
176
     1
 40
1.0
176
     1
 90
        1
176
     1
 90
        6
176
     1
 90
        2
176
     1
 62
     7
176
     1
 90
        3
176
     1
 90
        0
176
     1
 90
        0
176
     1
290
     0
176
     1
 90
       13
176
     1
 40
0.0
176
     1
 90
        0
176
     1
290
     0
176
     1
290
     1
176
     1
290
     1
176
     1
290
     0
176
     1
290
     0
176
     1
290
     0
176
     1
290
     0
176
     1
290
     0
176
     1
290
     0
176
     1
 90
       50
176
     1
 40
0.0
176
     1
 40
1.0
176
     1
 90
        0
176
     1
 62
    18
420
        0
176
     1
 90
       50
176
     1
 90
        3
176
     1
 62
     5
420
      255
176
     1
290
     0
176
     1
 90
       50
176
     1
 90
       50
176
     1
 90
       50
176
     1
290
     0
176
     1
 90
       50
176
     1
 62
   256
176
     0
 40
1.0
176
     0
 90
        2
176
     1
  1
strokes_ogs.tif
176
     1
290
     0
176
     1
 40
1.0
176
     1
 40
1.0
176
     1
  0
DICTIONARYVAR
  5
553
102
{ACAD_REACTORS
330
552
102
}
330
552
100
DictionaryVariables
280
     0
  1
1:1
  0
DICTIONARYVAR
  5
558
102
{ACAD_REACTORS
330
552
102
}
330
552
100
DictionaryVariables
280
     0
  1
Standard
  0
DICTIONARYVAR
  5
557
102
{ACAD_REACTORS
330
552
102
}
330
552
100
DictionaryVariables
280
     0
  1
Standard
  0
DICTIONARYVAR
  5
559
102
{ACAD_REACTORS
330
552
102
}
330
552
100
DictionaryVariables
280
     0
  1
0
  0
DICTIONARY
  5
554
330
54E
100
AcDbDictionary
280
     1
281
     1
  3
ACAD_ROUNDTRIP_2008_TABLESTYLE_CELLSTYLEMAP
360
555
  0
CELLSTYLEMAP
  5
555
102
{ACAD_REACTORS
330
554
102
}
330
554
100
AcDbCellStyleMap
 90
        3
300
CELLSTYLE
  1
TABLEFORMAT_BEGIN
 90
        5
170
     1
 91
        0
 92
    32768
 62
   257
 93
        1
300
CONTENTFORMAT
  1
CONTENTFORMAT_BEGIN
 90
        0
 91
        0
 92
        4
 93
        0
300

 40
0.0
140
1.0
 94
        5
 62
     0
340
11
144
6.0
309
CONTENTFORMAT_END
171
     1
301
MARGIN
  1
CELLMARGIN_BEGIN
 40
1.5
 40
1.5
 40
1.5
 40
1.5
 40
1.5
 40
1.5
309
CELLMARGIN_END
 94
        6
 95
        1
302
GRIDFORMAT
  1
GRIDFORMAT_BEGIN
 90
        0
 91
        1
 62
     0
 92
       -2
340
14
 93
        0
 40
0.045
309
GRIDFORMAT_END
 95
        2
302
GRIDFORMAT
  1
GRIDFORMAT_BEGIN
 90
        0
 91
        1
 62
     0
 92
       -2
340
14
 93
        0
 40
0.045
309
GRIDFORMAT_END
 95
        4
302
GRIDFORMAT
  1
GRIDFORMAT_BEGIN
 90
        0
 91
        1
 62
     0
 92
       -2
340
14
 93
        0
 40
0.045
309
GRIDFORMAT_END
 95
        8
302
GRIDFORMAT
  1
GRIDFORMAT_BEGIN
 90
        0
 91
        1
 62
     0
 92
       -2
340
14
 93
        0
 40
0.045
309
GRIDFORMAT_END
 95
       16
302
GRIDFORMAT
  1
GRIDFORMAT_BEGIN
 90
        0
 91
        1
 62
     0
 92
       -2
340
14
 93
        0
 40
0.045
309
GRIDFORMAT_END
 95
       32
302
GRIDFORMAT
  1
GRIDFORMAT_BEGIN
 90
        0
 91
        1
 62
     0
 92
       -2
340
14
 93
        0
 40
0.045
309
GRIDFORMAT_END
309
TABLEFORMAT_END
  1
CELLSTYLE_BEGIN
 90
        1
 91
        1
300
_TITLE
309
CELLSTYLE_END
300
CELLSTYLE
  1
TABLEFORMAT_BEGIN
 90
        5
170
     1
 91
        0
 92
        0
 62
   257
 93
        1
300
CONTENTFORMAT
  1
CONTENTFORMAT_BEGIN
 90
        0
 91
        0
 92
        4
 93
        0
300

 40
0.0
140
1.0
 94
        5
 62
     0
340
11
144
4.5
309
CONTENTFORMAT_END
171
     1
301
MARGIN
  1
CELLMARGIN_BEGIN
 40
1.5
 40
1.5
 40
1.5
 40
1.5
 40
1.5
 40
1.5
309
CELLMARGIN_END
 94
        6
 95
        1
302
GRIDFORMAT
  1
GRIDFORMAT_BEGIN
 90
        0
 91
        1
 62
     0
 92
       -2
340
14
 93
        0
 40
0.045
309
GRIDFORMAT_END
 95
        2
302
GRIDFORMAT
  1
GRIDFORMAT_BEGIN
 90
        0
 91
        1
 62
     0
 92
       -2
340
14
 93
        0
 40
0.045
309
GRIDFORMAT_END
 95
        4
302
GRIDFORMAT
  1
GRIDFORMAT_BEGIN
 90
        0
 91
        1
 62
     0
 92
       -2
340
14
 93
        0
 40
0.045
309
GRIDFORMAT_END
 95
        8
302
GRIDFORMAT
  1
GRIDFORMAT_BEGIN
 90
        0
 91
        1
 62
     0
 92
       -2
340
14
 93
        0
 40
0.045
309
GRIDFORMAT_END
 95
       16
302
GRIDFORMAT
  1
GRIDFORMAT_BEGIN
 90
        0
 91
        1
 62
     0
 92
       -2
340
14
 93
        0
 40
0.045
309
GRIDFORMAT_END
 95
       32
302
GRIDFORMAT
  1
GRIDFORMAT_BEGIN
 90
        0
 91
        1
 62
     0
 92
       -2
340
14
 93
        0
 40
0.045
309
GRIDFORMAT_END
309
TABLEFORMAT_END
  1
CELLSTYLE_BEGIN
 90
        2
 91
        1
300
_HEADER
309
CELLSTYLE_END
300
CELLSTYLE
  1
TABLEFORMAT_BEGIN
 90
        5
170
     1
 91
        0
 92
        0
 62
   257
 93
        1
300
CONTENTFORMAT
  1
CONTENTFORMAT_BEGIN
 90
        0
 91
        0
 92
        4
 93
        0
300

 40
0.0
140
1.0
 94
        2
 62
     0
340
11
144
4.5
309
CONTENTFORMAT_END
171
     1
301
MARGIN
  1
CELLMARGIN_BEGIN
 40
1.5
 40
1.5
 40
1.5
 40
1.5
 40
1.5
 40
1.5
309
CELLMARGIN_END
 94
        6
 95
        1
302
GRIDFORMAT
  1
GRIDFORMAT_BEGIN
 90
        0
 91
        1
 62
     0
 92
       -2
340
14
 93
        0
 40
0.045
309
GRIDFORMAT_END
 95
        2
302
GRIDFORMAT
  1
GRIDFORMAT_BEGIN
 90
        0
 91
        1
 62
     0
 92
       -2
340
14
 93
        0
 40
0.045
309
GRIDFORMAT_END
 95
        4
302
GRIDFORMAT
  1
GRIDFORMAT_BEGIN
 90
        0
 91
        1
 62
     0
 92
       -2
340
14
 93
        0
 40
0.045
309
GRIDFORMAT_END
 95
        8
302
GRIDFORMAT
  1
GRIDFORMAT_BEGIN
 90
        0
 91
        1
 62
     0
 92
       -2
340
14
 93
        0
 40
0.045
309
GRIDFORMAT_END
 95
       16
302
GRIDFORMAT
  1
GRIDFORMAT_BEGIN
 90
        0
 91
        1
 62
     0
 92
       -2
340
14
 93
        0
 40
0.045
309
GRIDFORMAT_END
 95
       32
302
GRIDFORMAT
  1
GRIDFORMAT_BEGIN
 90
        0
 91
        1
 62
     0
 92
       -2
340
14
 93
        0
 40
0.045
309
GRIDFORMAT_END
309
TABLEFORMAT_END
  1
CELLSTYLE_BEGIN
 90
        3
 91
        2
300
_DATA
309
CELLSTYLE_END
  0
ENDSEC
  0
EOF
