  0
SECTION
  2
HEADER
  9
$ACADVER
  1
AC1027
  9
$ACADMAINTVER
 70
   105
  9
$DWGCODEPAGE
  3
ANSI_1252
  9
$REQUIREDVERSIONS
160
                 0
  9
$LASTSAVEDBY
  1
andrea.zolin
  9
$INSBASE
 10
0.0
 20
0.0
 30
0.0
  9
$EXTMIN
 10
0.0
 20
0.0
 30
0.0
  9
$EXTMAX
 10
297.0
 20
210.0
 30
0.0
  9
$LIMMIN
 10
0.0
 20
0.0
  9
$LIMMAX
 10
297.0
 20
210.0
  9
$ORTHOMODE
 70
     0
  9
$REGENMODE
 70
     1
  9
$FILLMODE
 70
     1
  9
$QTEXTMODE
 70
     0
  9
$MIRRTEXT
 70
     1
  9
$LTSCALE
 40
16.335
  9
$ATTMODE
 70
     1
  9
$TEXTSIZE
 40
0.2
  9
$TRACEWID
 40
0.05
  9
$TEXTSTYLE
  7
STANDARD
  9
$CLAYER
  8
0
  9
$CELTYPE
  6
BYLAYER
  9
$CECOLOR
 62
   256
  9
$CELTSCALE
 40
1.0
  9
$DISPSILH
 70
     0
  9
$DIMSCALE
 40
1.0
  9
$DIMASZ
 40
2.5
  9
$DIMEXO
 40
0.75
  9
$DIMDLI
 40
11.286
  9
$DIMRND
 40
0.0
  9
$DIMDLE
 40
0.0
  9
$DIMEXE
 40
0.75
  9
$DIMTP
 40
0.01
  9
$DIMTM
 40
0.01
  9
$DIMTXT
 40
3.0
  9
$DIMCEN
 40
2.673
  9
$DIMTSZ
 40
0.0
  9
$DIMTOL
 70
     1
  9
$DIMLIM
 70
     0
  9
$DIMTIH
 70
     1
  9
$DIMTOH
 70
     1
  9
$DIMSE1
 70
     0
  9
$DIMSE2
 70
     0
  9
$DIMTAD
 70
     0
  9
$DIMZIN
 70
     0
  9
$DIMBLK
  1
CLOSED
  9
$DIMASO
 70
     1
  9
$DIMSHO
 70
     1
  9
$DIMPOST
  1

  9
$DIMAPOST
  1

  9
$DIMALT
 70
     0
  9
$DIMALTD
 70
     2
  9
$DIMALTF
 40
25.4
  9
$DIMLFAC
 40
1.0
  9
$DIMTOFL
 70
     0
  9
$DIMTVP
 40
0.0
  9
$DIMTIX
 70
     0
  9
$DIMSOXD
 70
     0
  9
$DIMSAH
 70
     0
  9
$DIMBLK1
  1

  9
$DIMBLK2
  1

  9
$DIMSTYLE
  2
STANDARD
  9
$DIMCLRD
 70
     0
  9
$DIMCLRE
 70
     0
  9
$DIMCLRT
 70
     0
  9
$DIMTFAC
 40
1.0
  9
$DIMGAP
 40
0.625
  9
$DIMJUST
 70
     0
  9
$DIMSD1
 70
     0
  9
$DIMSD2
 70
     0
  9
$DIMTOLJ
 70
     1
  9
$DIMTZIN
 70
     0
  9
$DIMALTZ
 70
     0
  9
$DIMALTTZ
 70
     0
  9
$DIMUPT
 70
     0
  9
$DIMDEC
 70
     4
  9
$DIMTDEC
 70
     4
  9
$DIMALTU
 70
     2
  9
$DIMALTTD
 70
     2
  9
$DIMTXSTY
  7
STANDARD
  9
$DIMAUNIT
 70
     0
  9
$DIMADEC
 70
     0
  9
$DIMALTRND
 40
0.0
  9
$DIMAZIN
 70
     0
  9
$DIMDSEP
 70
    46
  9
$DIMATFIT
 70
     3
  9
$DIMFRAC
 70
     0
  9
$DIMLDRBLK
  1

  9
$DIMLUNIT
 70
     2
  9
$DIMLWD
 70
    -2
  9
$DIMLWE
 70
    -2
  9
$DIMTMOVE
 70
     2
  9
$DIMFXL
 40
1.0
  9
$DIMFXLON
 70
     0
  9
$DIMJOGANG
 40
0.7853981633974483
  9
$DIMTFILL
 70
     0
  9
$DIMTFILLCLR
 70
     0
  9
$DIMARCSYM
 70
     0
  9
$DIMLTYPE
  6

  9
$DIMLTEX1
  6

  9
$DIMLTEX2
  6

  9
$DIMTXTDIRECTION
 70
     0
  9
$LUNITS
 70
     2
  9
$LUPREC
 70
     4
  9
$SKETCHINC
 40
0.1
  9
$FILLETRAD
 40
0.5
  9
$AUNITS
 70
     0
  9
$AUPREC
 70
     0
  9
$MENU
  1
.
  9
$ELEVATION
 40
0.0
  9
$PELEVATION
 40
0.0
  9
$THICKNESS
 40
0.0
  9
$LIMCHECK
 70
     0
  9
$CHAMFERA
 40
0.0
  9
$CHAMFERB
 40
0.0
  9
$CHAMFERC
 40
0.0
  9
$CHAMFERD
 40
0.0
  9
$SKPOLY
 70
     0
  9
$TDCREATE
 40
2447893.041666667
  9
$TDUCREATE
 40
0.0
  9
$TDUPDATE
 40
2458473.679464445
  9
$TDUUPDATE
 40
2458473.637797778
  9
$TDINDWG
 40
0.000178206
  9
$TDUSRTIMER
 40
0.000178206
  9
$USRTIMER
 70
     1
  9
$ANGBASE
 50
0.0
  9
$ANGDIR
 70
     0
  9
$PDMODE
 70
     3
  9
$PDSIZE
 40
0.3125
  9
$PLINEWID
 40
0.0
  9
$SPLFRAME
 70
     0
  9
$SPLINETYPE
 70
     6
  9
$SPLINESEGS
 70
     8
  9
$HANDSEED
  5
428
  9
$SURFTAB1
 70
     6
  9
$SURFTAB2
 70
     6
  9
$SURFTYPE
 70
     6
  9
$SURFU
 70
     6
  9
$SURFV
 70
     6
  9
$UCSBASE
  2

  9
$UCSNAME
  2

  9
$UCSORG
 10
0.0
 20
0.0
 30
0.0
  9
$UCSXDIR
 10
1.0
 20
0.0
 30
0.0
  9
$UCSYDIR
 10
0.0
 20
1.0
 30
0.0
  9
$UCSORTHOREF
  2

  9
$UCSORTHOVIEW
 70
     0
  9
$UCSORGTOP
 10
0.0
 20
0.0
 30
0.0
  9
$UCSORGBOTTOM
 10
0.0
 20
0.0
 30
0.0
  9
$UCSORGLEFT
 10
0.0
 20
0.0
 30
0.0
  9
$UCSORGRIGHT
 10
0.0
 20
0.0
 30
0.0
  9
$UCSORGFRONT
 10
0.0
 20
0.0
 30
0.0
  9
$UCSORGBACK
 10
0.0
 20
0.0
 30
0.0
  9
$PUCSBASE
  2

  9
$PUCSNAME
  2

  9
$PUCSORG
 10
0.0
 20
0.0
 30
0.0
  9
$PUCSXDIR
 10
1.0
 20
0.0
 30
0.0
  9
$PUCSYDIR
 10
0.0
 20
1.0
 30
0.0
  9
$PUCSORTHOREF
  2

  9
$PUCSORTHOVIEW
 70
     0
  9
$PUCSORGTOP
 10
0.0
 20
0.0
 30
0.0
  9
$PUCSORGBOTTOM
 10
0.0
 20
0.0
 30
0.0
  9
$PUCSORGLEFT
 10
0.0
 20
0.0
 30
0.0
  9
$PUCSORGRIGHT
 10
0.0
 20
0.0
 30
0.0
  9
$PUCSORGFRONT
 10
0.0
 20
0.0
 30
0.0
  9
$PUCSORGBACK
 10
0.0
 20
0.0
 30
0.0
  9
$USERI1
 70
     0
  9
$USERI2
 70
     0
  9
$USERI3
 70
     0
  9
$USERI4
 70
     0
  9
$USERI5
 70
     0
  9
$USERR1
 40
0.0
  9
$USERR2
 40
0.0
  9
$USERR3
 40
0.0
  9
$USERR4
 40
0.0
  9
$USERR5
 40
0.0
  9
$WORLDVIEW
 70
     1
  9
$SHADEDGE
 70
     3
  9
$SHADEDIF
 70
    70
  9
$TILEMODE
 70
     0
  9
$MAXACTVP
 70
    64
  9
$PINSBASE
 10
0.0
 20
0.0
 30
0.0
  9
$PLIMCHECK
 70
     0
  9
$PEXTMIN
 10
0.0
 20
0.0
 30
0.0
  9
$PEXTMAX
 10
299.1920747437667
 20
210.0
 30
0.0
  9
$PLIMMIN
 10
-6.1284046692607
 20
-16.34241245136187
  9
$PLIMMAX
 10
337.0622568093385
 20
226.3424124513618
  9
$UNITMODE
 70
     0
  9
$VISRETAIN
 70
     1
  9
$PLINEGEN
 70
     0
  9
$PSLTSCALE
 70
     1
  9
$TREEDEPTH
 70
  3020
  9
$CMLSTYLE
  2
STANDARD
  9
$CMLJUST
 70
     0
  9
$CMLSCALE
 40
1.0
  9
$PROXYGRAPHICS
 70
     1
  9
$MEASUREMENT
 70
     1
  9
$CELWEIGHT
370
    -1
  9
$ENDCAPS
280
     0
  9
$JOINSTYLE
280
     0
  9
$LWDISPLAY
290
     0
  9
$INSUNITS
 70
     0
  9
$HYPERLINKBASE
  1

  9
$STYLESHEET
  1

  9
$XEDIT
290
     1
  9
$CEPSNTYPE
380
     0
  9
$PSTYLEMODE
290
     1
  9
$FINGERPRINTGUID
  2
{A78DF50C-AADE-4FD0-9438-1A3847233FCF}
  9
$VERSIONGUID
  2
{FAEB1C32-E019-11D5-929B-00C0DF256EC4}
  9
$EXTNAMES
290
     1
  9
$PSVPSCALE
 40
0.0
  9
$OLESTARTUP
290
     0
  9
$SORTENTS
280
   127
  9
$INDEXCTL
280
     0
  9
$HIDETEXT
280
     1
  9
$XCLIPFRAME
280
     2
  9
$HALOGAP
280
     0
  9
$OBSCOLOR
 70
   257
  9
$OBSLTYPE
280
     0
  9
$INTERSECTIONDISPLAY
280
     0
  9
$INTERSECTIONCOLOR
 70
   257
  9
$DIMASSOC
280
     2
  9
$PROJECTNAME
  1

  9
$CAMERADISPLAY
290
     0
  9
$LENSLENGTH
 40
50.0
  9
$CAMERAHEIGHT
 40
0.0
  9
$STEPSPERSEC
 40
2.0
  9
$STEPSIZE
 40
6.0
  9
$3DDWFPREC
 40
2.0
  9
$PSOLWIDTH
 40
0.25
  9
$PSOLHEIGHT
 40
4.0
  9
$LOFTANG1
 40
1.570796326794897
  9
$LOFTANG2
 40
1.570796326794897
  9
$LOFTMAG1
 40
0.0
  9
$LOFTMAG2
 40
0.0
  9
$LOFTPARAM
 70
     7
  9
$LOFTNORMALS
280
     1
  9
$LATITUDE
 40
37.795
  9
$LONGITUDE
 40
-122.394
  9
$NORTHDIRECTION
 40
0.0
  9
$TIMEZONE
 70
 -8000
  9
$LIGHTGLYPHDISPLAY
280
     1
  9
$TILEMODELIGHTSYNCH
280
     1
  9
$SOLIDHIST
280
     0
  9
$SHOWHIST
280
     1
  9
$DWFFRAME
280
     2
  9
$DGNFRAME
280
     2
  9
$REALWORLDSCALE
290
     1
  9
$INTERFERECOLOR
 62
   256
  9
$CSHADOW
280
     0
  9
$SHADOWPLANELOCATION
 40
0.0
  0
ENDSEC
  0
SECTION
  2
CLASSES
  0
CLASS
  1
ACDBDICTIONARYWDFLT
  2
AcDbDictionaryWithDefault
  3
ObjectDBX Classes
 90
        0
 91
        4
280
     0
281
     0
  0
CLASS
  1
SCALE
  2
AcDbScale
  3
ObjectDBX Classes
 90
     1153
 91
        4
280
     0
281
     0
  0
CLASS
  1
VISUALSTYLE
  2
AcDbVisualStyle
  3
ObjectDBX Classes
 90
     4095
 91
        4
280
     0
281
     0
  0
CLASS
  1
MATERIAL
  2
AcDbMaterial
  3
ObjectDBX Classes
 90
     1153
 91
        4
280
     0
281
     0
  0
CLASS
  1
TABLESTYLE
  2
AcDbTableStyle
  3
ObjectDBX Classes
 90
     4095
 91
        4
280
     0
281
     0
  0
CLASS
  1
MLEADERSTYLE
  2
AcDbMLeaderStyle
  3
ACDB_MLEADERSTYLE_CLASS
 90
     4095
 91
        4
280
     0
281
     0
  0
CLASS
  1
DICTIONARYVAR
  2
AcDbDictionaryVar
  3
ObjectDBX Classes
 90
        0
 91
        4
280
     0
281
     0
  0
CLASS
  1
CELLSTYLEMAP
  2
AcDbCellStyleMap
  3
ObjectDBX Classes
 90
     1152
 91
        4
280
     0
281
     0
  0
ENDSEC
  0
SECTION
  2
TABLES
  0
TABLE
  2
VPORT
  5
8
330
0
100
AcDbSymbolTable
 70
     1
  0
VPORT
  5
1F4
330
8
100
AcDbSymbolTableRecord
100
AcDbViewportTableRecord
  2
*ACTIVE
 70
     0
 10
0.0
 20
0.0
 11
1.0
 21
1.0
 12
148.5
 22
105.0
 13
0.0
 23
0.0
 14
1.0
 24
1.0
 15
0.0
 25
0.0
 16
0.0
 26
0.0
 36
1.0
 17
0.0
 27
0.0
 37
0.0
 40
210.0
 41
1.4142857143
 42
50.0
 43
0.0
 44
0.0
 50
0.0
 51
0.0
 71
     0
 72
   100
 73
     1
 74
     1
 75
     0
 76
     0
 77
     0
 78
     0
281
     0
 65
     1
110
0.0
120
0.0
130
0.0
111
1.0
121
0.0
131
0.0
112
0.0
122
1.0
132
0.0
 79
     0
146
0.0
348
401
 60
     3
 61
     5
292
     1
282
     1
141
0.0
142
0.0
 63
   256
  0
ENDTAB
  0
TABLE
  2
LTYPE
  5
5
330
0
100
AcDbSymbolTable
 70
     6
  0
LTYPE
  5
14
330
5
100
AcDbSymbolTableRecord
100
AcDbLinetypeTableRecord
  2
BYBLOCK
 70
     0
  3

 72
    65
 73
     0
 40
0.0
  0
LTYPE
  5
15
330
5
100
AcDbSymbolTableRecord
100
AcDbLinetypeTableRecord
  2
BYLAYER
 70
     0
  3

 72
    65
 73
     0
 40
0.0
  0
LTYPE
  5
16
330
5
100
AcDbSymbolTableRecord
100
AcDbLinetypeTableRecord
  2
CONTINUOUS
 70
     0
  3
Solid line
 72
    65
 73
     0
 40
0.0
  0
LTYPE
  5
1F5
330
5
100
AcDbSymbolTableRecord
100
AcDbLinetypeTableRecord
  2
CENTER
 70
     0
  3
____ _ ____ _ ____ _ ____ _ ____ _ ____ _ ____
 72
    65
 73
     4
 40
0.6
 49
0.375
 74
     0
 49
-0.075
 74
     0
 49
0.075
 74
     0
 49
-0.075
 74
     0
  0
LTYPE
  5
1F6
330
5
100
AcDbSymbolTableRecord
100
AcDbLinetypeTableRecord
  2
HIDDEN
 70
     0
  3
- - - - - - - - - - - - - - - - - - - -
 72
    65
 73
     2
 40
0.2
 49
0.1
 74
     0
 49
-0.1
 74
     0
  0
LTYPE
  5
1F7
330
5
100
AcDbSymbolTableRecord
100
AcDbLinetypeTableRecord
  2
PHANTOM
 70
     0
  3
_____ _ _ _____ _ _ _____ _ _ _____
 72
    65
 73
     6
 40
0.8
 49
0.45
 74
     0
 49
-0.05
 74
     0
 49
0.1
 74
     0
 49
-0.05
 74
     0
 49
0.1
 74
     0
 49
-0.05
 74
     0
  0
LTYPE
  5
1F8
330
5
100
AcDbSymbolTableRecord
100
AcDbLinetypeTableRecord
  2
DOT
 70
     0
  3
. . . . . . . . . . . . . . . . . . . .
 72
    65
 73
     2
 40
0.2
 49
0.1
 74
     0
 49
-0.1
 74
     0
  0
LTYPE
  5
1F9
330
5
100
AcDbSymbolTableRecord
100
AcDbLinetypeTableRecord
  2
DASHED
 70
     0
  3
- - - - - - - - - - - - - - - - - - - -
 72
    65
 73
     2
 40
0.2
 49
0.1
 74
     0
 49
-0.1
 74
     0
  0
ENDTAB
  0
TABLE
  2
LAYER
  5
2
330
0
100
AcDbSymbolTable
 70
    11
  0
LAYER
  5
10
330
2
100
AcDbSymbolTableRecord
100
AcDbLayerTableRecord
  2
0
 70
     0
 62
     7
  6
CONTINUOUS
370
    -3
390
3D6
347
418
348
0
  0
LAYER
  5
1FA
330
2
100
AcDbSymbolTableRecord
100
AcDbLayerTableRecord
  2
DEFAULT_1
 70
     0
 62
     7
  6
CENTER
370
    -3
390
3D6
347
418
348
0
  0
LAYER
  5
1FB
330
2
100
AcDbSymbolTableRecord
100
AcDbLayerTableRecord
  2
DEFAULT_2
 70
     0
 62
     8
  6
HIDDEN
370
    -3
390
3D6
347
418
348
0
  0
LAYER
  5
1FC
330
2
100
AcDbSymbolTableRecord
100
AcDbLayerTableRecord
  2
DEFAULT_3
 70
     0
 62
     7
  6
PHANTOM
370
    -3
390
3D6
347
418
348
0
  0
LAYER
  5
1FD
330
2
100
AcDbSymbolTableRecord
100
AcDbLayerTableRecord
  2
1_ALL_PLANES
 70
     0
 62
     7
  6
CONTINUOUS
370
    -3
390
3D6
347
418
348
0
  0
LAYER
  5
1FE
330
2
100
AcDbSymbolTableRecord
100
AcDbLayerTableRecord
  2
3_ALL_AXES
 70
     0
 62
     7
  6
CONTINUOUS
370
    -3
390
3D6
347
418
348
0
  0
LAYER
  5
1FF
330
2
100
AcDbSymbolTableRecord
100
AcDbLayerTableRecord
  2
4_ALL_POINTS
 70
     0
 62
     7
  6
CONTINUOUS
370
    -3
390
3D6
347
418
348
0
  0
LAYER
  5
200
330
2
100
AcDbSymbolTableRecord
100
AcDbLayerTableRecord
  2
5_ALL_CURVES
 70
     0
 62
     7
  6
CONTINUOUS
370
    -3
390
3D6
347
418
348
0
  0
LAYER
  5
201
330
2
100
AcDbSymbolTableRecord
100
AcDbLayerTableRecord
  2
6_ALL_SURFS
 70
     0
 62
     7
  6
CONTINUOUS
370
    -3
390
3D6
347
418
348
0
  0
LAYER
  5
202
330
2
100
AcDbSymbolTableRecord
100
AcDbLayerTableRecord
  2
7_ALL_FEATURES
 70
     0
 62
     7
  6
CONTINUOUS
370
    -3
390
3D6
347
418
348
0
  0
LAYER
  5
203
330
2
100
AcDbSymbolTableRecord
100
AcDbLayerTableRecord
  2
9_SOLID
 70
     0
 62
     7
  6
CONTINUOUS
370
    -3
390
3D6
347
418
348
0
  0
ENDTAB
  0
TABLE
  2
STYLE
  5
3
330
0
100
AcDbSymbolTable
 70
     4
  0
STYLE
  5
11
330
3
100
AcDbSymbolTableRecord
100
AcDbTextStyleTableRecord
  2
STANDARD
 70
     0
 40
0.0
 41
1.0
 50
0.0
 71
     0
 42
0.2
  3
arial.ttf
  4

  0
STYLE
  5
204
330
3
100
AcDbSymbolTableRecord
100
AcDbTextStyleTableRecord
  2
TEXTSTYLE_1
 70
     0
 40
0.0
 41
0.8
 50
0.0
 71
     0
 42
0.2
  3
gdt
  4

  0
STYLE
  5
205
330
3
100
AcDbSymbolTableRecord
100
AcDbTextStyleTableRecord
  2
TEXTSTYLE_2
 70
     0
 40
0.0
 41
2.0
 50
0.0
 71
     0
 42
0.2
  3
txt
  4

  0
STYLE
  5
206
330
3
100
AcDbSymbolTableRecord
100
AcDbTextStyleTableRecord
  2
TEXTSTYLE_3
 70
     0
 40
0.0
 41
0.85
 50
0.0
 71
     0
 42
0.2
  3
txt
  4

  0
ENDTAB
  0
TABLE
  2
VIEW
  5
6
330
0
100
AcDbSymbolTable
 70
     0
  0
ENDTAB
  0
TABLE
  2
UCS
  5
7
330
0
100
AcDbSymbolTable
 70
     0
  0
ENDTAB
  0
TABLE
  2
APPID
  5
9
330
0
100
AcDbSymbolTable
 70
     1
  0
APPID
  5
207
330
9
100
AcDbSymbolTableRecord
100
AcDbRegAppTableRecord
  2
ACAD
 70
     0
  0
ENDTAB
  0
TABLE
  2
DIMSTYLE
  5
A
330
0
100
AcDbSymbolTable
 70
     2
100
AcDbDimStyleTable
  0
DIMSTYLE
105
20E
330
A
100
AcDbSymbolTableRecord
100
AcDbDimStyleTableRecord
  2
STANDARD
 70
     0
 41
2.5
 42
0.75
 44
0.75
 47
0.01
 48
0.01
 71
     1
 73
     0
 74
     0
 77
     1
 78
     8
 79
     2
140
3.0
147
0.625
171
     1
178
     0
179
     2
271
     2
272
     2
284
     8
340
11
341
208
342
208
343
208
344
208
  0
DIMSTYLE
105
20F
330
A
100
AcDbSymbolTableRecord
100
AcDbDimStyleTableRecord
  2
DIMSTYLE_1
 70
     0
 41
2.5
 42
0.75
 44
0.75
 47
0.3
 48
0.3
 73
     0
 74
     0
 77
     1
 78
     8
 79
     2
140
3.0
147
0.75
171
     1
178
     0
179
     2
271
     2
272
     2
284
     8
340
11
341
208
342
208
343
208
344
208
  0
ENDTAB
  0
TABLE
  2
BLOCK_RECORD
  5
1
330
0
100
AcDbSymbolTable
 70
     6
  0
BLOCK_RECORD
  5
1F
330
1
100
AcDbSymbolTableRecord
100
AcDbBlockTableRecord
  2
*MODEL_SPACE
340
3FA
 70
     0
280
     1
281
     0
  0
BLOCK_RECORD
  5
1B
330
1
100
AcDbSymbolTableRecord
100
AcDbBlockTableRecord
  2
*PAPER_SPACE
340
3FB
 70
     0
280
     1
281
     0
  0
BLOCK_RECORD
  5
208
330
1
100
AcDbSymbolTableRecord
100
AcDbBlockTableRecord
  2
_CLOSED
340
0
102
{BLKREFS
331
262
331
263
331
26B
331
26C
331
274
331
275
102
}
 70
     0
280
     1
281
     0
  0
BLOCK_RECORD
  5
209
330
1
100
AcDbSymbolTableRecord
100
AcDbBlockTableRecord
  2
*D1
340
0
 70
     0
280
     1
281
     0
  0
BLOCK_RECORD
  5
20A
330
1
100
AcDbSymbolTableRecord
100
AcDbBlockTableRecord
  2
*D2
340
0
 70
     0
280
     1
281
     0
  0
BLOCK_RECORD
  5
20B
330
1
100
AcDbSymbolTableRecord
100
AcDbBlockTableRecord
  2
*D3
340
0
 70
     0
280
     1
281
     0
  0
BLOCK_RECORD
  5
20C
330
1
100
AcDbSymbolTableRecord
100
AcDbBlockTableRecord
  2
LOGO2_BL1
340
0
102
{BLKREFS
331
3BE
102
}
 70
     0
280
     1
281
     0
  0
BLOCK_RECORD
  5
20D
330
1
100
AcDbSymbolTableRecord
100
AcDbBlockTableRecord
  2
PROIEZIONE_EU_BL0
340
0
102
{BLKREFS
331
3BB
102
}
 70
     0
280
     1
281
     0
  0
ENDTAB
  0
ENDSEC
  0
SECTION
  2
BLOCKS
  0
BLOCK
  5
20
330
1F
100
AcDbEntity
  8
0
100
AcDbBlockBegin
  2
*MODEL_SPACE
 70
     0
 10
0.0
 20
0.0
 30
0.0
  3
*MODEL_SPACE
  1

  0
ENDBLK
  5
21
330
1F
100
AcDbEntity
  8
0
100
AcDbBlockEnd
  0
BLOCK
  5
1C
330
1B
100
AcDbEntity
 67
     1
  8
0
100
AcDbBlockBegin
  2
*PAPER_SPACE
 70
     0
 10
0.0
 20
0.0
 30
0.0
  3
*PAPER_SPACE
  1

  0
ENDBLK
  5
1D
330
1B
100
AcDbEntity
 67
     1
  8
0
100
AcDbBlockEnd
  0
BLOCK
  5
256
330
208
100
AcDbEntity
  8
0
100
AcDbBlockBegin
  2
_CLOSED
 70
     0
 10
0.0
 20
0.0
 30
0.0
  3
_CLOSED
  1

  0
LINE
  5
257
330
208
100
AcDbEntity
  8
0
  6
ByBlock
 62
     0
100
AcDbLine
 10
0.0
 20
0.0
 30
0.0
 11
-1.0
 21
0.2
 31
0.0
  0
LINE
  5
258
330
208
100
AcDbEntity
  8
0
  6
ByBlock
 62
     0
100
AcDbLine
 10
-1.0
 20
0.2
 30
0.0
 11
-1.0
 21
-0.2
 31
0.0
  0
LINE
  5
259
330
208
100
AcDbEntity
  8
0
  6
ByBlock
 62
     0
100
AcDbLine
 10
-1.0
 20
-0.2
 30
0.0
 11
0.0
 21
0.0
 31
0.0
  0
LINE
  5
25A
330
208
100
AcDbEntity
  8
0
  6
ByBlock
 62
     0
100
AcDbLine
 10
-1.0
 20
0.0
 30
0.0
 11
0.0
 21
0.0
 31
0.0
  0
ENDBLK
  5
25B
330
208
100
AcDbEntity
  8
0
  6
ByBlock
 62
     0
100
AcDbBlockEnd
  0
BLOCK
  5
25C
330
209
100
AcDbEntity
  8
0
100
AcDbBlockBegin
  2
*D1
 70
     1
 10
0.0
 20
0.0
 30
0.0
  3
*D1
  1

  0
MTEXT
  5
25D
330
209
100
AcDbEntity
  8
0
  6
Continuous
 62
     2
100
AcDbMText
 10
78.1924735404
 20
105.6599984559
 30
0.0
 40
3.0
 41
6.9925650558
 46
0.0
 71
     2
 72
     1
  1
106
 73
     1
 44
1.0
  0
LINE
  5
25E
330
209
100
AcDbEntity
  8
0
  6
Continuous
 62
     2
100
AcDbLine
 10
131.1924735404
 20
89.8581731023
 30
0.0
 11
131.1924735404
 21
102.6599984559
 31
0.0
  0
LINE
  5
25F
330
209
100
AcDbEntity
  8
0
  6
Continuous
 62
     2
100
AcDbLine
 10
25.1924735404
 20
93.2388318861
 30
0.0
 11
25.1924735404
 21
102.6599984559
 31
0.0
  0
LINE
  5
260
330
209
100
AcDbEntity
  8
0
  6
Continuous
 62
     2
100
AcDbLine
 10
131.1924735404
 20
101.9099984559
 30
0.0
 11
78.1924735404
 21
101.9099984559
 31
0.0
  0
LINE
  5
261
330
209
100
AcDbEntity
  8
0
  6
Continuous
 62
     2
100
AcDbLine
 10
25.1924735404
 20
101.9099984559
 30
0.0
 11
78.1924735404
 21
101.9099984559
 31
0.0
  0
INSERT
  5
262
330
209
100
AcDbEntity
  8
0
  6
Continuous
 62
     2
100
AcDbBlockReference
  2
_CLOSED
 10
131.1924735404
 20
101.9099984559
 30
0.0
 41
2.5
 42
2.5
 43
2.5
  0
INSERT
  5
263
330
209
100
AcDbEntity
  8
0
  6
Continuous
 62
     2
100
AcDbBlockReference
  2
_CLOSED
 10
25.1924735404
 20
101.9099984559
 30
0.0
 41
2.5
 42
2.5
 43
2.5
 50
180.0
  0
ENDBLK
  5
264
330
209
100
AcDbEntity
  8
0
  6
ByBlock
 62
     0
100
AcDbBlockEnd
  0
BLOCK
  5
265
330
20A
100
AcDbEntity
  8
0
100
AcDbBlockBegin
  2
*D2
 70
     1
 10
0.0
 20
0.0
 30
0.0
  3
*D2
  1

  0
MTEXT
  5
266
330
20A
100
AcDbEntity
  8
0
  6
Continuous
 62
     2
100
AcDbMText
 10
138.7348143535
 20
57.9475312104
 30
0.0
 40
3.0
 41
4.6617100372
 46
0.0
 71
     2
 72
     1
  1
68
 11
0.0
 21
1.0
 31
0.0
 73
     1
 44
1.0
  0
LINE
  5
267
330
20A
100
AcDbEntity
  8
0
  6
Continuous
 62
     2
100
AcDbLine
 10
131.3607167837
 20
91.9475312104
 30
0.0
 11
143.2348143535
 21
91.9475312104
 31
0.0
  0
LINE
  5
268
330
20A
100
AcDbEntity
  8
0
  6
Continuous
 62
     2
100
AcDbLine
 10
130.231916108
 20
23.9475312104
 30
0.0
 11
143.2348143535
 21
23.9475312104
 31
0.0
  0
LINE
  5
269
330
20A
100
AcDbEntity
  8
0
  6
Continuous
 62
     2
100
AcDbLine
 10
142.4848143535
 20
91.9475312104
 30
0.0
 11
142.4848143535
 21
57.9475312104
 31
0.0
  0
LINE
  5
26A
330
20A
100
AcDbEntity
  8
0
  6
Continuous
 62
     2
100
AcDbLine
 10
142.4848143535
 20
23.9475312104
 30
0.0
 11
142.4848143535
 21
57.9475312104
 31
0.0
  0
INSERT
  5
26B
330
20A
100
AcDbEntity
  8
0
  6
Continuous
 62
     2
100
AcDbBlockReference
  2
_CLOSED
 10
142.4848143535
 20
91.9475312104
 30
0.0
 41
2.5
 42
2.5
 43
2.5
 50
90.0
  0
INSERT
  5
26C
330
20A
100
AcDbEntity
  8
0
  6
Continuous
 62
     2
100
AcDbBlockReference
  2
_CLOSED
 10
142.4848143535
 20
23.9475312104
 30
0.0
 41
2.5
 42
2.5
 43
2.5
 50
270.0
  0
ENDBLK
  5
26D
330
20A
100
AcDbEntity
  8
0
  6
ByBlock
 62
     0
100
AcDbBlockEnd
  0
BLOCK
  5
26E
330
20B
100
AcDbEntity
  8
0
100
AcDbBlockBegin
  2
*D3
 70
     1
 10
0.0
 20
0.0
 30
0.0
  3
*D3
  1

  0
MTEXT
  5
26F
330
20B
100
AcDbEntity
  8
0
  6
Continuous
 62
     2
100
AcDbMText
 10
138.2289705507
 20
152.3361702649
 30
0.0
 40
3.0
 41
4.6617100372
 46
0.0
 71
     2
 72
     1
  1
47
 11
0.0
 21
1.0
 31
0.0
 73
     1
 44
1.0
  0
LINE
  5
270
330
20B
100
AcDbEntity
  8
0
  6
Continuous
 62
     2
100
AcDbLine
 10
131.812237054
 20
175.8361702649
 30
0.0
 11
142.7289705507
 21
175.8361702649
 31
0.0
  0
LINE
  5
271
330
20B
100
AcDbEntity
  8
0
  6
Continuous
 62
     2
100
AcDbLine
 10
132.0379971891
 20
128.8361702649
 30
0.0
 11
142.7289705507
 21
128.8361702649
 31
0.0
  0
LINE
  5
272
330
20B
100
AcDbEntity
  8
0
  6
Continuous
 62
     2
100
AcDbLine
 10
141.9789705507
 20
175.8361702649
 30
0.0
 11
141.9789705507
 21
152.3361702649
 31
0.0
  0
LINE
  5
273
330
20B
100
AcDbEntity
  8
0
  6
Continuous
 62
     2
100
AcDbLine
 10
141.9789705507
 20
128.8361702649
 30
0.0
 11
141.9789705507
 21
152.3361702649
 31
0.0
  0
INSERT
  5
274
330
20B
100
AcDbEntity
  8
0
  6
Continuous
 62
     2
100
AcDbBlockReference
  2
_CLOSED
 10
141.9789705507
 20
175.8361702649
 30
0.0
 41
2.5
 42
2.5
 43
2.5
 50
90.0
  0
INSERT
  5
275
330
20B
100
AcDbEntity
  8
0
  6
Continuous
 62
     2
100
AcDbBlockReference
  2
_CLOSED
 10
141.9789705507
 20
128.8361702649
 30
0.0
 41
2.5
 42
2.5
 43
2.5
 50
270.0
  0
ENDBLK
  5
276
330
20B
100
AcDbEntity
  8
0
  6
ByBlock
 62
     0
100
AcDbBlockEnd
  0
BLOCK
  5
210
330
20C
100
AcDbEntity
  8
0
100
AcDbBlockBegin
  2
LOGO2_BL1
 70
     0
 10
175.4789551219
 20
38.0017190534
 30
0.0
  3
LOGO2_BL1
  1

  0
LINE
  5
211
330
20C
100
AcDbEntity
  8
0
  6
Continuous
 62
     7
100
AcDbLine
 10
167.2218803501
 20
41.1972103923
 30
0.0
 11
165.9175394207
 21
41.1972103923
 31
0.0
  0
LINE
  5
212
330
20C
100
AcDbEntity
  8
0
  6
Continuous
 62
     7
100
AcDbLine
 10
165.9175394207
 20
41.1972103923
 30
0.0
 11
165.9175394207
 21
30.7381443324
 31
0.0
  0
LINE
  5
213
330
20C
100
AcDbEntity
  8
0
  6
Continuous
 62
     7
100
AcDbLine
 10
165.9175394207
 20
30.7381443324
 30
0.0
 11
170.398594309
 21
30.7381443324
 31
0.0
  0
LINE
  5
214
330
20C
100
AcDbEntity
  8
0
  6
Continuous
 62
     7
100
AcDbLine
 10
170.398594309
 20
30.7381443324
 30
0.0
 11
170.398594309
 21
31.9309986575
 31
0.0
  0
LINE
  5
215
330
20C
100
AcDbEntity
  8
0
  6
Continuous
 62
     7
100
AcDbLine
 10
170.398594309
 20
31.9309986575
 30
0.0
 11
167.2218803501
 21
31.9309986575
 31
0.0
  0
LINE
  5
216
330
20C
100
AcDbEntity
  8
0
  6
Continuous
 62
     7
100
AcDbLine
 10
167.2218803501
 20
31.9309986575
 30
0.0
 11
167.2218803501
 21
41.1972103923
 31
0.0
  0
LINE
  5
217
330
20C
100
AcDbEntity
  8
0
  6
Continuous
 62
     7
100
AcDbLine
 10
182.1582065664
 20
41.1972103923
 30
0.0
 11
180.8543890483
 21
41.1972103923
 31
0.0
  0
LINE
  5
218
330
20C
100
AcDbEntity
  8
0
  6
Continuous
 62
     7
100
AcDbLine
 10
180.8543890483
 20
41.1972103923
 30
0.0
 11
180.8543890483
 21
30.7381443324
 31
0.0
  0
LINE
  5
219
330
20C
100
AcDbEntity
  8
0
  6
Continuous
 62
     7
100
AcDbLine
 10
180.8543890483
 20
30.7381443324
 30
0.0
 11
185.3355747894
 21
30.7381443324
 31
0.0
  0
LINE
  5
21A
330
20C
100
AcDbEntity
  8
0
  6
Continuous
 62
     7
100
AcDbLine
 10
185.3355747894
 20
30.7381443324
 30
0.0
 11
185.3355747894
 21
31.9309986575
 31
0.0
  0
LINE
  5
21B
330
20C
100
AcDbEntity
  8
0
  6
Continuous
 62
     7
100
AcDbLine
 10
185.3355747894
 20
31.9309986575
 30
0.0
 11
182.1582065664
 21
31.9309986575
 31
0.0
  0
LINE
  5
21C
330
20C
100
AcDbEntity
  8
0
  6
Continuous
 62
     7
100
AcDbLine
 10
182.1582065664
 20
31.9309986575
 30
0.0
 11
182.1582065664
 21
41.1972103923
 31
0.0
  0
LWPOLYLINE
  5
21D
330
20C
100
AcDbEntity
  8
0
  6
Continuous
 62
     7
100
AcDbPolyline
 90
        2
 70
     0
 43
0.2
 10
164.2719343316
 20
27.3945930255
 10
164.2719343316
 20
25.5375297762
  0
LWPOLYLINE
  5
21E
330
20C
100
AcDbEntity
  8
0
  6
Continuous
 62
     7
100
AcDbPolyline
 90
        2
 70
     0
 43
0.2
 10
164.2719343316
 20
25.5375297762
 10
165.067650342
 20
25.5375297762
  0
LWPOLYLINE
  5
21F
330
20C
100
AcDbEntity
  8
0
  6
Continuous
 62
     7
100
AcDbPolyline
 90
        2
 70
     0
 43
0.2
 10
165.067650342
 20
25.5375297762
 10
165.067650342
 20
25.7495113477
  0
LWPOLYLINE
  5
220
330
20C
100
AcDbEntity
  8
0
  6
Continuous
 62
     7
100
AcDbPolyline
 90
        2
 70
     0
 43
0.2
 10
165.067650342
 20
25.7495113477
 10
164.5035438265
 20
25.7495113477
  0
LWPOLYLINE
  5
221
330
20C
100
AcDbEntity
  8
0
  6
Continuous
 62
     7
100
AcDbPolyline
 90
        2
 70
     0
 43
0.2
 10
164.5035438265
 20
25.7495113477
 10
164.5035438265
 20
27.3945930255
  0
LWPOLYLINE
  5
222
330
20C
100
AcDbEntity
  8
0
  6
Continuous
 62
     7
100
AcDbPolyline
 90
        2
 70
     0
 43
0.2
 10
164.5035438265
 20
27.3945930255
 10
164.2719343316
 20
27.3945930255
  0
SPLINE
  5
223
330
20C
100
AcDbEntity
  8
0
  6
Continuous
 62
     7
100
AcDbSpline
 70
     3
 71
     3
 72
    35
 73
    31
 74
     0
 42
0.000000001
 43
0.0000001
 40
0.0
 40
0.0
 40
0.0
 40
0.0
 40
1.0
 40
1.0
 40
1.0
 40
2.0
 40
2.0
 40
2.0
 40
3.0
 40
3.0
 40
3.0
 40
4.0
 40
4.0
 40
4.0
 40
5.0
 40
5.0
 40
5.0
 40
6.0
 40
6.0
 40
6.0
 40
7.0
 40
7.0
 40
7.0
 40
8.0
 40
8.0
 40
8.0
 40
9.0
 40
9.0
 40
9.0
 40
10.0
 40
10.0
 40
10.0
 40
10.0
 10
166.4659435976
 20
26.690081432
 30
0.0
 10
166.4659435976
 20
26.690081432
 30
0.0
 10
166.4659435976
 20
26.0279661529
 30
0.0
 10
166.4659435976
 20
26.0279661529
 30
0.0
 10
166.4659435976
 20
25.7128725576
 30
0.0
 10
166.6138072864
 20
25.4982739296
 30
0.0
 10
166.9538937707
 20
25.4982739296
 30
0.0
 10
167.2934568437
 20
25.4982739296
 30
0.0
 10
167.4415822381
 20
25.7128725576
 30
0.0
 10
167.4415822381
 20
26.0279661529
 30
0.0
 10
167.4415822381
 20
26.0279661529
 30
0.0
 10
167.4415822381
 20
26.690081432
 30
0.0
 10
167.4415822381
 20
26.690081432
 30
0.0
 10
167.4415822381
 20
26.690081432
 30
0.0
 10
167.2195249993
 20
26.690081432
 30
0.0
 10
167.2195249993
 20
26.690081432
 30
0.0
 10
167.2195249993
 20
26.690081432
 30
0.0
 10
167.2195249993
 20
26.0530898947
 30
0.0
 10
167.2195249993
 20
26.0530898947
 30
0.0
 10
167.2195249993
 20
25.8672788875
 30
0.0
 10
167.1728105418
 20
25.704497977
 30
0.0
 10
166.9538937707
 20
25.704497977
 30
0.0
 10
166.7344535882
 20
25.704497977
 30
0.0
 10
166.6877391308
 20
25.8672788875
 30
0.0
 10
166.6877391308
 20
26.0530898947
 30
0.0
 10
166.6877391308
 20
26.0530898947
 30
0.0
 10
166.6877391308
 20
26.690081432
 30
0.0
 10
166.6877391308
 20
26.690081432
 30
0.0
 10
166.6877391308
 20
26.690081432
 30
0.0
 10
166.4659435976
 20
26.690081432
 30
0.0
 10
166.4659435976
 20
26.690081432
 30
0.0
  0
SPLINE
  5
224
330
20C
100
AcDbEntity
  8
0
  6
Continuous
 62
     7
100
AcDbSpline
 70
     3
 71
     3
 72
    35
 73
    31
 74
     0
 42
0.000000001
 43
0.0000001
 40
0.0
 40
0.0
 40
0.0
 40
0.0
 40
1.0
 40
1.0
 40
1.0
 40
2.0
 40
2.0
 40
2.0
 40
3.0
 40
3.0
 40
3.0
 40
4.0
 40
4.0
 40
4.0
 40
5.0
 40
5.0
 40
5.0
 40
6.0
 40
6.0
 40
6.0
 40
7.0
 40
7.0
 40
7.0
 40
8.0
 40
8.0
 40
8.0
 40
9.0
 40
9.0
 40
9.0
 40
10.0
 40
10.0
 40
10.0
 40
10.0
 10
169.8647147953
 20
26.6487319403
 30
0.0
 10
169.7762582877
 20
26.7000262465
 30
0.0
 10
169.662808891
 20
26.7251499883
 30
0.0
 10
169.559173456
 20
26.7251499883
 30
0.0
 10
169.2043006029
 20
26.7251499883
 30
0.0
 10
168.9288554126
 20
26.4613506992
 30
0.0
 10
168.9288554126
 20
26.1038607896
 30
0.0
 10
168.9288554126
 20
25.7589327509
 30
0.0
 10
169.2073102178
 20
25.4987973409
 30
0.0
 10
169.5468732908
 20
25.4987973409
 30
0.0
 10
169.662808891
 20
25.4987973409
 30
0.0
 10
169.763565564
 20
25.5207806149
 30
0.0
 10
169.8647147953
 20
25.5746919776
 30
0.0
 10
169.8647147953
 20
25.5746919776
 30
0.0
 10
169.8647147953
 20
25.857334073
 30
0.0
 10
169.8647147953
 20
25.857334073
 30
0.0
 10
169.7808381365
 20
25.7641668638
 30
0.0
 10
169.6773335543
 20
25.7050213883
 30
0.0
 10
169.5492286416
 20
25.7050213883
 30
0.0
 10
169.3155255015
 20
25.7050213883
 30
0.0
 10
169.1502583874
 20
25.877223702
 30
0.0
 10
169.1502583874
 20
26.1138056041
 30
0.0
 10
169.1502583874
 20
26.3257871757
 30
0.0
 10
169.3180117052
 20
26.5178791183
 30
0.0
 10
169.5348348312
 20
26.5178791183
 30
0.0
 10
169.6676504455
 20
26.5178791183
 30
0.0
 10
169.7762582877
 20
26.4639677557
 30
0.0
 10
169.8647147953
 20
26.3629493771
 30
0.0
 10
169.8647147953
 20
26.3629493771
 30
0.0
 10
169.8647147953
 20
26.6487319403
 30
0.0
 10
169.8647147953
 20
26.6487319403
 30
0.0
  0
SPLINE
  5
225
330
20C
100
AcDbEntity
  8
0
  6
Continuous
 62
     7
100
AcDbSpline
 70
     3
 71
     3
 72
    32
 73
    28
 74
     0
 42
0.000000001
 43
0.0000001
 40
0.0
 40
0.0
 40
0.0
 40
0.0
 40
1.0
 40
1.0
 40
1.0
 40
2.0
 40
2.0
 40
2.0
 40
3.0
 40
3.0
 40
3.0
 40
4.0
 40
4.0
 40
4.0
 40
5.0
 40
5.0
 40
5.0
 40
6.0
 40
6.0
 40
6.0
 40
7.0
 40
7.0
 40
7.0
 40
8.0
 40
8.0
 40
8.0
 40
9.0
 40
9.0
 40
9.0
 40
9.0
 10
172.3965860476
 20
26.077166814
 30
0.0
 10
172.3965860476
 20
26.077166814
 30
0.0
 10
172.3965860476
 20
26.1111885477
 30
0.0
 10
172.3965860476
 20
26.1111885477
 30
0.0
 10
172.3965860476
 20
26.4534995299
 30
0.0
 10
172.2237294698
 20
26.7251499883
 30
0.0
 10
171.8570798626
 20
26.7251499883
 30
0.0
 10
171.4854578482
 20
26.7251499883
 30
0.0
 10
171.2957212564
 20
26.4587336428
 30
0.0
 10
171.2957212564
 20
26.1038607896
 30
0.0
 10
171.2957212564
 20
25.7641668638
 30
0.0
 10
171.5097964731
 20
25.4982739296
 30
0.0
 10
171.861921417
 20
25.4982739296
 30
0.0
 10
172.0859414482
 20
25.4982739296
 30
0.0
 10
172.2881090582
 20
25.6139478242
 30
0.0
 10
172.3965860476
 20
25.8133675249
 30
0.0
 10
172.3965860476
 20
25.8133675249
 30
0.0
 10
172.2089431009
 20
25.9201434276
 30
0.0
 10
172.2089431009
 20
25.9201434276
 30
0.0
 10
172.1254590005
 20
25.7814394363
 30
0.0
 10
172.0342545836
 20
25.6955999851
 30
0.0
 10
171.8646693263
 20
25.6955999851
 30
0.0
 10
171.6526877547
 20
25.6955999851
 30
0.0
 10
171.5197412876
 20
25.8803641697
 30
0.0
 10
171.5173859368
 20
26.077166814
 30
0.0
 10
171.5173859368
 20
26.077166814
 30
0.0
 10
172.3965860476
 20
26.077166814
 30
0.0
 10
172.3965860476
 20
26.077166814
 30
0.0
  0
SPLINE
  5
226
330
20C
100
AcDbEntity
  8
0
  6
Continuous
 62
     7
100
AcDbSpline
 70
     3
 71
     3
 72
    14
 73
    10
 74
     0
 42
0.000000001
 43
0.0000001
 40
0.0
 40
0.0
 40
0.0
 40
0.0
 40
1.0
 40
1.0
 40
1.0
 40
2.0
 40
2.0
 40
2.0
 40
3.0
 40
3.0
 40
3.0
 40
3.0
 10
171.5294243964
 20
26.2446584261
 30
0.0
 10
171.5570343418
 20
26.4095329818
 30
0.0
 10
171.6848775489
 20
26.5325346344
 30
0.0
 10
171.8570798626
 20
26.5325346344
 30
0.0
 10
172.0342545836
 20
26.5325346344
 30
0.0
 10
172.1477039802
 20
26.4168607398
 30
0.0
 10
172.1749213672
 20
26.2446584261
 30
0.0
 10
172.1749213672
 20
26.2446584261
 30
0.0
 10
171.5294243964
 20
26.2446584261
 30
0.0
 10
171.5294243964
 20
26.2446584261
 30
0.0
  0
SPLINE
  5
227
330
20C
100
AcDbEntity
  8
0
  6
Continuous
 62
     7
100
AcDbSpline
 70
     3
 71
     3
 72
    20
 73
    16
 74
     0
 42
0.000000001
 43
0.0000001
 40
0.0
 40
0.0
 40
0.0
 40
0.0
 40
1.0
 40
1.0
 40
1.0
 40
2.0
 40
2.0
 40
2.0
 40
3.0
 40
3.0
 40
3.0
 40
4.0
 40
4.0
 40
4.0
 40
5.0
 40
5.0
 40
5.0
 40
5.0
 10
174.4206174978
 20
26.4540229412
 30
0.0
 10
174.4206174978
 20
26.4540229412
 30
0.0
 10
174.8317570644
 20
25.9515481049
 30
0.0
 10
174.8317570644
 20
25.9515481049
 30
0.0
 10
174.7156906113
 20
25.8358742102
 30
0.0
 10
174.5779025898
 20
25.7055447996
 30
0.0
 10
174.4059619817
 20
25.7055447996
 30
0.0
 10
174.2285255551
 20
25.7055447996
 30
0.0
 10
174.061033943
 20
25.869895944
 30
0.0
 10
174.061033943
 20
26.0468089593
 30
0.0
 10
174.061033943
 20
26.2247687971
 30
0.0
 10
174.2707910166
 20
26.3509109175
 30
0.0
 10
174.398372518
 20
26.4388440139
 30
0.0
 10
174.398372518
 20
26.4388440139
 30
0.0
 10
174.4206174978
 20
26.4540229412
 30
0.0
 10
174.4206174978
 20
26.4540229412
 30
0.0
  0
SPLINE
  5
228
330
20C
100
AcDbEntity
  8
0
  6
Continuous
 62
     7
100
AcDbSpline
 70
     3
 71
     3
 72
    23
 73
    19
 74
     0
 42
0.000000001
 43
0.0000001
 40
0.0
 40
0.0
 40
0.0
 40
0.0
 40
1.0
 40
1.0
 40
1.0
 40
2.0
 40
2.0
 40
2.0
 40
3.0
 40
3.0
 40
3.0
 40
4.0
 40
4.0
 40
4.0
 40
5.0
 40
5.0
 40
5.0
 40
6.0
 40
6.0
 40
6.0
 40
6.0
 10
174.4699490117
 20
26.7450396173
 30
0.0
 10
174.4699490117
 20
26.7450396173
 30
0.0
 10
174.4083173325
 20
26.8235513105
 30
0.0
 10
174.4083173325
 20
26.8235513105
 30
0.0
 10
174.3544059699
 20
26.8921181892
 30
0.0
 10
174.2976158451
 20
26.9612084792
 30
0.0
 10
174.2976158451
 20
27.0548990997
 30
0.0
 10
174.2976158451
 20
27.173713462
 30
0.0
 10
174.3935309636
 20
27.2511783326
 30
0.0
 10
174.5044941567
 20
27.2511783326
 30
0.0
 10
174.627757515
 20
27.2511783326
 30
0.0
 10
174.721055577
 20
27.1799943975
 30
0.0
 10
174.721055577
 20
27.0496649868
 30
0.0
 10
174.721055577
 20
26.9146248745
 30
0.0
 10
174.5929506643
 20
26.8382068265
 30
0.0
 10
174.4993908966
 20
26.7644058349
 30
0.0
 10
174.4993908966
 20
26.7644058349
 30
0.0
 10
174.4699490117
 20
26.7450396173
 30
0.0
 10
174.4699490117
 20
26.7450396173
 30
0.0
  0
SPLINE
  5
229
330
20C
100
AcDbEntity
  8
0
  6
Continuous
 62
     7
100
AcDbSpline
 70
     3
 71
     3
 72
    50
 73
    46
 74
     0
 42
0.000000001
 43
0.0000001
 40
0.0
 40
0.0
 40
0.0
 40
0.0
 40
1.0
 40
1.0
 40
1.0
 40
2.0
 40
2.0
 40
2.0
 40
3.0
 40
3.0
 40
3.0
 40
4.0
 40
4.0
 40
4.0
 40
5.0
 40
5.0
 40
5.0
 40
6.0
 40
6.0
 40
6.0
 40
7.0
 40
7.0
 40
7.0
 40
8.0
 40
8.0
 40
8.0
 40
9.0
 40
9.0
 40
9.0
 40
10.0
 40
10.0
 40
10.0
 40
11.0
 40
11.0
 40
11.0
 40
12.0
 40
12.0
 40
12.0
 40
13.0
 40
13.0
 40
13.0
 40
14.0
 40
14.0
 40
14.0
 40
15.0
 40
15.0
 40
15.0
 40
15.0
 10
175.1721052543
 20
25.5380531874
 30
0.0
 10
175.1721052543
 20
25.5380531874
 30
0.0
 10
175.4574952591
 20
25.5380531874
 30
0.0
 10
175.4574952591
 20
25.5380531874
 30
0.0
 10
175.4574952591
 20
25.5380531874
 30
0.0
 10
175.1251290913
 20
25.9489310484
 30
0.0
 10
175.1251290913
 20
25.9489310484
 30
0.0
 10
175.1251290913
 20
25.9489310484
 30
0.0
 10
175.3516353261
 20
26.2148239827
 30
0.0
 10
175.3516353261
 20
26.2148239827
 30
0.0
 10
175.3516353261
 20
26.2148239827
 30
0.0
 10
175.2033790788
 20
26.3676600787
 30
0.0
 10
175.2033790788
 20
26.3676600787
 30
0.0
 10
175.2033790788
 20
26.3676600787
 30
0.0
 10
174.9874719225
 20
26.1164226605
 30
0.0
 10
174.9874719225
 20
26.1164226605
 30
0.0
 10
174.9874719225
 20
26.1164226605
 30
0.0
 10
174.6004092752
 20
26.5843523519
 30
0.0
 10
174.6004092752
 20
26.5843523519
 30
0.0
 10
174.7558624277
 20
26.6984560127
 30
0.0
 10
174.9381404087
 20
26.8382068265
 30
0.0
 10
174.9381404087
 20
27.0475713417
 30
0.0
 10
174.9381404087
 20
27.2914810018
 30
0.0
 10
174.7361036515
 20
27.4348956947
 30
0.0
 10
174.5095974167
 20
27.4348956947
 30
0.0
 10
174.2654260509
 20
27.4348956947
 30
0.0
 10
174.0810544248
 20
27.2841532438
 30
0.0
 10
174.0810544248
 20
27.0276817127
 30
0.0
 10
174.0810544248
 20
26.8701349151
 30
0.0
 10
174.1797174525
 20
26.7324777464
 30
0.0
 10
174.2850539742
 20
26.6215145533
 30
0.0
 10
174.2850539742
 20
26.6215145533
 30
0.0
 10
174.1695109324
 20
26.5377687473
 30
0.0
 10
174.1695109324
 20
26.5377687473
 30
0.0
 10
173.9918128002
 20
26.4095329818
 30
0.0
 10
173.8444725227
 20
26.2818206275
 30
0.0
 10
173.8444725227
 20
26.0447153141
 30
0.0
 10
173.8444725227
 20
25.7243876059
 30
0.0
 10
174.1030376989
 20
25.4982739296
 30
0.0
 10
174.4134205926
 20
25.4982739296
 30
0.0
 10
174.6323373637
 20
25.4982739296
 30
0.0
 10
174.8295325664
 20
25.6233692274
 30
0.0
 10
174.9698067916
 20
25.7892906056
 30
0.0
 10
174.9698067916
 20
25.7892906056
 30
0.0
 10
175.1721052543
 20
25.5380531874
 30
0.0
 10
175.1721052543
 20
25.5380531874
 30
0.0
  0
LWPOLYLINE
  5
22A
330
20C
100
AcDbEntity
  8
0
  6
Continuous
 62
     7
100
AcDbPolyline
 90
        2
 70
     0
 43
0.2
 10
177.1075493441
 20
27.3945930255
 10
176.8762015548
 20
27.3945930255
  0
LWPOLYLINE
  5
22B
330
20C
100
AcDbEntity
  8
0
  6
Continuous
 62
     7
100
AcDbPolyline
 90
        2
 70
     0
 43
0.2
 10
176.8762015548
 20
27.3945930255
 10
176.8762015548
 20
25.5375297762
  0
LWPOLYLINE
  5
22C
330
20C
100
AcDbEntity
  8
0
  6
Continuous
 62
     7
100
AcDbPolyline
 90
        2
 70
     0
 43
0.2
 10
176.8762015548
 20
25.5375297762
 10
177.6715250067
 20
25.5375297762
  0
LWPOLYLINE
  5
22D
330
20C
100
AcDbEntity
  8
0
  6
Continuous
 62
     7
100
AcDbPolyline
 90
        2
 70
     0
 43
0.2
 10
177.6715250067
 20
25.5375297762
 10
177.6715250067
 20
25.7495113477
  0
LWPOLYLINE
  5
22E
330
20C
100
AcDbEntity
  8
0
  6
Continuous
 62
     7
100
AcDbPolyline
 90
        2
 70
     0
 43
0.2
 10
177.6715250067
 20
25.7495113477
 10
177.1075493441
 20
25.7495113477
  0
LWPOLYLINE
  5
22F
330
20C
100
AcDbEntity
  8
0
  6
Continuous
 62
     7
100
AcDbPolyline
 90
        2
 70
     0
 43
0.2
 10
177.1075493441
 20
25.7495113477
 10
177.1075493441
 20
27.3945930255
  0
LWPOLYLINE
  5
230
330
20C
100
AcDbEntity
  8
0
  6
Continuous
 62
     7
100
AcDbPolyline
 90
        2
 70
     0
 43
0.2
 10
179.3506284182
 20
26.690081432
 10
179.1294871491
 20
26.690081432
  0
LWPOLYLINE
  5
231
330
20C
100
AcDbEntity
  8
0
  6
Continuous
 62
     7
100
AcDbPolyline
 90
        2
 70
     0
 43
0.2
 10
179.1294871491
 20
26.690081432
 10
179.1294871491
 20
25.5380531874
  0
LWPOLYLINE
  5
232
330
20C
100
AcDbEntity
  8
0
  6
Continuous
 62
     7
100
AcDbPolyline
 90
        2
 70
     0
 43
0.2
 10
179.1294871491
 20
25.5380531874
 10
179.3506284182
 20
25.5380531874
  0
LWPOLYLINE
  5
233
330
20C
100
AcDbEntity
  8
0
  6
Continuous
 62
     7
100
AcDbPolyline
 90
        2
 70
     0
 43
0.2
 10
179.3506284182
 20
25.5380531874
 10
179.3506284182
 20
26.690081432
  0
SPLINE
  5
234
330
20C
100
AcDbEntity
  8
0
  6
Continuous
 62
     7
100
AcDbSpline
 70
     3
 71
     3
 72
    17
 73
    13
 74
     0
 42
0.000000001
 43
0.0000001
 40
0.0
 40
0.0
 40
0.0
 40
0.0
 40
1.0
 40
1.0
 40
1.0
 40
2.0
 40
2.0
 40
2.0
 40
3.0
 40
3.0
 40
3.0
 40
4.0
 40
4.0
 40
4.0
 40
4.0
 10
179.2401886365
 20
27.3726097514
 30
0.0
 10
179.1561811248
 20
27.3726097514
 30
0.0
 10
179.0876142461
 20
27.3035194614
 30
0.0
 10
179.0876142461
 20
27.2176800102
 30
0.0
 10
179.0876142461
 20
27.1334107929
 30
0.0
 10
179.1561811248
 20
27.0674609706
 30
0.0
 10
179.2401886365
 20
27.0674609706
 30
0.0
 10
179.3239344425
 20
27.0674609706
 30
0.0
 10
179.3927630269
 20
27.1334107929
 30
0.0
 10
179.3927630269
 20
27.2176800102
 30
0.0
 10
179.3927630269
 20
27.3035194614
 30
0.0
 10
179.3239344425
 20
27.3726097514
 30
0.0
 10
179.2401886365
 20
27.3726097514
 30
0.0
  0
SPLINE
  5
235
330
20C
100
AcDbEntity
  8
0
  6
Continuous
 62
     7
100
AcDbSpline
 70
     3
 71
     3
 72
    17
 73
    13
 74
     0
 42
0.000000001
 43
0.0000001
 40
0.0
 40
0.0
 40
0.0
 40
0.0
 40
1.0
 40
1.0
 40
1.0
 40
2.0
 40
2.0
 40
2.0
 40
3.0
 40
3.0
 40
3.0
 40
4.0
 40
4.0
 40
4.0
 40
4.0
 10
181.4809123599
 20
25.6955999851
 30
0.0
 10
181.2469475142
 20
25.6955999851
 30
0.0
 10
181.1166181035
 20
25.8976367422
 30
0.0
 10
181.1166181035
 20
26.1138056041
 30
0.0
 10
181.1166181035
 20
26.3284042321
 30
0.0
 10
181.2524433327
 20
26.5273005215
 30
0.0
 10
181.4809123599
 20
26.5273005215
 30
0.0
 10
181.7203730241
 20
26.5273005215
 30
0.0
 10
181.8559365476
 20
26.3383490466
 30
0.0
 10
181.8559365476
 20
26.1138056041
 30
0.0
 10
181.8559365476
 20
25.8876919277
 30
0.0
 10
181.7227283749
 20
25.6955999851
 30
0.0
 10
181.4809123599
 20
25.6955999851
 30
0.0
  0
SPLINE
  5
236
330
20C
100
AcDbEntity
  8
0
  6
Continuous
 62
     7
100
AcDbSpline
 70
     3
 71
     3
 72
    50
 73
    46
 74
     0
 42
0.000000001
 43
0.0000001
 40
0.0
 40
0.0
 40
0.0
 40
0.0
 40
1.0
 40
1.0
 40
1.0
 40
2.0
 40
2.0
 40
2.0
 40
3.0
 40
3.0
 40
3.0
 40
4.0
 40
4.0
 40
4.0
 40
5.0
 40
5.0
 40
5.0
 40
6.0
 40
6.0
 40
6.0
 40
7.0
 40
7.0
 40
7.0
 40
8.0
 40
8.0
 40
8.0
 40
9.0
 40
9.0
 40
9.0
 40
10.0
 40
10.0
 40
10.0
 40
11.0
 40
11.0
 40
11.0
 40
12.0
 40
12.0
 40
12.0
 40
13.0
 40
13.0
 40
13.0
 40
14.0
 40
14.0
 40
14.0
 40
15.0
 40
15.0
 40
15.0
 40
15.0
 10
182.0650393571
 20
26.6906048433
 30
0.0
 10
182.0650393571
 20
26.6906048433
 30
0.0
 10
181.8433746767
 20
26.6906048433
 30
0.0
 10
181.8433746767
 20
26.6906048433
 30
0.0
 10
181.8433746767
 20
26.6906048433
 30
0.0
 10
181.8433746767
 20
26.4932787878
 30
0.0
 10
181.8433746767
 20
26.4932787878
 30
0.0
 10
181.8433746767
 20
26.4932787878
 30
0.0
 10
181.8386639751
 20
26.4932787878
 30
0.0
 10
181.8386639751
 20
26.4932787878
 30
0.0
 10
181.7473287054
 20
26.6361700694
 30
0.0
 10
181.609409831
 20
26.724626577
 30
0.0
 10
181.436684106
 20
26.724626577
 30
0.0
 10
181.1043179382
 20
26.724626577
 30
0.0
 10
180.8952151287
 20
26.4367503687
 30
0.0
 10
180.8952151287
 20
26.1211333621
 30
0.0
 10
180.8952151287
 20
25.7913842508
 30
0.0
 10
181.0922794786
 20
25.4982739296
 30
0.0
 10
181.4471523318
 20
25.4982739296
 30
0.0
 10
181.609409831
 20
25.4982739296
 30
0.0
 10
181.7494223505
 20
25.5867304372
 30
0.0
 10
181.8386639751
 20
25.7175832592
 30
0.0
 10
181.8386639751
 20
25.7175832592
 30
0.0
 10
181.8433746767
 20
25.7175832592
 30
0.0
 10
181.8433746767
 20
25.7175832592
 30
0.0
 10
181.8433746767
 20
25.7175832592
 30
0.0
 10
181.8433746767
 20
25.4982739296
 30
0.0
 10
181.8433746767
 20
25.4982739296
 30
0.0
 10
181.8433746767
 20
25.2616920275
 30
0.0
 10
181.7868462576
 20
25.0748341977
 30
0.0
 10
181.5136255654
 20
25.0748341977
 30
0.0
 10
181.3113271026
 20
25.0748341977
 30
0.0
 10
181.1686975266
 20
25.1931251487
 30
0.0
 10
181.1686975266
 20
25.3993491962
 30
0.0
 10
181.1686975266
 20
25.3993491962
 30
0.0
 10
180.9470328462
 20
25.3993491962
 30
0.0
 10
180.9470328462
 20
25.3993491962
 30
0.0
 10
180.9520052535
 20
25.0748341977
 30
0.0
 10
181.1830913371
 20
24.8780315534
 30
0.0
 10
181.5034190452
 20
24.8780315534
 30
0.0
 10
181.9514591077
 20
24.8780315534
 30
0.0
 10
182.0650393571
 20
25.1632907053
 30
0.0
 10
182.0650393571
 20
25.5600364615
 30
0.0
 10
182.0650393571
 20
25.5600364615
 30
0.0
 10
182.0650393571
 20
26.6906048433
 30
0.0
 10
182.0650393571
 20
26.6906048433
 30
0.0
  0
SPLINE
  5
237
330
20C
100
AcDbEntity
  8
0
  6
Continuous
 62
     7
100
AcDbSpline
 70
     3
 71
     3
 72
    44
 73
    40
 74
     0
 42
0.000000001
 43
0.0000001
 40
0.0
 40
0.0
 40
0.0
 40
0.0
 40
1.0
 40
1.0
 40
1.0
 40
2.0
 40
2.0
 40
2.0
 40
3.0
 40
3.0
 40
3.0
 40
4.0
 40
4.0
 40
4.0
 40
5.0
 40
5.0
 40
5.0
 40
6.0
 40
6.0
 40
6.0
 40
7.0
 40
7.0
 40
7.0
 40
8.0
 40
8.0
 40
8.0
 40
9.0
 40
9.0
 40
9.0
 40
10.0
 40
10.0
 40
10.0
 40
11.0
 40
11.0
 40
11.0
 40
12.0
 40
12.0
 40
12.0
 40
13.0
 40
13.0
 40
13.0
 40
13.0
 10
183.6339646925
 20
27.6756648871
 30
0.0
 10
183.6339646925
 20
27.6756648871
 30
0.0
 10
183.6339646925
 20
25.5375297762
 30
0.0
 10
183.6339646925
 20
25.5375297762
 30
0.0
 10
183.6339646925
 20
25.5375297762
 30
0.0
 10
183.8553676673
 20
25.5375297762
 30
0.0
 10
183.8553676673
 20
25.5375297762
 30
0.0
 10
183.8553676673
 20
25.5375297762
 30
0.0
 10
183.8553676673
 20
26.0672219995
 30
0.0
 10
183.8553676673
 20
26.0672219995
 30
0.0
 10
183.8553676673
 20
26.2771099259
 30
0.0
 10
183.8553676673
 20
26.5278239328
 30
0.0
 10
184.1406268192
 20
26.5278239328
 30
0.0
 10
184.3675256125
 20
26.5278239328
 30
0.0
 10
184.3944812938
 20
26.3948774657
 30
0.0
 10
184.3944812938
 20
26.1985982327
 30
0.0
 10
184.3944812938
 20
26.1985982327
 30
0.0
 10
184.3944812938
 20
25.5375297762
 30
0.0
 10
184.3944812938
 20
25.5375297762
 30
0.0
 10
184.3944812938
 20
25.5375297762
 30
0.0
 10
184.6164076798
 20
25.5375297762
 30
0.0
 10
184.6164076798
 20
25.5375297762
 30
0.0
 10
184.6164076798
 20
25.5375297762
 30
0.0
 10
184.6164076798
 20
26.2247687971
 30
0.0
 10
184.6164076798
 20
26.2247687971
 30
0.0
 10
184.6164076798
 20
26.5053172474
 30
0.0
 10
184.5324001681
 20
26.7251499883
 30
0.0
 10
184.2073617584
 20
26.7251499883
 30
0.0
 10
184.0676109445
 20
26.7251499883
 30
0.0
 10
183.9294303645
 20
26.6586767548
 30
0.0
 10
183.8600783689
 20
26.5356751021
 30
0.0
 10
183.8600783689
 20
26.5356751021
 30
0.0
 10
183.8553676673
 20
26.5356751021
 30
0.0
 10
183.8553676673
 20
26.5356751021
 30
0.0
 10
183.8553676673
 20
26.5356751021
 30
0.0
 10
183.8553676673
 20
27.6756648871
 30
0.0
 10
183.8553676673
 20
27.6756648871
 30
0.0
 10
183.8553676673
 20
27.6756648871
 30
0.0
 10
183.6339646925
 20
27.6756648871
 30
0.0
 10
183.6339646925
 20
27.6756648871
 30
0.0
  0
LWPOLYLINE
  5
238
330
20C
100
AcDbEntity
  8
0
  6
Continuous
 62
     7
100
AcDbPolyline
 90
        2
 70
     0
 43
0.2
 10
186.4561983567
 20
26.4833339733
 10
186.6726289242
 20
26.4833339733
  0
LWPOLYLINE
  5
239
330
20C
100
AcDbEntity
  8
0
  6
Continuous
 62
     7
100
AcDbPolyline
 90
        2
 70
     0
 43
0.2
 10
186.6726289242
 20
26.4833339733
 10
186.6726289242
 20
26.690081432
  0
LWPOLYLINE
  5
23A
330
20C
100
AcDbEntity
  8
0
  6
Continuous
 62
     7
100
AcDbPolyline
 90
        2
 70
     0
 43
0.2
 10
186.6726289242
 20
26.690081432
 10
186.4561983567
 20
26.690081432
  0
LWPOLYLINE
  5
23B
330
20C
100
AcDbEntity
  8
0
  6
Continuous
 62
     7
100
AcDbPolyline
 90
        2
 70
     0
 43
0.2
 10
186.4561983567
 20
26.690081432
 10
186.4561983567
 20
27.1307937364
  0
LWPOLYLINE
  5
23C
330
20C
100
AcDbEntity
  8
0
  6
Continuous
 62
     7
100
AcDbPolyline
 90
        2
 70
     0
 43
0.2
 10
186.4561983567
 20
27.1307937364
 10
186.2345336763
 20
27.1307937364
  0
LWPOLYLINE
  5
23D
330
20C
100
AcDbEntity
  8
0
  6
Continuous
 62
     7
100
AcDbPolyline
 90
        2
 70
     0
 43
0.2
 10
186.2345336763
 20
27.1307937364
 10
186.2345336763
 20
26.690081432
  0
LWPOLYLINE
  5
23E
330
20C
100
AcDbEntity
  8
0
  6
Continuous
 62
     7
100
AcDbPolyline
 90
        2
 70
     0
 43
0.2
 10
186.2345336763
 20
26.690081432
 10
186.1138873744
 20
26.690081432
  0
LWPOLYLINE
  5
23F
330
20C
100
AcDbEntity
  8
0
  6
Continuous
 62
     7
100
AcDbPolyline
 90
        2
 70
     0
 43
0.2
 10
186.1138873744
 20
26.690081432
 10
186.1138873744
 20
26.4833339733
  0
LWPOLYLINE
  5
240
330
20C
100
AcDbEntity
  8
0
  6
Continuous
 62
     7
100
AcDbPolyline
 90
        2
 70
     0
 43
0.2
 10
186.1138873744
 20
26.4833339733
 10
186.2345336763
 20
26.4833339733
  0
LWPOLYLINE
  5
241
330
20C
100
AcDbEntity
  8
0
  6
Continuous
 62
     7
100
AcDbPolyline
 90
        2
 70
     0
 43
0.2
 10
186.2345336763
 20
26.4833339733
 10
186.2345336763
 20
25.5375297762
  0
LWPOLYLINE
  5
242
330
20C
100
AcDbEntity
  8
0
  6
Continuous
 62
     7
100
AcDbPolyline
 90
        2
 70
     0
 43
0.2
 10
186.2345336763
 20
25.5375297762
 10
186.4561983567
 20
25.5375297762
  0
LWPOLYLINE
  5
243
330
20C
100
AcDbEntity
  8
0
  6
Continuous
 62
     7
100
AcDbPolyline
 90
        2
 70
     0
 43
0.2
 10
186.4561983567
 20
25.5375297762
 10
186.4561983567
 20
26.4833339733
  0
SPLINE
  5
244
330
20C
100
AcDbEntity
  8
0
  6
Continuous
 62
     7
100
AcDbSpline
 70
     3
 71
     3
 72
    20
 73
    16
 74
     0
 42
0.000000001
 43
0.0000001
 40
0.0
 40
0.0
 40
0.0
 40
0.0
 40
1.0
 40
1.0
 40
1.0
 40
2.0
 40
2.0
 40
2.0
 40
3.0
 40
3.0
 40
3.0
 40
4.0
 40
4.0
 40
4.0
 40
5.0
 40
5.0
 40
5.0
 40
5.0
 10
174.238208664
 20
35.8984562195
 30
0.0
 10
174.238208664
 20
35.8984562195
 30
0.0
 10
176.5545653184
 20
33.0688947973
 30
0.0
 10
176.5545653184
 20
33.0688947973
 30
0.0
 10
175.902918265
 20
32.4167243326
 30
0.0
 10
175.126045061
 20
31.6808080619
 30
0.0
 10
174.1548554164
 20
31.6808080619
 30
0.0
 10
173.1563175319
 20
31.6808080619
 30
0.0
 10
172.2129995384
 20
32.6103865091
 30
0.0
 10
172.2129995384
 20
33.6095786577
 30
0.0
 10
172.2129995384
 20
34.6087708062
 30
0.0
 10
173.3918526115
 20
35.3153760449
 30
0.0
 10
174.1133750718
 20
35.8152338248
 30
0.0
 10
174.1133750718
 20
35.8152338248
 30
0.0
 10
174.238208664
 20
35.8984562195
 30
0.0
 10
174.238208664
 20
35.8984562195
 30
0.0
  0
SPLINE
  5
245
330
20C
100
AcDbEntity
  8
0
  6
Continuous
 62
     7
100
AcDbSpline
 70
     3
 71
     3
 72
    23
 73
    19
 74
     0
 42
0.000000001
 43
0.0000001
 40
0.0
 40
0.0
 40
0.0
 40
0.0
 40
1.0
 40
1.0
 40
1.0
 40
2.0
 40
2.0
 40
2.0
 40
3.0
 40
3.0
 40
3.0
 40
4.0
 40
4.0
 40
4.0
 40
5.0
 40
5.0
 40
5.0
 40
6.0
 40
6.0
 40
6.0
 40
6.0
 10
174.5156166465
 20
37.5362101393
 30
0.0
 10
174.5156166465
 20
37.5362101393
 30
0.0
 10
174.169118374
 20
37.9795395001
 30
0.0
 10
174.169118374
 20
37.9795395001
 30
0.0
 10
173.863315329
 20
38.3676489701
 30
0.0
 10
173.5444270019
 20
38.7561509985
 30
0.0
 10
173.5444270019
 20
39.2830953126
 30
0.0
 10
173.5444270019
 20
39.9492670292
 30
0.0
 10
174.0857651264
 20
40.3929889485
 30
0.0
 10
174.7096713815
 20
40.3929889485
 30
0.0
 10
175.4034530436
 20
40.3929889485
 30
0.0
 10
175.9306590633
 20
39.9907473738
 30
0.0
 10
175.9306590633
 20
39.2557470728
 30
0.0
 10
175.9306590633
 20
38.4924825622
 30
0.0
 10
175.2093983086
 20
38.0623693364
 30
0.0
 10
174.6823231417
 20
37.646649921
 30
0.0
 10
174.6823231417
 20
37.646649921
 30
0.0
 10
174.5156166465
 20
37.5362101393
 30
0.0
 10
174.5156166465
 20
37.5362101393
 30
0.0
  0
SPLINE
  5
246
330
20C
100
AcDbEntity
  8
0
  6
Continuous
 62
     7
100
AcDbSpline
 70
     3
 71
     3
 72
    50
 73
    46
 74
     0
 42
0.000000001
 43
0.0000001
 40
0.0
 40
0.0
 40
0.0
 40
0.0
 40
1.0
 40
1.0
 40
1.0
 40
2.0
 40
2.0
 40
2.0
 40
3.0
 40
3.0
 40
3.0
 40
4.0
 40
4.0
 40
4.0
 40
5.0
 40
5.0
 40
5.0
 40
6.0
 40
6.0
 40
6.0
 40
7.0
 40
7.0
 40
7.0
 40
8.0
 40
8.0
 40
8.0
 40
9.0
 40
9.0
 40
9.0
 40
10.0
 40
10.0
 40
10.0
 40
11.0
 40
11.0
 40
11.0
 40
12.0
 40
12.0
 40
12.0
 40
13.0
 40
13.0
 40
13.0
 40
14.0
 40
14.0
 40
14.0
 40
15.0
 40
15.0
 40
15.0
 40
15.0
 10
178.4692038095
 20
30.7376209211
 30
0.0
 10
178.4692038095
 20
30.7376209211
 30
0.0
 10
180.078431814
 20
30.7376209211
 30
0.0
 10
180.078431814
 20
30.7376209211
 30
0.0
 10
180.078431814
 20
30.7376209211
 30
0.0
 10
178.2054045204
 20
33.0547626925
 30
0.0
 10
178.2054045204
 20
33.0547626925
 30
0.0
 10
178.2054045204
 20
33.0547626925
 30
0.0
 10
179.4817429458
 20
34.5522423871
 30
0.0
 10
179.4817429458
 20
34.5522423871
 30
0.0
 10
179.4817429458
 20
34.5522423871
 30
0.0
 10
178.6495189981
 20
35.4132539557
 30
0.0
 10
178.6495189981
 20
35.4132539557
 30
0.0
 10
178.6495189981
 20
35.4132539557
 30
0.0
 10
177.4289238748
 20
33.9979498333
 30
0.0
 10
177.4289238748
 20
33.9979498333
 30
0.0
 10
177.4289238748
 20
33.9979498333
 30
0.0
 10
175.251009506
 20
36.6333256677
 30
0.0
 10
175.251009506
 20
36.6333256677
 30
0.0
 10
176.1245829454
 20
37.2713640276
 30
0.0
 10
177.1512541866
 20
38.0623693364
 30
0.0
 10
177.1512541866
 20
39.2412224095
 30
0.0
 10
177.1512541866
 20
40.6149153345
 30
0.0
 10
176.0133580468
 20
41.419398484
 30
0.0
 10
174.7380664439
 20
41.419398484
 30
0.0
 10
173.3646352245
 20
41.419398484
 30
0.0
 10
172.3237010257
 20
40.5731732843
 30
0.0
 10
172.3237010257
 20
39.1305209221
 30
0.0
 10
172.3237010257
 20
38.2429462307
 30
0.0
 10
172.8790404022
 20
37.4660730267
 30
0.0
 10
173.4752058591
 20
36.8416433603
 30
0.0
 10
173.4752058591
 20
36.8416433603
 30
0.0
 10
172.8232971
 20
36.3700497899
 30
0.0
 10
172.8232971
 20
36.3700497899
 30
0.0
 10
171.8247592156
 20
35.6487890352
 30
0.0
 10
170.9918810038
 20
34.9275282805
 30
0.0
 10
170.9918810038
 20
33.5959699642
 30
0.0
 10
170.9918810038
 20
31.7922946662
 30
0.0
 10
172.4489271764
 20
30.5156945351
 30
0.0
 10
174.1964666137
 20
30.5156945351
 30
0.0
 10
175.4313246947
 20
30.5156945351
 30
0.0
 10
176.5406949193
 20
31.2238700076
 30
0.0
 10
177.3315693753
 20
32.1524016323
 30
0.0
 10
177.3315693753
 20
32.1524016323
 30
0.0
 10
178.4692038095
 20
30.7376209211
 30
0.0
 10
178.4692038095
 20
30.7376209211
 30
0.0
  0
LINE
  5
247
330
20C
100
AcDbEntity
  8
0
  6
Continuous
 62
     7
100
AcDbLine
 10
164.2720651844
 20
28.7114958258
 30
0.0
 11
186.6859759121
 21
28.7114958258
 31
0.0
  0
LINE
  5
248
330
20C
100
AcDbEntity
  8
0
  6
Continuous
 62
     7
100
AcDbLine
 10
186.6859759121
 20
28.7114958258
 30
0.0
 11
186.6859759121
 21
51.1254065534
 31
0.0
  0
LINE
  5
249
330
20C
100
AcDbEntity
  8
0
  6
Continuous
 62
     7
100
AcDbLine
 10
186.6859759121
 20
51.1254065534
 30
0.0
 11
164.2720651844
 21
51.1254065534
 31
0.0
  0
LINE
  5
24A
330
20C
100
AcDbEntity
  8
0
  6
Continuous
 62
     7
100
AcDbLine
 10
164.2720651844
 20
51.1254065534
 30
0.0
 11
164.2720651844
 21
28.7114958258
 31
0.0
  0
ENDBLK
  5
24B
330
20C
100
AcDbEntity
  8
0
  6
ByBlock
 62
     0
100
AcDbBlockEnd
  0
BLOCK
  5
24C
330
20D
100
AcDbEntity
  8
0
100
AcDbBlockBegin
  2
PROIEZIONE_EU_BL0
 70
     0
 10
176.6529080771
 20
63.6267190534
 30
0.0
  3
PROIEZIONE_EU_BL0
  1

  0
LWPOLYLINE
  5
24D
330
20D
100
AcDbEntity
  8
DEFAULT_1
  6
CENTER
 62
     7
100
AcDbPolyline
 90
        2
 70
     0
 43
0.25
 10
182.7795287387
 20
68.6264131853
 10
182.7795697211
 20
58.6270249216
  0
LWPOLYLINE
  5
24E
330
20D
100
AcDbEntity
  8
DEFAULT_1
  6
CENTER
 62
     7
100
AcDbPolyline
 90
        2
 70
     0
 43
0.25
 10
188.7795585638
 20
63.6269901886
 10
164.5262575903
 20
63.6267195282
  0
LWPOLYLINE
  5
24F
330
20D
100
AcDbEntity
  8
0
  6
Continuous
 62
     7
100
AcDbPolyline
 90
        2
 70
     1
 43
0.25
 10
179.2324185629
 20
63.6081712992
 42
1.0
 10
186.3387476616
 20
63.6081712992
 42
1.0
  0
LWPOLYLINE
  5
250
330
20D
100
AcDbEntity
  8
0
  6
Continuous
 62
     7
100
AcDbPolyline
 90
        2
 70
     1
 43
0.25
 10
180.7821623913
 20
63.6260693438
 42
1.0
 10
184.7939141414
 20
63.6260693438
 42
1.0
  0
LWPOLYLINE
  5
251
330
20D
100
AcDbEntity
  8
0
  6
Continuous
 62
     7
100
AcDbPolyline
 90
        2
 70
     0
 43
0.25
 10
176.7795563578
 20
67.2019225487
 10
176.7795560032
 20
60.1017196404
  0
LWPOLYLINE
  5
252
330
20D
100
AcDbEntity
  8
0
  6
Continuous
 62
     7
100
AcDbPolyline
 90
        2
 70
     0
 43
0.25
 10
176.7795844396
 20
60.101691204
 10
166.7850271684
 20
61.6217846168
  0
LWPOLYLINE
  5
253
330
20D
100
AcDbEntity
  8
0
  6
Continuous
 62
     7
100
AcDbPolyline
 90
        2
 70
     0
 43
0.25
 10
166.7827171828
 20
61.6211070753
 10
166.7800502787
 20
65.6267456867
  0
LWPOLYLINE
  5
254
330
20D
100
AcDbEntity
  8
0
  6
Continuous
 62
     7
100
AcDbPolyline
 90
        2
 70
     0
 43
0.25
 10
166.7800420027
 20
65.6267374106
 10
176.77978524
 20
67.2018946307
  0
ENDBLK
  5
255
330
20D
100
AcDbEntity
  8
0
  6
ByBlock
 62
     0
100
AcDbBlockEnd
  0
ENDSEC
  0
SECTION
  2
ENTITIES
  0
LINE
  5
277
330
1B
100
AcDbEntity
 67
     1
  8
0
  6
Continuous
 62
     7
100
AcDbLine
 10
0.0
 20
0.0
 30
0.0
 11
297.0
 21
0.0
 31
0.0
  0
LINE
  5
278
330
1B
100
AcDbEntity
 67
     1
  8
0
  6
Continuous
 62
     7
100
AcDbLine
 10
297.0
 20
0.0
 30
0.0
 11
297.0
 21
210.0
 31
0.0
  0
LINE
  5
279
330
1B
100
AcDbEntity
 67
     1
  8
0
  6
Continuous
 62
     7
100
AcDbLine
 10
0.0
 20
210.0
 30
0.0
 11
297.0
 21
210.0
 31
0.0
  0
LINE
  5
27A
330
1B
100
AcDbEntity
 67
     1
  8
0
  6
Continuous
 62
     7
100
AcDbLine
 10
0.0
 20
0.0
 30
0.0
 11
0.0
 21
210.0
 31
0.0
  0
VIEWPORT
  5
27B
330
1B
100
AcDbEntity
 67
     1
  8
0
100
AcDbViewport
 10
0.0
 20
0.0
 30
0.0
 40
350.0544747081711
 41
247.5385214007782
 68
     1
 69
     1
 12
165.4669260700389
 22
105.0
 13
0.0
 23
0.0
 14
1.0
 24
1.0
 15
0.0
 25
0.0
 16
0.0
 26
0.0
 36
1.0
 17
0.0
 27
0.0
 37
0.0
 42
50.0
 43
0.0
 44
0.0
 45
247.5385214007782
 50
0.0
 51
0.0
 72
   100
 90
   557216
  1

281
     0
 71
     1
 74
     0
110
0.0
120
0.0
130
0.0
111
1.0
121
0.0
131
0.0
112
0.0
122
1.0
132
0.0
 79
     0
146
0.0
170
     0
 61
     5
348
401
292
     1
282
     1
141
0.0
142
0.0
 63
   256
  0
LINE
  5
27C
330
1B
100
AcDbEntity
 67
     1
  8
7_ALL_FEATURES
  6
Continuous
 62
     7
100
AcDbLine
 10
30.1924735404
 20
29.9475312104
 30
0.0
 11
30.1924735404
 21
48.9475312104
 31
0.0
  0
LINE
  5
27D
330
1B
100
AcDbEntity
 67
     1
  8
7_ALL_FEATURES
  6
Continuous
 62
     7
100
AcDbLine
 10
30.1924735404
 20
66.9475312104
 30
0.0
 11
30.1924735404
 21
85.9475312104
 31
0.0
  0
LINE
  5
27E
330
1B
100
AcDbEntity
 67
     1
  8
7_ALL_FEATURES
  6
Continuous
 62
     7
100
AcDbLine
 10
57.0674735404
 20
48.634402037
 30
0.0
 11
57.0674735404
 21
47.6162982249
 31
0.0
  0
ARC
  5
27F
330
1B
100
AcDbEntity
 67
     1
  8
7_ALL_FEATURES
  6
Continuous
 62
     7
100
AcDbCircle
 10
55.1924735404
 20
57.9475312104
 30
0.0
 40
9.5
100
AcDbArc
 50
281.3831134824
 51
348.6168865176
  0
LINE
  5
280
330
1B
100
AcDbEntity
 67
     1
  8
7_ALL_FEATURES
  6
Continuous
 62
     7
100
AcDbLine
 10
65.5237065259
 20
56.0725312104
 30
0.0
 11
64.5056027138
 21
56.0725312104
 31
0.0
  0
ARC
  5
281
330
1B
100
AcDbEntity
 67
     1
  8
7_ALL_FEATURES
  6
Continuous
 62
     7
100
AcDbCircle
 10
55.1924735404
 20
57.9475312104
 30
0.0
 40
10.5
100
AcDbArc
 50
280.2865606115
 51
349.7134393884999
  0
ARC
  5
282
330
1B
100
AcDbEntity
 67
     1
  8
7_ALL_FEATURES
  6
Continuous
 62
     7
100
AcDbCircle
 10
55.1924735404
 20
57.9475312104
 30
0.0
 40
13.5
100
AcDbArc
 50
277.9835561456
 51
352.0164438544001
  0
LINE
  5
283
330
1B
100
AcDbEntity
 67
     1
  8
7_ALL_FEATURES
  6
Continuous
 62
     7
100
AcDbLine
 10
69.5707340402
 20
56.0725312104
 30
0.0
 11
68.5616311429
 21
56.0725312104
 31
0.0
  0
ARC
  5
284
330
1B
100
AcDbEntity
 67
     1
  8
7_ALL_FEATURES
  6
Continuous
 62
     7
100
AcDbCircle
 10
55.1924735404
 20
57.9475312104
 30
0.0
 40
14.5
100
AcDbArc
 50
277.4297416108
 51
352.5702583892
  0
LINE
  5
285
330
1B
100
AcDbEntity
 67
     1
  8
7_ALL_FEATURES
  6
Continuous
 62
     7
100
AcDbLine
 10
57.0674735404
 20
44.5783736079
 30
0.0
 11
57.0674735404
 21
43.5692707106
 31
0.0
  0
LINE
  5
286
330
1B
100
AcDbEntity
 67
     1
  8
7_ALL_FEATURES
  6
Continuous
 62
     7
100
AcDbLine
 10
57.0674735404
 20
40.7997361626
 30
0.0
 11
57.0674735404
 21
39.7941052252
 31
0.0
  0
ARC
  5
287
330
1B
100
AcDbEntity
 67
     1
  8
7_ALL_FEATURES
  6
Continuous
 62
     7
100
AcDbCircle
 10
55.1924735404
 20
57.9475312104
 30
0.0
 40
17.25
100
AcDbArc
 50
276.2401310983
 51
353.7598689017
  0
LINE
  5
288
330
1B
100
AcDbEntity
 67
     1
  8
7_ALL_FEATURES
  6
Continuous
 62
     7
100
AcDbLine
 10
73.3458995256
 20
56.0725312104
 30
0.0
 11
72.3402685882
 21
56.0725312104
 31
0.0
  0
ARC
  5
289
330
1B
100
AcDbEntity
 67
     1
  8
7_ALL_FEATURES
  6
Continuous
 62
     7
100
AcDbCircle
 10
55.1924735404
 20
57.9475312104
 30
0.0
 40
18.25
100
AcDbArc
 50
275.8969580609
 51
354.1030419391
  0
LINE
  5
28A
330
1B
100
AcDbEntity
 67
     1
  8
7_ALL_FEATURES
  6
Continuous
 62
     7
100
AcDbLine
 10
45.8793443671
 20
56.0725312104
 30
0.0
 11
44.861240555
 21
56.0725312104
 31
0.0
  0
ARC
  5
28B
330
1B
100
AcDbEntity
 67
     1
  8
7_ALL_FEATURES
  6
Continuous
 62
     7
100
AcDbCircle
 10
55.1924735404
 20
57.9475312104
 30
0.0
 40
9.5
100
AcDbArc
 50
191.3831134824
 51
258.6168865176
  0
LINE
  5
28C
330
1B
100
AcDbEntity
 67
     1
  8
7_ALL_FEATURES
  6
Continuous
 62
     7
100
AcDbLine
 10
53.3174735404
 20
47.6162982249
 30
0.0
 11
53.3174735404
 21
48.634402037
 31
0.0
  0
ARC
  5
28D
330
1B
100
AcDbEntity
 67
     1
  8
7_ALL_FEATURES
  6
Continuous
 62
     7
100
AcDbCircle
 10
55.1924735404
 20
57.9475312104
 30
0.0
 40
10.5
100
AcDbArc
 50
190.2865606115
 51
259.7134393885
  0
ARC
  5
28E
330
1B
100
AcDbEntity
 67
     1
  8
7_ALL_FEATURES
  6
Continuous
 62
     7
100
AcDbCircle
 10
55.1924735404
 20
57.9475312104
 30
0.0
 40
13.5
100
AcDbArc
 50
187.9835561456
 51
262.0164438544001
  0
LINE
  5
28F
330
1B
100
AcDbEntity
 67
     1
  8
7_ALL_FEATURES
  6
Continuous
 62
     7
100
AcDbLine
 10
53.3174735404
 20
43.5692707106
 30
0.0
 11
53.3174735404
 21
44.5783736079
 31
0.0
  0
ARC
  5
290
330
1B
100
AcDbEntity
 67
     1
  8
7_ALL_FEATURES
  6
Continuous
 62
     7
100
AcDbCircle
 10
55.1924735404
 20
57.9475312104
 30
0.0
 40
14.5
100
AcDbArc
 50
187.4297416108
 51
262.5702583892
  0
LINE
  5
291
330
1B
100
AcDbEntity
 67
     1
  8
7_ALL_FEATURES
  6
Continuous
 62
     7
100
AcDbLine
 10
41.823315938
 20
56.0725312104
 30
0.0
 11
40.8142130406
 21
56.0725312104
 31
0.0
  0
ARC
  5
292
330
1B
100
AcDbEntity
 67
     1
  8
7_ALL_FEATURES
  6
Continuous
 62
     7
100
AcDbCircle
 10
55.1924735404
 20
57.9475312104
 30
0.0
 40
17.25
100
AcDbArc
 50
191.7535257668
 51
263.7598689017
  0
LINE
  5
293
330
1B
100
AcDbEntity
 67
     1
  8
7_ALL_FEATURES
  6
Continuous
 62
     7
100
AcDbLine
 10
53.3174735404
 20
39.7941052252
 30
0.0
 11
53.3174735404
 21
40.7997361626
 31
0.0
  0
ARC
  5
294
330
1B
100
AcDbEntity
 67
     1
  8
7_ALL_FEATURES
  6
Continuous
 62
     7
100
AcDbCircle
 10
55.1924735404
 20
57.9475312104
 30
0.0
 40
18.25
100
AcDbArc
 50
192.2994965952
 51
264.1030419391
  0
LINE
  5
295
330
1B
100
AcDbEntity
 67
     1
  8
7_ALL_FEATURES
  6
Continuous
 62
     7
100
AcDbLine
 10
53.3174735404
 20
67.2606603838
 30
0.0
 11
53.3174735404
 21
68.2787641959
 31
0.0
  0
ARC
  5
296
330
1B
100
AcDbEntity
 67
     1
  8
7_ALL_FEATURES
  6
Continuous
 62
     7
100
AcDbCircle
 10
55.1924735404
 20
57.9475312104
 30
0.0
 40
9.5
100
AcDbArc
 50
101.3831134824
 51
168.6168865176
  0
LINE
  5
297
330
1B
100
AcDbEntity
 67
     1
  8
7_ALL_FEATURES
  6
Continuous
 62
     7
100
AcDbLine
 10
44.861240555
 20
59.8225312104
 30
0.0
 11
45.8793443671
 21
59.8225312104
 31
0.0
  0
ARC
  5
298
330
1B
100
AcDbEntity
 67
     1
  8
7_ALL_FEATURES
  6
Continuous
 62
     7
100
AcDbCircle
 10
55.1924735404
 20
57.9475312104
 30
0.0
 40
10.5
100
AcDbArc
 50
100.2865606115
 51
169.7134393885
  0
ARC
  5
299
330
1B
100
AcDbEntity
 67
     1
  8
7_ALL_FEATURES
  6
Continuous
 62
     7
100
AcDbCircle
 10
55.1924735404
 20
57.9475312104
 30
0.0
 40
13.5
100
AcDbArc
 50
97.98355614560002
 51
172.0164438544
  0
LINE
  5
29A
330
1B
100
AcDbEntity
 67
     1
  8
7_ALL_FEATURES
  6
Continuous
 62
     7
100
AcDbLine
 10
40.8142130406
 20
59.8225312104
 30
0.0
 11
41.823315938
 21
59.8225312104
 31
0.0
  0
ARC
  5
29B
330
1B
100
AcDbEntity
 67
     1
  8
7_ALL_FEATURES
  6
Continuous
 62
     7
100
AcDbCircle
 10
55.1924735404
 20
57.9475312104
 30
0.0
 40
14.5
100
AcDbArc
 50
97.42974161079998
 51
172.5702583892
  0
LINE
  5
29C
330
1B
100
AcDbEntity
 67
     1
  8
7_ALL_FEATURES
  6
Continuous
 62
     7
100
AcDbLine
 10
53.3174735404
 20
71.3166888129
 30
0.0
 11
53.3174735404
 21
72.3257917102
 31
0.0
  0
LINE
  5
29D
330
1B
100
AcDbEntity
 67
     1
  8
7_ALL_FEATURES
  6
Continuous
 62
     7
100
AcDbLine
 10
53.3174735404
 20
75.0953262582
 30
0.0
 11
53.3174735404
 21
76.1009571956
 31
0.0
  0
ARC
  5
29E
330
1B
100
AcDbEntity
 67
     1
  8
7_ALL_FEATURES
  6
Continuous
 62
     7
100
AcDbCircle
 10
55.1924735404
 20
57.9475312104
 30
0.0
 40
17.25
100
AcDbArc
 50
96.24013109829998
 51
168.2464742332
  0
ARC
  5
29F
330
1B
100
AcDbEntity
 67
     1
  8
7_ALL_FEATURES
  6
Continuous
 62
     7
100
AcDbCircle
 10
55.1924735404
 20
57.9475312104
 30
0.0
 40
18.25
100
AcDbArc
 50
95.89695806089999
 51
167.7005034048
  0
LINE
  5
2A0
330
1B
100
AcDbEntity
 67
     1
  8
7_ALL_FEATURES
  6
Continuous
 62
     7
100
AcDbLine
 10
64.5056027138
 20
59.8225312104
 30
0.0
 11
65.5237065259
 21
59.8225312104
 31
0.0
  0
ARC
  5
2A1
330
1B
100
AcDbEntity
 67
     1
  8
7_ALL_FEATURES
  6
Continuous
 62
     7
100
AcDbCircle
 10
55.1924735404
 20
57.9475312104
 30
0.0
 40
9.5
100
AcDbArc
 50
11.3831134824
 51
78.6168865176
  0
LINE
  5
2A2
330
1B
100
AcDbEntity
 67
     1
  8
7_ALL_FEATURES
  6
Continuous
 62
     7
100
AcDbLine
 10
57.0674735404
 20
68.2787641959
 30
0.0
 11
57.0674735404
 21
67.2606603838
 31
0.0
  0
ARC
  5
2A3
330
1B
100
AcDbEntity
 67
     1
  8
7_ALL_FEATURES
  6
Continuous
 62
     7
100
AcDbCircle
 10
55.1924735404
 20
57.9475312104
 30
0.0
 40
10.5
100
AcDbArc
 50
10.2865606115
 51
79.71343938849999
  0
ARC
  5
2A4
330
1B
100
AcDbEntity
 67
     1
  8
7_ALL_FEATURES
  6
Continuous
 62
     7
100
AcDbCircle
 10
55.1924735404
 20
57.9475312104
 30
0.0
 40
13.5
100
AcDbArc
 50
7.983556145599999
 51
82.01644385440001
  0
LINE
  5
2A5
330
1B
100
AcDbEntity
 67
     1
  8
7_ALL_FEATURES
  6
Continuous
 62
     7
100
AcDbLine
 10
57.0674735404
 20
72.3257917102
 30
0.0
 11
57.0674735404
 21
71.3166888129
 31
0.0
  0
ARC
  5
2A6
330
1B
100
AcDbEntity
 67
     1
  8
7_ALL_FEATURES
  6
Continuous
 62
     7
100
AcDbCircle
 10
55.1924735404
 20
57.9475312104
 30
0.0
 40
14.5
100
AcDbArc
 50
7.429741610800001
 51
82.57025838919999
  0
LINE
  5
2A7
330
1B
100
AcDbEntity
 67
     1
  8
7_ALL_FEATURES
  6
Continuous
 62
     7
100
AcDbLine
 10
68.5616311429
 20
59.8225312104
 30
0.0
 11
69.5707340402
 21
59.8225312104
 31
0.0
  0
LINE
  5
2A8
330
1B
100
AcDbEntity
 67
     1
  8
7_ALL_FEATURES
  6
Continuous
 62
     7
100
AcDbLine
 10
72.3402685882
 20
59.8225312104
 30
0.0
 11
73.3458995256
 21
59.8225312104
 31
0.0
  0
ARC
  5
2A9
330
1B
100
AcDbEntity
 67
     1
  8
7_ALL_FEATURES
  6
Continuous
 62
     7
100
AcDbCircle
 10
55.1924735404
 20
57.9475312104
 30
0.0
 40
17.25
100
AcDbArc
 50
6.240131098299999
 51
83.7598689017
  0
LINE
  5
2AA
330
1B
100
AcDbEntity
 67
     1
  8
7_ALL_FEATURES
  6
Continuous
 62
     7
100
AcDbLine
 10
57.0674735404
 20
76.1009571956
 30
0.0
 11
57.0674735404
 21
75.0953262582
 31
0.0
  0
ARC
  5
2AB
330
1B
100
AcDbEntity
 67
     1
  8
7_ALL_FEATURES
  6
Continuous
 62
     7
100
AcDbCircle
 10
55.1924735404
 20
57.9475312104
 30
0.0
 40
18.25
100
AcDbArc
 50
5.8969580609
 51
84.1030419391
  0
LINE
  5
2AC
330
1B
100
AcDbEntity
 67
     1
  8
7_ALL_FEATURES
  6
Continuous
 62
     7
100
AcDbLine
 10
92.861240555
 20
56.0725312104
 30
0.0
 11
93.8793443671
 21
56.0725312104
 31
0.0
  0
ARC
  5
2AD
330
1B
100
AcDbEntity
 67
     1
  8
7_ALL_FEATURES
  6
Continuous
 62
     7
100
AcDbCircle
 10
103.1924735404
 20
57.9475312104
 30
0.0
 40
9.5
100
AcDbArc
 50
191.3831134824
 51
258.6168865176
  0
LINE
  5
2AE
330
1B
100
AcDbEntity
 67
     1
  8
7_ALL_FEATURES
  6
Continuous
 62
     7
100
AcDbLine
 10
101.3174735404
 20
48.634402037
 30
0.0
 11
101.3174735404
 21
47.6162982249
 31
0.0
  0
ARC
  5
2AF
330
1B
100
AcDbEntity
 67
     1
  8
7_ALL_FEATURES
  6
Continuous
 62
     7
100
AcDbCircle
 10
103.1924735404
 20
57.9475312104
 30
0.0
 40
10.5
100
AcDbArc
 50
190.2865606115
 51
259.7134393885
  0
ARC
  5
2B0
330
1B
100
AcDbEntity
 67
     1
  8
7_ALL_FEATURES
  6
Continuous
 62
     7
100
AcDbCircle
 10
103.1924735404
 20
57.9475312104
 30
0.0
 40
14.5
100
AcDbArc
 50
187.4297416108
 51
262.5702583892
  0
LINE
  5
2B1
330
1B
100
AcDbEntity
 67
     1
  8
7_ALL_FEATURES
  6
Continuous
 62
     7
100
AcDbLine
 10
88.8142130406
 20
56.0725312104
 30
0.0
 11
89.823315938
 21
56.0725312104
 31
0.0
  0
ARC
  5
2B2
330
1B
100
AcDbEntity
 67
     1
  8
7_ALL_FEATURES
  6
Continuous
 62
     7
100
AcDbCircle
 10
103.1924735404
 20
57.9475312104
 30
0.0
 40
13.5
100
AcDbArc
 50
187.9835561456
 51
262.0164438544001
  0
LINE
  5
2B3
330
1B
100
AcDbEntity
 67
     1
  8
7_ALL_FEATURES
  6
Continuous
 62
     7
100
AcDbLine
 10
101.3174735404
 20
44.5783736079
 30
0.0
 11
101.3174735404
 21
43.5692707106
 31
0.0
  0
LINE
  5
2B4
330
1B
100
AcDbEntity
 67
     1
  8
7_ALL_FEATURES
  6
Continuous
 62
     7
100
AcDbLine
 10
85.0390475552
 20
56.0725312104
 30
0.0
 11
86.0446784927
 21
56.0725312104
 31
0.0
  0
ARC
  5
2B5
330
1B
100
AcDbEntity
 67
     1
  8
7_ALL_FEATURES
  6
Continuous
 62
     7
100
AcDbCircle
 10
103.1924735404
 20
57.9475312104
 30
0.0
 40
17.25
100
AcDbArc
 50
186.2401310983
 51
263.7598689017
  0
LINE
  5
2B6
330
1B
100
AcDbEntity
 67
     1
  8
7_ALL_FEATURES
  6
Continuous
 62
     7
100
AcDbLine
 10
101.3174735404
 20
40.7997361626
 30
0.0
 11
101.3174735404
 21
39.7941052252
 31
0.0
  0
ARC
  5
2B7
330
1B
100
AcDbEntity
 67
     1
  8
7_ALL_FEATURES
  6
Continuous
 62
     7
100
AcDbCircle
 10
103.1924735404
 20
57.9475312104
 30
0.0
 40
18.25
100
AcDbArc
 50
185.8969580609
 51
264.1030419391
  0
LINE
  5
2B8
330
1B
100
AcDbEntity
 67
     1
  8
7_ALL_FEATURES
  6
Continuous
 62
     7
100
AcDbLine
 10
105.0674735404
 20
47.6162982249
 30
0.0
 11
105.0674735404
 21
48.634402037
 31
0.0
  0
ARC
  5
2B9
330
1B
100
AcDbEntity
 67
     1
  8
7_ALL_FEATURES
  6
Continuous
 62
     7
100
AcDbCircle
 10
103.1924735404
 20
57.9475312104
 30
0.0
 40
9.5
100
AcDbArc
 50
281.3831134824
 51
348.6168865176
  0
LINE
  5
2BA
330
1B
100
AcDbEntity
 67
     1
  8
7_ALL_FEATURES
  6
Continuous
 62
     7
100
AcDbLine
 10
112.5056027138
 20
56.0725312104
 30
0.0
 11
113.5237065259
 21
56.0725312104
 31
0.0
  0
ARC
  5
2BB
330
1B
100
AcDbEntity
 67
     1
  8
7_ALL_FEATURES
  6
Continuous
 62
     7
100
AcDbCircle
 10
103.1924735404
 20
57.9475312104
 30
0.0
 40
10.5
100
AcDbArc
 50
280.2865606115
 51
349.7134393884999
  0
ARC
  5
2BC
330
1B
100
AcDbEntity
 67
     1
  8
7_ALL_FEATURES
  6
Continuous
 62
     7
100
AcDbCircle
 10
103.1924735404
 20
57.9475312104
 30
0.0
 40
14.5
100
AcDbArc
 50
277.4297416108
 51
348.0254508009
  0
LINE
  5
2BD
330
1B
100
AcDbEntity
 67
     1
  8
7_ALL_FEATURES
  6
Continuous
 62
     7
100
AcDbLine
 10
105.0674735404
 20
43.5692707106
 30
0.0
 11
105.0674735404
 21
44.5783736079
 31
0.0
  0
ARC
  5
2BE
330
1B
100
AcDbEntity
 67
     1
  8
7_ALL_FEATURES
  6
Continuous
 62
     7
100
AcDbCircle
 10
103.1924735404
 20
57.9475312104
 30
0.0
 40
13.5
100
AcDbArc
 50
277.9835561456
 51
351.2286952706
  0
LINE
  5
2BF
330
1B
100
AcDbEntity
 67
     1
  8
7_ALL_FEATURES
  6
Continuous
 62
     7
100
AcDbLine
 10
105.0674735404
 20
39.7941052252
 30
0.0
 11
105.0674735404
 21
40.7997361626
 31
0.0
  0
ARC
  5
2C0
330
1B
100
AcDbEntity
 67
     1
  8
7_ALL_FEATURES
  6
Continuous
 62
     7
100
AcDbCircle
 10
103.1924735404
 20
57.9475312104
 30
0.0
 40
17.25
100
AcDbArc
 50
276.2401310983
 51
346.5596725462
  0
ARC
  5
2C1
330
1B
100
AcDbEntity
 67
     1
  8
7_ALL_FEATURES
  6
Continuous
 62
     7
100
AcDbCircle
 10
103.1924735404
 20
57.9475312104
 30
0.0
 40
18.25
100
AcDbArc
 50
275.8969580609
 51
347.2903415452001
  0
LINE
  5
2C2
330
1B
100
AcDbEntity
 67
     1
  8
7_ALL_FEATURES
  6
Continuous
 62
     7
100
AcDbLine
 10
113.5237065259
 20
59.8225312104
 30
0.0
 11
112.5056027138
 21
59.8225312104
 31
0.0
  0
ARC
  5
2C3
330
1B
100
AcDbEntity
 67
     1
  8
7_ALL_FEATURES
  6
Continuous
 62
     7
100
AcDbCircle
 10
103.1924735404
 20
57.9475312104
 30
0.0
 40
9.5
100
AcDbArc
 50
11.3831134824
 51
78.6168865176
  0
LINE
  5
2C4
330
1B
100
AcDbEntity
 67
     1
  8
7_ALL_FEATURES
  6
Continuous
 62
     7
100
AcDbLine
 10
105.0674735404
 20
67.2606603838
 30
0.0
 11
105.0674735404
 21
68.2787641959
 31
0.0
  0
ARC
  5
2C5
330
1B
100
AcDbEntity
 67
     1
  8
7_ALL_FEATURES
  6
Continuous
 62
     7
100
AcDbCircle
 10
103.1924735404
 20
57.9475312104
 30
0.0
 40
10.5
100
AcDbArc
 50
10.2865606115
 51
79.71343938849999
  0
ARC
  5
2C6
330
1B
100
AcDbEntity
 67
     1
  8
7_ALL_FEATURES
  6
Continuous
 62
     7
100
AcDbCircle
 10
103.1924735404
 20
57.9475312104
 30
0.0
 40
14.5
100
AcDbArc
 50
11.9745491991
 51
82.57025838919999
  0
ARC
  5
2C7
330
1B
100
AcDbEntity
 67
     1
  8
7_ALL_FEATURES
  6
Continuous
 62
     7
100
AcDbCircle
 10
103.1924735404
 20
57.9475312104
 30
0.0
 40
13.5
100
AcDbArc
 50
8.7713047294
 51
82.01644385440001
  0
LINE
  5
2C8
330
1B
100
AcDbEntity
 67
     1
  8
7_ALL_FEATURES
  6
Continuous
 62
     7
100
AcDbLine
 10
105.0674735404
 20
71.3166888129
 30
0.0
 11
105.0674735404
 21
72.3257917102
 31
0.0
  0
ARC
  5
2C9
330
1B
100
AcDbEntity
 67
     1
  8
7_ALL_FEATURES
  6
Continuous
 62
     7
100
AcDbCircle
 10
103.1924735404
 20
57.9475312104
 30
0.0
 40
17.25
100
AcDbArc
 50
13.4403274538
 51
83.7598689017
  0
LINE
  5
2CA
330
1B
100
AcDbEntity
 67
     1
  8
7_ALL_FEATURES
  6
Continuous
 62
     7
100
AcDbLine
 10
105.0674735404
 20
75.0953262582
 30
0.0
 11
105.0674735404
 21
76.1009571956
 31
0.0
  0
ARC
  5
2CB
330
1B
100
AcDbEntity
 67
     1
  8
7_ALL_FEATURES
  6
Continuous
 62
     7
100
AcDbCircle
 10
103.1924735404
 20
57.9475312104
 30
0.0
 40
18.25
100
AcDbArc
 50
12.7096584548
 51
84.1030419391
  0
LINE
  5
2CC
330
1B
100
AcDbEntity
 67
     1
  8
7_ALL_FEATURES
  6
Continuous
 62
     7
100
AcDbLine
 10
101.3174735404
 20
68.2787641959
 30
0.0
 11
101.3174735404
 21
67.2606603838
 31
0.0
  0
ARC
  5
2CD
330
1B
100
AcDbEntity
 67
     1
  8
7_ALL_FEATURES
  6
Continuous
 62
     7
100
AcDbCircle
 10
103.1924735404
 20
57.9475312104
 30
0.0
 40
9.5
100
AcDbArc
 50
101.3831134824
 51
168.6168865176
  0
LINE
  5
2CE
330
1B
100
AcDbEntity
 67
     1
  8
7_ALL_FEATURES
  6
Continuous
 62
     7
100
AcDbLine
 10
93.8793443671
 20
59.8225312104
 30
0.0
 11
92.861240555
 21
59.8225312104
 31
0.0
  0
ARC
  5
2CF
330
1B
100
AcDbEntity
 67
     1
  8
7_ALL_FEATURES
  6
Continuous
 62
     7
100
AcDbCircle
 10
103.1924735404
 20
57.9475312104
 30
0.0
 40
10.5
100
AcDbArc
 50
100.2865606115
 51
169.7134393885
  0
ARC
  5
2D0
330
1B
100
AcDbEntity
 67
     1
  8
7_ALL_FEATURES
  6
Continuous
 62
     7
100
AcDbCircle
 10
103.1924735404
 20
57.9475312104
 30
0.0
 40
14.5
100
AcDbArc
 50
97.42974161079998
 51
172.5702583892
  0
LINE
  5
2D1
330
1B
100
AcDbEntity
 67
     1
  8
7_ALL_FEATURES
  6
Continuous
 62
     7
100
AcDbLine
 10
101.3174735404
 20
72.3257917102
 30
0.0
 11
101.3174735404
 21
71.3166888129
 31
0.0
  0
ARC
  5
2D2
330
1B
100
AcDbEntity
 67
     1
  8
7_ALL_FEATURES
  6
Continuous
 62
     7
100
AcDbCircle
 10
103.1924735404
 20
57.9475312104
 30
0.0
 40
13.5
100
AcDbArc
 50
97.98355614560002
 51
172.0164438544
  0
LINE
  5
2D3
330
1B
100
AcDbEntity
 67
     1
  8
7_ALL_FEATURES
  6
Continuous
 62
     7
100
AcDbLine
 10
89.823315938
 20
59.8225312104
 30
0.0
 11
88.8142130406
 21
59.8225312104
 31
0.0
  0
LINE
  5
2D4
330
1B
100
AcDbEntity
 67
     1
  8
7_ALL_FEATURES
  6
Continuous
 62
     7
100
AcDbLine
 10
101.3174735404
 20
76.1009571956
 30
0.0
 11
101.3174735404
 21
75.0953262582
 31
0.0
  0
ARC
  5
2D5
330
1B
100
AcDbEntity
 67
     1
  8
7_ALL_FEATURES
  6
Continuous
 62
     7
100
AcDbCircle
 10
103.1924735404
 20
57.9475312104
 30
0.0
 40
17.25
100
AcDbArc
 50
96.24013109829998
 51
173.7598689017
  0
LINE
  5
2D6
330
1B
100
AcDbEntity
 67
     1
  8
7_ALL_FEATURES
  6
Continuous
 62
     7
100
AcDbLine
 10
86.0446784927
 20
59.8225312104
 30
0.0
 11
85.0390475552
 21
59.8225312104
 31
0.0
  0
ARC
  5
2D7
330
1B
100
AcDbEntity
 67
     1
  8
7_ALL_FEATURES
  6
Continuous
 62
     7
100
AcDbCircle
 10
103.1924735404
 20
57.9475312104
 30
0.0
 40
18.25
100
AcDbArc
 50
95.89695806089999
 51
174.1030419391
  0
LINE
  5
2D8
330
1B
100
AcDbEntity
 67
     1
  8
7_ALL_FEATURES
  6
Continuous
 62
     7
100
AcDbLine
 10
127.1924735404
 20
66.9475312104
 30
0.0
 11
127.1924735404
 21
48.9475312104
 31
0.0
  0
LINE
  5
2D9
330
1B
100
AcDbEntity
 67
     1
  8
3_ALL_AXES
  6
Continuous
 62
     7
100
AcDbLine
 10
126.1924735404
 20
61.9475312104
 30
0.0
 11
126.1924735404
 21
66.9475312104
 31
0.0
  0
LINE
  5
2DA
330
1B
100
AcDbEntity
 67
     1
  8
3_ALL_AXES
  6
Continuous
 62
     7
100
AcDbLine
 10
119.9424735404
 20
61.9475312104
 30
0.0
 11
126.1924735404
 21
61.9475312104
 31
0.0
  0
ARC
  5
2DB
330
1B
100
AcDbEntity
 67
     1
  8
3_ALL_AXES
  6
Continuous
 62
     7
100
AcDbCircle
 10
119.9424735404
 20
57.9475312104
 30
0.0
 40
4.0
100
AcDbArc
 50
90.0
 51
270.0
  0
LINE
  5
2DC
330
1B
100
AcDbEntity
 67
     1
  8
3_ALL_AXES
  6
Continuous
 62
     7
100
AcDbLine
 10
126.1924735404
 20
53.9475312104
 30
0.0
 11
119.9424735404
 21
53.9475312104
 31
0.0
  0
LINE
  5
2DD
330
1B
100
AcDbEntity
 67
     1
  8
3_ALL_AXES
  6
Continuous
 62
     7
100
AcDbLine
 10
126.1924735404
 20
48.9475312104
 30
0.0
 11
126.1924735404
 21
53.9475312104
 31
0.0
  0
LINE
  5
2DE
330
1B
100
AcDbEntity
 67
     1
  8
7_ALL_FEATURES
  6
Continuous
 62
     7
100
AcDbLine
 10
29.1924735404
 20
48.9475312104
 30
0.0
 11
29.1924735404
 21
66.9475312104
 31
0.0
  0
LINE
  5
2DF
330
1B
100
AcDbEntity
 67
     1
  8
3_ALL_AXES
  6
Continuous
 62
     7
100
AcDbLine
 10
30.1924735404
 20
53.9475312104
 30
0.0
 11
30.1924735404
 21
48.9475312104
 31
0.0
  0
LINE
  5
2E0
330
1B
100
AcDbEntity
 67
     1
  8
3_ALL_AXES
  6
Continuous
 62
     7
100
AcDbLine
 10
36.4424735404
 20
53.9475312104
 30
0.0
 11
30.1924735404
 21
53.9475312104
 31
0.0
  0
ARC
  5
2E1
330
1B
100
AcDbEntity
 67
     1
  8
3_ALL_AXES
  6
Continuous
 62
     7
100
AcDbCircle
 10
36.4424735404
 20
57.9475312104
 30
0.0
 40
4.0
100
AcDbArc
 50
270.0
 51
90.0
  0
LINE
  5
2E2
330
1B
100
AcDbEntity
 67
     1
  8
3_ALL_AXES
  6
Continuous
 62
     7
100
AcDbLine
 10
30.1924735404
 20
61.9475312104
 30
0.0
 11
36.4424735404
 21
61.9475312104
 31
0.0
  0
LINE
  5
2E3
330
1B
100
AcDbEntity
 67
     1
  8
3_ALL_AXES
  6
Continuous
 62
     7
100
AcDbLine
 10
30.1924735404
 20
66.9475312104
 30
0.0
 11
30.1924735404
 21
61.9475312104
 31
0.0
  0
ARC
  5
2E4
330
1B
100
AcDbEntity
 67
     1
  8
3_ALL_AXES
  6
Continuous
 62
     7
100
AcDbCircle
 10
36.4424735404
 20
57.9475312104
 30
0.0
 40
1.5
100
AcDbArc
 50
180.0
 51
360.0
  0
ARC
  5
2E5
330
1B
100
AcDbEntity
 67
     1
  8
3_ALL_AXES
  6
Continuous
 62
     7
100
AcDbCircle
 10
36.4424735404
 20
57.9475312104
 30
0.0
 40
1.5
100
AcDbArc
 50
0.0
 51
180.0
  0
ARC
  5
2E6
330
1B
100
AcDbEntity
 67
     1
  8
3_ALL_AXES
  6
Continuous
 62
     7
100
AcDbCircle
 10
119.9424735404
 20
57.9475312104
 30
0.0
 40
1.5
100
AcDbArc
 50
180.0
 51
360.0
  0
ARC
  5
2E7
330
1B
100
AcDbEntity
 67
     1
  8
3_ALL_AXES
  6
Continuous
 62
     7
100
AcDbCircle
 10
119.9424735404
 20
57.9475312104
 30
0.0
 40
1.5
100
AcDbArc
 50
0.0
 51
180.0
  0
ARC
  5
2E8
330
1B
100
AcDbEntity
 67
     1
  8
7_ALL_FEATURES
  6
Continuous
 62
     7
100
AcDbCircle
 10
31.1924735404
 20
29.9475312104
 30
0.0
 40
1.0
100
AcDbArc
 50
180.0
 51
270.0
  0
LINE
  5
2E9
330
1B
100
AcDbEntity
 67
     1
  8
7_ALL_FEATURES
  6
Continuous
 62
     7
100
AcDbLine
 10
25.1924735404
 20
57.9475312104
 30
0.0
 11
25.1924735404
 21
85.9475312104
 31
0.0
  0
ARC
  5
2EA
330
1B
100
AcDbEntity
 67
     1
  8
7_ALL_FEATURES
  6
Continuous
 62
     7
100
AcDbCircle
 10
31.1924735404
 20
85.9475312104
 30
0.0
 40
6.0
100
AcDbArc
 50
90.0
 51
180.0
  0
LINE
  5
2EB
330
1B
100
AcDbEntity
 67
     1
  8
7_ALL_FEATURES
  6
Continuous
 62
     7
100
AcDbLine
 10
31.1924735404
 20
91.9475312104
 30
0.0
 11
79.1924735404
 21
91.9475312104
 31
0.0
  0
LINE
  5
2EC
330
1B
100
AcDbEntity
 67
     1
  8
7_ALL_FEATURES
  6
Continuous
 62
     7
100
AcDbLine
 10
79.1924735404
 20
91.9475312104
 30
0.0
 11
125.1924735404
 21
91.9475312104
 31
0.0
  0
ARC
  5
2ED
330
1B
100
AcDbEntity
 67
     1
  8
7_ALL_FEATURES
  6
Continuous
 62
     7
100
AcDbCircle
 10
125.1924735404
 20
85.9475312104
 30
0.0
 40
6.0
100
AcDbArc
 50
0.0
 51
90.0
  0
LINE
  5
2EE
330
1B
100
AcDbEntity
 67
     1
  8
7_ALL_FEATURES
  6
Continuous
 62
     7
100
AcDbLine
 10
131.1924735404
 20
85.9475312104
 30
0.0
 11
131.1924735404
 21
57.9475312104
 31
0.0
  0
LINE
  5
2EF
330
1B
100
AcDbEntity
 67
     1
  8
7_ALL_FEATURES
  6
Continuous
 62
     7
100
AcDbLine
 10
131.1924735404
 20
57.9475312104
 30
0.0
 11
131.1924735404
 21
29.9475312104
 31
0.0
  0
ARC
  5
2F0
330
1B
100
AcDbEntity
 67
     1
  8
7_ALL_FEATURES
  6
Continuous
 62
     7
100
AcDbCircle
 10
125.1924735404
 20
29.9475312104
 30
0.0
 40
6.0
100
AcDbArc
 50
270.0
 51
360.0
  0
LINE
  5
2F1
330
1B
100
AcDbEntity
 67
     1
  8
7_ALL_FEATURES
  6
Continuous
 62
     7
100
AcDbLine
 10
125.1924735404
 20
23.9475312104
 30
0.0
 11
79.1924735404
 21
23.9475312104
 31
0.0
  0
LINE
  5
2F2
330
1B
100
AcDbEntity
 67
     1
  8
7_ALL_FEATURES
  6
Continuous
 62
     7
100
AcDbLine
 10
79.1924735404
 20
23.9475312104
 30
0.0
 11
31.1924735404
 21
23.9475312104
 31
0.0
  0
ARC
  5
2F3
330
1B
100
AcDbEntity
 67
     1
  8
7_ALL_FEATURES
  6
Continuous
 62
     7
100
AcDbCircle
 10
31.1924735404
 20
29.9475312104
 30
0.0
 40
6.0
100
AcDbArc
 50
180.0
 51
270.0
  0
LINE
  5
2F4
330
1B
100
AcDbEntity
 67
     1
  8
7_ALL_FEATURES
  6
Continuous
 62
     7
100
AcDbLine
 10
25.1924735404
 20
29.9475312104
 30
0.0
 11
25.1924735404
 21
57.9475312104
 31
0.0
  0
LINE
  5
2F5
330
1B
100
AcDbEntity
 67
     1
  8
7_ALL_FEATURES
  6
Continuous
 62
     7
100
AcDbLine
 10
79.1924735404
 20
28.9475312104
 30
0.0
 11
31.1924735404
 21
28.9475312104
 31
0.0
  0
LINE
  5
2F6
330
1B
100
AcDbEntity
 67
     1
  8
7_ALL_FEATURES
  6
Continuous
 62
     7
100
AcDbLine
 10
125.1924735404
 20
28.9475312104
 30
0.0
 11
79.1924735404
 21
28.9475312104
 31
0.0
  0
ARC
  5
2F7
330
1B
100
AcDbEntity
 67
     1
  8
7_ALL_FEATURES
  6
Continuous
 62
     7
100
AcDbCircle
 10
125.1924735404
 20
29.9475312104
 30
0.0
 40
1.0
100
AcDbArc
 50
270.0
 51
360.0
  0
LINE
  5
2F8
330
1B
100
AcDbEntity
 67
     1
  8
7_ALL_FEATURES
  6
Continuous
 62
     7
100
AcDbLine
 10
29.1924735404
 20
48.9475312104
 30
0.0
 11
30.1924735404
 21
48.9475312104
 31
0.0
  0
LINE
  5
2F9
330
1B
100
AcDbEntity
 67
     1
  8
7_ALL_FEATURES
  6
Continuous
 62
     7
100
AcDbLine
 10
126.1924735404
 20
48.9475312104
 30
0.0
 11
127.1924735404
 21
48.9475312104
 31
0.0
  0
LINE
  5
2FA
330
1B
100
AcDbEntity
 67
     1
  8
7_ALL_FEATURES
  6
Continuous
 62
     7
100
AcDbLine
 10
127.1924735404
 20
48.9475312104
 30
0.0
 11
127.1924735404
 21
29.9475312104
 31
0.0
  0
ARC
  5
2FB
330
1B
100
AcDbEntity
 67
     1
  8
7_ALL_FEATURES
  6
Continuous
 62
     7
100
AcDbCircle
 10
125.1924735404
 20
29.9475312104
 30
0.0
 40
2.0
100
AcDbArc
 50
270.0
 51
360.0
  0
LINE
  5
2FC
330
1B
100
AcDbEntity
 67
     1
  8
7_ALL_FEATURES
  6
Continuous
 62
     7
100
AcDbLine
 10
125.1924735404
 20
27.9475312104
 30
0.0
 11
79.1924735404
 21
27.9475312104
 31
0.0
  0
LINE
  5
2FD
330
1B
100
AcDbEntity
 67
     1
  8
7_ALL_FEATURES
  6
Continuous
 62
     7
100
AcDbLine
 10
79.1924735404
 20
27.9475312104
 30
0.0
 11
31.1924735404
 21
27.9475312104
 31
0.0
  0
ARC
  5
2FE
330
1B
100
AcDbEntity
 67
     1
  8
7_ALL_FEATURES
  6
Continuous
 62
     7
100
AcDbCircle
 10
31.1924735404
 20
29.9475312104
 30
0.0
 40
2.0
100
AcDbArc
 50
180.0
 51
270.0
  0
LINE
  5
2FF
330
1B
100
AcDbEntity
 67
     1
  8
7_ALL_FEATURES
  6
Continuous
 62
     7
100
AcDbLine
 10
29.1924735404
 20
29.9475312104
 30
0.0
 11
29.1924735404
 21
48.9475312104
 31
0.0
  0
LINE
  5
300
330
1B
100
AcDbEntity
 67
     1
  8
7_ALL_FEATURES
  6
Continuous
 62
     7
100
AcDbLine
 10
29.1924735404
 20
66.9475312104
 30
0.0
 11
30.1924735404
 21
66.9475312104
 31
0.0
  0
LINE
  5
301
330
1B
100
AcDbEntity
 67
     1
  8
7_ALL_FEATURES
  6
Continuous
 62
     7
100
AcDbLine
 10
29.1924735404
 20
66.9475312104
 30
0.0
 11
29.1924735404
 21
85.9475312104
 31
0.0
  0
ARC
  5
302
330
1B
100
AcDbEntity
 67
     1
  8
7_ALL_FEATURES
  6
Continuous
 62
     7
100
AcDbCircle
 10
31.1924735404
 20
85.9475312104
 30
0.0
 40
2.0
100
AcDbArc
 50
90.0
 51
180.0
  0
LINE
  5
303
330
1B
100
AcDbEntity
 67
     1
  8
7_ALL_FEATURES
  6
Continuous
 62
     7
100
AcDbLine
 10
31.1924735404
 20
87.9475312104
 30
0.0
 11
79.1924735404
 21
87.9475312104
 31
0.0
  0
LINE
  5
304
330
1B
100
AcDbEntity
 67
     1
  8
7_ALL_FEATURES
  6
Continuous
 62
     7
100
AcDbLine
 10
79.1924735404
 20
87.9475312104
 30
0.0
 11
125.1924735404
 21
87.9475312104
 31
0.0
  0
ARC
  5
305
330
1B
100
AcDbEntity
 67
     1
  8
7_ALL_FEATURES
  6
Continuous
 62
     7
100
AcDbCircle
 10
125.1924735404
 20
85.9475312104
 30
0.0
 40
2.0
100
AcDbArc
 50
0.0
 51
90.0
  0
LINE
  5
306
330
1B
100
AcDbEntity
 67
     1
  8
7_ALL_FEATURES
  6
Continuous
 62
     7
100
AcDbLine
 10
127.1924735404
 20
85.9475312104
 30
0.0
 11
127.1924735404
 21
66.9475312104
 31
0.0
  0
LINE
  5
307
330
1B
100
AcDbEntity
 67
     1
  8
7_ALL_FEATURES
  6
Continuous
 62
     7
100
AcDbLine
 10
126.1924735404
 20
66.9475312104
 30
0.0
 11
127.1924735404
 21
66.9475312104
 31
0.0
  0
ARC
  5
308
330
1B
100
AcDbEntity
 67
     1
  8
7_ALL_FEATURES
  6
Continuous
 62
     7
100
AcDbCircle
 10
31.1924735404
 20
85.9475312104
 30
0.0
 40
1.0
100
AcDbArc
 50
90.0
 51
180.0
  0
LINE
  5
309
330
1B
100
AcDbEntity
 67
     1
  8
7_ALL_FEATURES
  6
Continuous
 62
     7
100
AcDbLine
 10
126.1924735404
 20
48.9475312104
 30
0.0
 11
126.1924735404
 21
29.9475312104
 31
0.0
  0
LINE
  5
30A
330
1B
100
AcDbEntity
 67
     1
  8
7_ALL_FEATURES
  6
Continuous
 62
     7
100
AcDbLine
 10
126.1924735404
 20
85.9475312104
 30
0.0
 11
126.1924735404
 21
66.9475312104
 31
0.0
  0
ARC
  5
30B
330
1B
100
AcDbEntity
 67
     1
  8
7_ALL_FEATURES
  6
Continuous
 62
     7
100
AcDbCircle
 10
125.1924735404
 20
85.9475312104
 30
0.0
 40
1.0
100
AcDbArc
 50
0.0
 51
90.0
  0
LINE
  5
30C
330
1B
100
AcDbEntity
 67
     1
  8
7_ALL_FEATURES
  6
Continuous
 62
     7
100
AcDbLine
 10
79.1924735404
 20
86.9475312104
 30
0.0
 11
125.1924735404
 21
86.9475312104
 31
0.0
  0
LINE
  5
30D
330
1B
100
AcDbEntity
 67
     1
  8
7_ALL_FEATURES
  6
Continuous
 62
     7
100
AcDbLine
 10
31.1924735404
 20
86.9475312104
 30
0.0
 11
79.1924735404
 21
86.9475312104
 31
0.0
  0
LINE
  5
30E
330
1B
100
AcDbEntity
 67
     1
  8
3_ALL_AXES
  6
Continuous
 62
     7
100
AcDbLine
 10
31.1924735404
 20
128.8361702649
 30
0.0
 11
125.1924735404
 21
128.8361702649
 31
0.0
  0
LINE
  5
30F
330
1B
100
AcDbEntity
 67
     1
  8
7_ALL_FEATURES
  6
Continuous
 62
     7
100
AcDbLine
 10
31.1924735404
 20
165.8361702649
 30
0.0
 11
29.1924735404
 21
165.8361702649
 31
0.0
  0
LINE
  5
310
330
1B
100
AcDbEntity
 67
     1
  8
7_ALL_FEATURES
  6
Continuous
 62
     7
100
AcDbLine
 10
29.1924735404
 20
165.8361702649
 30
0.0
 11
25.1924735404
 21
165.8361702649
 31
0.0
  0
LINE
  5
311
330
1B
100
AcDbEntity
 67
     1
  8
7_ALL_FEATURES
  6
Continuous
 62
     7
100
AcDbLine
 10
31.1924735404
 20
128.8361702649
 30
0.0
 11
29.1924735404
 21
128.8361702649
 31
0.0
  0
LINE
  5
312
330
1B
100
AcDbEntity
 67
     1
  8
7_ALL_FEATURES
  6
Continuous
 62
     7
100
AcDbLine
 10
79.1924735404
 20
165.8361702649
 30
0.0
 11
31.1924735404
 21
165.8361702649
 31
0.0
  0
LINE
  5
313
330
1B
100
AcDbEntity
 67
     1
  8
7_ALL_FEATURES
  6
Continuous
 62
     7
100
AcDbLine
 10
125.1924735404
 20
165.8361702649
 30
0.0
 11
79.1924735404
 21
165.8361702649
 31
0.0
  0
LINE
  5
314
330
1B
100
AcDbEntity
 67
     1
  8
7_ALL_FEATURES
  6
Continuous
 62
     7
100
AcDbLine
 10
44.6924735404
 20
130.8361702649
 30
0.0
 11
61.6924735404
 21
130.8361702649
 31
0.0
  0
LINE
  5
315
330
1B
100
AcDbEntity
 67
     1
  8
7_ALL_FEATURES
  6
Continuous
 62
     7
100
AcDbLine
 10
61.6924735404
 20
130.8361702649
 30
0.0
 11
61.6924735404
 21
129.8361702649
 31
0.0
  0
LINE
  5
316
330
1B
100
AcDbEntity
 67
     1
  8
7_ALL_FEATURES
  6
Continuous
 62
     7
100
AcDbLine
 10
61.6924735404
 20
129.8361702649
 30
0.0
 11
44.6924735404
 21
129.8361702649
 31
0.0
  0
LINE
  5
317
330
1B
100
AcDbEntity
 67
     1
  8
7_ALL_FEATURES
  6
Continuous
 62
     7
100
AcDbLine
 10
44.6924735404
 20
129.8361702649
 30
0.0
 11
44.6924735404
 21
130.8361702649
 31
0.0
  0
ARC
  5
318
330
1B
100
AcDbEntity
 67
     1
  8
7_ALL_FEATURES
  6
Continuous
 62
     7
100
AcDbCircle
 10
53.1924735404
 20
143.8361702649
 30
0.0
 40
9.5
100
AcDbArc
 50
0.0
 51
83.9576715809
  0
LINE
  5
319
330
1B
100
AcDbEntity
 67
     1
  8
7_ALL_FEATURES
  6
Continuous
 62
     7
100
AcDbLine
 10
29.1924735404
 20
128.8361702649
 30
0.0
 11
29.1924735404
 21
165.8361702649
 31
0.0
  0
LINE
  5
31A
330
1B
100
AcDbEntity
 67
     1
  8
7_ALL_FEATURES
  6
Continuous
 62
     7
100
AcDbLine
 10
54.1924735404
 20
153.2833920787
 30
0.0
 11
54.1924735404
 21
154.2884427451
 31
0.0
  0
ARC
  5
31B
330
1B
100
AcDbEntity
 67
     1
  8
7_ALL_FEATURES
  6
Continuous
 62
     7
100
AcDbCircle
 10
53.1924735404
 20
143.8361702649
 30
0.0
 40
10.5
100
AcDbArc
 50
0.0
 51
84.5349762001
  0
LINE
  5
31C
330
1B
100
AcDbEntity
 67
     1
  8
7_ALL_FEATURES
  6
Continuous
 62
     7
100
AcDbLine
 10
63.6924735404
 20
143.8361702649
 30
0.0
 11
63.6924735404
 21
129.8361702649
 31
0.0
  0
LINE
  5
31D
330
1B
100
AcDbEntity
 67
     1
  8
7_ALL_FEATURES
  6
Continuous
 62
     7
100
AcDbLine
 10
63.6924735404
 20
129.8361702649
 30
0.0
 11
62.6924735404
 21
129.8361702649
 31
0.0
  0
LINE
  5
31E
330
1B
100
AcDbEntity
 67
     1
  8
7_ALL_FEATURES
  6
Continuous
 62
     7
100
AcDbLine
 10
62.6924735404
 20
129.8361702649
 30
0.0
 11
62.6924735404
 21
143.8361702649
 31
0.0
  0
LINE
  5
31F
330
1B
100
AcDbEntity
 67
     1
  8
7_ALL_FEATURES
  6
Continuous
 62
     7
100
AcDbLine
 10
43.6924735404
 20
129.8361702649
 30
0.0
 11
42.6924735404
 21
129.8361702649
 31
0.0
  0
LINE
  5
320
330
1B
100
AcDbEntity
 67
     1
  8
7_ALL_FEATURES
  6
Continuous
 62
     7
100
AcDbLine
 10
42.6924735404
 20
129.8361702649
 30
0.0
 11
42.6924735404
 21
143.8361702649
 31
0.0
  0
ARC
  5
321
330
1B
100
AcDbEntity
 67
     1
  8
7_ALL_FEATURES
  6
Continuous
 62
     7
100
AcDbCircle
 10
53.1924735404
 20
143.8361702649
 30
0.0
 40
10.5
100
AcDbArc
 50
95.4650237999
 51
180.0
  0
LINE
  5
322
330
1B
100
AcDbEntity
 67
     1
  8
7_ALL_FEATURES
  6
Continuous
 62
     7
100
AcDbLine
 10
52.1924735404
 20
154.2884427451
 30
0.0
 11
52.1924735404
 21
153.2833920787
 31
0.0
  0
ARC
  5
323
330
1B
100
AcDbEntity
 67
     1
  8
7_ALL_FEATURES
  6
Continuous
 62
     7
100
AcDbCircle
 10
53.1924735404
 20
143.8361702649
 30
0.0
 40
9.5
100
AcDbArc
 50
96.04232841909999
 51
180.0
  0
LINE
  5
324
330
1B
100
AcDbEntity
 67
     1
  8
7_ALL_FEATURES
  6
Continuous
 62
     7
100
AcDbLine
 10
43.6924735404
 20
143.8361702649
 30
0.0
 11
43.6924735404
 21
129.8361702649
 31
0.0
  0
LINE
  5
325
330
1B
100
AcDbEntity
 67
     1
  8
7_ALL_FEATURES
  6
Continuous
 62
     7
100
AcDbLine
 10
70.6924735404
 20
130.8361702649
 30
0.0
 11
87.6924735404
 21
130.8361702649
 31
0.0
  0
LINE
  5
326
330
1B
100
AcDbEntity
 67
     1
  8
7_ALL_FEATURES
  6
Continuous
 62
     7
100
AcDbLine
 10
87.6924735404
 20
130.8361702649
 30
0.0
 11
87.6924735404
 21
129.8361702649
 31
0.0
  0
LINE
  5
327
330
1B
100
AcDbEntity
 67
     1
  8
7_ALL_FEATURES
  6
Continuous
 62
     7
100
AcDbLine
 10
87.6924735404
 20
129.8361702649
 30
0.0
 11
70.6924735404
 21
129.8361702649
 31
0.0
  0
LINE
  5
328
330
1B
100
AcDbEntity
 67
     1
  8
7_ALL_FEATURES
  6
Continuous
 62
     7
100
AcDbLine
 10
70.6924735404
 20
129.8361702649
 30
0.0
 11
70.6924735404
 21
130.8361702649
 31
0.0
  0
ARC
  5
329
330
1B
100
AcDbEntity
 67
     1
  8
7_ALL_FEATURES
  6
Continuous
 62
     7
100
AcDbCircle
 10
79.1924735404
 20
143.8361702649
 30
0.0
 40
9.5
100
AcDbArc
 50
0.0
 51
83.9576715809
  0
LINE
  5
32A
330
1B
100
AcDbEntity
 67
     1
  8
7_ALL_FEATURES
  6
Continuous
 62
     7
100
AcDbLine
 10
80.1924735404
 20
153.2833920787
 30
0.0
 11
80.1924735404
 21
154.2884427451
 31
0.0
  0
ARC
  5
32B
330
1B
100
AcDbEntity
 67
     1
  8
7_ALL_FEATURES
  6
Continuous
 62
     7
100
AcDbCircle
 10
79.1924735404
 20
143.8361702649
 30
0.0
 40
10.5
100
AcDbArc
 50
0.0
 51
84.5349762001
  0
LINE
  5
32C
330
1B
100
AcDbEntity
 67
     1
  8
7_ALL_FEATURES
  6
Continuous
 62
     7
100
AcDbLine
 10
89.6924735404
 20
143.8361702649
 30
0.0
 11
89.6924735404
 21
129.8361702649
 31
0.0
  0
LINE
  5
32D
330
1B
100
AcDbEntity
 67
     1
  8
7_ALL_FEATURES
  6
Continuous
 62
     7
100
AcDbLine
 10
89.6924735404
 20
129.8361702649
 30
0.0
 11
88.6924735404
 21
129.8361702649
 31
0.0
  0
LINE
  5
32E
330
1B
100
AcDbEntity
 67
     1
  8
7_ALL_FEATURES
  6
Continuous
 62
     7
100
AcDbLine
 10
88.6924735404
 20
129.8361702649
 30
0.0
 11
88.6924735404
 21
143.8361702649
 31
0.0
  0
LINE
  5
32F
330
1B
100
AcDbEntity
 67
     1
  8
7_ALL_FEATURES
  6
Continuous
 62
     7
100
AcDbLine
 10
69.6924735404
 20
129.8361702649
 30
0.0
 11
68.6924735404
 21
129.8361702649
 31
0.0
  0
LINE
  5
330
330
1B
100
AcDbEntity
 67
     1
  8
7_ALL_FEATURES
  6
Continuous
 62
     7
100
AcDbLine
 10
68.6924735404
 20
129.8361702649
 30
0.0
 11
68.6924735404
 21
143.8361702649
 31
0.0
  0
ARC
  5
331
330
1B
100
AcDbEntity
 67
     1
  8
7_ALL_FEATURES
  6
Continuous
 62
     7
100
AcDbCircle
 10
79.1924735404
 20
143.8361702649
 30
0.0
 40
10.5
100
AcDbArc
 50
95.4650237999
 51
180.0
  0
LINE
  5
332
330
1B
100
AcDbEntity
 67
     1
  8
7_ALL_FEATURES
  6
Continuous
 62
     7
100
AcDbLine
 10
78.1924735404
 20
154.2884427451
 30
0.0
 11
78.1924735404
 21
153.2833920787
 31
0.0
  0
ARC
  5
333
330
1B
100
AcDbEntity
 67
     1
  8
7_ALL_FEATURES
  6
Continuous
 62
     7
100
AcDbCircle
 10
79.1924735404
 20
143.8361702649
 30
0.0
 40
9.5
100
AcDbArc
 50
96.04232841909999
 51
180.0
  0
LINE
  5
334
330
1B
100
AcDbEntity
 67
     1
  8
7_ALL_FEATURES
  6
Continuous
 62
     7
100
AcDbLine
 10
69.6924735404
 20
143.8361702649
 30
0.0
 11
69.6924735404
 21
129.8361702649
 31
0.0
  0
LINE
  5
335
330
1B
100
AcDbEntity
 67
     1
  8
7_ALL_FEATURES
  6
Continuous
 62
     7
100
AcDbLine
 10
96.6924735404
 20
129.8361702649
 30
0.0
 11
96.6924735404
 21
130.8361702649
 31
0.0
  0
LINE
  5
336
330
1B
100
AcDbEntity
 67
     1
  8
7_ALL_FEATURES
  6
Continuous
 62
     7
100
AcDbLine
 10
96.6924735404
 20
130.8361702649
 30
0.0
 11
113.6924735404
 21
130.8361702649
 31
0.0
  0
LINE
  5
337
330
1B
100
AcDbEntity
 67
     1
  8
7_ALL_FEATURES
  6
Continuous
 62
     7
100
AcDbLine
 10
113.6924735404
 20
130.8361702649
 30
0.0
 11
113.6924735404
 21
129.8361702649
 31
0.0
  0
LINE
  5
338
330
1B
100
AcDbEntity
 67
     1
  8
7_ALL_FEATURES
  6
Continuous
 62
     7
100
AcDbLine
 10
113.6924735404
 20
129.8361702649
 30
0.0
 11
96.6924735404
 21
129.8361702649
 31
0.0
  0
LINE
  5
339
330
1B
100
AcDbEntity
 67
     1
  8
7_ALL_FEATURES
  6
Continuous
 62
     7
100
AcDbLine
 10
94.6924735404
 20
129.8361702649
 30
0.0
 11
94.6924735404
 21
143.8361702649
 31
0.0
  0
ARC
  5
33A
330
1B
100
AcDbEntity
 67
     1
  8
7_ALL_FEATURES
  6
Continuous
 62
     7
100
AcDbCircle
 10
105.1924735404
 20
143.8361702649
 30
0.0
 40
10.5
100
AcDbArc
 50
95.4650237999
 51
180.0
  0
LINE
  5
33B
330
1B
100
AcDbEntity
 67
     1
  8
7_ALL_FEATURES
  6
Continuous
 62
     7
100
AcDbLine
 10
25.1924735404
 20
165.8361702649
 30
0.0
 11
25.1924735404
 21
167.3361702649
 31
0.0
  0
LINE
  5
33C
330
1B
100
AcDbEntity
 67
     1
  8
7_ALL_FEATURES
  6
Continuous
 62
     7
100
AcDbLine
 10
104.1924735404
 20
154.2884427451
 30
0.0
 11
104.1924735404
 21
153.2833920787
 31
0.0
  0
ARC
  5
33D
330
1B
100
AcDbEntity
 67
     1
  8
7_ALL_FEATURES
  6
Continuous
 62
     7
100
AcDbCircle
 10
105.1924735404
 20
143.8361702649
 30
0.0
 40
9.5
100
AcDbArc
 50
96.04232841909999
 51
180.0
  0
LINE
  5
33E
330
1B
100
AcDbEntity
 67
     1
  8
7_ALL_FEATURES
  6
Continuous
 62
     7
100
AcDbLine
 10
95.6924735404
 20
143.8361702649
 30
0.0
 11
95.6924735404
 21
129.8361702649
 31
0.0
  0
LINE
  5
33F
330
1B
100
AcDbEntity
 67
     1
  8
7_ALL_FEATURES
  6
Continuous
 62
     7
100
AcDbLine
 10
95.6924735404
 20
129.8361702649
 30
0.0
 11
94.6924735404
 21
129.8361702649
 31
0.0
  0
LINE
  5
340
330
1B
100
AcDbEntity
 67
     1
  8
7_ALL_FEATURES
  6
Continuous
 62
     7
100
AcDbLine
 10
106.1924735404
 20
153.2833920787
 30
0.0
 11
106.1924735404
 21
154.2884427451
 31
0.0
  0
ARC
  5
341
330
1B
100
AcDbEntity
 67
     1
  8
7_ALL_FEATURES
  6
Continuous
 62
     7
100
AcDbCircle
 10
105.1924735404
 20
143.8361702649
 30
0.0
 40
10.5
100
AcDbArc
 50
0.0
 51
84.5349762001
  0
LINE
  5
342
330
1B
100
AcDbEntity
 67
     1
  8
7_ALL_FEATURES
  6
Continuous
 62
     7
100
AcDbLine
 10
115.6924735404
 20
143.8361702649
 30
0.0
 11
115.6924735404
 21
129.8361702649
 31
0.0
  0
LINE
  5
343
330
1B
100
AcDbEntity
 67
     1
  8
7_ALL_FEATURES
  6
Continuous
 62
     7
100
AcDbLine
 10
115.6924735404
 20
129.8361702649
 30
0.0
 11
114.6924735404
 21
129.8361702649
 31
0.0
  0
LINE
  5
344
330
1B
100
AcDbEntity
 67
     1
  8
7_ALL_FEATURES
  6
Continuous
 62
     7
100
AcDbLine
 10
131.1924735404
 20
167.3361702649
 30
0.0
 11
127.1924735404
 21
167.3361702649
 31
0.0
  0
LINE
  5
345
330
1B
100
AcDbEntity
 67
     1
  8
7_ALL_FEATURES
  6
Continuous
 62
     7
100
AcDbLine
 10
127.1924735404
 20
167.3361702649
 30
0.0
 11
125.1924735404
 21
167.3361702649
 31
0.0
  0
LINE
  5
346
330
1B
100
AcDbEntity
 67
     1
  8
7_ALL_FEATURES
  6
Continuous
 62
     7
100
AcDbLine
 10
125.1924735404
 20
167.3361702649
 30
0.0
 11
79.1924735404
 21
167.3361702649
 31
0.0
  0
LINE
  5
347
330
1B
100
AcDbEntity
 67
     1
  8
7_ALL_FEATURES
  6
Continuous
 62
     7
100
AcDbLine
 10
79.1924735404
 20
167.3361702649
 30
0.0
 11
31.1924735404
 21
167.3361702649
 31
0.0
  0
LINE
  5
348
330
1B
100
AcDbEntity
 67
     1
  8
7_ALL_FEATURES
  6
Continuous
 62
     7
100
AcDbLine
 10
31.1924735404
 20
167.3361702649
 30
0.0
 11
29.1924735404
 21
167.3361702649
 31
0.0
  0
LINE
  5
349
330
1B
100
AcDbEntity
 67
     1
  8
7_ALL_FEATURES
  6
Continuous
 62
     7
100
AcDbLine
 10
29.1924735404
 20
167.3361702649
 30
0.0
 11
25.1924735404
 21
167.3361702649
 31
0.0
  0
LINE
  5
34A
330
1B
100
AcDbEntity
 67
     1
  8
7_ALL_FEATURES
  6
Continuous
 62
     7
100
AcDbLine
 10
114.6924735404
 20
129.8361702649
 30
0.0
 11
114.6924735404
 21
143.8361702649
 31
0.0
  0
ARC
  5
34B
330
1B
100
AcDbEntity
 67
     1
  8
7_ALL_FEATURES
  6
Continuous
 62
     7
100
AcDbCircle
 10
105.1924735404
 20
143.8361702649
 30
0.0
 40
9.5
100
AcDbArc
 50
0.0
 51
83.9576715809
  0
LINE
  5
34C
330
1B
100
AcDbEntity
 67
     1
  8
7_ALL_FEATURES
  6
Continuous
 62
     7
100
AcDbLine
 10
29.1924735404
 20
167.3361702649
 30
0.0
 11
29.1924735404
 21
175.8361702649
 31
0.0
  0
LINE
  5
34D
330
1B
100
AcDbEntity
 67
     1
  8
7_ALL_FEATURES
  6
Continuous
 62
     7
100
AcDbLine
 10
127.1924735404
 20
167.3361702649
 30
0.0
 11
127.1924735404
 21
175.8361702649
 31
0.0
  0
LINE
  5
34E
330
1B
100
AcDbEntity
 67
     1
  8
7_ALL_FEATURES
  6
Continuous
 62
     7
100
AcDbLine
 10
131.1924735404
 20
165.8361702649
 30
0.0
 11
127.1924735404
 21
165.8361702649
 31
0.0
  0
LINE
  5
34F
330
1B
100
AcDbEntity
 67
     1
  8
7_ALL_FEATURES
  6
Continuous
 62
     7
100
AcDbLine
 10
127.1924735404
 20
165.8361702649
 30
0.0
 11
125.1924735404
 21
165.8361702649
 31
0.0
  0
LINE
  5
350
330
1B
100
AcDbEntity
 67
     1
  8
7_ALL_FEATURES
  6
Continuous
 62
     7
100
AcDbLine
 10
131.1924735404
 20
165.8361702649
 30
0.0
 11
131.1924735404
 21
167.3361702649
 31
0.0
  0
LINE
  5
351
330
1B
100
AcDbEntity
 67
     1
  8
7_ALL_FEATURES
  6
Continuous
 62
     7
100
AcDbLine
 10
127.1924735404
 20
128.8361702649
 30
0.0
 11
125.1924735404
 21
128.8361702649
 31
0.0
  0
LINE
  5
352
330
1B
100
AcDbEntity
 67
     1
  8
7_ALL_FEATURES
  6
Continuous
 62
     7
100
AcDbLine
 10
127.1924735404
 20
175.8361702649
 30
0.0
 11
126.1924735404
 21
175.8361702649
 31
0.0
  0
LINE
  5
353
330
1B
100
AcDbEntity
 67
     1
  8
7_ALL_FEATURES
  6
Continuous
 62
     7
100
AcDbLine
 10
126.1924735404
 20
175.8361702649
 30
0.0
 11
125.1924735404
 21
175.8361702649
 31
0.0
  0
LINE
  5
354
330
1B
100
AcDbEntity
 67
     1
  8
7_ALL_FEATURES
  6
Continuous
 62
     7
100
AcDbLine
 10
125.1924735404
 20
175.8361702649
 30
0.0
 11
79.1924735404
 21
175.8361702649
 31
0.0
  0
LINE
  5
355
330
1B
100
AcDbEntity
 67
     1
  8
7_ALL_FEATURES
  6
Continuous
 62
     7
100
AcDbLine
 10
79.1924735404
 20
175.8361702649
 30
0.0
 11
31.1924735404
 21
175.8361702649
 31
0.0
  0
LINE
  5
356
330
1B
100
AcDbEntity
 67
     1
  8
7_ALL_FEATURES
  6
Continuous
 62
     7
100
AcDbLine
 10
31.1924735404
 20
175.8361702649
 30
0.0
 11
30.1924735404
 21
175.8361702649
 31
0.0
  0
LINE
  5
357
330
1B
100
AcDbEntity
 67
     1
  8
7_ALL_FEATURES
  6
Continuous
 62
     7
100
AcDbLine
 10
30.1924735404
 20
175.8361702649
 30
0.0
 11
29.1924735404
 21
175.8361702649
 31
0.0
  0
LINE
  5
358
330
1B
100
AcDbEntity
 67
     1
  8
7_ALL_FEATURES
  6
Continuous
 62
     7
100
AcDbLine
 10
127.1924735404
 20
128.8361702649
 30
0.0
 11
127.1924735404
 21
165.8361702649
 31
0.0
  0
LINE
  5
359
330
1B
100
AcDbEntity
 67
     1
  8
7_ALL_FEATURES
  6
Continuous
 62
     9
100
AcDbLine
 10
125.1924735404
 20
128.8361702649
 30
0.0
 11
125.1924735404
 21
165.8361702649
 31
0.0
  0
LINE
  5
35A
330
1B
100
AcDbEntity
 67
     1
  8
7_ALL_FEATURES
  6
Continuous
 62
     9
100
AcDbLine
 10
31.1924735404
 20
167.3361702649
 30
0.0
 11
31.1924735404
 21
175.8361702649
 31
0.0
  0
LINE
  5
35B
330
1B
100
AcDbEntity
 67
     1
  8
7_ALL_FEATURES
  6
Continuous
 62
     9
100
AcDbLine
 10
31.1924735404
 20
165.8361702649
 30
0.0
 11
31.1924735404
 21
167.3361702649
 31
0.0
  0
LINE
  5
35C
330
1B
100
AcDbEntity
 67
     1
  8
7_ALL_FEATURES
  6
Continuous
 62
     9
100
AcDbLine
 10
31.1924735404
 20
128.8361702649
 30
0.0
 11
31.1924735404
 21
165.8361702649
 31
0.0
  0
LINE
  5
35D
330
1B
100
AcDbEntity
 67
     1
  8
7_ALL_FEATURES
  6
Continuous
 62
     9
100
AcDbLine
 10
125.1924735404
 20
167.3361702649
 30
0.0
 11
125.1924735404
 21
175.8361702649
 31
0.0
  0
LINE
  5
35E
330
1B
100
AcDbEntity
 67
     1
  8
7_ALL_FEATURES
  6
Continuous
 62
     9
100
AcDbLine
 10
125.1924735404
 20
165.8361702649
 30
0.0
 11
125.1924735404
 21
167.3361702649
 31
0.0
  0
LINE
  5
35F
330
1B
100
AcDbEntity
 67
     1
  8
3_ALL_AXES
  6
Continuous
 62
     7
100
AcDbLine
 10
204.9110963557
 20
128.8361702649
 30
0.0
 11
260.9110963557
 21
128.8361702649
 31
0.0
  0
LINE
  5
360
330
1B
100
AcDbEntity
 67
     1
  8
7_ALL_FEATURES
  6
Continuous
 62
     7
100
AcDbLine
 10
241.9110963557
 20
171.8361702649
 30
0.0
 11
223.9110963557
 21
171.8361702649
 31
0.0
  0
LINE
  5
361
330
1B
100
AcDbEntity
 67
     1
  8
7_ALL_FEATURES
  6
Continuous
 62
     7
100
AcDbLine
 10
262.9110963557
 20
167.3361702649
 30
0.0
 11
262.9110963557
 21
175.8361702649
 31
0.0
  0
LINE
  5
362
330
1B
100
AcDbEntity
 67
     1
  8
7_ALL_FEATURES
  6
Continuous
 62
     7
100
AcDbLine
 10
266.9110963557
 20
165.8361702649
 30
0.0
 11
262.9110963557
 21
165.8361702649
 31
0.0
  0
LINE
  5
363
330
1B
100
AcDbEntity
 67
     1
  8
7_ALL_FEATURES
  6
Continuous
 62
     7
100
AcDbLine
 10
262.9110963557
 20
165.8361702649
 30
0.0
 11
260.9110963557
 21
165.8361702649
 31
0.0
  0
LINE
  5
364
330
1B
100
AcDbEntity
 67
     1
  8
7_ALL_FEATURES
  6
Continuous
 62
     7
100
AcDbLine
 10
266.9110963557
 20
165.8361702649
 30
0.0
 11
266.9110963557
 21
167.3361702649
 31
0.0
  0
LINE
  5
365
330
1B
100
AcDbEntity
 67
     1
  8
7_ALL_FEATURES
  6
Continuous
 62
     7
100
AcDbLine
 10
262.9110963557
 20
128.8361702649
 30
0.0
 11
260.9110963557
 21
128.8361702649
 31
0.0
  0
LINE
  5
366
330
1B
100
AcDbEntity
 67
     1
  8
7_ALL_FEATURES
  6
Continuous
 62
     7
100
AcDbLine
 10
262.9110963557
 20
128.8361702649
 30
0.0
 11
262.9110963557
 21
165.8361702649
 31
0.0
  0
ARC
  5
367
330
1B
100
AcDbEntity
 67
     1
  8
7_ALL_FEATURES
  6
Continuous
 62
     7
100
AcDbCircle
 10
245.9110963557
 20
143.8361702649
 30
0.0
 40
9.5
100
AcDbArc
 50
0.0
 51
83.9576715809
  0
LINE
  5
368
330
1B
100
AcDbEntity
 67
     1
  8
7_ALL_FEATURES
  6
Continuous
 62
     7
100
AcDbLine
 10
255.4110963557
 20
129.8361702649
 30
0.0
 11
255.4110963557
 21
143.8361702649
 31
0.0
  0
LINE
  5
369
330
1B
100
AcDbEntity
 67
     1
  8
7_ALL_FEATURES
  6
Continuous
 62
     7
100
AcDbLine
 10
256.4110963557
 20
129.8361702649
 30
0.0
 11
255.4110963557
 21
129.8361702649
 31
0.0
  0
LINE
  5
36A
330
1B
100
AcDbEntity
 67
     1
  8
7_ALL_FEATURES
  6
Continuous
 62
     7
100
AcDbLine
 10
256.4110963557
 20
143.8361702649
 30
0.0
 11
256.4110963557
 21
129.8361702649
 31
0.0
  0
ARC
  5
36B
330
1B
100
AcDbEntity
 67
     1
  8
7_ALL_FEATURES
  6
Continuous
 62
     7
100
AcDbCircle
 10
245.9110963557
 20
143.8361702649
 30
0.0
 40
10.5
100
AcDbArc
 50
0.0
 51
84.5349762001
  0
LINE
  5
36C
330
1B
100
AcDbEntity
 67
     1
  8
7_ALL_FEATURES
  6
Continuous
 62
     7
100
AcDbLine
 10
246.9110963557
 20
153.2833920787
 30
0.0
 11
246.9110963557
 21
154.2884427451
 31
0.0
  0
LINE
  5
36D
330
1B
100
AcDbEntity
 67
     1
  8
7_ALL_FEATURES
  6
Continuous
 62
     7
100
AcDbLine
 10
236.4110963557
 20
129.8361702649
 30
0.0
 11
235.4110963557
 21
129.8361702649
 31
0.0
  0
LINE
  5
36E
330
1B
100
AcDbEntity
 67
     1
  8
7_ALL_FEATURES
  6
Continuous
 62
     7
100
AcDbLine
 10
236.4110963557
 20
143.8361702649
 30
0.0
 11
236.4110963557
 21
129.8361702649
 31
0.0
  0
ARC
  5
36F
330
1B
100
AcDbEntity
 67
     1
  8
7_ALL_FEATURES
  6
Continuous
 62
     7
100
AcDbCircle
 10
245.9110963557
 20
143.8361702649
 30
0.0
 40
9.5
100
AcDbArc
 50
96.04232841909999
 51
180.0
  0
LINE
  5
370
330
1B
100
AcDbEntity
 67
     1
  8
7_ALL_FEATURES
  6
Continuous
 62
     7
100
AcDbLine
 10
244.9110963557
 20
154.2884427451
 30
0.0
 11
244.9110963557
 21
153.2833920787
 31
0.0
  0
ARC
  5
371
330
1B
100
AcDbEntity
 67
     1
  8
7_ALL_FEATURES
  6
Continuous
 62
     7
100
AcDbCircle
 10
245.9110963557
 20
143.8361702649
 30
0.0
 40
10.5
100
AcDbArc
 50
95.4650237999
 51
180.0
  0
LINE
  5
372
330
1B
100
AcDbEntity
 67
     1
  8
7_ALL_FEATURES
  6
Continuous
 62
     7
100
AcDbLine
 10
235.4110963557
 20
129.8361702649
 30
0.0
 11
235.4110963557
 21
143.8361702649
 31
0.0
  0
LINE
  5
373
330
1B
100
AcDbEntity
 67
     1
  8
7_ALL_FEATURES
  6
Continuous
 62
     7
100
AcDbLine
 10
254.4110963557
 20
129.8361702649
 30
0.0
 11
237.4110963557
 21
129.8361702649
 31
0.0
  0
LINE
  5
374
330
1B
100
AcDbEntity
 67
     1
  8
7_ALL_FEATURES
  6
Continuous
 62
     7
100
AcDbLine
 10
254.4110963557
 20
130.8361702649
 30
0.0
 11
254.4110963557
 21
129.8361702649
 31
0.0
  0
LINE
  5
375
330
1B
100
AcDbEntity
 67
     1
  8
7_ALL_FEATURES
  6
Continuous
 62
     7
100
AcDbLine
 10
237.4110963557
 20
130.8361702649
 30
0.0
 11
254.4110963557
 21
130.8361702649
 31
0.0
  0
LINE
  5
376
330
1B
100
AcDbEntity
 67
     1
  8
7_ALL_FEATURES
  6
Continuous
 62
     7
100
AcDbLine
 10
237.4110963557
 20
129.8361702649
 30
0.0
 11
237.4110963557
 21
130.8361702649
 31
0.0
  0
LINE
  5
377
330
1B
100
AcDbEntity
 67
     1
  8
7_ALL_FEATURES
  6
Continuous
 62
     7
100
AcDbLine
 10
210.4110963557
 20
143.8361702649
 30
0.0
 11
210.4110963557
 21
129.8361702649
 31
0.0
  0
ARC
  5
378
330
1B
100
AcDbEntity
 67
     1
  8
7_ALL_FEATURES
  6
Continuous
 62
     7
100
AcDbCircle
 10
219.9110963557
 20
143.8361702649
 30
0.0
 40
9.5
100
AcDbArc
 50
96.04232841909999
 51
180.0
  0
LINE
  5
379
330
1B
100
AcDbEntity
 67
     1
  8
7_ALL_FEATURES
  6
Continuous
 62
     7
100
AcDbLine
 10
218.9110963557
 20
154.2884427451
 30
0.0
 11
218.9110963557
 21
153.2833920787
 31
0.0
  0
ARC
  5
37A
330
1B
100
AcDbEntity
 67
     1
  8
7_ALL_FEATURES
  6
Continuous
 62
     7
100
AcDbCircle
 10
219.9110963557
 20
143.8361702649
 30
0.0
 40
10.5
100
AcDbArc
 50
95.4650237999
 51
180.0
  0
LINE
  5
37B
330
1B
100
AcDbEntity
 67
     1
  8
7_ALL_FEATURES
  6
Continuous
 62
     7
100
AcDbLine
 10
209.4110963557
 20
129.8361702649
 30
0.0
 11
209.4110963557
 21
143.8361702649
 31
0.0
  0
LINE
  5
37C
330
1B
100
AcDbEntity
 67
     1
  8
7_ALL_FEATURES
  6
Continuous
 62
     7
100
AcDbLine
 10
210.4110963557
 20
129.8361702649
 30
0.0
 11
209.4110963557
 21
129.8361702649
 31
0.0
  0
LINE
  5
37D
330
1B
100
AcDbEntity
 67
     1
  8
7_ALL_FEATURES
  6
Continuous
 62
     7
100
AcDbLine
 10
229.4110963557
 20
129.8361702649
 30
0.0
 11
229.4110963557
 21
143.8361702649
 31
0.0
  0
LINE
  5
37E
330
1B
100
AcDbEntity
 67
     1
  8
7_ALL_FEATURES
  6
Continuous
 62
     7
100
AcDbLine
 10
230.4110963557
 20
129.8361702649
 30
0.0
 11
229.4110963557
 21
129.8361702649
 31
0.0
  0
LINE
  5
37F
330
1B
100
AcDbEntity
 67
     1
  8
7_ALL_FEATURES
  6
Continuous
 62
     7
100
AcDbLine
 10
230.4110963557
 20
143.8361702649
 30
0.0
 11
230.4110963557
 21
129.8361702649
 31
0.0
  0
ARC
  5
380
330
1B
100
AcDbEntity
 67
     1
  8
7_ALL_FEATURES
  6
Continuous
 62
     7
100
AcDbCircle
 10
219.9110963557
 20
143.8361702649
 30
0.0
 40
10.5
100
AcDbArc
 50
0.0
 51
84.5349762001
  0
LINE
  5
381
330
1B
100
AcDbEntity
 67
     1
  8
7_ALL_FEATURES
  6
Continuous
 62
     7
100
AcDbLine
 10
220.9110963557
 20
153.2833920787
 30
0.0
 11
220.9110963557
 21
154.2884427451
 31
0.0
  0
ARC
  5
382
330
1B
100
AcDbEntity
 67
     1
  8
7_ALL_FEATURES
  6
Continuous
 62
     7
100
AcDbCircle
 10
219.9110963557
 20
143.8361702649
 30
0.0
 40
9.5
100
AcDbArc
 50
0.0
 51
83.9576715809
  0
LINE
  5
383
330
1B
100
AcDbEntity
 67
     1
  8
7_ALL_FEATURES
  6
Continuous
 62
     7
100
AcDbLine
 10
211.4110963557
 20
129.8361702649
 30
0.0
 11
211.4110963557
 21
130.8361702649
 31
0.0
  0
LINE
  5
384
330
1B
100
AcDbEntity
 67
     1
  8
7_ALL_FEATURES
  6
Continuous
 62
     7
100
AcDbLine
 10
228.4110963557
 20
129.8361702649
 30
0.0
 11
211.4110963557
 21
129.8361702649
 31
0.0
  0
LINE
  5
385
330
1B
100
AcDbEntity
 67
     1
  8
7_ALL_FEATURES
  6
Continuous
 62
     7
100
AcDbLine
 10
228.4110963557
 20
130.8361702649
 30
0.0
 11
228.4110963557
 21
129.8361702649
 31
0.0
  0
LINE
  5
386
330
1B
100
AcDbEntity
 67
     1
  8
7_ALL_FEATURES
  6
Continuous
 62
     7
100
AcDbLine
 10
211.4110963557
 20
130.8361702649
 30
0.0
 11
228.4110963557
 21
130.8361702649
 31
0.0
  0
LINE
  5
387
330
1B
100
AcDbEntity
 67
     1
  8
7_ALL_FEATURES
  6
Continuous
 62
     7
100
AcDbLine
 10
232.9110963557
 20
165.8361702649
 30
0.0
 11
204.9110963557
 21
165.8361702649
 31
0.0
  0
LINE
  5
388
330
1B
100
AcDbEntity
 67
     1
  8
7_ALL_FEATURES
  6
Continuous
 62
     7
100
AcDbLine
 10
260.9110963557
 20
165.8361702649
 30
0.0
 11
232.9110963557
 21
165.8361702649
 31
0.0
  0
LINE
  5
389
330
1B
100
AcDbEntity
 67
     1
  8
7_ALL_FEATURES
  6
Continuous
 62
     7
100
AcDbLine
 10
232.9110963557
 20
167.3361702649
 30
0.0
 11
204.9110963557
 21
167.3361702649
 31
0.0
  0
LINE
  5
38A
330
1B
100
AcDbEntity
 67
     1
  8
7_ALL_FEATURES
  6
Continuous
 62
     7
100
AcDbLine
 10
204.9110963557
 20
167.3361702649
 30
0.0
 11
202.9110963557
 21
167.3361702649
 31
0.0
  0
LINE
  5
38B
330
1B
100
AcDbEntity
 67
     1
  8
7_ALL_FEATURES
  6
Continuous
 62
     7
100
AcDbLine
 10
202.9110963557
 20
167.3361702649
 30
0.0
 11
198.9110963557
 21
167.3361702649
 31
0.0
  0
LINE
  5
38C
330
1B
100
AcDbEntity
 67
     1
  8
7_ALL_FEATURES
  6
Continuous
 62
     7
100
AcDbLine
 10
266.9110963557
 20
167.3361702649
 30
0.0
 11
262.9110963557
 21
167.3361702649
 31
0.0
  0
LINE
  5
38D
330
1B
100
AcDbEntity
 67
     1
  8
7_ALL_FEATURES
  6
Continuous
 62
     7
100
AcDbLine
 10
262.9110963557
 20
167.3361702649
 30
0.0
 11
260.9110963557
 21
167.3361702649
 31
0.0
  0
LINE
  5
38E
330
1B
100
AcDbEntity
 67
     1
  8
7_ALL_FEATURES
  6
Continuous
 62
     7
100
AcDbLine
 10
260.9110963557
 20
167.3361702649
 30
0.0
 11
232.9110963557
 21
167.3361702649
 31
0.0
  0
LINE
  5
38F
330
1B
100
AcDbEntity
 67
     1
  8
7_ALL_FEATURES
  6
Continuous
 62
     7
100
AcDbLine
 10
241.9110963557
 20
175.8361702649
 30
0.0
 11
241.9110963557
 21
171.8361702649
 31
0.0
  0
LINE
  5
390
330
1B
100
AcDbEntity
 67
     1
  8
7_ALL_FEATURES
  6
Continuous
 62
     7
100
AcDbLine
 10
223.9110963557
 20
175.8361702649
 30
0.0
 11
223.9110963557
 21
171.8361702649
 31
0.0
  0
LINE
  5
391
330
1B
100
AcDbEntity
 67
     1
  8
7_ALL_FEATURES
  6
Continuous
 62
     7
100
AcDbLine
 10
262.9110963557
 20
175.8361702649
 30
0.0
 11
261.9110963557
 21
175.8361702649
 31
0.0
  0
LINE
  5
392
330
1B
100
AcDbEntity
 67
     1
  8
7_ALL_FEATURES
  6
Continuous
 62
     7
100
AcDbLine
 10
261.9110963557
 20
175.8361702649
 30
0.0
 11
260.9110963557
 21
175.8361702649
 31
0.0
  0
LINE
  5
393
330
1B
100
AcDbEntity
 67
     1
  8
7_ALL_FEATURES
  6
Continuous
 62
     7
100
AcDbLine
 10
260.9110963557
 20
175.8361702649
 30
0.0
 11
241.9110963557
 21
175.8361702649
 31
0.0
  0
LINE
  5
394
330
1B
100
AcDbEntity
 67
     1
  8
7_ALL_FEATURES
  6
Continuous
 62
     7
100
AcDbLine
 10
223.9110963557
 20
175.8361702649
 30
0.0
 11
204.9110963557
 21
175.8361702649
 31
0.0
  0
LINE
  5
395
330
1B
100
AcDbEntity
 67
     1
  8
7_ALL_FEATURES
  6
Continuous
 62
     7
100
AcDbLine
 10
204.9110963557
 20
175.8361702649
 30
0.0
 11
203.9110963557
 21
175.8361702649
 31
0.0
  0
LINE
  5
396
330
1B
100
AcDbEntity
 67
     1
  8
7_ALL_FEATURES
  6
Continuous
 62
     7
100
AcDbLine
 10
203.9110963557
 20
175.8361702649
 30
0.0
 11
202.9110963557
 21
175.8361702649
 31
0.0
  0
LINE
  5
397
330
1B
100
AcDbEntity
 67
     1
  8
7_ALL_FEATURES
  6
Continuous
 62
     7
100
AcDbLine
 10
204.9110963557
 20
128.8361702649
 30
0.0
 11
202.9110963557
 21
128.8361702649
 31
0.0
  0
LINE
  5
398
330
1B
100
AcDbEntity
 67
     1
  8
7_ALL_FEATURES
  6
Continuous
 62
     7
100
AcDbLine
 10
204.9110963557
 20
165.8361702649
 30
0.0
 11
202.9110963557
 21
165.8361702649
 31
0.0
  0
LINE
  5
399
330
1B
100
AcDbEntity
 67
     1
  8
7_ALL_FEATURES
  6
Continuous
 62
     7
100
AcDbLine
 10
202.9110963557
 20
165.8361702649
 30
0.0
 11
198.9110963557
 21
165.8361702649
 31
0.0
  0
LINE
  5
39A
330
1B
100
AcDbEntity
 67
     1
  8
7_ALL_FEATURES
  6
Continuous
 62
     7
100
AcDbLine
 10
202.9110963557
 20
167.3361702649
 30
0.0
 11
202.9110963557
 21
175.8361702649
 31
0.0
  0
LINE
  5
39B
330
1B
100
AcDbEntity
 67
     1
  8
7_ALL_FEATURES
  6
Continuous
 62
     7
100
AcDbLine
 10
198.9110963557
 20
165.8361702649
 30
0.0
 11
198.9110963557
 21
167.3361702649
 31
0.0
  0
LINE
  5
39C
330
1B
100
AcDbEntity
 67
     1
  8
7_ALL_FEATURES
  6
Continuous
 62
     7
100
AcDbLine
 10
202.9110963557
 20
128.8361702649
 30
0.0
 11
202.9110963557
 21
165.8361702649
 31
0.0
  0
LINE
  5
39D
330
1B
100
AcDbEntity
 67
     1
  8
7_ALL_FEATURES
  6
Continuous
 62
     9
100
AcDbLine
 10
204.9110963557
 20
128.8361702649
 30
0.0
 11
204.9110963557
 21
165.8361702649
 31
0.0
  0
LINE
  5
39E
330
1B
100
AcDbEntity
 67
     1
  8
7_ALL_FEATURES
  6
Continuous
 62
     9
100
AcDbLine
 10
260.9110963557
 20
165.8361702649
 30
0.0
 11
260.9110963557
 21
167.3361702649
 31
0.0
  0
LINE
  5
39F
330
1B
100
AcDbEntity
 67
     1
  8
7_ALL_FEATURES
  6
Continuous
 62
     9
100
AcDbLine
 10
204.9110963557
 20
165.8361702649
 30
0.0
 11
204.9110963557
 21
167.3361702649
 31
0.0
  0
LINE
  5
3A0
330
1B
100
AcDbEntity
 67
     1
  8
7_ALL_FEATURES
  6
Continuous
 62
     9
100
AcDbLine
 10
204.9110963557
 20
167.3361702649
 30
0.0
 11
204.9110963557
 21
175.8361702649
 31
0.0
  0
LINE
  5
3A1
330
1B
100
AcDbEntity
 67
     1
  8
7_ALL_FEATURES
  6
Continuous
 62
     9
100
AcDbLine
 10
260.9110963557
 20
167.3361702649
 30
0.0
 11
260.9110963557
 21
175.8361702649
 31
0.0
  0
LINE
  5
3A2
330
1B
100
AcDbEntity
 67
     1
  8
7_ALL_FEATURES
  6
Continuous
 62
     9
100
AcDbLine
 10
260.9110963557
 20
128.8361702649
 30
0.0
 11
260.9110963557
 21
165.8361702649
 31
0.0
  0
DIMENSION
  5
3A3
330
1B
100
AcDbEntity
 67
     1
  8
0
  6
Continuous
 62
     2
100
AcDbDimension
280
     0
  2
*D1
 10
25.1924735404
 20
101.9099984559
 30
0.0
 11
78.3213621597
 21
101.9099984559
 31
0.0
 70
   160
 71
     5
 42
-1.0
 73
     0
 74
     0
 75
     0
  3
DIMSTYLE_1
100
AcDbAlignedDimension
 13
131.1924735404
 23
89.1081731023
 33
0.0
 14
25.1924735404
 24
92.4888318861
 34
0.0
 50
180.0
100
AcDbRotatedDimension
  0
DIMENSION
  5
3A4
330
1B
100
AcDbEntity
 67
     1
  8
0
  6
Continuous
 62
     2
100
AcDbDimension
280
     0
  2
*D2
 10
142.4848143535
 20
23.9475312104
 30
0.0
 11
142.4848143535
 21
57.9227605047
 31
0.0
 70
   160
 71
     5
 42
-1.0
 73
     0
 74
     0
 75
     0
  3
DIMSTYLE_1
100
AcDbAlignedDimension
 13
130.6107167837
 23
91.9475312104
 33
0.0
 14
129.481916108
 24
23.9475312104
 34
0.0
 50
270.0
100
AcDbRotatedDimension
  0
DIMENSION
  5
3A5
330
1B
100
AcDbEntity
 67
     1
  8
0
  6
Continuous
 62
     2
100
AcDbDimension
280
     0
  2
*D3
 10
141.9789705507
 20
128.8361702649
 30
0.0
 11
141.9789705507
 21
152.2612067562
 31
0.0
 70
   160
 71
     5
 42
-1.0
 73
     0
 74
     0
 75
     0
  3
DIMSTYLE_1
100
AcDbAlignedDimension
 13
131.062237054
 23
175.8361702649
 33
0.0
 14
131.2879971891
 24
128.8361702649
 34
0.0
 50
270.0
100
AcDbRotatedDimension
  0
LINE
  5
3A6
330
1B
100
AcDbEntity
 67
     1
  8
0
  6
Continuous
 62
     2
100
AcDbLine
 10
161.6529080771
 20
72.0017190534
 30
0.0
 11
291.6529080771
 21
72.0017190534
 31
0.0
  0
LINE
  5
3A7
330
1B
100
AcDbEntity
 67
     1
  8
0
  6
Continuous
 62
     2
100
AcDbLine
 10
161.6529080771
 20
72.0017190534
 30
0.0
 11
161.6529080771
 21
6.0017190534
 31
0.0
  0
LINE
  5
3A8
330
1B
100
AcDbEntity
 67
     1
  8
0
  6
Continuous
 62
     2
100
AcDbLine
 10
191.6529080771
 20
64.0017190534
 30
0.0
 11
291.6529080771
 21
64.0017190534
 31
0.0
  0
LINE
  5
3A9
330
1B
100
AcDbEntity
 67
     1
  8
0
  6
Continuous
 62
     2
100
AcDbLine
 10
161.6529080771
 20
56.0017190534
 30
0.0
 11
291.6529080771
 21
56.0017190534
 31
0.0
  0
LINE
  5
3AA
330
1B
100
AcDbEntity
 67
     1
  8
0
  6
Continuous
 62
     2
100
AcDbLine
 10
191.6529080771
 20
50.0017190534
 30
0.0
 11
291.6529080771
 21
50.0017190534
 31
0.0
  0
LINE
  5
3AB
330
1B
100
AcDbEntity
 67
     1
  8
0
  6
Continuous
 62
     2
100
AcDbLine
 10
191.6529080771
 20
44.0017190534
 30
0.0
 11
291.6529080771
 21
44.0017190534
 31
0.0
  0
LINE
  5
3AC
330
1B
100
AcDbEntity
 67
     1
  8
0
  6
Continuous
 62
     2
100
AcDbLine
 10
191.6529080771
 20
38.0017190534
 30
0.0
 11
291.6529080771
 21
38.0017190534
 31
0.0
  0
LINE
  5
3AD
330
1B
100
AcDbEntity
 67
     1
  8
0
  6
Continuous
 62
     2
100
AcDbLine
 10
191.6529080771
 20
32.0017190534
 30
0.0
 11
291.6529080771
 21
32.0017190534
 31
0.0
  0
LINE
  5
3AE
330
1B
100
AcDbEntity
 67
     1
  8
0
  6
Continuous
 62
     2
100
AcDbLine
 10
191.6529080771
 20
26.0017190534
 30
0.0
 11
291.6529080771
 21
26.0017190534
 31
0.0
  0
LINE
  5
3AF
330
1B
100
AcDbEntity
 67
     1
  8
0
  6
Continuous
 62
     2
100
AcDbLine
 10
161.6529080771
 20
20.0017190534
 30
0.0
 11
291.6529080771
 21
20.0017190534
 31
0.0
  0
LINE
  5
3B0
330
1B
100
AcDbEntity
 67
     1
  8
0
  6
Continuous
 62
     2
100
AcDbLine
 10
161.6529080771
 20
14.0017190534
 30
0.0
 11
291.6529080771
 21
14.0017190534
 31
0.0
  0
LINE
  5
3B1
330
1B
100
AcDbEntity
 67
     1
  8
0
  6
Continuous
 62
     2
100
AcDbLine
 10
161.6529080771
 20
10.0017190534
 30
0.0
 11
291.6529080771
 21
10.0017190534
 31
0.0
  0
LINE
  5
3B2
330
1B
100
AcDbEntity
 67
     1
  8
0
  6
Continuous
 62
     2
100
AcDbLine
 10
161.6529080771
 20
6.0017190534
 30
0.0
 11
291.6529080771
 21
6.0017190534
 31
0.0
  0
LINE
  5
3B3
330
1B
100
AcDbEntity
 67
     1
  8
0
  6
Continuous
 62
     2
100
AcDbLine
 10
191.6529080771
 20
72.0017190534
 30
0.0
 11
191.6529080771
 21
14.0017190534
 31
0.0
  0
LINE
  5
3B4
330
1B
100
AcDbEntity
 67
     1
  8
0
  6
Continuous
 62
     2
100
AcDbLine
 10
211.6529080771
 20
56.0017190534
 30
0.0
 11
211.6529080771
 21
50.0017190534
 31
0.0
  0
LINE
  5
3B5
330
1B
100
AcDbEntity
 67
     1
  8
0
  6
Continuous
 62
     2
100
AcDbLine
 10
241.6529080771
 20
26.0017190534
 30
0.0
 11
241.6529080771
 21
14.0017190534
 31
0.0
  0
LINE
  5
3B6
330
1B
100
AcDbEntity
 67
     1
  8
0
  6
Continuous
 62
     2
100
AcDbLine
 10
251.6529080771
 20
56.0017190534
 30
0.0
 11
251.6529080771
 21
50.0017190534
 31
0.0
  0
LINE
  5
3B7
330
1B
100
AcDbEntity
 67
     1
  8
0
  6
Continuous
 62
     2
100
AcDbLine
 10
251.6529080771
 20
44.0017190534
 30
0.0
 11
251.6529080771
 21
38.0017190534
 31
0.0
  0
LINE
  5
3B8
330
1B
100
AcDbEntity
 67
     1
  8
0
  6
Continuous
 62
     2
100
AcDbLine
 10
271.6529080771
 20
56.0017190534
 30
0.0
 11
271.6529080771
 21
50.0017190534
 31
0.0
  0
LINE
  5
3B9
330
1B
100
AcDbEntity
 67
     1
  8
0
  6
Continuous
 62
     2
100
AcDbLine
 10
281.6529080771
 20
44.0017190534
 30
0.0
 11
281.6529080771
 21
38.0017190534
 31
0.0
  0
LINE
  5
3BA
330
1B
100
AcDbEntity
 67
     1
  8
0
  6
Continuous
 62
     2
100
AcDbLine
 10
291.6529080771
 20
72.0017190534
 30
0.0
 11
291.6529080771
 21
6.0017190534
 31
0.0
  0
INSERT
  5
3BB
330
1B
100
AcDbEntity
 67
     1
  8
0
  6
Continuous
 62
     2
100
AcDbBlockReference
  2
PROIEZIONE_EU_BL0
 10
176.6529080771
 20
63.6267190534
 30
0.0
  0
MTEXT
  5
3BC
330
1B
100
AcDbEntity
 67
     1
  8
9_SOLID
  6
Continuous
 62
     2
100
AcDbMText
 10
193.1404080771
 20
70.3767190534
 30
0.0
 40
1.9
 41
142.3642857143
 46
0.0
 71
     1
 72
     1
  1
EN: Chamfer/radii unlisted 0.3x45°. Remove sharp edges.\PGen. tol.: hole H11, shaft h11, lenght Js12. UNI EN 22768 Medium Grande.
  7
TEXTSTYLE_3
 73
     1
 44
1.0
  0
MTEXT
  5
3BD
330
1B
100
AcDbEntity
 67
     1
  8
9_SOLID
  6
Continuous
 62
     2
100
AcDbMText
 10
193.1404080771
 20
62.3767190534
 30
0.0
 40
1.9
 41
148.2678571429
 46
0.0
 71
     1
 72
     1
  1
IT: Sm./rac. non quotati 0.3x45°. Eliminare spigoli taglienti.\PToll. gen.: foro H11, albero h11, lunghezza Js12. UNI EN 22768 Grado Medio.
  7
TEXTSTYLE_3
 73
     1
 44
1.0
  0
INSERT
  5
3BE
330
1B
100
AcDbEntity
 67
     1
  8
0
  6
Continuous
 62
     2
100
AcDbBlockReference
  2
LOGO2_BL1
 10
175.4789551219
 20
38.0017190534
 30
0.0
  0
MTEXT
  5
3BF
330
1B
100
AcDbEntity
 67
     1
  8
9_SOLID
  6
Continuous
 62
     2
100
AcDbMText
 10
193.1404080771
 20
54.2517190534
 30
0.0
 40
3.0
 41
22.6071428571
 46
0.0
 71
     1
 72
     1
  1
Pj: C20
  7
TEXTSTYLE_3
 73
     1
 44
1.0
  0
MTEXT
  5
3C0
330
1B
100
AcDbEntity
 67
     1
  8
0
  6
Continuous
 62
     2
100
AcDbMText
 10
213.1404080771
 20
54.2517190534
 30
0.0
 40
3.0
 41
41.5714285714
 46
0.0
 71
     1
 72
     1
  1
% Check:  %
  7
TEXTSTYLE_3
 73
     1
 44
1.0
  0
MTEXT
  5
3C1
330
1B
100
AcDbEntity
 67
     1
  8
9_SOLID
  6
Continuous
 62
     2
100
AcDbMText
 10
253.1404080771
 20
54.2517190534
 30
0.0
 40
3.0
 41
19.5
 46
0.0
 71
     1
 72
     1
  1
Rev:00
  7
TEXTSTYLE_3
 73
     1
 44
1.0
  0
MTEXT
  5
3C2
330
1B
100
AcDbEntity
 67
     1
  8
9_SOLID
  6
Continuous
 62
     2
100
AcDbMText
 10
273.1404080771
 20
54.5017190534
 30
0.0
 40
3.0
 41
19.7142857143
 46
0.0
 71
     1
 72
     1
  1
Ver: A
  7
TEXTSTYLE_3
 73
     1
 44
1.0
  0
MTEXT
  5
3C3
330
1B
100
AcDbEntity
 67
     1
  8
9_SOLID
  6
Continuous
 62
     2
100
AcDbMText
 10
193.1404080771
 20
48.2517190534
 30
0.0
 40
3.0
 41
42.9642857143
 46
0.0
 71
     1
 72
     1
  1
Neutral code: 
  7
TEXTSTYLE_3
 73
     1
 44
1.0
  0
MTEXT
  5
3C4
330
1B
100
AcDbEntity
 67
     1
  8
0
  6
Continuous
 62
     2
100
AcDbMText
 10
193.1404080771
 20
42.2517190534
 30
0.0
 40
3.0
 41
22.9285714286
 46
0.0
 71
     1
 72
     1
  1
Code:  
  7
TEXTSTYLE_3
 73
     1
 44
1.0
  0
MTEXT
  5
3C5
330
1B
100
AcDbEntity
 67
     1
  8
9_SOLID
  6
Continuous
 62
     2
100
AcDbMText
 10
253.1404080771
 20
42.5017190534
 30
0.0
 40
3.0
 41
27.8571428571
 46
0.0
 71
     1
 72
     1
  1
Scale: 1:1
  7
TEXTSTYLE_3
 73
     1
 44
1.0
  0
MTEXT
  5
3C6
330
1B
100
AcDbEntity
 67
     1
  8
9_SOLID
  6
Continuous
 62
     2
100
AcDbMText
 10
286.6529080771
 20
42.5017190534
 30
0.0
 40
3.0
 41
8.25
 46
0.0
 71
     2
 72
     1
  1
A4
  7
TEXTSTYLE_3
 73
     1
 44
1.0
  0
MTEXT
  5
3C7
330
1B
100
AcDbEntity
 67
     1
  8
9_SOLID
  6
Continuous
 62
     2
100
AcDbMText
 10
193.1404080771
 20
36.3767190534
 30
0.0
 40
2.75
 41
147.3214285714
 46
0.0
 71
     1
 72
     1
  1
It descr.: CASSAF 72x105 STEP7/8-WALL8.2 LIRA1-2
  7
TEXTSTYLE_3
 73
     1
 44
1.0
  0
MTEXT
  5
3C8
330
1B
100
AcDbEntity
 67
     1
  8
0
  6
Continuous
 62
     2
100
AcDbMText
 10
193.1404080771
 20
30.5017190534
 30
0.0
 40
3.0
 41
37.5
 46
0.0
 71
     1
 72
     1
  1
En descr.:  
  7
TEXTSTYLE_3
 73
     1
 44
1.0
  0
MTEXT
  5
3C9
330
1B
100
AcDbEntity
 67
     1
  8
9_SOLID
  6
Continuous
 62
     2
100
AcDbMText
 10
193.1404080771
 20
24.5017190534
 30
0.0
 40
3.0
 41
31.2857142857
 46
0.0
 71
     1
 72
     1
  1
Des.: S.Z.
  7
TEXTSTYLE_3
 73
     1
 44
1.0
  0
MTEXT
  5
3CA
330
1B
100
AcDbEntity
 67
     1
  8
9_SOLID
  6
Continuous
 62
     2
100
AcDbMText
 10
243.1404080771
 20
24.5017190534
 30
0.0
 40
3.0
 41
34.8214285714
 46
0.0
 71
     1
 72
     1
  1
Check: A.P.
  7
TEXTSTYLE_3
 73
     1
 44
1.0
  0
MTEXT
  5
3CB
330
1B
100
AcDbEntity
 67
     1
  8
9_SOLID
  6
Continuous
 62
     2
100
AcDbMText
 10
163.1404080771
 20
18.5017190534
 30
0.0
 40
3.0
 41
42.5357142857
 46
0.0
 71
     1
 72
     1
  1
Date: 17.12.18
  7
TEXTSTYLE_3
 73
     1
 44
1.0
  0
MTEXT
  5
3CC
330
1B
100
AcDbEntity
 67
     1
  8
0
  6
Continuous
 62
     2
100
AcDbMText
 10
193.1404080771
 20
18.5017190534
 30
0.0
 40
3.0
 41
21.75
 46
0.0
 71
     1
 72
     1
  1
Mat.:  
  7
TEXTSTYLE_3
 73
     1
 44
1.0
  0
MTEXT
  5
3CD
330
1B
100
AcDbEntity
 67
     1
  8
9_SOLID
  6
Continuous
 62
     2
100
AcDbMText
 10
243.1404080771
 20
18.0017190534
 30
0.0
 40
2.0
 41
42.3571428571
 46
0.0
 71
     1
 72
     1
  1
Disegno per catalogo
  7
TEXTSTYLE_3
 73
     1
 44
1.0
  0
MTEXT
  5
3CE
330
1B
100
AcDbEntity
 67
     1
  8
9_SOLID
  6
Continuous
 62
     2
100
AcDbMText
 10
163.1404080771
 20
12.9017190534
 30
0.0
 40
1.8
 41
176.2071428571
 46
0.0
 71
     1
 72
     1
  1
It: A norma di legge si diffida da qualsiasi riproduzione senza nostra autorizzazione esplicita.
  7
TEXTSTYLE_3
 73
     1
 44
1.0
  0
MTEXT
  5
3CF
330
1B
100
AcDbEntity
 67
     1
  8
9_SOLID
  6
Continuous
 62
     2
100
AcDbMText
 10
163.1404080771
 20
8.9017190534
 30
0.0
 40
1.8
 41
158.1428571429
 46
0.0
 71
     1
 72
     1
  1
En: According to the law, beware of any reproduction made without our authorization.
  7
TEXTSTYLE_3
 73
     1
 44
1.0
  0
ENDSEC
  0
SECTION
  2
OBJECTS
  0
DICTIONARY
  5
3D0
330
0
100
AcDbDictionary
281
     1
  3
ACAD_DETAILVIEWSTYLE
350
426
  3
ACAD_GROUP
350
3D1
  3
ACAD_LAYOUT
350
3F9
  3
ACAD_MATERIAL
350
415
  3
ACAD_MLEADERSTYLE
350
41B
  3
ACAD_MLINESTYLE
350
3D2
  3
ACAD_PLOTSETTINGS
350
3D4
  3
ACAD_PLOTSTYLENAME
350
3D5
  3
ACAD_SCALELIST
350
3D7
  3
ACAD_SECTIONVIEWSTYLE
350
427
  3
ACAD_TABLESTYLE
350
419
  3
ACAD_VISUALSTYLE
350
3FC
  3
ACDB_RECOMPOSE_DATA
350
422
  3
AcDbVariableDictionary
350
41E
  3
APPDATA
350
41D
  0
DICTIONARY
  5
426
102
{ACAD_REACTORS
330
3D0
102
}
330
3D0
100
AcDbDictionary
281
     1
  0
DICTIONARY
  5
3D1
102
{ACAD_REACTORS
330
3D0
102
}
330
3D0
100
AcDbDictionary
281
     1
  0
DICTIONARY
  5
3F9
102
{ACAD_REACTORS
330
3D0
102
}
330
3D0
100
AcDbDictionary
281
     1
  3
Foglio 1
350
3FB
  3
Model
350
3FA
  0
DICTIONARY
  5
415
102
{ACAD_REACTORS
330
3D0
102
}
330
3D0
100
AcDbDictionary
281
     1
  3
ByBlock
350
417
  3
ByLayer
350
416
  3
Global
350
418
  0
DICTIONARY
  5
41B
102
{ACAD_REACTORS
330
3D0
102
}
330
3D0
100
AcDbDictionary
281
     1
  3
Standard
350
41C
  0
DICTIONARY
  5
3D2
102
{ACAD_REACTORS
330
3D0
102
}
330
3D0
100
AcDbDictionary
281
     1
  3
STANDARD
350
3D3
  0
DICTIONARY
  5
3D4
102
{ACAD_REACTORS
330
3D0
102
}
330
3D0
100
AcDbDictionary
281
     1
  0
ACDBDICTIONARYWDFLT
  5
3D5
102
{ACAD_REACTORS
330
3D0
102
}
330
3D0
100
AcDbDictionary
281
     1
  3
Normal
350
3D6
100
AcDbDictionaryWithDefault
340
3D6
  0
DICTIONARY
  5
3D7
102
{ACAD_REACTORS
330
3D0
102
}
330
3D0
100
AcDbDictionary
281
     1
  3
A0
350
3D8
  3
A1
350
3D9
  3
A2
350
3DA
  3
A3
350
3DB
  3
A4
350
3DC
  3
A5
350
3DD
  3
A6
350
3DE
  3
A7
350
3DF
  3
A8
350
3E0
  3
A9
350
3E1
  3
B0
350
3E2
  3
B1
350
3E3
  3
B2
350
3E4
  3
B3
350
3E5
  3
B4
350
3E6
  3
B5
350
3E7
  3
B6
350
3E8
  3
B7
350
3E9
  3
B8
350
3EA
  3
B9
350
3EB
  3
C0
350
3EC
  3
C1
350
3ED
  3
C2
350
3EE
  3
C3
350
3EF
  3
C4
350
3F0
  3
C5
350
3F1
  3
C6
350
3F2
  3
C7
350
3F3
  3
C8
350
3F4
  3
C9
350
3F5
  3
D0
350
3F6
  3
D1
350
3F7
  3
D2
350
3F8
  0
DICTIONARY
  5
427
102
{ACAD_REACTORS
330
3D0
102
}
330
3D0
100
AcDbDictionary
281
     1
  0
DICTIONARY
  5
419
102
{ACAD_REACTORS
330
3D0
102
}
330
3D0
100
AcDbDictionary
281
     1
  3
Standard
350
41A
  0
DICTIONARY
  5
3FC
102
{ACAD_REACTORS
330
3D0
102
}
330
3D0
100
AcDbDictionary
281
     1
  3
2dWireframe
350
401
  3
Basic
350
404
  3
Brighten
350
408
  3
ColorChange
350
40C
  3
Conceptual
350
406
  3
Dim
350
407
  3
EdgeColorOff
350
40F
  3
Facepattern
350
40B
  3
Flat
350
3FD
  3
FlatWithEdges
350
3FE
  3
Gouraud
350
3FF
  3
GouraudWithEdges
350
400
  3
Hidden
350
403
  3
JitterOff
350
40D
  3
Linepattern
350
40A
  3
OverhangOff
350
40E
  3
Realistic
350
405
  3
Shaded
350
414
  3
Shaded with edges
350
413
  3
Shades of Gray
350
410
  3
Sketchy
350
411
  3
Thicken
350
409
  3
Wireframe
350
402
  3
X-Ray
350
412
  0
XRECORD
  5
422
102
{ACAD_REACTORS
330
3D0
102
}
330
3D0
100
AcDbXrecord
280
     1
 90
        1
330
41A
  0
DICTIONARY
  5
41E
102
{ACAD_REACTORS
330
3D0
102
}
330
3D0
100
AcDbDictionary
281
     1
  3
CANNOSCALE
350
41F
  3
CMLEADERSTYLE
350
424
  3
CTABLESTYLE
350
423
  3
MSLTSCALE
350
425
  0
DICTIONARY
  5
41D
102
{ACAD_REACTORS
330
3D0
102
}
330
3D0
100
AcDbDictionary
281
     1
  0
LAYOUT
  5
3FB
102
{ACAD_REACTORS
330
3F9
102
}
330
3F9
100
AcDbPlotSettings
  1

  2
none_device
  4
ISO_A3_(420.00_x_297.00_MM)
  6

 40
7.5
 41
20.0
 42
7.5
 43
20.0
 44
420.0
 45
297.0
 46
0.0
 47
0.0
 48
0.0
 49
0.0
140
0.0
141
0.0
142
1.0
143
0.8171206225680934
 70
   688
 72
     1
 73
     0
 74
     1
  7

 75
     0
 76
     0
 77
     2
 78
   300
147
1.223809523809524
148
0.0
149
0.0
100
AcDbLayout
  1
Foglio 1
 70
     1
 71
     1
 10
0.0
 20
0.0
 11
412.5
 21
277.0
 12
0.0
 22
0.0
 32
0.0
 14
0.0
 24
0.0
 34
0.0
 15
299.1920747437667
 25
210.0
 35
0.0
146
0.0
 13
0.0
 23
0.0
 33
0.0
 16
1.0
 26
0.0
 36
0.0
 17
0.0
 27
1.0
 37
0.0
 76
     0
330
1B
331
27B
  0
LAYOUT
  5
3FA
102
{ACAD_REACTORS
330
3F9
102
}
330
3F9
100
AcDbPlotSettings
  1

  2
none_device
  4
Letter_(8.50_x_11.00_Inches)
  6

 40
6.35
 41
6.35
 42
6.35
 43
6.35
 44
215.9
 45
279.4
 46
0.0
 47
0.0
 48
0.0
 49
0.0
140
0.0
141
0.0
142
1.0
143
37.125000000375
 70
  1712
 72
     0
 73
     0
 74
     0
  7

 75
     0
 76
     0
 77
     2
 78
   300
147
0.0269360269357549
148
0.000000038100319
149
0.0
100
AcDbLayout
  1
Model
 70
     1
 71
     0
 10
0.0
 20
0.0
 11
297.0
 21
210.0
 12
0.0
 22
0.0
 32
0.0
 14
0.0
 24
0.0
 34
0.0
 15
297.0
 25
210.0
 35
0.0
146
0.0
 13
0.0
 23
0.0
 33
0.0
 16
1.0
 26
0.0
 36
0.0
 17
0.0
 27
1.0
 37
0.0
 76
     0
330
1F
331
1F4
  0
MATERIAL
  5
417
102
{ACAD_REACTORS
330
415
102
}
330
415
100
AcDbMaterial
  1
ByBlock
 72
     1
 94
      127
  0
MATERIAL
  5
416
102
{ACAD_REACTORS
330
415
102
}
330
415
100
AcDbMaterial
  1
ByLayer
 72
     1
 94
      127
  0
MATERIAL
  5
418
102
{ACAD_REACTORS
330
415
102
}
330
415
100
AcDbMaterial
  1
Global
 72
     1
 94
      127
  0
MLEADERSTYLE
  5
41C
102
{ACAD_REACTORS
330
41B
102
}
330
41B
100
AcDbMLeaderStyle
179
     2
170
     2
171
     1
172
     0
 90
        2
 40
0.0
 41
0.0
173
     1
 91
-1056964608
340
14
 92
       -2
290
     1
 42
2.0
291
     1
 43
8.0
  3
Standard
341
0
 44
4.0
300

342
11
174
     1
178
     1
175
     1
176
     0
 93
-1056964608
 45
4.0
292
     0
297
     0
 46
4.0
343
0
 94
-1056964608
 47
1.0
 49
1.0
140
1.0
293
     1
141
0.0
294
     1
177
     0
142
1.0
295
     0
296
     0
143
3.75
271
     0
272
     9
273
     9
298
     0
  0
MLINESTYLE
  5
3D3
102
{ACAD_REACTORS
330
3D2
102
}
330
3D2
100
AcDbMlineStyle
  2
STANDARD
 70
     0
  3

 62
   256
 51
90.0
 52
90.0
 71
     2
 49
0.5
 62
   256
  6
BYLAYER
 49
-0.5
 62
   256
  6
BYLAYER
  0
ACDBPLACEHOLDER
  5
3D6
102
{ACAD_REACTORS
330
3D5
102
}
330
3D5
  0
SCALE
  5
3D8
102
{ACAD_REACTORS
330
3D7
102
}
330
3D7
100
AcDbScale
 70
     0
300
1:1
140
1.0
141
1.0
290
     1
  0
SCALE
  5
3D9
102
{ACAD_REACTORS
330
3D7
102
}
330
3D7
100
AcDbScale
 70
     0
300
1:2
140
1.0
141
2.0
290
     0
  0
SCALE
  5
3DA
102
{ACAD_REACTORS
330
3D7
102
}
330
3D7
100
AcDbScale
 70
     0
300
1:4
140
1.0
141
4.0
290
     0
  0
SCALE
  5
3DB
102
{ACAD_REACTORS
330
3D7
102
}
330
3D7
100
AcDbScale
 70
     0
300
1:5
140
1.0
141
5.0
290
     0
  0
SCALE
  5
3DC
102
{ACAD_REACTORS
330
3D7
102
}
330
3D7
100
AcDbScale
 70
     0
300
1:8
140
1.0
141
8.0
290
     0
  0
SCALE
  5
3DD
102
{ACAD_REACTORS
330
3D7
102
}
330
3D7
100
AcDbScale
 70
     0
300
1:10
140
1.0
141
10.0
290
     0
  0
SCALE
  5
3DE
102
{ACAD_REACTORS
330
3D7
102
}
330
3D7
100
AcDbScale
 70
     0
300
1:16
140
1.0
141
16.0
290
     0
  0
SCALE
  5
3DF
102
{ACAD_REACTORS
330
3D7
102
}
330
3D7
100
AcDbScale
 70
     0
300
1:20
140
1.0
141
20.0
290
     0
  0
SCALE
  5
3E0
102
{ACAD_REACTORS
330
3D7
102
}
330
3D7
100
AcDbScale
 70
     0
300
1:30
140
1.0
141
30.0
290
     0
  0
SCALE
  5
3E1
102
{ACAD_REACTORS
330
3D7
102
}
330
3D7
100
AcDbScale
 70
     0
300
1:40
140
1.0
141
40.0
290
     0
  0
SCALE
  5
3E2
102
{ACAD_REACTORS
330
3D7
102
}
330
3D7
100
AcDbScale
 70
     0
300
1:50
140
1.0
141
50.0
290
     0
  0
SCALE
  5
3E3
102
{ACAD_REACTORS
330
3D7
102
}
330
3D7
100
AcDbScale
 70
     0
300
1:100
140
1.0
141
100.0
290
     0
  0
SCALE
  5
3E4
102
{ACAD_REACTORS
330
3D7
102
}
330
3D7
100
AcDbScale
 70
     0
300
2:1
140
2.0
141
1.0
290
     0
  0
SCALE
  5
3E5
102
{ACAD_REACTORS
330
3D7
102
}
330
3D7
100
AcDbScale
 70
     0
300
4:1
140
4.0
141
1.0
290
     0
  0
SCALE
  5
3E6
102
{ACAD_REACTORS
330
3D7
102
}
330
3D7
100
AcDbScale
 70
     0
300
8:1
140
8.0
141
1.0
290
     0
  0
SCALE
  5
3E7
102
{ACAD_REACTORS
330
3D7
102
}
330
3D7
100
AcDbScale
 70
     0
300
10:1
140
10.0
141
1.0
290
     0
  0
SCALE
  5
3E8
102
{ACAD_REACTORS
330
3D7
102
}
330
3D7
100
AcDbScale
 70
     0
300
100:1
140
100.0
141
1.0
290
     0
  0
SCALE
  5
3E9
102
{ACAD_REACTORS
330
3D7
102
}
330
3D7
100
AcDbScale
 70
     0
300
1/128" = 1'-0"
140
0.0078125
141
12.0
290
     0
  0
SCALE
  5
3EA
102
{ACAD_REACTORS
330
3D7
102
}
330
3D7
100
AcDbScale
 70
     0
300
1/64" = 1'-0"
140
0.015625
141
12.0
290
     0
  0
SCALE
  5
3EB
102
{ACAD_REACTORS
330
3D7
102
}
330
3D7
100
AcDbScale
 70
     0
300
1/32" = 1'-0"
140
0.03125
141
12.0
290
     0
  0
SCALE
  5
3EC
102
{ACAD_REACTORS
330
3D7
102
}
330
3D7
100
AcDbScale
 70
     0
300
1/16" = 1'-0"
140
0.0625
141
12.0
290
     0
  0
SCALE
  5
3ED
102
{ACAD_REACTORS
330
3D7
102
}
330
3D7
100
AcDbScale
 70
     0
300
3/32" = 1'-0"
140
0.09375
141
12.0
290
     0
  0
SCALE
  5
3EE
102
{ACAD_REACTORS
330
3D7
102
}
330
3D7
100
AcDbScale
 70
     0
300
1/8" = 1'-0"
140
0.125
141
12.0
290
     0
  0
SCALE
  5
3EF
102
{ACAD_REACTORS
330
3D7
102
}
330
3D7
100
AcDbScale
 70
     0
300
3/16" = 1'-0"
140
0.1875
141
12.0
290
     0
  0
SCALE
  5
3F0
102
{ACAD_REACTORS
330
3D7
102
}
330
3D7
100
AcDbScale
 70
     0
300
1/4" = 1'-0"
140
0.25
141
12.0
290
     0
  0
SCALE
  5
3F1
102
{ACAD_REACTORS
330
3D7
102
}
330
3D7
100
AcDbScale
 70
     0
300
3/8" = 1'-0"
140
0.375
141
12.0
290
     0
  0
SCALE
  5
3F2
102
{ACAD_REACTORS
330
3D7
102
}
330
3D7
100
AcDbScale
 70
     0
300
1/2" = 1'-0"
140
0.5
141
12.0
290
     0
  0
SCALE
  5
3F3
102
{ACAD_REACTORS
330
3D7
102
}
330
3D7
100
AcDbScale
 70
     0
300
3/4" = 1'-0"
140
0.75
141
12.0
290
     0
  0
SCALE
  5
3F4
102
{ACAD_REACTORS
330
3D7
102
}
330
3D7
100
AcDbScale
 70
     0
300
1" = 1'-0"
140
1.0
141
12.0
290
     0
  0
SCALE
  5
3F5
102
{ACAD_REACTORS
330
3D7
102
}
330
3D7
100
AcDbScale
 70
     0
300
1-1/2" = 1'-0"
140
1.5
141
12.0
290
     0
  0
SCALE
  5
3F6
102
{ACAD_REACTORS
330
3D7
102
}
330
3D7
100
AcDbScale
 70
     0
300
3" = 1'-0"
140
3.0
141
12.0
290
     0
  0
SCALE
  5
3F7
102
{ACAD_REACTORS
330
3D7
102
}
330
3D7
100
AcDbScale
 70
     0
300
6" = 1'-0"
140
6.0
141
12.0
290
     0
  0
SCALE
  5
3F8
102
{ACAD_REACTORS
330
3D7
102
}
330
3D7
100
AcDbScale
 70
     0
300
1'-0" = 1'-0"
140
12.0
141
12.0
290
     0
  0
TABLESTYLE
  5
41A
102
{ACAD_REACTORS
330
419
102
}
102
{ACAD_XDICTIONARY
360
420
102
}
330
419
100
AcDbTableStyle
  3
Standard
 70
     0
 71
     0
 40
0.06
 41
0.06
280
     0
281
     0
  7
STANDARD
140
4.5
170
     2
 62
     0
 63
   257
283
     0
 90
        4
 91
        0
  1

274
    -2
284
     1
 64
     0
275
    -2
285
     1
 65
     0
276
    -2
286
     1
 66
     0
277
    -2
287
     1
 67
     0
278
    -2
288
     1
 68
     0
279
    -2
289
     1
 69
     0
  7
STANDARD
140
6.0
170
     5
 62
     0
 63
   257
283
     0
 90
        4
 91
        0
  1

274
    -2
284
     1
 64
     0
275
    -2
285
     1
 65
     0
276
    -2
286
     1
 66
     0
277
    -2
287
     1
 67
     0
278
    -2
288
     1
 68
     0
279
    -2
289
     1
 69
     0
  7
STANDARD
140
4.5
170
     5
 62
     0
 63
   257
283
     0
 90
        4
 91
        0
  1

274
    -2
284
     1
 64
     0
275
    -2
285
     1
 65
     0
276
    -2
286
     1
 66
     0
277
    -2
287
     1
 67
     0
278
    -2
288
     1
 68
     0
279
    -2
289
     1
 69
     0
  0
VISUALSTYLE
  5
401
102
{ACAD_REACTORS
330
3FC
102
}
330
3FC
100
AcDbVisualStyle
  2
2dWireframe
 70
     4
177
     3
291
     0
 70
    58
 90
        0
176
     1
 90
        2
176
     1
 90
        0
176
     1
 90
        0
176
     1
 40
0.6
176
     1
 40
30.0
176
     1
 62
     7
420
 16777215
176
     1
 90
        1
176
     1
 90
        4
176
     1
 62
     7
176
     1
 62
   257
176
     1
 90
        1
176
     1
 90
        1
176
     1
 40
1.0
176
     1
 90
        0
176
     1
 62
   257
176
     1
 40
1.0
176
     1
 90
        1
176
     1
 90
        6
176
     1
 90
        2
176
     1
 62
     7
176
     1
 90
        5
176
     1
 90
        0
176
     1
 90
        0
176
     1
290
     0
176
     1
 90
        1
176
     1
 40
0.0
176
     1
 90
        0
176
     1
290
     1
176
     1
290
     1
176
     1
290
     0
176
     1
290
     0
176
     1
290
     0
176
     1
290
     0
176
     1
290
     0
176
     1
290
     0
176
     1
290
     0
176
     1
 90
       50
176
     1
 40
0.0
176
     1
 40
1.0
176
     1
 90
        0
176
     1
 62
    18
420
        0
176
     1
 90
       50
176
     1
 90
        3
176
     1
 62
     5
420
      255
176
     1
290
     0
176
     1
 90
       50
176
     1
 90
       50
176
     1
 90
       50
176
     1
290
     0
176
     1
 90
       50
176
     1
 62
   256
176
     0
 40
1.0
176
     0
 90
        2
176
     1
  1
strokes_ogs.tif
176
     1
290
     0
176
     1
 40
1.0
176
     1
 40
1.0
176
     1
  0
VISUALSTYLE
  5
404
102
{ACAD_REACTORS
330
3FC
102
}
330
3FC
100
AcDbVisualStyle
  2
Basic
 70
     7
177
     3
291
     1
 70
    58
 90
        1
176
     1
 90
        0
176
     1
 90
        1
176
     1
 90
        0
176
     1
 40
0.6
176
     1
 40
30.0
176
     1
 62
     7
420
 16777215
176
     1
 90
        0
176
     1
 90
        4
176
     1
 62
     7
176
     1
 62
   257
176
     1
 90
        1
176
     1
 90
        1
176
     1
 40
1.0
176
     1
 90
        8
176
     1
 62
     7
176
     1
 40
1.0
176
     1
 90
        1
176
     1
 90
        6
176
     1
 90
        2
176
     1
 62
     7
176
     1
 90
        5
176
     1
 90
        0
176
     1
 90
        0
176
     1
290
     0
176
     1
 90
        1
176
     1
 40
0.0
176
     1
 90
        0
176
     1
290
     0
176
     1
290
     1
176
     1
290
     1
176
     1
290
     0
176
     1
290
     0
176
     1
290
     0
176
     1
290
     0
176
     1
290
     0
176
     1
290
     0
176
     1
 90
       50
176
     1
 40
0.0
176
     1
 40
1.0
176
     1
 90
        0
176
     1
 62
    18
420
        0
176
     1
 90
       50
176
     1
 90
        3
176
     1
 62
     5
420
      255
176
     1
290
     0
176
     1
 90
       50
176
     1
 90
       50
176
     1
 90
       50
176
     1
290
     0
176
     1
 90
       50
176
     1
 62
   256
176
     0
 40
1.0
176
     0
 90
        2
176
     1
  1
strokes_ogs.tif
176
     1
290
     0
176
     1
 40
1.0
176
     1
 40
1.0
176
     1
  0
VISUALSTYLE
  5
408
102
{ACAD_REACTORS
330
3FC
102
}
330
3FC
100
AcDbVisualStyle
  2
Brighten
 70
    12
177
     3
291
     1
 70
    58
 90
        2
176
     1
 90
        2
176
     1
 90
        0
176
     1
 90
        0
176
     1
 40
0.6
176
     1
 40
30.0
176
     1
 62
     7
420
 16777215
176
     1
 90
        1
176
     1
 90
        4
176
     1
 62
     7
176
     1
 62
   257
176
     1
 90
        1
176
     1
 90
        1
176
     1
 40
1.0
176
     1
 90
        8
176
     1
 62
     7
176
     1
 40
1.0
176
     1
 90
        1
176
     1
 90
        6
176
     1
 90
        2
176
     1
 62
     7
176
     1
 90
        5
176
     1
 90
        0
176
     1
 90
        0
176
     1
290
     0
176
     1
 90
        1
176
     1
 40
50.0
176
     1
 90
        0
176
     1
290
     0
176
     1
290
     1
176
     1
290
     1
176
     1
290
     0
176
     1
290
     0
176
     1
290
     0
176
     1
290
     0
176
     1
290
     0
176
     1
290
     0
176
     1
 90
       50
176
     1
 40
0.0
176
     1
 40
1.0
176
     1
 90
        0
176
     1
 62
    18
420
        0
176
     1
 90
       50
176
     1
 90
        3
176
     1
 62
     5
420
      255
176
     1
290
     0
176
     1
 90
       50
176
     1
 90
       50
176
     1
 90
       50
176
     1
290
     0
176
     1
 90
       50
176
     1
 62
   256
176
     0
 40
1.0
176
     0
 90
        2
176
     1
  1
strokes_ogs.tif
176
     1
290
     0
176
     1
 40
1.0
176
     1
 40
1.0
176
     1
  0
VISUALSTYLE
  5
40C
102
{ACAD_REACTORS
330
3FC
102
}
330
3FC
100
AcDbVisualStyle
  2
ColorChange
 70
    16
177
     3
291
     1
 70
    58
 90
        2
176
     1
 90
        2
176
     1
 90
        3
176
     1
 90
        0
176
     1
 40
0.6
176
     1
 40
30.0
176
     1
 62
     8
420
  8421504
176
     1
 90
        1
176
     1
 90
        4
176
     1
 62
     7
176
     1
 62
   257
176
     1
 90
        1
176
     1
 90
        1
176
     1
 40
1.0
176
     1
 90
        8
176
     1
 62
     8
420
  8421504
176
     1
 40
1.0
176
     1
 90
        1
176
     1
 90
        6
176
     1
 90
        2
176
     1
 62
     7
176
     1
 90
        5
176
     1
 90
        0
176
     1
 90
        0
176
     1
290
     0
176
     1
 90
        1
176
     1
 40
0.0
176
     1
 90
        0
176
     1
290
     0
176
     1
290
     1
176
     1
290
     1
176
     1
290
     0
176
     1
290
     0
176
     1
290
     0
176
     1
290
     0
176
     1
290
     0
176
     1
290
     0
176
     1
 90
       50
176
     1
 40
0.0
176
     1
 40
1.0
176
     1
 90
        0
176
     1
 62
    18
420
        0
176
     1
 90
       50
176
     1
 90
        3
176
     1
 62
     5
420
      255
176
     1
290
     0
176
     1
 90
       50
176
     1
 90
       50
176
     1
 90
       50
176
     1
290
     0
176
     1
 90
       50
176
     1
 62
   256
176
     0
 40
1.0
176
     0
 90
        2
176
     1
  1
strokes_ogs.tif
176
     1
290
     0
176
     1
 40
1.0
176
     1
 40
1.0
176
     1
  0
VISUALSTYLE
  5
406
102
{ACAD_REACTORS
330
3FC
102
}
330
3FC
100
AcDbVisualStyle
  2
Conceptual
 70
     9
177
     3
291
     0
 70
    58
 90
        3
176
     1
 90
        2
176
     1
 90
        0
176
     1
 90
        0
176
     1
 40
0.6
176
     1
 40
30.0
176
     1
 62
     7
420
 16777215
176
     1
 90
        2
176
     1
 90
        2
176
     1
 62
     7
176
     1
 62
   257
176
     1
 90
        1
176
     1
 90
        1
176
     1
 40
179.0
176
     1
 90
        8
176
     1
 62
     7
176
     1
 40
1.0
176
     1
 90
        1
176
     1
 90
        6
176
     1
 90
        2
176
     1
 62
     7
176
     1
 90
        3
176
     1
 90
        0
176
     1
 90
        0
176
     1
290
     0
176
     1
 90
        1
176
     1
 40
0.0
176
     1
 90
        0
176
     1
290
     0
176
     1
290
     1
176
     1
290
     1
176
     1
290
     0
176
     1
290
     0
176
     1
290
     0
176
     1
290
     0
176
     1
290
     0
176
     1
290
     0
176
     1
 90
       50
176
     1
 40
0.0
176
     1
 40
1.0
176
     1
 90
        0
176
     1
 62
    18
420
        0
176
     1
 90
       50
176
     1
 90
        3
176
     1
 62
     5
420
      255
176
     1
290
     0
176
     1
 90
       50
176
     1
 90
       50
176
     1
 90
       50
176
     1
290
     0
176
     1
 90
       50
176
     1
 62
   256
176
     0
 40
1.0
176
     0
 90
        2
176
     1
  1
strokes_ogs.tif
176
     1
290
     0
176
     1
 40
1.0
176
     1
 40
1.0
176
     1
  0
VISUALSTYLE
  5
407
102
{ACAD_REACTORS
330
3FC
102
}
330
3FC
100
AcDbVisualStyle
  2
Dim
 70
    11
177
     3
291
     1
 70
    58
 90
        2
176
     1
 90
        2
176
     1
 90
        0
176
     1
 90
        0
176
     1
 40
0.6
176
     1
 40
30.0
176
     1
 62
     7
420
 16777215
176
     1
 90
        1
176
     1
 90
        4
176
     1
 62
     7
176
     1
 62
   257
176
     1
 90
        1
176
     1
 90
        1
176
     1
 40
1.0
176
     1
 90
        8
176
     1
 62
     7
176
     1
 40
1.0
176
     1
 90
        1
176
     1
 90
        6
176
     1
 90
        2
176
     1
 62
     7
176
     1
 90
        5
176
     1
 90
        0
176
     1
 90
        0
176
     1
290
     0
176
     1
 90
        1
176
     1
 40
-50.0
176
     1
 90
        0
176
     1
290
     0
176
     1
290
     1
176
     1
290
     1
176
     1
290
     0
176
     1
290
     0
176
     1
290
     0
176
     1
290
     0
176
     1
290
     0
176
     1
290
     0
176
     1
 90
       50
176
     1
 40
0.0
176
     1
 40
1.0
176
     1
 90
        0
176
     1
 62
    18
420
        0
176
     1
 90
       50
176
     1
 90
        3
176
     1
 62
     5
420
      255
176
     1
290
     0
176
     1
 90
       50
176
     1
 90
       50
176
     1
 90
       50
176
     1
290
     0
176
     1
 90
       50
176
     1
 62
   256
176
     0
 40
1.0
176
     0
 90
        2
176
     1
  1
strokes_ogs.tif
176
     1
290
     0
176
     1
 40
1.0
176
     1
 40
1.0
176
     1
  0
VISUALSTYLE
  5
40F
102
{ACAD_REACTORS
330
3FC
102
}
330
3FC
100
AcDbVisualStyle
  2
EdgeColorOff
 70
    22
177
     3
291
     1
 70
    58
 90
        2
176
     0
 90
        2
176
     0
 90
        0
176
     0
 90
        0
176
     0
 40
0.6
176
     0
 40
30.0
176
     0
 62
     7
420
 16777215
176
     0
 90
        1
176
     0
 90
        4
176
     0
 62
     7
176
     0
 62
   257
176
     0
 90
        1
176
     0
 90
        1
176
     0
 40
1.0
176
     0
 90
        8
176
     2
 62
     7
176
     0
 40
1.0
176
     0
 90
        1
176
     0
 90
        6
176
     0
 90
        2
176
     0
 62
     7
176
     0
 90
        5
176
     0
 90
        0
176
     0
 90
        0
176
     0
290
     0
176
     0
 90
        1
176
     0
 40
0.0
176
     0
 90
        0
176
     0
290
     0
176
     0
290
     1
176
     0
290
     1
176
     0
290
     0
176
     0
290
     0
176
     0
290
     0
176
     0
290
     0
176
     0
290
     0
176
     0
290
     0
176
     0
 90
       50
176
     0
 40
0.0
176
     0
 40
1.0
176
     0
 90
        0
176
     0
 62
    18
420
        0
176
     0
 90
       50
176
     0
 90
        3
176
     0
 62
     5
420
      255
176
     0
290
     0
176
     0
 90
       50
176
     0
 90
       50
176
     0
 90
       50
176
     0
290
     0
176
     0
 90
       50
176
     0
 62
   256
176
     0
 40
1.0
176
     0
 90
        2
176
     0
  1
strokes_ogs.tif
176
     0
290
     0
176
     0
 40
1.0
176
     0
 40
1.0
176
     0
  0
VISUALSTYLE
  5
40B
102
{ACAD_REACTORS
330
3FC
102
}
330
3FC
100
AcDbVisualStyle
  2
Facepattern
 70
    15
177
     3
291
     1
 70
    58
 90
        2
176
     1
 90
        2
176
     1
 90
        0
176
     1
 90
        0
176
     1
 40
0.6
176
     1
 40
30.0
176
     1
 62
     7
420
 16777215
176
     1
 90
        1
176
     1
 90
        4
176
     1
 62
     7
176
     1
 62
   257
176
     1
 90
        1
176
     1
 90
        1
176
     1
 40
1.0
176
     1
 90
        8
176
     1
 62
     7
176
     1
 40
1.0
176
     1
 90
        1
176
     1
 90
        6
176
     1
 90
        2
176
     1
 62
     7
176
     1
 90
        5
176
     1
 90
        0
176
     1
 90
        0
176
     1
290
     0
176
     1
 90
        1
176
     1
 40
0.0
176
     1
 90
        0
176
     1
290
     0
176
     1
290
     1
176
     1
290
     1
176
     1
290
     0
176
     1
290
     0
176
     1
290
     0
176
     1
290
     0
176
     1
290
     0
176
     1
290
     0
176
     1
 90
       50
176
     1
 40
0.0
176
     1
 40
1.0
176
     1
 90
        0
176
     1
 62
    18
420
        0
176
     1
 90
       50
176
     1
 90
        3
176
     1
 62
     5
420
      255
176
     1
290
     0
176
     1
 90
       50
176
     1
 90
       50
176
     1
 90
       50
176
     1
290
     0
176
     1
 90
       50
176
     1
 62
   256
176
     0
 40
1.0
176
     0
 90
        2
176
     1
  1
strokes_ogs.tif
176
     1
290
     0
176
     1
 40
1.0
176
     1
 40
1.0
176
     1
  0
VISUALSTYLE
  5
3FD
102
{ACAD_REACTORS
330
3FC
102
}
330
3FC
100
AcDbVisualStyle
  2
Flat
 70
     0
177
     3
291
     1
 70
    58
 90
        2
176
     1
 90
        1
176
     1
 90
        1
176
     1
 90
        2
176
     1
 40
0.6
176
     1
 40
30.0
176
     1
 62
     7
420
 16777215
176
     1
 90
        0
176
     1
 90
        0
176
     1
 62
     7
176
     1
 62
   257
176
     1
 90
        1
176
     1
 90
        1
176
     1
 40
1.0
176
     1
 90
        8
176
     1
 62
     7
176
     1
 40
1.0
176
     1
 90
        1
176
     1
 90
        6
176
     1
 90
        2
176
     1
 62
     7
176
     1
 90
        5
176
     1
 90
        0
176
     1
 90
        0
176
     1
290
     0
176
     1
 90
       13
176
     1
 40
0.0
176
     1
 90
        0
176
     1
290
     0
176
     1
290
     1
176
     1
290
     1
176
     1
290
     0
176
     1
290
     0
176
     1
290
     0
176
     1
290
     0
176
     1
290
     0
176
     1
290
     0
176
     1
 90
       50
176
     1
 40
0.0
176
     1
 40
1.0
176
     1
 90
        0
176
     1
 62
    18
420
        0
176
     1
 90
       50
176
     1
 90
        3
176
     1
 62
     5
420
      255
176
     1
290
     0
176
     1
 90
       50
176
     1
 90
       50
176
     1
 90
       50
176
     1
290
     0
176
     1
 90
       50
176
     1
 62
   256
176
     0
 40
1.0
176
     0
 90
        2
176
     1
  1
strokes_ogs.tif
176
     1
290
     0
176
     1
 40
1.0
176
     1
 40
1.0
176
     1
  0
VISUALSTYLE
  5
3FE
102
{ACAD_REACTORS
330
3FC
102
}
330
3FC
100
AcDbVisualStyle
  2
FlatWithEdges
 70
     1
177
     3
291
     1
 70
    58
 90
        2
176
     1
 90
        1
176
     1
 90
        1
176
     1
 90
        2
176
     1
 40
0.6
176
     1
 40
30.0
176
     1
 62
     7
420
 16777215
176
     1
 90
        1
176
     1
 90
        0
176
     1
 62
     7
176
     1
 62
   257
176
     1
 90
        1
176
     1
 90
        1
176
     1
 40
1.0
176
     1
 90
        0
176
     1
 62
   257
176
     1
 40
1.0
176
     1
 90
        1
176
     1
 90
        6
176
     1
 90
        2
176
     1
 62
     7
176
     1
 90
        5
176
     1
 90
        0
176
     1
 90
        0
176
     1
290
     0
176
     1
 90
       13
176
     1
 40
0.0
176
     1
 90
        0
176
     1
290
     0
176
     1
290
     1
176
     1
290
     1
176
     1
290
     0
176
     1
290
     0
176
     1
290
     0
176
     1
290
     0
176
     1
290
     0
176
     1
290
     0
176
     1
 90
       50
176
     1
 40
0.0
176
     1
 40
1.0
176
     1
 90
        0
176
     1
 62
    18
420
        0
176
     1
 90
       50
176
     1
 90
        3
176
     1
 62
     5
420
      255
176
     1
290
     0
176
     1
 90
       50
176
     1
 90
       50
176
     1
 90
       50
176
     1
290
     0
176
     1
 90
       50
176
     1
 62
   256
176
     0
 40
1.0
176
     0
 90
        2
176
     1
  1
strokes_ogs.tif
176
     1
290
     0
176
     1
 40
1.0
176
     1
 40
1.0
176
     1
  0
VISUALSTYLE
  5
3FF
102
{ACAD_REACTORS
330
3FC
102
}
330
3FC
100
AcDbVisualStyle
  2
Gouraud
 70
     2
177
     3
291
     1
 70
    58
 90
        2
176
     1
 90
        2
176
     1
 90
        1
176
     1
 90
        2
176
     1
 40
0.6
176
     1
 40
30.0
176
     1
 62
     7
420
 16777215
176
     1
 90
        0
176
     1
 90
        0
176
     1
 62
     7
176
     1
 62
   257
176
     1
 90
        1
176
     1
 90
        1
176
     1
 40
1.0
176
     1
 90
        0
176
     1
 62
     7
176
     1
 40
1.0
176
     1
 90
        1
176
     1
 90
        6
176
     1
 90
        2
176
     1
 62
     7
176
     1
 90
        5
176
     1
 90
        0
176
     1
 90
        0
176
     1
290
     0
176
     1
 90
       13
176
     1
 40
0.0
176
     1
 90
        0
176
     1
290
     0
176
     1
290
     1
176
     1
290
     1
176
     1
290
     0
176
     1
290
     0
176
     1
290
     0
176
     1
290
     0
176
     1
290
     0
176
     1
290
     0
176
     1
 90
       50
176
     1
 40
0.0
176
     1
 40
1.0
176
     1
 90
        0
176
     1
 62
    18
420
        0
176
     1
 90
       50
176
     1
 90
        3
176
     1
 62
     5
420
      255
176
     1
290
     0
176
     1
 90
       50
176
     1
 90
       50
176
     1
 90
       50
176
     1
290
     0
176
     1
 90
       50
176
     1
 62
   256
176
     0
 40
1.0
176
     0
 90
        2
176
     1
  1
strokes_ogs.tif
176
     1
290
     0
176
     1
 40
1.0
176
     1
 40
1.0
176
     1
  0
VISUALSTYLE
  5
400
102
{ACAD_REACTORS
330
3FC
102
}
330
3FC
100
AcDbVisualStyle
  2
GouraudWithEdges
 70
     3
177
     3
291
     1
 70
    58
 90
        2
176
     1
 90
        2
176
     1
 90
        1
176
     1
 90
        2
176
     1
 40
0.6
176
     1
 40
30.0
176
     1
 62
     7
420
 16777215
176
     1
 90
        1
176
     1
 90
        0
176
     1
 62
     7
176
     1
 62
   257
176
     1
 90
        1
176
     1
 90
        1
176
     1
 40
1.0
176
     1
 90
        0
176
     1
 62
   257
176
     1
 40
1.0
176
     1
 90
        1
176
     1
 90
        6
176
     1
 90
        2
176
     1
 62
     7
176
     1
 90
        5
176
     1
 90
        0
176
     1
 90
        0
176
     1
290
     0
176
     1
 90
       13
176
     1
 40
0.0
176
     1
 90
        0
176
     1
290
     0
176
     1
290
     1
176
     1
290
     1
176
     1
290
     0
176
     1
290
     0
176
     1
290
     0
176
     1
290
     0
176
     1
290
     0
176
     1
290
     0
176
     1
 90
       50
176
     1
 40
0.0
176
     1
 40
1.0
176
     1
 90
        0
176
     1
 62
    18
420
        0
176
     1
 90
       50
176
     1
 90
        3
176
     1
 62
     5
420
      255
176
     1
290
     0
176
     1
 90
       50
176
     1
 90
       50
176
     1
 90
       50
176
     1
290
     0
176
     1
 90
       50
176
     1
 62
   256
176
     0
 40
1.0
176
     0
 90
        2
176
     1
  1
strokes_ogs.tif
176
     1
290
     0
176
     1
 40
1.0
176
     1
 40
1.0
176
     1
  0
VISUALSTYLE
  5
403
102
{ACAD_REACTORS
330
3FC
102
}
330
3FC
100
AcDbVisualStyle
  2
Hidden
 70
     6
177
     3
291
     0
 70
    58
 90
        1
176
     1
 90
        2
176
     1
 90
        2
176
     1
 90
        0
176
     1
 40
0.6
176
     1
 40
30.0
176
     1
 62
     7
420
 16777215
176
     1
 90
        2
176
     1
 90
        2
176
     1
 62
     7
176
     1
 62
   257
176
     1
 90
        2
176
     1
 90
        1
176
     1
 40
40.0
176
     1
 90
        0
176
     1
 62
   257
176
     1
 40
1.0
176
     1
 90
        1
176
     1
 90
        6
176
     1
 90
        2
176
     1
 62
     7
176
     1
 90
        3
176
     1
 90
        0
176
     1
 90
        0
176
     1
290
     0
176
     1
 90
        1
176
     1
 40
0.0
176
     1
 90
        0
176
     1
290
     0
176
     1
290
     1
176
     1
290
     1
176
     1
290
     0
176
     1
290
     0
176
     1
290
     0
176
     1
290
     0
176
     1
290
     0
176
     1
290
     0
176
     1
 90
       50
176
     1
 40
0.0
176
     1
 40
1.0
176
     1
 90
        0
176
     1
 62
    18
420
        0
176
     1
 90
       50
176
     1
 90
        3
176
     1
 62
     5
420
      255
176
     1
290
     0
176
     1
 90
       50
176
     1
 90
       50
176
     1
 90
       50
176
     1
290
     0
176
     1
 90
       50
176
     1
 62
   256
176
     0
 40
1.0
176
     0
 90
        2
176
     1
  1
strokes_ogs.tif
176
     1
290
     0
176
     1
 40
1.0
176
     1
 40
1.0
176
     1
  0
VISUALSTYLE
  5
40D
102
{ACAD_REACTORS
330
3FC
102
}
330
3FC
100
AcDbVisualStyle
  2
JitterOff
 70
    20
177
     3
291
     1
 70
    58
 90
        2
176
     0
 90
        2
176
     0
 90
        0
176
     0
 90
        0
176
     0
 40
0.6
176
     0
 40
30.0
176
     0
 62
     7
420
 16777215
176
     0
 90
        1
176
     0
 90
        4
176
     0
 62
     7
176
     0
 62
   257
176
     0
 90
        1
176
     0
 90
        1
176
     0
 40
1.0
176
     0
 90
       10
176
     2
 62
     7
176
     0
 40
1.0
176
     0
 90
        1
176
     0
 90
        6
176
     0
 90
        2
176
     0
 62
     7
176
     0
 90
        5
176
     0
 90
        0
176
     0
 90
        0
176
     0
290
     0
176
     0
 90
        1
176
     0
 40
0.0
176
     0
 90
        0
176
     0
290
     0
176
     0
290
     1
176
     0
290
     1
176
     0
290
     0
176
     0
290
     0
176
     0
290
     0
176
     0
290
     0
176
     0
290
     0
176
     0
290
     0
176
     0
 90
       50
176
     0
 40
0.0
176
     0
 40
1.0
176
     0
 90
        0
176
     0
 62
    18
420
        0
176
     0
 90
       50
176
     0
 90
        3
176
     0
 62
     5
420
      255
176
     0
290
     0
176
     0
 90
       50
176
     0
 90
       50
176
     0
 90
       50
176
     0
290
     0
176
     0
 90
       50
176
     0
 62
   256
176
     0
 40
1.0
176
     0
 90
        2
176
     0
  1
strokes_ogs.tif
176
     0
290
     0
176
     0
 40
1.0
176
     0
 40
1.0
176
     0
  0
VISUALSTYLE
  5
40A
102
{ACAD_REACTORS
330
3FC
102
}
330
3FC
100
AcDbVisualStyle
  2
Linepattern
 70
    14
177
     3
291
     1
 70
    58
 90
        2
176
     1
 90
        2
176
     1
 90
        0
176
     1
 90
        0
176
     1
 40
0.6
176
     1
 40
30.0
176
     1
 62
     7
420
 16777215
176
     1
 90
        1
176
     1
 90
        4
176
     1
 62
     7
176
     1
 62
   257
176
     1
 90
        7
176
     1
 90
        7
176
     1
 40
1.0
176
     1
 90
        8
176
     1
 62
     7
176
     1
 40
1.0
176
     1
 90
        1
176
     1
 90
        6
176
     1
 90
        2
176
     1
 62
     7
176
     1
 90
        5
176
     1
 90
        0
176
     1
 90
        0
176
     1
290
     0
176
     1
 90
        1
176
     1
 40
0.0
176
     1
 90
        0
176
     1
290
     0
176
     1
290
     1
176
     1
290
     1
176
     1
290
     0
176
     1
290
     0
176
     1
290
     0
176
     1
290
     0
176
     1
290
     0
176
     1
290
     0
176
     1
 90
       50
176
     1
 40
0.0
176
     1
 40
1.0
176
     1
 90
        0
176
     1
 62
    18
420
        0
176
     1
 90
       50
176
     1
 90
        3
176
     1
 62
     5
420
      255
176
     1
290
     0
176
     1
 90
       50
176
     1
 90
       50
176
     1
 90
       50
176
     1
290
     0
176
     1
 90
       50
176
     1
 62
   256
176
     0
 40
1.0
176
     0
 90
        2
176
     1
  1
strokes_ogs.tif
176
     1
290
     0
176
     1
 40
1.0
176
     1
 40
1.0
176
     1
  0
VISUALSTYLE
  5
40E
102
{ACAD_REACTORS
330
3FC
102
}
330
3FC
100
AcDbVisualStyle
  2
OverhangOff
 70
    21
177
     3
291
     1
 70
    58
 90
        2
176
     0
 90
        2
176
     0
 90
        0
176
     0
 90
        0
176
     0
 40
0.6
176
     0
 40
30.0
176
     0
 62
     7
420
 16777215
176
     0
 90
        1
176
     0
 90
        4
176
     0
 62
     7
176
     0
 62
   257
176
     0
 90
        1
176
     0
 90
        1
176
     0
 40
1.0
176
     0
 90
        9
176
     2
 62
     7
176
     0
 40
1.0
176
     0
 90
        1
176
     0
 90
        6
176
     0
 90
        2
176
     0
 62
     7
176
     0
 90
        5
176
     0
 90
        0
176
     0
 90
        0
176
     0
290
     0
176
     0
 90
        1
176
     0
 40
0.0
176
     0
 90
        0
176
     0
290
     0
176
     0
290
     1
176
     0
290
     1
176
     0
290
     0
176
     0
290
     0
176
     0
290
     0
176
     0
290
     0
176
     0
290
     0
176
     0
290
     0
176
     0
 90
       50
176
     0
 40
0.0
176
     0
 40
1.0
176
     0
 90
        0
176
     0
 62
    18
420
        0
176
     0
 90
       50
176
     0
 90
        3
176
     0
 62
     5
420
      255
176
     0
290
     0
176
     0
 90
       50
176
     0
 90
       50
176
     0
 90
       50
176
     0
290
     0
176
     0
 90
       50
176
     0
 62
   256
176
     0
 40
1.0
176
     0
 90
        2
176
     0
  1
strokes_ogs.tif
176
     0
290
     0
176
     0
 40
1.0
176
     0
 40
1.0
176
     0
  0
VISUALSTYLE
  5
405
102
{ACAD_REACTORS
330
3FC
102
}
330
3FC
100
AcDbVisualStyle
  2
Realistic
 70
     8
177
     3
291
     0
 70
    58
 90
        2
176
     1
 90
        3
176
     1
 90
        0
176
     1
 90
        2
176
     1
 40
0.6
176
     1
 40
30.0
176
     1
 62
     7
420
 16777215
176
     1
 90
        0
176
     1
 90
        0
176
     1
 62
     7
176
     1
 62
   257
176
     1
 90
        1
176
     1
 90
        1
176
     1
 40
1.0
176
     1
 90
        8
176
     1
 62
   257
176
     1
 40
1.0
176
     1
 90
        1
176
     1
 90
        6
176
     1
 90
        2
176
     1
 62
     7
176
     1
 90
        3
176
     1
 90
        0
176
     1
 90
        0
176
     1
290
     0
176
     1
 90
       13
176
     1
 40
0.0
176
     1
 90
        0
176
     1
290
     0
176
     1
290
     1
176
     1
290
     1
176
     1
290
     0
176
     1
290
     0
176
     1
290
     0
176
     1
290
     0
176
     1
290
     0
176
     1
290
     0
176
     1
 90
       50
176
     1
 40
0.0
176
     1
 40
1.0
176
     1
 90
        0
176
     1
 62
    18
420
        0
176
     1
 90
       50
176
     1
 90
        3
176
     1
 62
     5
420
      255
176
     1
290
     0
176
     1
 90
       50
176
     1
 90
       50
176
     1
 90
       50
176
     1
290
     0
176
     1
 90
       50
176
     1
 62
   256
176
     0
 40
1.0
176
     0
 90
        2
176
     1
  1
strokes_ogs.tif
176
     1
290
     0
176
     1
 40
1.0
176
     1
 40
1.0
176
     1
  0
VISUALSTYLE
  5
414
102
{ACAD_REACTORS
330
3FC
102
}
330
3FC
100
AcDbVisualStyle
  2
Shaded
 70
    27
177
     3
291
     0
 70
    58
 90
        2
176
     1
 90
        2
176
     1
 90
        1
176
     1
 90
        2
176
     1
 40
0.6
176
     1
 40
30.0
176
     1
 62
     7
420
 16777215
176
     1
 90
        0
176
     1
 90
        4
176
     1
 62
     7
176
     1
 62
   257
176
     1
 90
        1
176
     1
 90
        1
176
     1
 40
1.0
176
     1
 90
        8
176
     1
 62
   257
176
     1
 40
1.0
176
     1
 90
        1
176
     1
 90
        6
176
     1
 90
        2
176
     1
 62
     8
420
  7895160
176
     1
 90
        3
176
     1
 90
        0
176
     1
 90
        0
176
     1
290
     0
176
     1
 90
        5
176
     1
 40
0.0
176
     1
 90
        0
176
     1
290
     0
176
     1
290
     1
176
     1
290
     1
176
     1
290
     0
176
     1
290
     0
176
     1
290
     0
176
     1
290
     0
176
     1
290
     0
176
     1
290
     0
176
     1
 90
       50
176
     1
 40
0.0
176
     1
 40
1.0
176
     1
 90
        0
176
     1
 62
    18
420
        0
176
     1
 90
       50
176
     1
 90
        3
176
     1
 62
     5
420
      255
176
     1
290
     0
176
     1
 90
       50
176
     1
 90
       50
176
     1
 90
       50
176
     1
290
     0
176
     1
 90
       50
176
     1
 62
   256
176
     0
 40
1.0
176
     0
 90
        2
176
     1
  1
strokes_ogs.tif
176
     1
290
     0
176
     1
 40
1.0
176
     1
 40
1.0
176
     1
  0
VISUALSTYLE
  5
413
102
{ACAD_REACTORS
330
3FC
102
}
330
3FC
100
AcDbVisualStyle
  2
Shaded with edges
 70
    26
177
     3
291
     0
 70
    58
 90
        2
176
     1
 90
        2
176
     1
 90
        1
176
     1
 90
        2
176
     1
 40
0.6
176
     1
 40
30.0
176
     1
 62
     7
420
 16777215
176
     1
 90
        1
176
     1
 90
       10
176
     1
 62
     7
176
     1
 62
   257
176
     1
 90
        2
176
     1
 90
        1
176
     1
 40
1.0
176
     1
 90
        8
176
     1
 62
   257
176
     1
 40
1.0
176
     1
 90
        1
176
     1
 90
        6
176
     1
 90
        2
176
     1
 62
     7
176
     1
 90
        3
176
     1
 90
        0
176
     1
 90
        0
176
     1
290
     0
176
     1
 90
        5
176
     1
 40
0.0
176
     1
 90
        0
176
     1
290
     0
176
     1
290
     1
176
     1
290
     1
176
     1
290
     0
176
     1
290
     0
176
     1
290
     0
176
     1
290
     0
176
     1
290
     0
176
     1
290
     0
176
     1
 90
       50
176
     1
 40
0.0
176
     1
 40
1.0
176
     1
 90
        0
176
     1
 62
    18
420
        0
176
     1
 90
       50
176
     1
 90
        3
176
     1
 62
     5
420
      255
176
     1
290
     0
176
     1
 90
       50
176
     1
 90
       50
176
     1
 90
       50
176
     1
290
     0
176
     1
 90
       50
176
     1
 62
   256
176
     0
 40
1.0
176
     0
 90
        2
176
     1
  1
strokes_ogs.tif
176
     1
290
     0
176
     1
 40
1.0
176
     1
 40
1.0
176
     1
  0
VISUALSTYLE
  5
410
102
{ACAD_REACTORS
330
3FC
102
}
330
3FC
100
AcDbVisualStyle
  2
Shades of Gray
 70
    23
177
     3
291
     0
 70
    58
 90
        2
176
     1
 90
        2
176
     1
 90
        3
176
     1
 90
        0
176
     1
 40
0.6
176
     1
 40
30.0
176
     1
 62
     7
420
 16777215
176
     1
 90
        2
176
     1
 90
        2
176
     1
 62
     7
176
     1
 62
     7
176
     1
 90
        1
176
     1
 90
        1
176
     1
 40
40.0
176
     1
 90
        8
176
     1
 62
     7
176
     1
 40
1.0
176
     1
 90
        1
176
     1
 90
        6
176
     1
 90
        2
176
     1
 62
     7
176
     1
 90
        3
176
     1
 90
        0
176
     1
 90
        0
176
     1
290
     0
176
     1
 90
        1
176
     1
 40
0.0
176
     1
 90
        0
176
     1
290
     0
176
     1
290
     1
176
     1
290
     1
176
     1
290
     0
176
     1
290
     0
176
     1
290
     0
176
     1
290
     0
176
     1
290
     0
176
     1
290
     0
176
     1
 90
       50
176
     1
 40
0.0
176
     1
 40
1.0
176
     1
 90
        0
176
     1
 62
    18
420
        0
176
     1
 90
       50
176
     1
 90
        3
176
     1
 62
     5
420
      255
176
     1
290
     0
176
     1
 90
       50
176
     1
 90
       50
176
     1
 90
       50
176
     1
290
     0
176
     1
 90
       50
176
     1
 62
   256
176
     0
 40
1.0
176
     0
 90
        2
176
     1
  1
strokes_ogs.tif
176
     1
290
     0
176
     1
 40
1.0
176
     1
 40
1.0
176
     1
  0
VISUALSTYLE
  5
411
102
{ACAD_REACTORS
330
3FC
102
}
330
3FC
100
AcDbVisualStyle
  2
Sketchy
 70
    24
177
     3
291
     0
 70
    58
 90
        1
176
     1
 90
        2
176
     1
 90
        2
176
     1
 90
        0
176
     1
 40
0.6
176
     1
 40
30.0
176
     1
 62
     7
420
 16777215
176
     1
 90
        2
176
     1
 90
        2
176
     1
 62
     7
176
     1
 62
     7
176
     1
 90
        1
176
     1
 90
        1
176
     1
 40
40.0
176
     1
 90
       11
176
     1
 62
     7
176
     1
 40
1.0
176
     1
 90
        1
176
     1
 90
        6
176
     1
 90
        2
176
     1
 62
     7
176
     1
 90
        6
176
     1
 90
        0
176
     1
 90
        0
176
     1
290
     0
176
     1
 90
        1
176
     1
 40
0.0
176
     1
 90
        0
176
     1
290
     0
176
     1
290
     1
176
     1
290
     1
176
     1
290
     0
176
     1
290
     0
176
     1
290
     0
176
     1
290
     0
176
     1
290
     0
176
     1
290
     0
176
     1
 90
       50
176
     1
 40
0.0
176
     1
 40
1.0
176
     1
 90
        0
176
     1
 62
    18
420
        0
176
     1
 90
       50
176
     1
 90
        3
176
     1
 62
     5
420
      255
176
     1
290
     0
176
     1
 90
       50
176
     1
 90
       50
176
     1
 90
       50
176
     1
290
     0
176
     1
 90
       50
176
     1
 62
   256
176
     0
 40
1.0
176
     0
 90
        2
176
     1
  1
strokes_ogs.tif
176
     1
290
     0
176
     1
 40
1.0
176
     1
 40
1.0
176
     1
  0
VISUALSTYLE
  5
409
102
{ACAD_REACTORS
330
3FC
102
}
330
3FC
100
AcDbVisualStyle
  2
Thicken
 70
    13
177
     3
291
     1
 70
    58
 90
        2
176
     1
 90
        2
176
     1
 90
        0
176
     1
 90
        0
176
     1
 40
0.6
176
     1
 40
30.0
176
     1
 62
     7
420
 16777215
176
     1
 90
        1
176
     1
 90
        4
176
     1
 62
     7
176
     1
 62
   257
176
     1
 90
        1
176
     1
 90
        1
176
     1
 40
1.0
176
     1
 90
       12
176
     1
 62
     7
176
     1
 40
1.0
176
     1
 90
        1
176
     1
 90
        6
176
     1
 90
        2
176
     1
 62
     7
176
     1
 90
        5
176
     1
 90
        0
176
     1
 90
        0
176
     1
290
     0
176
     1
 90
        1
176
     1
 40
0.0
176
     1
 90
        0
176
     1
290
     0
176
     1
290
     1
176
     1
290
     1
176
     1
290
     0
176
     1
290
     0
176
     1
290
     0
176
     1
290
     0
176
     1
290
     0
176
     1
290
     0
176
     1
 90
       50
176
     1
 40
0.0
176
     1
 40
1.0
176
     1
 90
        0
176
     1
 62
    18
420
        0
176
     1
 90
       50
176
     1
 90
        3
176
     1
 62
     5
420
      255
176
     1
290
     0
176
     1
 90
       50
176
     1
 90
       50
176
     1
 90
       50
176
     1
290
     0
176
     1
 90
       50
176
     1
 62
   256
176
     0
 40
1.0
176
     0
 90
        2
176
     1
  1
strokes_ogs.tif
176
     1
290
     0
176
     1
 40
1.0
176
     1
 40
1.0
176
     1
  0
VISUALSTYLE
  5
402
102
{ACAD_REACTORS
330
3FC
102
}
330
3FC
100
AcDbVisualStyle
  2
Wireframe
 70
     5
177
     3
291
     0
 70
    58
 90
        0
176
     1
 90
        2
176
     1
 90
        0
176
     1
 90
        0
176
     1
 40
0.6
176
     1
 40
30.0
176
     1
 62
     7
420
 16777215
176
     1
 90
        1
176
     1
 90
        4
176
     1
 62
     7
176
     1
 62
   257
176
     1
 90
        1
176
     1
 90
        1
176
     1
 40
1.0
176
     1
 90
        0
176
     1
 62
   257
176
     1
 40
1.0
176
     1
 90
        1
176
     1
 90
        6
176
     1
 90
        2
176
     1
 62
     7
176
     1
 90
        3
176
     1
 90
        0
176
     1
 90
        0
176
     1
290
     0
176
     1
 90
        1
176
     1
 40
0.0
176
     1
 90
        0
176
     1
290
     0
176
     1
290
     1
176
     1
290
     1
176
     1
290
     0
176
     1
290
     0
176
     1
290
     0
176
     1
290
     0
176
     1
290
     0
176
     1
290
     0
176
     1
 90
       50
176
     1
 40
0.0
176
     1
 40
1.0
176
     1
 90
        0
176
     1
 62
    18
420
        0
176
     1
 90
       50
176
     1
 90
        3
176
     1
 62
     5
420
      255
176
     1
290
     0
176
     1
 90
       50
176
     1
 90
       50
176
     1
 90
       50
176
     1
290
     0
176
     1
 90
       50
176
     1
 62
   256
176
     0
 40
1.0
176
     0
 90
        2
176
     1
  1
strokes_ogs.tif
176
     1
290
     0
176
     1
 40
1.0
176
     1
 40
1.0
176
     1
  0
VISUALSTYLE
  5
412
102
{ACAD_REACTORS
330
3FC
102
}
330
3FC
100
AcDbVisualStyle
  2
X-Ray
 70
    25
177
     3
291
     0
 70
    58
 90
        2
176
     1
 90
        2
176
     1
 90
        1
176
     1
 90
        1
176
     1
 40
0.5
176
     1
 40
30.0
176
     1
 62
     7
420
 16777215
176
     1
 90
        1
176
     1
 90
        0
176
     1
 62
     7
176
     1
 62
   257
176
     1
 90
        1
176
     1
 90
        1
176
     1
 40
1.0
176
     1
 90
        8
176
     1
 62
     7
176
     1
 40
1.0
176
     1
 90
        1
176
     1
 90
        6
176
     1
 90
        2
176
     1
 62
     7
176
     1
 90
        3
176
     1
 90
        0
176
     1
 90
        0
176
     1
290
     0
176
     1
 90
       13
176
     1
 40
0.0
176
     1
 90
        0
176
     1
290
     0
176
     1
290
     1
176
     1
290
     1
176
     1
290
     0
176
     1
290
     0
176
     1
290
     0
176
     1
290
     0
176
     1
290
     0
176
     1
290
     0
176
     1
 90
       50
176
     1
 40
0.0
176
     1
 40
1.0
176
     1
 90
        0
176
     1
 62
    18
420
        0
176
     1
 90
       50
176
     1
 90
        3
176
     1
 62
     5
420
      255
176
     1
290
     0
176
     1
 90
       50
176
     1
 90
       50
176
     1
 90
       50
176
     1
290
     0
176
     1
 90
       50
176
     1
 62
   256
176
     0
 40
1.0
176
     0
 90
        2
176
     1
  1
strokes_ogs.tif
176
     1
290
     0
176
     1
 40
1.0
176
     1
 40
1.0
176
     1
  0
DICTIONARYVAR
  5
41F
102
{ACAD_REACTORS
330
41E
102
}
330
41E
100
DictionaryVariables
280
     0
  1
1:1
  0
DICTIONARYVAR
  5
424
102
{ACAD_REACTORS
330
41E
102
}
330
41E
100
DictionaryVariables
280
     0
  1
Standard
  0
DICTIONARYVAR
  5
423
102
{ACAD_REACTORS
330
41E
102
}
330
41E
100
DictionaryVariables
280
     0
  1
Standard
  0
DICTIONARYVAR
  5
425
102
{ACAD_REACTORS
330
41E
102
}
330
41E
100
DictionaryVariables
280
     0
  1
0
  0
DICTIONARY
  5
420
330
41A
100
AcDbDictionary
280
     1
281
     1
  3
ACAD_ROUNDTRIP_2008_TABLESTYLE_CELLSTYLEMAP
360
421
  0
CELLSTYLEMAP
  5
421
102
{ACAD_REACTORS
330
420
102
}
330
420
100
AcDbCellStyleMap
 90
        3
300
CELLSTYLE
  1
TABLEFORMAT_BEGIN
 90
        5
170
     1
 91
        0
 92
    32768
 62
   257
 93
        1
300
CONTENTFORMAT
  1
CONTENTFORMAT_BEGIN
 90
        0
 91
        0
 92
        4
 93
        0
300

 40
0.0
140
1.0
 94
        5
 62
     0
340
11
144
6.0
309
CONTENTFORMAT_END
171
     1
301
MARGIN
  1
CELLMARGIN_BEGIN
 40
1.5
 40
1.5
 40
1.5
 40
1.5
 40
1.5
 40
1.5
309
CELLMARGIN_END
 94
        6
 95
        1
302
GRIDFORMAT
  1
GRIDFORMAT_BEGIN
 90
        0
 91
        1
 62
     0
 92
       -2
340
14
 93
        0
 40
0.045
309
GRIDFORMAT_END
 95
        2
302
GRIDFORMAT
  1
GRIDFORMAT_BEGIN
 90
        0
 91
        1
 62
     0
 92
       -2
340
14
 93
        0
 40
0.045
309
GRIDFORMAT_END
 95
        4
302
GRIDFORMAT
  1
GRIDFORMAT_BEGIN
 90
        0
 91
        1
 62
     0
 92
       -2
340
14
 93
        0
 40
0.045
309
GRIDFORMAT_END
 95
        8
302
GRIDFORMAT
  1
GRIDFORMAT_BEGIN
 90
        0
 91
        1
 62
     0
 92
       -2
340
14
 93
        0
 40
0.045
309
GRIDFORMAT_END
 95
       16
302
GRIDFORMAT
  1
GRIDFORMAT_BEGIN
 90
        0
 91
        1
 62
     0
 92
       -2
340
14
 93
        0
 40
0.045
309
GRIDFORMAT_END
 95
       32
302
GRIDFORMAT
  1
GRIDFORMAT_BEGIN
 90
        0
 91
        1
 62
     0
 92
       -2
340
14
 93
        0
 40
0.045
309
GRIDFORMAT_END
309
TABLEFORMAT_END
  1
CELLSTYLE_BEGIN
 90
        1
 91
        1
300
_TITLE
309
CELLSTYLE_END
300
CELLSTYLE
  1
TABLEFORMAT_BEGIN
 90
        5
170
     1
 91
        0
 92
        0
 62
   257
 93
        1
300
CONTENTFORMAT
  1
CONTENTFORMAT_BEGIN
 90
        0
 91
        0
 92
        4
 93
        0
300

 40
0.0
140
1.0
 94
        5
 62
     0
340
11
144
4.5
309
CONTENTFORMAT_END
171
     1
301
MARGIN
  1
CELLMARGIN_BEGIN
 40
1.5
 40
1.5
 40
1.5
 40
1.5
 40
1.5
 40
1.5
309
CELLMARGIN_END
 94
        6
 95
        1
302
GRIDFORMAT
  1
GRIDFORMAT_BEGIN
 90
        0
 91
        1
 62
     0
 92
       -2
340
14
 93
        0
 40
0.045
309
GRIDFORMAT_END
 95
        2
302
GRIDFORMAT
  1
GRIDFORMAT_BEGIN
 90
        0
 91
        1
 62
     0
 92
       -2
340
14
 93
        0
 40
0.045
309
GRIDFORMAT_END
 95
        4
302
GRIDFORMAT
  1
GRIDFORMAT_BEGIN
 90
        0
 91
        1
 62
     0
 92
       -2
340
14
 93
        0
 40
0.045
309
GRIDFORMAT_END
 95
        8
302
GRIDFORMAT
  1
GRIDFORMAT_BEGIN
 90
        0
 91
        1
 62
     0
 92
       -2
340
14
 93
        0
 40
0.045
309
GRIDFORMAT_END
 95
       16
302
GRIDFORMAT
  1
GRIDFORMAT_BEGIN
 90
        0
 91
        1
 62
     0
 92
       -2
340
14
 93
        0
 40
0.045
309
GRIDFORMAT_END
 95
       32
302
GRIDFORMAT
  1
GRIDFORMAT_BEGIN
 90
        0
 91
        1
 62
     0
 92
       -2
340
14
 93
        0
 40
0.045
309
GRIDFORMAT_END
309
TABLEFORMAT_END
  1
CELLSTYLE_BEGIN
 90
        2
 91
        1
300
_HEADER
309
CELLSTYLE_END
300
CELLSTYLE
  1
TABLEFORMAT_BEGIN
 90
        5
170
     1
 91
        0
 92
        0
 62
   257
 93
        1
300
CONTENTFORMAT
  1
CONTENTFORMAT_BEGIN
 90
        0
 91
        0
 92
        4
 93
        0
300

 40
0.0
140
1.0
 94
        2
 62
     0
340
11
144
4.5
309
CONTENTFORMAT_END
171
     1
301
MARGIN
  1
CELLMARGIN_BEGIN
 40
1.5
 40
1.5
 40
1.5
 40
1.5
 40
1.5
 40
1.5
309
CELLMARGIN_END
 94
        6
 95
        1
302
GRIDFORMAT
  1
GRIDFORMAT_BEGIN
 90
        0
 91
        1
 62
     0
 92
       -2
340
14
 93
        0
 40
0.045
309
GRIDFORMAT_END
 95
        2
302
GRIDFORMAT
  1
GRIDFORMAT_BEGIN
 90
        0
 91
        1
 62
     0
 92
       -2
340
14
 93
        0
 40
0.045
309
GRIDFORMAT_END
 95
        4
302
GRIDFORMAT
  1
GRIDFORMAT_BEGIN
 90
        0
 91
        1
 62
     0
 92
       -2
340
14
 93
        0
 40
0.045
309
GRIDFORMAT_END
 95
        8
302
GRIDFORMAT
  1
GRIDFORMAT_BEGIN
 90
        0
 91
        1
 62
     0
 92
       -2
340
14
 93
        0
 40
0.045
309
GRIDFORMAT_END
 95
       16
302
GRIDFORMAT
  1
GRIDFORMAT_BEGIN
 90
        0
 91
        1
 62
     0
 92
       -2
340
14
 93
        0
 40
0.045
309
GRIDFORMAT_END
 95
       32
302
GRIDFORMAT
  1
GRIDFORMAT_BEGIN
 90
        0
 91
        1
 62
     0
 92
       -2
340
14
 93
        0
 40
0.045
309
GRIDFORMAT_END
309
TABLEFORMAT_END
  1
CELLSTYLE_BEGIN
 90
        3
 91
        2
300
_DATA
309
CELLSTYLE_END
  0
ENDSEC
  0
EOF
