  0
SECTION
  2
HEADER
  9
$ACADVER
  1
AC1027
  9
$ACADMAINTVER
 70
   105
  9
$DWGCODEPAGE
  3
ANSI_1252
  9
$REQUIREDVERSIONS
160
                 0
  9
$LASTSAVEDBY
  1
andrea.zolin
  9
$INSBASE
 10
0.0
 20
0.0
 30
0.0
  9
$EXTMIN
 10
0.0
 20
0.0
 30
0.0
  9
$EXTMAX
 10
3200.0
 20
2500.0
 30
0.0
  9
$LIMMIN
 10
0.0
 20
0.0
  9
$LIMMAX
 10
3200.0
 20
2500.0
  9
$ORTHOMODE
 70
     0
  9
$REGENMODE
 70
     1
  9
$FILLMODE
 70
     1
  9
$QTEXTMODE
 70
     0
  9
$MIRRTEXT
 70
     1
  9
$LTSCALE
 40
176.0
  9
$ATTMODE
 70
     1
  9
$TEXTSIZE
 40
0.2
  9
$TRACEWID
 40
0.05
  9
$TEXTSTYLE
  7
STANDARD
  9
$CLAYER
  8
0
  9
$CELTYPE
  6
BYLAYER
  9
$CECOLOR
 62
   256
  9
$CELTSCALE
 40
1.0
  9
$DISPSILH
 70
     0
  9
$DIMSCALE
 40
1.0
  9
$DIMASZ
 40
2.5
  9
$DIMEXO
 40
0.75
  9
$DIMDLI
 40
121.6
  9
$DIMRND
 40
0.0
  9
$DIMDLE
 40
0.0
  9
$DIMEXE
 40
0.75
  9
$DIMTP
 40
0.01
  9
$DIMTM
 40
0.01
  9
$DIMTXT
 40
3.0
  9
$DIMCEN
 40
28.8
  9
$DIMTSZ
 40
0.0
  9
$DIMTOL
 70
     1
  9
$DIMLIM
 70
     0
  9
$DIMTIH
 70
     1
  9
$DIMTOH
 70
     1
  9
$DIMSE1
 70
     0
  9
$DIMSE2
 70
     0
  9
$DIMTAD
 70
     0
  9
$DIMZIN
 70
     0
  9
$DIMBLK
  1
CLOSED
  9
$DIMASO
 70
     1
  9
$DIMSHO
 70
     1
  9
$DIMPOST
  1

  9
$DIMAPOST
  1

  9
$DIMALT
 70
     0
  9
$DIMALTD
 70
     2
  9
$DIMALTF
 40
25.4
  9
$DIMLFAC
 40
1.0
  9
$DIMTOFL
 70
     0
  9
$DIMTVP
 40
0.0
  9
$DIMTIX
 70
     0
  9
$DIMSOXD
 70
     0
  9
$DIMSAH
 70
     0
  9
$DIMBLK1
  1

  9
$DIMBLK2
  1

  9
$DIMSTYLE
  2
STANDARD
  9
$DIMCLRD
 70
     0
  9
$DIMCLRE
 70
     0
  9
$DIMCLRT
 70
     0
  9
$DIMTFAC
 40
1.0
  9
$DIMGAP
 40
0.625
  9
$DIMJUST
 70
     0
  9
$DIMSD1
 70
     0
  9
$DIMSD2
 70
     0
  9
$DIMTOLJ
 70
     1
  9
$DIMTZIN
 70
     0
  9
$DIMALTZ
 70
     0
  9
$DIMALTTZ
 70
     0
  9
$DIMUPT
 70
     0
  9
$DIMDEC
 70
     4
  9
$DIMTDEC
 70
     4
  9
$DIMALTU
 70
     2
  9
$DIMALTTD
 70
     2
  9
$DIMTXSTY
  7
STANDARD
  9
$DIMAUNIT
 70
     0
  9
$DIMADEC
 70
     0
  9
$DIMALTRND
 40
0.0
  9
$DIMAZIN
 70
     0
  9
$DIMDSEP
 70
    46
  9
$DIMATFIT
 70
     3
  9
$DIMFRAC
 70
     0
  9
$DIMLDRBLK
  1

  9
$DIMLUNIT
 70
     2
  9
$DIMLWD
 70
    -2
  9
$DIMLWE
 70
    -2
  9
$DIMTMOVE
 70
     2
  9
$DIMFXL
 40
1.0
  9
$DIMFXLON
 70
     0
  9
$DIMJOGANG
 40
0.7853981633974483
  9
$DIMTFILL
 70
     0
  9
$DIMTFILLCLR
 70
     0
  9
$DIMARCSYM
 70
     0
  9
$DIMLTYPE
  6

  9
$DIMLTEX1
  6

  9
$DIMLTEX2
  6

  9
$DIMTXTDIRECTION
 70
     0
  9
$LUNITS
 70
     2
  9
$LUPREC
 70
     4
  9
$SKETCHINC
 40
0.1
  9
$FILLETRAD
 40
0.5
  9
$AUNITS
 70
     0
  9
$AUPREC
 70
     0
  9
$MENU
  1
.
  9
$ELEVATION
 40
0.0
  9
$PELEVATION
 40
0.0
  9
$THICKNESS
 40
0.0
  9
$LIMCHECK
 70
     0
  9
$CHAMFERA
 40
0.0
  9
$CHAMFERB
 40
0.0
  9
$CHAMFERC
 40
0.0
  9
$CHAMFERD
 40
0.0
  9
$SKPOLY
 70
     0
  9
$TDCREATE
 40
2447893.041666667
  9
$TDUCREATE
 40
0.0
  9
$TDUPDATE
 40
2458466.338770116
  9
$TDUUPDATE
 40
2458466.297103449
  9
$TDINDWG
 40
0.0002155093
  9
$TDUSRTIMER
 40
0.0002155093
  9
$USRTIMER
 70
     1
  9
$ANGBASE
 50
0.0
  9
$ANGDIR
 70
     0
  9
$PDMODE
 70
     3
  9
$PDSIZE
 40
0.3125
  9
$PLINEWID
 40
0.0
  9
$SPLFRAME
 70
     0
  9
$SPLINETYPE
 70
     6
  9
$SPLINESEGS
 70
     8
  9
$HANDSEED
  5
538
  9
$SURFTAB1
 70
     6
  9
$SURFTAB2
 70
     6
  9
$SURFTYPE
 70
     6
  9
$SURFU
 70
     6
  9
$SURFV
 70
     6
  9
$UCSBASE
  2

  9
$UCSNAME
  2

  9
$UCSORG
 10
0.0
 20
0.0
 30
0.0
  9
$UCSXDIR
 10
1.0
 20
0.0
 30
0.0
  9
$UCSYDIR
 10
0.0
 20
1.0
 30
0.0
  9
$UCSORTHOREF
  2

  9
$UCSORTHOVIEW
 70
     0
  9
$UCSORGTOP
 10
0.0
 20
0.0
 30
0.0
  9
$UCSORGBOTTOM
 10
0.0
 20
0.0
 30
0.0
  9
$UCSORGLEFT
 10
0.0
 20
0.0
 30
0.0
  9
$UCSORGRIGHT
 10
0.0
 20
0.0
 30
0.0
  9
$UCSORGFRONT
 10
0.0
 20
0.0
 30
0.0
  9
$UCSORGBACK
 10
0.0
 20
0.0
 30
0.0
  9
$PUCSBASE
  2

  9
$PUCSNAME
  2

  9
$PUCSORG
 10
0.0
 20
0.0
 30
0.0
  9
$PUCSXDIR
 10
1.0
 20
0.0
 30
0.0
  9
$PUCSYDIR
 10
0.0
 20
1.0
 30
0.0
  9
$PUCSORTHOREF
  2

  9
$PUCSORTHOVIEW
 70
     0
  9
$PUCSORGTOP
 10
0.0
 20
0.0
 30
0.0
  9
$PUCSORGBOTTOM
 10
0.0
 20
0.0
 30
0.0
  9
$PUCSORGLEFT
 10
0.0
 20
0.0
 30
0.0
  9
$PUCSORGRIGHT
 10
0.0
 20
0.0
 30
0.0
  9
$PUCSORGFRONT
 10
0.0
 20
0.0
 30
0.0
  9
$PUCSORGBACK
 10
0.0
 20
0.0
 30
0.0
  9
$USERI1
 70
     0
  9
$USERI2
 70
     0
  9
$USERI3
 70
     0
  9
$USERI4
 70
     0
  9
$USERI5
 70
     0
  9
$USERR1
 40
0.0
  9
$USERR2
 40
0.0
  9
$USERR3
 40
0.0
  9
$USERR4
 40
0.0
  9
$USERR5
 40
0.0
  9
$WORLDVIEW
 70
     1
  9
$SHADEDGE
 70
     3
  9
$SHADEDIF
 70
    70
  9
$TILEMODE
 70
     0
  9
$MAXACTVP
 70
    64
  9
$PINSBASE
 10
0.0
 20
0.0
 30
0.0
  9
$PLIMCHECK
 70
     0
  9
$PEXTMIN
 10
0.0
 20
0.0
 30
0.0
  9
$PEXTMAX
 10
3205.5261373792
 20
2500.0
 30
0.0
  9
$PLIMMIN
 10
-72.95719844357977
 20
-194.5525291828794
  9
$PLIMMAX
 10
4012.645914396887
 20
2694.552529182879
  9
$UNITMODE
 70
     0
  9
$VISRETAIN
 70
     1
  9
$PLINEGEN
 70
     0
  9
$PSLTSCALE
 70
     1
  9
$TREEDEPTH
 70
  3020
  9
$CMLSTYLE
  2
STANDARD
  9
$CMLJUST
 70
     0
  9
$CMLSCALE
 40
1.0
  9
$PROXYGRAPHICS
 70
     1
  9
$MEASUREMENT
 70
     1
  9
$CELWEIGHT
370
    -1
  9
$ENDCAPS
280
     0
  9
$JOINSTYLE
280
     0
  9
$LWDISPLAY
290
     0
  9
$INSUNITS
 70
     0
  9
$HYPERLINKBASE
  1

  9
$STYLESHEET
  1

  9
$XEDIT
290
     1
  9
$CEPSNTYPE
380
     0
  9
$PSTYLEMODE
290
     1
  9
$FINGERPRINTGUID
  2
{939408DB-8BF2-4628-BE79-0403C5F99CC2}
  9
$VERSIONGUID
  2
{FAEB1C32-E019-11D5-929B-00C0DF256EC4}
  9
$EXTNAMES
290
     1
  9
$PSVPSCALE
 40
0.0
  9
$OLESTARTUP
290
     0
  9
$SORTENTS
280
   127
  9
$INDEXCTL
280
     0
  9
$HIDETEXT
280
     1
  9
$XCLIPFRAME
280
     2
  9
$HALOGAP
280
     0
  9
$OBSCOLOR
 70
   257
  9
$OBSLTYPE
280
     0
  9
$INTERSECTIONDISPLAY
280
     0
  9
$INTERSECTIONCOLOR
 70
   257
  9
$DIMASSOC
280
     2
  9
$PROJECTNAME
  1

  9
$CAMERADISPLAY
290
     0
  9
$LENSLENGTH
 40
50.0
  9
$CAMERAHEIGHT
 40
0.0
  9
$STEPSPERSEC
 40
2.0
  9
$STEPSIZE
 40
6.0
  9
$3DDWFPREC
 40
2.0
  9
$PSOLWIDTH
 40
0.25
  9
$PSOLHEIGHT
 40
4.0
  9
$LOFTANG1
 40
1.570796326794897
  9
$LOFTANG2
 40
1.570796326794897
  9
$LOFTMAG1
 40
0.0
  9
$LOFTMAG2
 40
0.0
  9
$LOFTPARAM
 70
     7
  9
$LOFTNORMALS
280
     1
  9
$LATITUDE
 40
37.795
  9
$LONGITUDE
 40
-122.394
  9
$NORTHDIRECTION
 40
0.0
  9
$TIMEZONE
 70
 -8000
  9
$LIGHTGLYPHDISPLAY
280
     1
  9
$TILEMODELIGHTSYNCH
280
     1
  9
$SOLIDHIST
280
     0
  9
$SHOWHIST
280
     1
  9
$DWFFRAME
280
     2
  9
$DGNFRAME
280
     2
  9
$REALWORLDSCALE
290
     1
  9
$INTERFERECOLOR
 62
   256
  9
$CSHADOW
280
     0
  9
$SHADOWPLANELOCATION
 40
0.0
  0
ENDSEC
  0
SECTION
  2
CLASSES
  0
CLASS
  1
ACDBDICTIONARYWDFLT
  2
AcDbDictionaryWithDefault
  3
ObjectDBX Classes
 90
        0
 91
        4
280
     0
281
     0
  0
CLASS
  1
SCALE
  2
AcDbScale
  3
ObjectDBX Classes
 90
     1153
 91
        4
280
     0
281
     0
  0
CLASS
  1
VISUALSTYLE
  2
AcDbVisualStyle
  3
ObjectDBX Classes
 90
     4095
 91
        4
280
     0
281
     0
  0
CLASS
  1
MATERIAL
  2
AcDbMaterial
  3
ObjectDBX Classes
 90
     1153
 91
        4
280
     0
281
     0
  0
CLASS
  1
TABLESTYLE
  2
AcDbTableStyle
  3
ObjectDBX Classes
 90
     4095
 91
        4
280
     0
281
     0
  0
CLASS
  1
MLEADERSTYLE
  2
AcDbMLeaderStyle
  3
ACDB_MLEADERSTYLE_CLASS
 90
     4095
 91
        4
280
     0
281
     0
  0
CLASS
  1
DICTIONARYVAR
  2
AcDbDictionaryVar
  3
ObjectDBX Classes
 90
        0
 91
        4
280
     0
281
     0
  0
CLASS
  1
CELLSTYLEMAP
  2
AcDbCellStyleMap
  3
ObjectDBX Classes
 90
     1152
 91
        4
280
     0
281
     0
  0
ENDSEC
  0
SECTION
  2
TABLES
  0
TABLE
  2
VPORT
  5
8
330
0
100
AcDbSymbolTable
 70
     1
  0
VPORT
  5
1F4
330
8
100
AcDbSymbolTableRecord
100
AcDbViewportTableRecord
  2
*ACTIVE
 70
     0
 10
0.0
 20
0.0
 11
1.0
 21
1.0
 12
1600.0
 22
1250.0
 13
0.0
 23
0.0
 14
1.0
 24
1.0
 15
0.0
 25
0.0
 16
0.0
 26
0.0
 36
1.0
 17
0.0
 27
0.0
 37
0.0
 40
2500.0
 41
1.28
 42
50.0
 43
0.0
 44
0.0
 50
0.0
 51
0.0
 71
     0
 72
   100
 73
     1
 74
     1
 75
     0
 76
     0
 77
     0
 78
     0
281
     0
 65
     1
110
0.0
120
0.0
130
0.0
111
1.0
121
0.0
131
0.0
112
0.0
122
1.0
132
0.0
 79
     0
146
0.0
348
511
 60
     3
 61
     5
292
     1
282
     1
141
0.0
142
0.0
 63
   256
  0
ENDTAB
  0
TABLE
  2
LTYPE
  5
5
330
0
100
AcDbSymbolTable
 70
     6
  0
LTYPE
  5
14
330
5
100
AcDbSymbolTableRecord
100
AcDbLinetypeTableRecord
  2
BYBLOCK
 70
     0
  3

 72
    65
 73
     0
 40
0.0
  0
LTYPE
  5
15
330
5
100
AcDbSymbolTableRecord
100
AcDbLinetypeTableRecord
  2
BYLAYER
 70
     0
  3

 72
    65
 73
     0
 40
0.0
  0
LTYPE
  5
16
330
5
100
AcDbSymbolTableRecord
100
AcDbLinetypeTableRecord
  2
CONTINUOUS
 70
     0
  3
Solid line
 72
    65
 73
     0
 40
0.0
  0
LTYPE
  5
1F5
330
5
100
AcDbSymbolTableRecord
100
AcDbLinetypeTableRecord
  2
CENTER
 70
     0
  3
____ _ ____ _ ____ _ ____ _ ____ _ ____ _ ____
 72
    65
 73
     4
 40
0.6
 49
0.375
 74
     0
 49
-0.075
 74
     0
 49
0.075
 74
     0
 49
-0.075
 74
     0
  0
LTYPE
  5
1F6
330
5
100
AcDbSymbolTableRecord
100
AcDbLinetypeTableRecord
  2
HIDDEN
 70
     0
  3
- - - - - - - - - - - - - - - - - - - -
 72
    65
 73
     2
 40
0.2
 49
0.1
 74
     0
 49
-0.1
 74
     0
  0
LTYPE
  5
1F7
330
5
100
AcDbSymbolTableRecord
100
AcDbLinetypeTableRecord
  2
PHANTOM
 70
     0
  3
_____ _ _ _____ _ _ _____ _ _ _____
 72
    65
 73
     6
 40
0.8
 49
0.45
 74
     0
 49
-0.05
 74
     0
 49
0.1
 74
     0
 49
-0.05
 74
     0
 49
0.1
 74
     0
 49
-0.05
 74
     0
  0
LTYPE
  5
1F8
330
5
100
AcDbSymbolTableRecord
100
AcDbLinetypeTableRecord
  2
DOT
 70
     0
  3
. . . . . . . . . . . . . . . . . . . .
 72
    65
 73
     2
 40
0.2
 49
0.1
 74
     0
 49
-0.1
 74
     0
  0
LTYPE
  5
1F9
330
5
100
AcDbSymbolTableRecord
100
AcDbLinetypeTableRecord
  2
DASHED
 70
     0
  3
- - - - - - - - - - - - - - - - - - - -
 72
    65
 73
     2
 40
0.2
 49
0.1
 74
     0
 49
-0.1
 74
     0
  0
ENDTAB
  0
TABLE
  2
LAYER
  5
2
330
0
100
AcDbSymbolTable
 70
    19
  0
LAYER
  5
10
330
2
100
AcDbSymbolTableRecord
100
AcDbLayerTableRecord
  2
0
 70
     0
 62
     7
  6
CONTINUOUS
370
    -3
390
4E6
347
528
348
0
  0
LAYER
  5
1FA
330
2
100
AcDbSymbolTableRecord
100
AcDbLayerTableRecord
  2
DEFAULT_1
 70
     0
 62
     7
  6
CENTER
370
    -3
390
4E6
347
528
348
0
  0
LAYER
  5
1FB
330
2
100
AcDbSymbolTableRecord
100
AcDbLayerTableRecord
  2
DEFAULT_2
 70
     0
 62
     8
  6
HIDDEN
370
    -3
390
4E6
347
528
348
0
  0
LAYER
  5
1FC
330
2
100
AcDbSymbolTableRecord
100
AcDbLayerTableRecord
  2
DEFAULT_3
 70
     0
 62
     7
  6
PHANTOM
370
    -3
390
4E6
347
528
348
0
  0
LAYER
  5
1FD
330
2
100
AcDbSymbolTableRecord
100
AcDbLayerTableRecord
  2
01___PRT_ALL_DTM_PLN
 70
     0
 62
     7
  6
CONTINUOUS
370
    -3
390
4E6
347
528
348
0
  0
LAYER
  5
1FE
330
2
100
AcDbSymbolTableRecord
100
AcDbLayerTableRecord
  2
01___PRT_DEF_DTM_PLN
 70
     0
 62
     7
  6
CONTINUOUS
370
    -3
390
4E6
347
528
348
0
  0
LAYER
  5
1FF
330
2
100
AcDbSymbolTableRecord
100
AcDbLayerTableRecord
  2
02___PRT_ALL_AXES
 70
     0
 62
     7
  6
CONTINUOUS
370
    -3
390
4E6
347
528
348
0
  0
LAYER
  5
200
330
2
100
AcDbSymbolTableRecord
100
AcDbLayerTableRecord
  2
03___PRT_ALL_CURVES
 70
     0
 62
     7
  6
CONTINUOUS
370
    -3
390
4E6
347
528
348
0
  0
LAYER
  5
201
330
2
100
AcDbSymbolTableRecord
100
AcDbLayerTableRecord
  2
04___PRT_ALL_DTM_PNT
 70
     0
 62
     7
  6
CONTINUOUS
370
    -3
390
4E6
347
528
348
0
  0
LAYER
  5
202
330
2
100
AcDbSymbolTableRecord
100
AcDbLayerTableRecord
  2
05___PRT_ALL_DTM_CSYS
 70
     0
 62
     7
  6
CONTINUOUS
370
    -3
390
4E6
347
528
348
0
  0
LAYER
  5
203
330
2
100
AcDbSymbolTableRecord
100
AcDbLayerTableRecord
  2
05___PRT_DEF_DTM_CSYS
 70
     0
 62
     7
  6
CONTINUOUS
370
    -3
390
4E6
347
528
348
0
  0
LAYER
  5
204
330
2
100
AcDbSymbolTableRecord
100
AcDbLayerTableRecord
  2
06___PRT_ALL_SURFS
 70
     0
 62
     7
  6
CONTINUOUS
370
    -3
390
4E6
347
528
348
0
  0
LAYER
  5
205
330
2
100
AcDbSymbolTableRecord
100
AcDbLayerTableRecord
  2
1_ALL_PLANES
 70
     0
 62
     7
  6
CONTINUOUS
370
    -3
390
4E6
347
528
348
0
  0
LAYER
  5
206
330
2
100
AcDbSymbolTableRecord
100
AcDbLayerTableRecord
  2
2_ALL_CSYS
 70
     0
 62
     7
  6
CONTINUOUS
370
    -3
390
4E6
347
528
348
0
  0
LAYER
  5
207
330
2
100
AcDbSymbolTableRecord
100
AcDbLayerTableRecord
  2
3_ALL_AXES
 70
     0
 62
     7
  6
CONTINUOUS
370
    -3
390
4E6
347
528
348
0
  0
LAYER
  5
208
330
2
100
AcDbSymbolTableRecord
100
AcDbLayerTableRecord
  2
5_ALL_CURVES
 70
     0
 62
     7
  6
CONTINUOUS
370
    -3
390
4E6
347
528
348
0
  0
LAYER
  5
209
330
2
100
AcDbSymbolTableRecord
100
AcDbLayerTableRecord
  2
7_ALL_FEATURES
 70
     0
 62
     7
  6
CONTINUOUS
370
    -3
390
4E6
347
528
348
0
  0
LAYER
  5
20A
330
2
100
AcDbSymbolTableRecord
100
AcDbLayerTableRecord
  2
8_ALL_NOTES_BALLOONS_SYMBOLS_GT
 70
     0
 62
     7
  6
CONTINUOUS
370
    -3
390
4E6
347
528
348
0
  0
LAYER
  5
20B
330
2
100
AcDbSymbolTableRecord
100
AcDbLayerTableRecord
  2
9_SOLID
 70
     0
 62
     7
  6
CONTINUOUS
370
    -3
390
4E6
347
528
348
0
  0
ENDTAB
  0
TABLE
  2
STYLE
  5
3
330
0
100
AcDbSymbolTable
 70
     3
  0
STYLE
  5
11
330
3
100
AcDbSymbolTableRecord
100
AcDbTextStyleTableRecord
  2
STANDARD
 70
     0
 40
0.0
 41
0.85
 50
0.0
 71
     0
 42
0.2
  3
txt
  4

  0
STYLE
  5
20C
330
3
100
AcDbSymbolTableRecord
100
AcDbTextStyleTableRecord
  2
TEXTSTYLE_1
 70
     0
 40
0.0
 41
0.8
 50
0.0
 71
     0
 42
0.2
  3
gdt
  4

  0
STYLE
  5
20D
330
3
100
AcDbSymbolTableRecord
100
AcDbTextStyleTableRecord
  2
TEXTSTYLE_2
 70
     0
 40
0.0
 41
2.0
 50
0.0
 71
     0
 42
0.2
  3
txt
  4

  0
ENDTAB
  0
TABLE
  2
VIEW
  5
6
330
0
100
AcDbSymbolTable
 70
     0
  0
ENDTAB
  0
TABLE
  2
UCS
  5
7
330
0
100
AcDbSymbolTable
 70
     0
  0
ENDTAB
  0
TABLE
  2
APPID
  5
9
330
0
100
AcDbSymbolTable
 70
     1
  0
APPID
  5
20E
330
9
100
AcDbSymbolTableRecord
100
AcDbRegAppTableRecord
  2
ACAD
 70
     0
  0
ENDTAB
  0
TABLE
  2
DIMSTYLE
  5
A
330
0
100
AcDbSymbolTable
 70
     4
100
AcDbDimStyleTable
  0
DIMSTYLE
105
215
330
A
100
AcDbSymbolTableRecord
100
AcDbDimStyleTableRecord
  2
STANDARD
 70
     0
 41
2.5
 42
0.75
 44
0.75
 47
0.01
 48
0.01
 71
     1
 73
     0
 74
     0
 77
     1
 78
     8
 79
     2
140
3.0
147
0.625
171
     1
178
     0
179
     2
271
     2
272
     2
284
     8
340
11
341
20F
342
20F
343
20F
344
20F
  0
DIMSTYLE
105
216
330
A
100
AcDbSymbolTableRecord
100
AcDbDimStyleTableRecord
  2
DIMSTYLE_1
 70
     0
 41
2.5
 42
0.75
 44
0.75
 47
1.2
 48
1.2
 73
     0
 74
     0
 77
     1
 78
     8
 79
     2
140
3.0
147
0.75
171
     1
178
     0
179
     2
271
     2
272
    -1
284
     8
340
11
341
20F
342
20F
343
20F
344
20F
  0
DIMSTYLE
105
217
330
A
100
AcDbSymbolTableRecord
100
AcDbDimStyleTableRecord
  2
DIMSTYLE_2
 70
     0
 41
2.5
 42
0.75
 44
0.75
 47
0.3
 48
0.3
 73
     0
 74
     0
 77
     1
 78
     8
 79
     2
140
3.0
147
0.75
171
     1
178
     0
271
     0
272
     0
284
     8
340
11
341
20F
342
20F
343
20F
344
20F
  0
DIMSTYLE
105
218
330
A
100
AcDbSymbolTableRecord
100
AcDbDimStyleTableRecord
  2
DIMSTYLE_3
 70
     0
 41
2.5
 42
0.75
 44
0.75
 47
0.2
 48
0.2
 73
     0
 74
     0
 77
     1
 78
     8
 79
     2
140
3.0
147
0.75
171
     1
178
     0
271
     0
272
     0
284
     8
340
11
341
20F
342
20F
343
20F
344
20F
  0
ENDTAB
  0
TABLE
  2
BLOCK_RECORD
  5
1
330
0
100
AcDbSymbolTable
 70
     6
  0
BLOCK_RECORD
  5
1F
330
1
100
AcDbSymbolTableRecord
100
AcDbBlockTableRecord
  2
*MODEL_SPACE
340
50A
 70
     0
280
     1
281
     0
  0
BLOCK_RECORD
  5
1B
330
1
100
AcDbSymbolTableRecord
100
AcDbBlockTableRecord
  2
*PAPER_SPACE
340
50B
 70
     0
280
     1
281
     0
  0
BLOCK_RECORD
  5
20F
330
1
100
AcDbSymbolTableRecord
100
AcDbBlockTableRecord
  2
_CLOSED
340
0
102
{BLKREFS
331
26B
331
26C
331
274
331
275
331
27D
331
27E
102
}
 70
     0
280
     1
281
     0
  0
BLOCK_RECORD
  5
210
330
1
100
AcDbSymbolTableRecord
100
AcDbBlockTableRecord
  2
*D1
340
0
 70
     0
280
     1
281
     0
  0
BLOCK_RECORD
  5
211
330
1
100
AcDbSymbolTableRecord
100
AcDbBlockTableRecord
  2
*D2
340
0
 70
     0
280
     1
281
     0
  0
BLOCK_RECORD
  5
212
330
1
100
AcDbSymbolTableRecord
100
AcDbBlockTableRecord
  2
*D3
340
0
 70
     0
280
     1
281
     0
  0
BLOCK_RECORD
  5
213
330
1
100
AcDbSymbolTableRecord
100
AcDbBlockTableRecord
  2
LOGO2_BL1
340
0
102
{BLKREFS
331
4CE
102
}
 70
     0
280
     1
281
     0
  0
BLOCK_RECORD
  5
214
330
1
100
AcDbSymbolTableRecord
100
AcDbBlockTableRecord
  2
PROIEZIONE_EU_BL0
340
0
102
{BLKREFS
331
4CB
102
}
 70
     0
280
     1
281
     0
  0
ENDTAB
  0
ENDSEC
  0
SECTION
  2
BLOCKS
  0
BLOCK
  5
20
330
1F
100
AcDbEntity
  8
0
100
AcDbBlockBegin
  2
*MODEL_SPACE
 70
     0
 10
0.0
 20
0.0
 30
0.0
  3
*MODEL_SPACE
  1

  0
ENDBLK
  5
21
330
1F
100
AcDbEntity
  8
0
100
AcDbBlockEnd
  0
BLOCK
  5
1C
330
1B
100
AcDbEntity
 67
     1
  8
0
100
AcDbBlockBegin
  2
*PAPER_SPACE
 70
     0
 10
0.0
 20
0.0
 30
0.0
  3
*PAPER_SPACE
  1

  0
ENDBLK
  5
1D
330
1B
100
AcDbEntity
 67
     1
  8
0
100
AcDbBlockEnd
  0
BLOCK
  5
25F
330
20F
100
AcDbEntity
  8
0
100
AcDbBlockBegin
  2
_CLOSED
 70
     0
 10
0.0
 20
0.0
 30
0.0
  3
_CLOSED
  1

  0
LINE
  5
260
330
20F
100
AcDbEntity
  8
0
  6
ByBlock
 62
     0
100
AcDbLine
 10
0.0
 20
0.0
 30
0.0
 11
-1.0
 21
0.2
 31
0.0
  0
LINE
  5
261
330
20F
100
AcDbEntity
  8
0
  6
ByBlock
 62
     0
100
AcDbLine
 10
-1.0
 20
0.2
 30
0.0
 11
-1.0
 21
-0.2
 31
0.0
  0
LINE
  5
262
330
20F
100
AcDbEntity
  8
0
  6
ByBlock
 62
     0
100
AcDbLine
 10
-1.0
 20
-0.2
 30
0.0
 11
0.0
 21
0.0
 31
0.0
  0
LINE
  5
263
330
20F
100
AcDbEntity
  8
0
  6
ByBlock
 62
     0
100
AcDbLine
 10
-1.0
 20
0.0
 30
0.0
 11
0.0
 21
0.0
 31
0.0
  0
ENDBLK
  5
264
330
20F
100
AcDbEntity
  8
0
  6
ByBlock
 62
     0
100
AcDbBlockEnd
  0
BLOCK
  5
265
330
210
100
AcDbEntity
  8
0
100
AcDbBlockBegin
  2
*D1
 70
     1
 10
0.0
 20
0.0
 30
0.0
  3
*D1
  1

  0
MTEXT
  5
266
330
210
100
AcDbEntity
  8
0
  6
Continuous
 62
     2
100
AcDbMText
 10
1960.689912229
 20
351.4881195489
 30
0.0
 40
3.0
 41
12.8571428571
 46
0.0
 71
     2
 72
     1
  1
1754
 73
     1
 44
1.0
  0
LINE
  5
267
330
210
100
AcDbEntity
  8
0
  6
Continuous
 62
     2
100
AcDbLine
 10
2837.689912229
 20
335.1301372432
 30
0.0
 11
2837.689912229
 21
348.4881195489
 31
0.0
  0
LINE
  5
268
330
210
100
AcDbEntity
  8
0
  6
Continuous
 62
     2
100
AcDbLine
 10
1083.689912229
 20
336.0726826978
 30
0.0
 11
1083.689912229
 21
348.4881195489
 31
0.0
  0
LINE
  5
269
330
210
100
AcDbEntity
  8
0
  6
Continuous
 62
     2
100
AcDbLine
 10
2837.689912229
 20
347.7381195489
 30
0.0
 11
1960.689912229
 21
347.7381195489
 31
0.0
  0
LINE
  5
26A
330
210
100
AcDbEntity
  8
0
  6
Continuous
 62
     2
100
AcDbLine
 10
1083.689912229
 20
347.7381195489
 30
0.0
 11
1960.689912229
 21
347.7381195489
 31
0.0
  0
INSERT
  5
26B
330
210
100
AcDbEntity
  8
0
  6
Continuous
 62
     2
100
AcDbBlockReference
  2
_CLOSED
 10
2837.689912229
 20
347.7381195489
 30
0.0
 41
2.5
 42
2.5
 43
2.5
  0
INSERT
  5
26C
330
210
100
AcDbEntity
  8
0
  6
Continuous
 62
     2
100
AcDbBlockReference
  2
_CLOSED
 10
1083.689912229
 20
347.7381195489
 30
0.0
 41
2.5
 42
2.5
 43
2.5
 50
180.0
  0
ENDBLK
  5
26D
330
210
100
AcDbEntity
  8
0
  6
ByBlock
 62
     0
100
AcDbBlockEnd
  0
BLOCK
  5
26E
330
211
100
AcDbEntity
  8
0
100
AcDbBlockBegin
  2
*D2
 70
     1
 10
0.0
 20
0.0
 30
0.0
  3
*D2
  1

  0
MTEXT
  5
26F
330
211
100
AcDbEntity
  8
0
  6
Continuous
 62
     2
100
AcDbMText
 10
2848.939912229
 20
296.2421270834
 30
0.0
 40
3.0
 41
6.75
 46
0.0
 71
     2
 72
     1
  1
73
 11
0.0
 21
1.0
 31
0.0
 73
     1
 44
1.0
  0
LINE
  5
270
330
211
100
AcDbEntity
  8
0
  6
Continuous
 62
     2
100
AcDbLine
 10
2833.439912229
 20
332.7381195489
 30
0.0
 11
2853.439912229
 21
332.7381195489
 31
0.0
  0
LINE
  5
271
330
211
100
AcDbEntity
  8
0
  6
Continuous
 62
     2
100
AcDbLine
 10
2807.939912229
 20
259.746134618
 30
0.0
 11
2853.439912229
 21
259.746134618
 31
0.0
  0
LINE
  5
272
330
211
100
AcDbEntity
  8
0
  6
Continuous
 62
     2
100
AcDbLine
 10
2852.689912229
 20
332.7381195489
 30
0.0
 11
2852.689912229
 21
296.2421270834
 31
0.0
  0
LINE
  5
273
330
211
100
AcDbEntity
  8
0
  6
Continuous
 62
     2
100
AcDbLine
 10
2852.689912229
 20
259.746134618
 30
0.0
 11
2852.689912229
 21
296.2421270834
 31
0.0
  0
INSERT
  5
274
330
211
100
AcDbEntity
  8
0
  6
Continuous
 62
     2
100
AcDbBlockReference
  2
_CLOSED
 10
2852.689912229
 20
332.7381195489
 30
0.0
 41
2.5
 42
2.5
 43
2.5
 50
90.0
  0
INSERT
  5
275
330
211
100
AcDbEntity
  8
0
  6
Continuous
 62
     2
100
AcDbBlockReference
  2
_CLOSED
 10
2852.689912229
 20
259.746134618
 30
0.0
 41
2.5
 42
2.5
 43
2.5
 50
270.0
  0
ENDBLK
  5
276
330
211
100
AcDbEntity
  8
0
  6
ByBlock
 62
     0
100
AcDbBlockEnd
  0
BLOCK
  5
277
330
212
100
AcDbEntity
  8
0
100
AcDbBlockBegin
  2
*D3
 70
     1
 10
0.0
 20
0.0
 30
0.0
  3
*D3
  1

  0
MTEXT
  5
278
330
212
100
AcDbEntity
  8
0
  6
Continuous
 62
     2
100
AcDbMText
 10
2848.939912229
 20
149.7403414988
 30
0.0
 40
3.0
 41
6.1071428571
 46
0.0
 71
     2
 72
     1
  1
17
 11
0.0
 21
1.0
 31
0.0
 73
     1
 44
1.0
  0
LINE
  5
279
330
212
100
AcDbEntity
  8
0
  6
Continuous
 62
     2
100
AcDbLine
 10
2838.439912229
 20
158.2026869762
 30
0.0
 11
2853.439912229
 21
158.2026869762
 31
0.0
  0
LINE
  5
27A
330
212
100
AcDbEntity
  8
0
  6
Continuous
 62
     2
100
AcDbLine
 10
2804.939912229
 20
141.2779960215
 30
0.0
 11
2853.439912229
 21
141.2779960215
 31
0.0
  0
LINE
  5
27B
330
212
100
AcDbEntity
  8
0
  6
Continuous
 62
     2
100
AcDbLine
 10
2852.689912229
 20
158.2026869762
 30
0.0
 11
2852.689912229
 21
149.7403414988
 31
0.0
  0
LINE
  5
27C
330
212
100
AcDbEntity
  8
0
  6
Continuous
 62
     2
100
AcDbLine
 10
2852.689912229
 20
141.2779960215
 30
0.0
 11
2852.689912229
 21
149.7403414988
 31
0.0
  0
INSERT
  5
27D
330
212
100
AcDbEntity
  8
0
  6
Continuous
 62
     2
100
AcDbBlockReference
  2
_CLOSED
 10
2852.689912229
 20
158.2026869762
 30
0.0
 41
2.5
 42
2.5
 43
2.5
 50
90.0
  0
INSERT
  5
27E
330
212
100
AcDbEntity
  8
0
  6
Continuous
 62
     2
100
AcDbBlockReference
  2
_CLOSED
 10
2852.689912229
 20
141.2779960215
 30
0.0
 41
2.5
 42
2.5
 43
2.5
 50
270.0
  0
ENDBLK
  5
27F
330
212
100
AcDbEntity
  8
0
  6
ByBlock
 62
     0
100
AcDbBlockEnd
  0
BLOCK
  5
219
330
213
100
AcDbEntity
  8
0
100
AcDbBlockBegin
  2
LOGO2_BL1
 70
     0
 10
3080.327184424
 20
36.3794630609
 30
0.0
  3
LOGO2_BL1
  1

  0
LINE
  5
21A
330
213
100
AcDbEntity
  8
0
  6
Continuous
 62
     7
100
AcDbLine
 10
3072.0701096522
 20
39.5749543998
 30
0.0
 11
3070.7657687228
 21
39.5749543998
 31
0.0
  0
LINE
  5
21B
330
213
100
AcDbEntity
  8
0
  6
Continuous
 62
     7
100
AcDbLine
 10
3070.7657687228
 20
39.5749543998
 30
0.0
 11
3070.7657687228
 21
29.1158883399
 31
0.0
  0
LINE
  5
21C
330
213
100
AcDbEntity
  8
0
  6
Continuous
 62
     7
100
AcDbLine
 10
3070.7657687228
 20
29.1158883399
 30
0.0
 11
3075.2468236111
 21
29.1158883399
 31
0.0
  0
LINE
  5
21D
330
213
100
AcDbEntity
  8
0
  6
Continuous
 62
     7
100
AcDbLine
 10
3075.2468236111
 20
29.1158883399
 30
0.0
 11
3075.2468236111
 21
30.308742665
 31
0.0
  0
LINE
  5
21E
330
213
100
AcDbEntity
  8
0
  6
Continuous
 62
     7
100
AcDbLine
 10
3075.2468236111
 20
30.308742665
 30
0.0
 11
3072.0701096522
 21
30.308742665
 31
0.0
  0
LINE
  5
21F
330
213
100
AcDbEntity
  8
0
  6
Continuous
 62
     7
100
AcDbLine
 10
3072.0701096522
 20
30.308742665
 30
0.0
 11
3072.0701096522
 21
39.5749543998
 31
0.0
  0
LINE
  5
220
330
213
100
AcDbEntity
  8
0
  6
Continuous
 62
     7
100
AcDbLine
 10
3087.0064358685
 20
39.5749543998
 30
0.0
 11
3085.7026183504
 21
39.5749543998
 31
0.0
  0
LINE
  5
221
330
213
100
AcDbEntity
  8
0
  6
Continuous
 62
     7
100
AcDbLine
 10
3085.7026183504
 20
39.5749543998
 30
0.0
 11
3085.7026183504
 21
29.1158883399
 31
0.0
  0
LINE
  5
222
330
213
100
AcDbEntity
  8
0
  6
Continuous
 62
     7
100
AcDbLine
 10
3085.7026183504
 20
29.1158883399
 30
0.0
 11
3090.1838040915
 21
29.1158883399
 31
0.0
  0
LINE
  5
223
330
213
100
AcDbEntity
  8
0
  6
Continuous
 62
     7
100
AcDbLine
 10
3090.1838040915
 20
29.1158883399
 30
0.0
 11
3090.1838040915
 21
30.308742665
 31
0.0
  0
LINE
  5
224
330
213
100
AcDbEntity
  8
0
  6
Continuous
 62
     7
100
AcDbLine
 10
3090.1838040915
 20
30.308742665
 30
0.0
 11
3087.0064358685
 21
30.308742665
 31
0.0
  0
LINE
  5
225
330
213
100
AcDbEntity
  8
0
  6
Continuous
 62
     7
100
AcDbLine
 10
3087.0064358685
 20
30.308742665
 30
0.0
 11
3087.0064358685
 21
39.5749543998
 31
0.0
  0
LWPOLYLINE
  5
226
330
213
100
AcDbEntity
  8
0
  6
Continuous
 62
     7
100
AcDbPolyline
 90
        2
 70
     0
 43
0.2
 10
3069.1201636337
 20
25.772337033
 10
3069.1201636337
 20
23.9152737837
  0
LWPOLYLINE
  5
227
330
213
100
AcDbEntity
  8
0
  6
Continuous
 62
     7
100
AcDbPolyline
 90
        2
 70
     0
 43
0.2
 10
3069.1201636337
 20
23.9152737837
 10
3069.9158796441
 20
23.9152737837
  0
LWPOLYLINE
  5
228
330
213
100
AcDbEntity
  8
0
  6
Continuous
 62
     7
100
AcDbPolyline
 90
        2
 70
     0
 43
0.2
 10
3069.9158796441
 20
23.9152737837
 10
3069.9158796441
 20
24.1272553552
  0
LWPOLYLINE
  5
229
330
213
100
AcDbEntity
  8
0
  6
Continuous
 62
     7
100
AcDbPolyline
 90
        2
 70
     0
 43
0.2
 10
3069.9158796441
 20
24.1272553552
 10
3069.3517731286
 20
24.1272553552
  0
LWPOLYLINE
  5
22A
330
213
100
AcDbEntity
  8
0
  6
Continuous
 62
     7
100
AcDbPolyline
 90
        2
 70
     0
 43
0.2
 10
3069.3517731286
 20
24.1272553552
 10
3069.3517731286
 20
25.772337033
  0
LWPOLYLINE
  5
22B
330
213
100
AcDbEntity
  8
0
  6
Continuous
 62
     7
100
AcDbPolyline
 90
        2
 70
     0
 43
0.2
 10
3069.3517731286
 20
25.772337033
 10
3069.1201636337
 20
25.772337033
  0
SPLINE
  5
22C
330
213
100
AcDbEntity
  8
0
  6
Continuous
 62
     7
100
AcDbSpline
 70
     3
 71
     3
 72
    35
 73
    31
 74
     0
 42
0.000000001
 43
0.0000001
 40
0.0
 40
0.0
 40
0.0
 40
0.0
 40
1.0
 40
1.0
 40
1.0
 40
2.0
 40
2.0
 40
2.0
 40
3.0
 40
3.0
 40
3.0
 40
4.0
 40
4.0
 40
4.0
 40
5.0
 40
5.0
 40
5.0
 40
6.0
 40
6.0
 40
6.0
 40
7.0
 40
7.0
 40
7.0
 40
8.0
 40
8.0
 40
8.0
 40
9.0
 40
9.0
 40
9.0
 40
10.0
 40
10.0
 40
10.0
 40
10.0
 10
3071.3141728997
 20
25.0678254396
 30
0.0
 10
3071.3141728997
 20
25.0678254396
 30
0.0
 10
3071.3141728997
 20
24.4057101604
 30
0.0
 10
3071.3141728997
 20
24.4057101604
 30
0.0
 10
3071.3141728997
 20
24.0906165651
 30
0.0
 10
3071.4620365885
 20
23.8760179371
 30
0.0
 10
3071.8021230728
 20
23.8760179371
 30
0.0
 10
3072.1416861458
 20
23.8760179371
 30
0.0
 10
3072.2898115403
 20
24.0906165651
 30
0.0
 10
3072.2898115403
 20
24.4057101604
 30
0.0
 10
3072.2898115403
 20
24.4057101604
 30
0.0
 10
3072.2898115403
 20
25.0678254396
 30
0.0
 10
3072.2898115403
 20
25.0678254396
 30
0.0
 10
3072.2898115403
 20
25.0678254396
 30
0.0
 10
3072.0677543014
 20
25.0678254396
 30
0.0
 10
3072.0677543014
 20
25.0678254396
 30
0.0
 10
3072.0677543014
 20
25.0678254396
 30
0.0
 10
3072.0677543014
 20
24.4308339022
 30
0.0
 10
3072.0677543014
 20
24.4308339022
 30
0.0
 10
3072.0677543014
 20
24.245022895
 30
0.0
 10
3072.0210398439
 20
24.0822419845
 30
0.0
 10
3071.8021230728
 20
24.0822419845
 30
0.0
 10
3071.5826828903
 20
24.0822419845
 30
0.0
 10
3071.5359684329
 20
24.245022895
 30
0.0
 10
3071.5359684329
 20
24.4308339022
 30
0.0
 10
3071.5359684329
 20
24.4308339022
 30
0.0
 10
3071.5359684329
 20
25.0678254396
 30
0.0
 10
3071.5359684329
 20
25.0678254396
 30
0.0
 10
3071.5359684329
 20
25.0678254396
 30
0.0
 10
3071.3141728997
 20
25.0678254396
 30
0.0
 10
3071.3141728997
 20
25.0678254396
 30
0.0
  0
SPLINE
  5
22D
330
213
100
AcDbEntity
  8
0
  6
Continuous
 62
     7
100
AcDbSpline
 70
     3
 71
     3
 72
    35
 73
    31
 74
     0
 42
0.000000001
 43
0.0000001
 40
0.0
 40
0.0
 40
0.0
 40
0.0
 40
1.0
 40
1.0
 40
1.0
 40
2.0
 40
2.0
 40
2.0
 40
3.0
 40
3.0
 40
3.0
 40
4.0
 40
4.0
 40
4.0
 40
5.0
 40
5.0
 40
5.0
 40
6.0
 40
6.0
 40
6.0
 40
7.0
 40
7.0
 40
7.0
 40
8.0
 40
8.0
 40
8.0
 40
9.0
 40
9.0
 40
9.0
 40
10.0
 40
10.0
 40
10.0
 40
10.0
 10
3074.7129440974
 20
25.0264759478
 30
0.0
 10
3074.6244875898
 20
25.077770254
 30
0.0
 10
3074.5110381931
 20
25.1028939958
 30
0.0
 10
3074.4074027582
 20
25.1028939958
 30
0.0
 10
3074.052529905
 20
25.1028939958
 30
0.0
 10
3073.7770847147
 20
24.8390947068
 30
0.0
 10
3073.7770847147
 20
24.4816047971
 30
0.0
 10
3073.7770847147
 20
24.1366767584
 30
0.0
 10
3074.0555395199
 20
23.8765413484
 30
0.0
 10
3074.3951025929
 20
23.8765413484
 30
0.0
 10
3074.5110381931
 20
23.8765413484
 30
0.0
 10
3074.6117948661
 20
23.8985246224
 30
0.0
 10
3074.7129440974
 20
23.9524359851
 30
0.0
 10
3074.7129440974
 20
23.9524359851
 30
0.0
 10
3074.7129440974
 20
24.2350780806
 30
0.0
 10
3074.7129440974
 20
24.2350780806
 30
0.0
 10
3074.6290674386
 20
24.1419108713
 30
0.0
 10
3074.5255628564
 20
24.0827653958
 30
0.0
 10
3074.3974579437
 20
24.0827653958
 30
0.0
 10
3074.1637548036
 20
24.0827653958
 30
0.0
 10
3073.9984876895
 20
24.2549677095
 30
0.0
 10
3073.9984876895
 20
24.4915496116
 30
0.0
 10
3073.9984876895
 20
24.7035311832
 30
0.0
 10
3074.1662410073
 20
24.8956231258
 30
0.0
 10
3074.3830641333
 20
24.8956231258
 30
0.0
 10
3074.5158797476
 20
24.8956231258
 30
0.0
 10
3074.6244875898
 20
24.8417117632
 30
0.0
 10
3074.7129440974
 20
24.7406933846
 30
0.0
 10
3074.7129440974
 20
24.7406933846
 30
0.0
 10
3074.7129440974
 20
25.0264759478
 30
0.0
 10
3074.7129440974
 20
25.0264759478
 30
0.0
  0
SPLINE
  5
22E
330
213
100
AcDbEntity
  8
0
  6
Continuous
 62
     7
100
AcDbSpline
 70
     3
 71
     3
 72
    32
 73
    28
 74
     0
 42
0.000000001
 43
0.0000001
 40
0.0
 40
0.0
 40
0.0
 40
0.0
 40
1.0
 40
1.0
 40
1.0
 40
2.0
 40
2.0
 40
2.0
 40
3.0
 40
3.0
 40
3.0
 40
4.0
 40
4.0
 40
4.0
 40
5.0
 40
5.0
 40
5.0
 40
6.0
 40
6.0
 40
6.0
 40
7.0
 40
7.0
 40
7.0
 40
8.0
 40
8.0
 40
8.0
 40
9.0
 40
9.0
 40
9.0
 40
9.0
 10
3077.2448153497
 20
24.4549108215
 30
0.0
 10
3077.2448153497
 20
24.4549108215
 30
0.0
 10
3077.2448153497
 20
24.4889325552
 30
0.0
 10
3077.2448153497
 20
24.4889325552
 30
0.0
 10
3077.2448153497
 20
24.8312435374
 30
0.0
 10
3077.0719587719
 20
25.1028939958
 30
0.0
 10
3076.7053091647
 20
25.1028939958
 30
0.0
 10
3076.3336871503
 20
25.1028939958
 30
0.0
 10
3076.1439505585
 20
24.8364776503
 30
0.0
 10
3076.1439505585
 20
24.4816047971
 30
0.0
 10
3076.1439505585
 20
24.1419108713
 30
0.0
 10
3076.3580257752
 20
23.8760179371
 30
0.0
 10
3076.7101507191
 20
23.8760179371
 30
0.0
 10
3076.9341707503
 20
23.8760179371
 30
0.0
 10
3077.1363383603
 20
23.9916918317
 30
0.0
 10
3077.2448153497
 20
24.1911115324
 30
0.0
 10
3077.2448153497
 20
24.1911115324
 30
0.0
 10
3077.057172403
 20
24.2978874351
 30
0.0
 10
3077.057172403
 20
24.2978874351
 30
0.0
 10
3076.9736883026
 20
24.1591834438
 30
0.0
 10
3076.8824838857
 20
24.0733439926
 30
0.0
 10
3076.7128986284
 20
24.0733439926
 30
0.0
 10
3076.5009170568
 20
24.0733439926
 30
0.0
 10
3076.3679705897
 20
24.2581081772
 30
0.0
 10
3076.3656152389
 20
24.4549108215
 30
0.0
 10
3076.3656152389
 20
24.4549108215
 30
0.0
 10
3077.2448153497
 20
24.4549108215
 30
0.0
 10
3077.2448153497
 20
24.4549108215
 30
0.0
  0
SPLINE
  5
22F
330
213
100
AcDbEntity
  8
0
  6
Continuous
 62
     7
100
AcDbSpline
 70
     3
 71
     3
 72
    14
 73
    10
 74
     0
 42
0.000000001
 43
0.0000001
 40
0.0
 40
0.0
 40
0.0
 40
0.0
 40
1.0
 40
1.0
 40
1.0
 40
2.0
 40
2.0
 40
2.0
 40
3.0
 40
3.0
 40
3.0
 40
3.0
 10
3076.3776536985
 20
24.6224024336
 30
0.0
 10
3076.405263644
 20
24.7872769893
 30
0.0
 10
3076.533106851
 20
24.9102786419
 30
0.0
 10
3076.7053091647
 20
24.9102786419
 30
0.0
 10
3076.8824838857
 20
24.9102786419
 30
0.0
 10
3076.9959332823
 20
24.7946047473
 30
0.0
 10
3077.0231506693
 20
24.6224024336
 30
0.0
 10
3077.0231506693
 20
24.6224024336
 30
0.0
 10
3076.3776536985
 20
24.6224024336
 30
0.0
 10
3076.3776536985
 20
24.6224024336
 30
0.0
  0
SPLINE
  5
230
330
213
100
AcDbEntity
  8
0
  6
Continuous
 62
     7
100
AcDbSpline
 70
     3
 71
     3
 72
    20
 73
    16
 74
     0
 42
0.000000001
 43
0.0000001
 40
0.0
 40
0.0
 40
0.0
 40
0.0
 40
1.0
 40
1.0
 40
1.0
 40
2.0
 40
2.0
 40
2.0
 40
3.0
 40
3.0
 40
3.0
 40
4.0
 40
4.0
 40
4.0
 40
5.0
 40
5.0
 40
5.0
 40
5.0
 10
3079.2688467999
 20
24.8317669487
 30
0.0
 10
3079.2688467999
 20
24.8317669487
 30
0.0
 10
3079.6799863665
 20
24.3292921124
 30
0.0
 10
3079.6799863665
 20
24.3292921124
 30
0.0
 10
3079.5639199134
 20
24.2136182177
 30
0.0
 10
3079.4261318919
 20
24.0832888071
 30
0.0
 10
3079.2541912838
 20
24.0832888071
 30
0.0
 10
3079.0767548572
 20
24.0832888071
 30
0.0
 10
3078.9092632451
 20
24.2476399515
 30
0.0
 10
3078.9092632451
 20
24.4245529668
 30
0.0
 10
3078.9092632451
 20
24.6025128046
 30
0.0
 10
3079.1190203187
 20
24.728654925
 30
0.0
 10
3079.2466018202
 20
24.8165880214
 30
0.0
 10
3079.2466018202
 20
24.8165880214
 30
0.0
 10
3079.2688467999
 20
24.8317669487
 30
0.0
 10
3079.2688467999
 20
24.8317669487
 30
0.0
  0
SPLINE
  5
231
330
213
100
AcDbEntity
  8
0
  6
Continuous
 62
     7
100
AcDbSpline
 70
     3
 71
     3
 72
    23
 73
    19
 74
     0
 42
0.000000001
 43
0.0000001
 40
0.0
 40
0.0
 40
0.0
 40
0.0
 40
1.0
 40
1.0
 40
1.0
 40
2.0
 40
2.0
 40
2.0
 40
3.0
 40
3.0
 40
3.0
 40
4.0
 40
4.0
 40
4.0
 40
5.0
 40
5.0
 40
5.0
 40
6.0
 40
6.0
 40
6.0
 40
6.0
 10
3079.3181783138
 20
25.1227836248
 30
0.0
 10
3079.3181783138
 20
25.1227836248
 30
0.0
 10
3079.2565466346
 20
25.201295318
 30
0.0
 10
3079.2565466346
 20
25.201295318
 30
0.0
 10
3079.202635272
 20
25.2698621967
 30
0.0
 10
3079.1458451472
 20
25.3389524867
 30
0.0
 10
3079.1458451472
 20
25.4326431072
 30
0.0
 10
3079.1458451472
 20
25.5514574695
 30
0.0
 10
3079.2417602657
 20
25.6289223401
 30
0.0
 10
3079.3527234588
 20
25.6289223401
 30
0.0
 10
3079.4759868171
 20
25.6289223401
 30
0.0
 10
3079.5692848791
 20
25.557738405
 30
0.0
 10
3079.5692848791
 20
25.4274089943
 30
0.0
 10
3079.5692848791
 20
25.292368882
 30
0.0
 10
3079.4411799664
 20
25.215950834
 30
0.0
 10
3079.3476201987
 20
25.1421498424
 30
0.0
 10
3079.3476201987
 20
25.1421498424
 30
0.0
 10
3079.3181783138
 20
25.1227836248
 30
0.0
 10
3079.3181783138
 20
25.1227836248
 30
0.0
  0
SPLINE
  5
232
330
213
100
AcDbEntity
  8
0
  6
Continuous
 62
     7
100
AcDbSpline
 70
     3
 71
     3
 72
    50
 73
    46
 74
     0
 42
0.000000001
 43
0.0000001
 40
0.0
 40
0.0
 40
0.0
 40
0.0
 40
1.0
 40
1.0
 40
1.0
 40
2.0
 40
2.0
 40
2.0
 40
3.0
 40
3.0
 40
3.0
 40
4.0
 40
4.0
 40
4.0
 40
5.0
 40
5.0
 40
5.0
 40
6.0
 40
6.0
 40
6.0
 40
7.0
 40
7.0
 40
7.0
 40
8.0
 40
8.0
 40
8.0
 40
9.0
 40
9.0
 40
9.0
 40
10.0
 40
10.0
 40
10.0
 40
11.0
 40
11.0
 40
11.0
 40
12.0
 40
12.0
 40
12.0
 40
13.0
 40
13.0
 40
13.0
 40
14.0
 40
14.0
 40
14.0
 40
15.0
 40
15.0
 40
15.0
 40
15.0
 10
3080.0203345564
 20
23.9157971949
 30
0.0
 10
3080.0203345564
 20
23.9157971949
 30
0.0
 10
3080.3057245612
 20
23.9157971949
 30
0.0
 10
3080.3057245612
 20
23.9157971949
 30
0.0
 10
3080.3057245612
 20
23.9157971949
 30
0.0
 10
3079.9733583934
 20
24.3266750559
 30
0.0
 10
3079.9733583934
 20
24.3266750559
 30
0.0
 10
3079.9733583934
 20
24.3266750559
 30
0.0
 10
3080.1998646282
 20
24.5925679902
 30
0.0
 10
3080.1998646282
 20
24.5925679902
 30
0.0
 10
3080.1998646282
 20
24.5925679902
 30
0.0
 10
3080.0516083809
 20
24.7454040862
 30
0.0
 10
3080.0516083809
 20
24.7454040862
 30
0.0
 10
3080.0516083809
 20
24.7454040862
 30
0.0
 10
3079.8357012247
 20
24.494166668
 30
0.0
 10
3079.8357012247
 20
24.494166668
 30
0.0
 10
3079.8357012247
 20
24.494166668
 30
0.0
 10
3079.4486385773
 20
24.9620963594
 30
0.0
 10
3079.4486385773
 20
24.9620963594
 30
0.0
 10
3079.6040917298
 20
25.0762000202
 30
0.0
 10
3079.7863697108
 20
25.215950834
 30
0.0
 10
3079.7863697108
 20
25.4253153492
 30
0.0
 10
3079.7863697108
 20
25.6692250093
 30
0.0
 10
3079.5843329537
 20
25.8126397022
 30
0.0
 10
3079.3578267188
 20
25.8126397022
 30
0.0
 10
3079.113655353
 20
25.8126397022
 30
0.0
 10
3078.9292837269
 20
25.6618972513
 30
0.0
 10
3078.9292837269
 20
25.4054257202
 30
0.0
 10
3078.9292837269
 20
25.2478789226
 30
0.0
 10
3079.0279467546
 20
25.1102217539
 30
0.0
 10
3079.1332832763
 20
24.9992585608
 30
0.0
 10
3079.1332832763
 20
24.9992585608
 30
0.0
 10
3079.0177402345
 20
24.9155127548
 30
0.0
 10
3079.0177402345
 20
24.9155127548
 30
0.0
 10
3078.8400421023
 20
24.7872769893
 30
0.0
 10
3078.6927018248
 20
24.659564635
 30
0.0
 10
3078.6927018248
 20
24.4224593216
 30
0.0
 10
3078.6927018248
 20
24.1021316134
 30
0.0
 10
3078.951267001
 20
23.8760179371
 30
0.0
 10
3079.2616498947
 20
23.8760179371
 30
0.0
 10
3079.4805666658
 20
23.8760179371
 30
0.0
 10
3079.6777618685
 20
24.0011132349
 30
0.0
 10
3079.8180360937
 20
24.1670346131
 30
0.0
 10
3079.8180360937
 20
24.1670346131
 30
0.0
 10
3080.0203345564
 20
23.9157971949
 30
0.0
 10
3080.0203345564
 20
23.9157971949
 30
0.0
  0
LWPOLYLINE
  5
233
330
213
100
AcDbEntity
  8
0
  6
Continuous
 62
     7
100
AcDbPolyline
 90
        2
 70
     0
 43
0.2
 10
3081.9557786462
 20
25.772337033
 10
3081.7244308569
 20
25.772337033
  0
LWPOLYLINE
  5
234
330
213
100
AcDbEntity
  8
0
  6
Continuous
 62
     7
100
AcDbPolyline
 90
        2
 70
     0
 43
0.2
 10
3081.7244308569
 20
25.772337033
 10
3081.7244308569
 20
23.9152737837
  0
LWPOLYLINE
  5
235
330
213
100
AcDbEntity
  8
0
  6
Continuous
 62
     7
100
AcDbPolyline
 90
        2
 70
     0
 43
0.2
 10
3081.7244308569
 20
23.9152737837
 10
3082.5197543088
 20
23.9152737837
  0
LWPOLYLINE
  5
236
330
213
100
AcDbEntity
  8
0
  6
Continuous
 62
     7
100
AcDbPolyline
 90
        2
 70
     0
 43
0.2
 10
3082.5197543088
 20
23.9152737837
 10
3082.5197543088
 20
24.1272553552
  0
LWPOLYLINE
  5
237
330
213
100
AcDbEntity
  8
0
  6
Continuous
 62
     7
100
AcDbPolyline
 90
        2
 70
     0
 43
0.2
 10
3082.5197543088
 20
24.1272553552
 10
3081.9557786462
 20
24.1272553552
  0
LWPOLYLINE
  5
238
330
213
100
AcDbEntity
  8
0
  6
Continuous
 62
     7
100
AcDbPolyline
 90
        2
 70
     0
 43
0.2
 10
3081.9557786462
 20
24.1272553552
 10
3081.9557786462
 20
25.772337033
  0
LWPOLYLINE
  5
239
330
213
100
AcDbEntity
  8
0
  6
Continuous
 62
     7
100
AcDbPolyline
 90
        2
 70
     0
 43
0.2
 10
3084.1988577203
 20
25.0678254396
 10
3083.9777164512
 20
25.0678254396
  0
LWPOLYLINE
  5
23A
330
213
100
AcDbEntity
  8
0
  6
Continuous
 62
     7
100
AcDbPolyline
 90
        2
 70
     0
 43
0.2
 10
3083.9777164512
 20
25.0678254396
 10
3083.9777164512
 20
23.9157971949
  0
LWPOLYLINE
  5
23B
330
213
100
AcDbEntity
  8
0
  6
Continuous
 62
     7
100
AcDbPolyline
 90
        2
 70
     0
 43
0.2
 10
3083.9777164512
 20
23.9157971949
 10
3084.1988577203
 20
23.9157971949
  0
LWPOLYLINE
  5
23C
330
213
100
AcDbEntity
  8
0
  6
Continuous
 62
     7
100
AcDbPolyline
 90
        2
 70
     0
 43
0.2
 10
3084.1988577203
 20
23.9157971949
 10
3084.1988577203
 20
25.0678254396
  0
LWPOLYLINE
  5
23D
330
213
100
AcDbEntity
  8
0
  6
Continuous
 62
     7
100
AcDbPolyline
 90
        2
 70
     1
 43
0.2
 10
3083.9358344431
 20
25.5977793685
 42
1.0
 10
3084.2410014341
 20
25.5977793685
 42
1.0
  0
SPLINE
  5
23E
330
213
100
AcDbEntity
  8
0
  6
Continuous
 62
     7
100
AcDbSpline
 70
     3
 71
     3
 72
    17
 73
    13
 74
     0
 42
0.000000001
 43
0.0000001
 40
0.0
 40
0.0
 40
0.0
 40
0.0
 40
1.0
 40
1.0
 40
1.0
 40
2.0
 40
2.0
 40
2.0
 40
3.0
 40
3.0
 40
3.0
 40
4.0
 40
4.0
 40
4.0
 40
4.0
 10
3086.329141662
 20
24.0733439926
 30
0.0
 10
3086.0951768163
 20
24.0733439926
 30
0.0
 10
3085.9648474056
 20
24.2753807497
 30
0.0
 10
3085.9648474056
 20
24.4915496116
 30
0.0
 10
3085.9648474056
 20
24.7061482396
 30
0.0
 10
3086.1006726348
 20
24.905044529
 30
0.0
 10
3086.329141662
 20
24.905044529
 30
0.0
 10
3086.5686023262
 20
24.905044529
 30
0.0
 10
3086.7041658497
 20
24.7160930541
 30
0.0
 10
3086.7041658497
 20
24.4915496116
 30
0.0
 10
3086.7041658497
 20
24.2654359352
 30
0.0
 10
3086.570957677
 20
24.0733439926
 30
0.0
 10
3086.329141662
 20
24.0733439926
 30
0.0
  0
SPLINE
  5
23F
330
213
100
AcDbEntity
  8
0
  6
Continuous
 62
     7
100
AcDbSpline
 70
     3
 71
     3
 72
    50
 73
    46
 74
     0
 42
0.000000001
 43
0.0000001
 40
0.0
 40
0.0
 40
0.0
 40
0.0
 40
1.0
 40
1.0
 40
1.0
 40
2.0
 40
2.0
 40
2.0
 40
3.0
 40
3.0
 40
3.0
 40
4.0
 40
4.0
 40
4.0
 40
5.0
 40
5.0
 40
5.0
 40
6.0
 40
6.0
 40
6.0
 40
7.0
 40
7.0
 40
7.0
 40
8.0
 40
8.0
 40
8.0
 40
9.0
 40
9.0
 40
9.0
 40
10.0
 40
10.0
 40
10.0
 40
11.0
 40
11.0
 40
11.0
 40
12.0
 40
12.0
 40
12.0
 40
13.0
 40
13.0
 40
13.0
 40
14.0
 40
14.0
 40
14.0
 40
15.0
 40
15.0
 40
15.0
 40
15.0
 10
3086.9132686592
 20
25.0683488508
 30
0.0
 10
3086.9132686592
 20
25.0683488508
 30
0.0
 10
3086.6916039788
 20
25.0683488508
 30
0.0
 10
3086.6916039788
 20
25.0683488508
 30
0.0
 10
3086.6916039788
 20
25.0683488508
 30
0.0
 10
3086.6916039788
 20
24.8710227953
 30
0.0
 10
3086.6916039788
 20
24.8710227953
 30
0.0
 10
3086.6916039788
 20
24.8710227953
 30
0.0
 10
3086.6868932772
 20
24.8710227953
 30
0.0
 10
3086.6868932772
 20
24.8710227953
 30
0.0
 10
3086.5955580075
 20
25.0139140769
 30
0.0
 10
3086.4576391331
 20
25.1023705846
 30
0.0
 10
3086.2849134081
 20
25.1023705846
 30
0.0
 10
3085.9525472403
 20
25.1023705846
 30
0.0
 10
3085.7434444308
 20
24.8144943762
 30
0.0
 10
3085.7434444308
 20
24.4988773696
 30
0.0
 10
3085.7434444308
 20
24.1691282583
 30
0.0
 10
3085.9405087807
 20
23.8760179371
 30
0.0
 10
3086.2953816339
 20
23.8760179371
 30
0.0
 10
3086.4576391331
 20
23.8760179371
 30
0.0
 10
3086.5976516526
 20
23.9644744447
 30
0.0
 10
3086.6868932772
 20
24.0953272667
 30
0.0
 10
3086.6868932772
 20
24.0953272667
 30
0.0
 10
3086.6916039788
 20
24.0953272667
 30
0.0
 10
3086.6916039788
 20
24.0953272667
 30
0.0
 10
3086.6916039788
 20
24.0953272667
 30
0.0
 10
3086.6916039788
 20
23.8760179371
 30
0.0
 10
3086.6916039788
 20
23.8760179371
 30
0.0
 10
3086.6916039788
 20
23.639436035
 30
0.0
 10
3086.6350755597
 20
23.4525782052
 30
0.0
 10
3086.3618548675
 20
23.4525782052
 30
0.0
 10
3086.1595564047
 20
23.4525782052
 30
0.0
 10
3086.0169268288
 20
23.5708691562
 30
0.0
 10
3086.0169268288
 20
23.7770932037
 30
0.0
 10
3086.0169268288
 20
23.7770932037
 30
0.0
 10
3085.7952621483
 20
23.7770932037
 30
0.0
 10
3085.7952621483
 20
23.7770932037
 30
0.0
 10
3085.8002345556
 20
23.4525782052
 30
0.0
 10
3086.0313206392
 20
23.2557755609
 30
0.0
 10
3086.3516483473
 20
23.2557755609
 30
0.0
 10
3086.7996884098
 20
23.2557755609
 30
0.0
 10
3086.9132686592
 20
23.5410347128
 30
0.0
 10
3086.9132686592
 20
23.937780469
 30
0.0
 10
3086.9132686592
 20
23.937780469
 30
0.0
 10
3086.9132686592
 20
25.0683488508
 30
0.0
 10
3086.9132686592
 20
25.0683488508
 30
0.0
  0
SPLINE
  5
240
330
213
100
AcDbEntity
  8
0
  6
Continuous
 62
     7
100
AcDbSpline
 70
     3
 71
     3
 72
    44
 73
    40
 74
     0
 42
0.000000001
 43
0.0000001
 40
0.0
 40
0.0
 40
0.0
 40
0.0
 40
1.0
 40
1.0
 40
1.0
 40
2.0
 40
2.0
 40
2.0
 40
3.0
 40
3.0
 40
3.0
 40
4.0
 40
4.0
 40
4.0
 40
5.0
 40
5.0
 40
5.0
 40
6.0
 40
6.0
 40
6.0
 40
7.0
 40
7.0
 40
7.0
 40
8.0
 40
8.0
 40
8.0
 40
9.0
 40
9.0
 40
9.0
 40
10.0
 40
10.0
 40
10.0
 40
11.0
 40
11.0
 40
11.0
 40
12.0
 40
12.0
 40
12.0
 40
13.0
 40
13.0
 40
13.0
 40
13.0
 10
3088.4821939946
 20
26.0534088946
 30
0.0
 10
3088.4821939946
 20
26.0534088946
 30
0.0
 10
3088.4821939946
 20
23.9152737837
 30
0.0
 10
3088.4821939946
 20
23.9152737837
 30
0.0
 10
3088.4821939946
 20
23.9152737837
 30
0.0
 10
3088.7035969694
 20
23.9152737837
 30
0.0
 10
3088.7035969694
 20
23.9152737837
 30
0.0
 10
3088.7035969694
 20
23.9152737837
 30
0.0
 10
3088.7035969694
 20
24.444966007
 30
0.0
 10
3088.7035969694
 20
24.444966007
 30
0.0
 10
3088.7035969694
 20
24.6548539334
 30
0.0
 10
3088.7035969694
 20
24.9055679403
 30
0.0
 10
3088.9888561213
 20
24.9055679403
 30
0.0
 10
3089.2157549146
 20
24.9055679403
 30
0.0
 10
3089.2427105959
 20
24.7726214732
 30
0.0
 10
3089.2427105959
 20
24.5763422402
 30
0.0
 10
3089.2427105959
 20
24.5763422402
 30
0.0
 10
3089.2427105959
 20
23.9152737837
 30
0.0
 10
3089.2427105959
 20
23.9152737837
 30
0.0
 10
3089.2427105959
 20
23.9152737837
 30
0.0
 10
3089.464636982
 20
23.9152737837
 30
0.0
 10
3089.464636982
 20
23.9152737837
 30
0.0
 10
3089.464636982
 20
23.9152737837
 30
0.0
 10
3089.464636982
 20
24.6025128046
 30
0.0
 10
3089.464636982
 20
24.6025128046
 30
0.0
 10
3089.464636982
 20
24.8830612549
 30
0.0
 10
3089.3806294703
 20
25.1028939958
 30
0.0
 10
3089.0555910605
 20
25.1028939958
 30
0.0
 10
3088.9158402466
 20
25.1028939958
 30
0.0
 10
3088.7776596666
 20
25.0364207623
 30
0.0
 10
3088.708307671
 20
24.9134191096
 30
0.0
 10
3088.708307671
 20
24.9134191096
 30
0.0
 10
3088.7035969694
 20
24.9134191096
 30
0.0
 10
3088.7035969694
 20
24.9134191096
 30
0.0
 10
3088.7035969694
 20
24.9134191096
 30
0.0
 10
3088.7035969694
 20
26.0534088946
 30
0.0
 10
3088.7035969694
 20
26.0534088946
 30
0.0
 10
3088.7035969694
 20
26.0534088946
 30
0.0
 10
3088.4821939946
 20
26.0534088946
 30
0.0
 10
3088.4821939946
 20
26.0534088946
 30
0.0
  0
LWPOLYLINE
  5
241
330
213
100
AcDbEntity
  8
0
  6
Continuous
 62
     7
100
AcDbPolyline
 90
        2
 70
     0
 43
0.2
 10
3091.3044276588
 20
24.8610779808
 10
3091.5208582264
 20
24.8610779808
  0
LWPOLYLINE
  5
242
330
213
100
AcDbEntity
  8
0
  6
Continuous
 62
     7
100
AcDbPolyline
 90
        2
 70
     0
 43
0.2
 10
3091.5208582264
 20
24.8610779808
 10
3091.5208582264
 20
25.0678254396
  0
LWPOLYLINE
  5
243
330
213
100
AcDbEntity
  8
0
  6
Continuous
 62
     7
100
AcDbPolyline
 90
        2
 70
     0
 43
0.2
 10
3091.5208582264
 20
25.0678254396
 10
3091.3044276588
 20
25.0678254396
  0
LWPOLYLINE
  5
244
330
213
100
AcDbEntity
  8
0
  6
Continuous
 62
     7
100
AcDbPolyline
 90
        2
 70
     0
 43
0.2
 10
3091.3044276588
 20
25.0678254396
 10
3091.3044276588
 20
25.5085377439
  0
LWPOLYLINE
  5
245
330
213
100
AcDbEntity
  8
0
  6
Continuous
 62
     7
100
AcDbPolyline
 90
        2
 70
     0
 43
0.2
 10
3091.3044276588
 20
25.5085377439
 10
3091.0827629784
 20
25.5085377439
  0
LWPOLYLINE
  5
246
330
213
100
AcDbEntity
  8
0
  6
Continuous
 62
     7
100
AcDbPolyline
 90
        2
 70
     0
 43
0.2
 10
3091.0827629784
 20
25.5085377439
 10
3091.0827629784
 20
25.0678254396
  0
LWPOLYLINE
  5
247
330
213
100
AcDbEntity
  8
0
  6
Continuous
 62
     7
100
AcDbPolyline
 90
        2
 70
     0
 43
0.2
 10
3091.0827629784
 20
25.0678254396
 10
3090.9621166766
 20
25.0678254396
  0
LWPOLYLINE
  5
248
330
213
100
AcDbEntity
  8
0
  6
Continuous
 62
     7
100
AcDbPolyline
 90
        2
 70
     0
 43
0.2
 10
3090.9621166766
 20
25.0678254396
 10
3090.9621166766
 20
24.8610779808
  0
LWPOLYLINE
  5
249
330
213
100
AcDbEntity
  8
0
  6
Continuous
 62
     7
100
AcDbPolyline
 90
        2
 70
     0
 43
0.2
 10
3090.9621166766
 20
24.8610779808
 10
3091.0827629784
 20
24.8610779808
  0
LWPOLYLINE
  5
24A
330
213
100
AcDbEntity
  8
0
  6
Continuous
 62
     7
100
AcDbPolyline
 90
        2
 70
     0
 43
0.2
 10
3091.0827629784
 20
24.8610779808
 10
3091.0827629784
 20
23.9152737837
  0
LWPOLYLINE
  5
24B
330
213
100
AcDbEntity
  8
0
  6
Continuous
 62
     7
100
AcDbPolyline
 90
        2
 70
     0
 43
0.2
 10
3091.0827629784
 20
23.9152737837
 10
3091.3044276588
 20
23.9152737837
  0
LWPOLYLINE
  5
24C
330
213
100
AcDbEntity
  8
0
  6
Continuous
 62
     7
100
AcDbPolyline
 90
        2
 70
     0
 43
0.2
 10
3091.3044276588
 20
23.9152737837
 10
3091.3044276588
 20
24.8610779808
  0
SPLINE
  5
24D
330
213
100
AcDbEntity
  8
0
  6
Continuous
 62
     7
100
AcDbSpline
 70
     3
 71
     3
 72
    20
 73
    16
 74
     0
 42
0.000000001
 43
0.0000001
 40
0.0
 40
0.0
 40
0.0
 40
0.0
 40
1.0
 40
1.0
 40
1.0
 40
2.0
 40
2.0
 40
2.0
 40
3.0
 40
3.0
 40
3.0
 40
4.0
 40
4.0
 40
4.0
 40
5.0
 40
5.0
 40
5.0
 40
5.0
 10
3079.0864379661
 20
34.2762002271
 30
0.0
 10
3079.0864379661
 20
34.2762002271
 30
0.0
 10
3081.4027946205
 20
31.4466388048
 30
0.0
 10
3081.4027946205
 20
31.4466388048
 30
0.0
 10
3080.7511475671
 20
30.7944683401
 30
0.0
 10
3079.9742743631
 20
30.0585520694
 30
0.0
 10
3079.0030847185
 20
30.0585520694
 30
0.0
 10
3078.004546834
 20
30.0585520694
 30
0.0
 10
3077.0612288405
 20
30.9881305167
 30
0.0
 10
3077.0612288405
 20
31.9873226652
 30
0.0
 10
3077.0612288405
 20
32.9865148137
 30
0.0
 10
3078.2400819136
 20
33.6931200524
 30
0.0
 10
3078.9616043739
 20
34.1929778323
 30
0.0
 10
3078.9616043739
 20
34.1929778323
 30
0.0
 10
3079.0864379661
 20
34.2762002271
 30
0.0
 10
3079.0864379661
 20
34.2762002271
 30
0.0
  0
SPLINE
  5
24E
330
213
100
AcDbEntity
  8
0
  6
Continuous
 62
     7
100
AcDbSpline
 70
     3
 71
     3
 72
    23
 73
    19
 74
     0
 42
0.000000001
 43
0.0000001
 40
0.0
 40
0.0
 40
0.0
 40
0.0
 40
1.0
 40
1.0
 40
1.0
 40
2.0
 40
2.0
 40
2.0
 40
3.0
 40
3.0
 40
3.0
 40
4.0
 40
4.0
 40
4.0
 40
5.0
 40
5.0
 40
5.0
 40
6.0
 40
6.0
 40
6.0
 40
6.0
 10
3079.3638459486
 20
35.9139541468
 30
0.0
 10
3079.3638459486
 20
35.9139541468
 30
0.0
 10
3079.0173476761
 20
36.3572835076
 30
0.0
 10
3079.0173476761
 20
36.3572835076
 30
0.0
 10
3078.7115446311
 20
36.7453929776
 30
0.0
 10
3078.392656304
 20
37.133895006
 30
0.0
 10
3078.392656304
 20
37.6608393201
 30
0.0
 10
3078.392656304
 20
38.3270110367
 30
0.0
 10
3078.9339944285
 20
38.770732956
 30
0.0
 10
3079.5579006836
 20
38.770732956
 30
0.0
 10
3080.2516823457
 20
38.770732956
 30
0.0
 10
3080.7788883654
 20
38.3684913813
 30
0.0
 10
3080.7788883654
 20
37.6334910803
 30
0.0
 10
3080.7788883654
 20
36.8702265697
 30
0.0
 10
3080.0576276107
 20
36.4401133439
 30
0.0
 10
3079.5305524438
 20
36.0243939285
 30
0.0
 10
3079.5305524438
 20
36.0243939285
 30
0.0
 10
3079.3638459486
 20
35.9139541468
 30
0.0
 10
3079.3638459486
 20
35.9139541468
 30
0.0
  0
SPLINE
  5
24F
330
213
100
AcDbEntity
  8
0
  6
Continuous
 62
     7
100
AcDbSpline
 70
     3
 71
     3
 72
    50
 73
    46
 74
     0
 42
0.000000001
 43
0.0000001
 40
0.0
 40
0.0
 40
0.0
 40
0.0
 40
1.0
 40
1.0
 40
1.0
 40
2.0
 40
2.0
 40
2.0
 40
3.0
 40
3.0
 40
3.0
 40
4.0
 40
4.0
 40
4.0
 40
5.0
 40
5.0
 40
5.0
 40
6.0
 40
6.0
 40
6.0
 40
7.0
 40
7.0
 40
7.0
 40
8.0
 40
8.0
 40
8.0
 40
9.0
 40
9.0
 40
9.0
 40
10.0
 40
10.0
 40
10.0
 40
11.0
 40
11.0
 40
11.0
 40
12.0
 40
12.0
 40
12.0
 40
13.0
 40
13.0
 40
13.0
 40
14.0
 40
14.0
 40
14.0
 40
15.0
 40
15.0
 40
15.0
 40
15.0
 10
3083.3174331116
 20
29.1153649287
 30
0.0
 10
3083.3174331116
 20
29.1153649287
 30
0.0
 10
3084.9266611161
 20
29.1153649287
 30
0.0
 10
3084.9266611161
 20
29.1153649287
 30
0.0
 10
3084.9266611161
 20
29.1153649287
 30
0.0
 10
3083.0536338225
 20
31.4325067001
 30
0.0
 10
3083.0536338225
 20
31.4325067001
 30
0.0
 10
3083.0536338225
 20
31.4325067001
 30
0.0
 10
3084.3299722479
 20
32.9299863946
 30
0.0
 10
3084.3299722479
 20
32.9299863946
 30
0.0
 10
3084.3299722479
 20
32.9299863946
 30
0.0
 10
3083.4977483002
 20
33.7909979632
 30
0.0
 10
3083.4977483002
 20
33.7909979632
 30
0.0
 10
3083.4977483002
 20
33.7909979632
 30
0.0
 10
3082.2771531769
 20
32.3756938408
 30
0.0
 10
3082.2771531769
 20
32.3756938408
 30
0.0
 10
3082.2771531769
 20
32.3756938408
 30
0.0
 10
3080.0992388081
 20
35.0110696752
 30
0.0
 10
3080.0992388081
 20
35.0110696752
 30
0.0
 10
3080.9728122475
 20
35.6491080351
 30
0.0
 10
3081.9994834887
 20
36.4401133439
 30
0.0
 10
3081.9994834887
 20
37.618966417
 30
0.0
 10
3081.9994834887
 20
38.992659342
 30
0.0
 10
3080.8615873489
 20
39.7971424915
 30
0.0
 10
3079.586295746
 20
39.7971424915
 30
0.0
 10
3078.2128645266
 20
39.7971424915
 30
0.0
 10
3077.1719303279
 20
38.9509172918
 30
0.0
 10
3077.1719303279
 20
37.5082649296
 30
0.0
 10
3077.1719303279
 20
36.6206902382
 30
0.0
 10
3077.7272697043
 20
35.8438170342
 30
0.0
 10
3078.3234351612
 20
35.2193873678
 30
0.0
 10
3078.3234351612
 20
35.2193873678
 30
0.0
 10
3077.6715264021
 20
34.7477937974
 30
0.0
 10
3077.6715264021
 20
34.7477937974
 30
0.0
 10
3076.6729885177
 20
34.0265330427
 30
0.0
 10
3075.8401103059
 20
33.3052722881
 30
0.0
 10
3075.8401103059
 20
31.9737139717
 30
0.0
 10
3075.8401103059
 20
30.1700386737
 30
0.0
 10
3077.2971564785
 20
28.8934385426
 30
0.0
 10
3079.0446959159
 20
28.8934385426
 30
0.0
 10
3080.2795539968
 20
28.8934385426
 30
0.0
 10
3081.3889242214
 20
29.6016140151
 30
0.0
 10
3082.1797986774
 20
30.5301456398
 30
0.0
 10
3082.1797986774
 20
30.5301456398
 30
0.0
 10
3083.3174331116
 20
29.1153649287
 30
0.0
 10
3083.3174331116
 20
29.1153649287
 30
0.0
  0
LINE
  5
250
330
213
100
AcDbEntity
  8
0
  6
Continuous
 62
     7
100
AcDbLine
 10
3069.1202944866
 20
27.0892398333
 30
0.0
 11
3091.5342052142
 21
27.0892398333
 31
0.0
  0
LINE
  5
251
330
213
100
AcDbEntity
  8
0
  6
Continuous
 62
     7
100
AcDbLine
 10
3091.5342052142
 20
27.0892398333
 30
0.0
 11
3091.5342052142
 21
49.5031505609
 31
0.0
  0
LINE
  5
252
330
213
100
AcDbEntity
  8
0
  6
Continuous
 62
     7
100
AcDbLine
 10
3091.5342052142
 20
49.5031505609
 30
0.0
 11
3069.1202944866
 21
49.5031505609
 31
0.0
  0
LINE
  5
253
330
213
100
AcDbEntity
  8
0
  6
Continuous
 62
     7
100
AcDbLine
 10
3069.1202944866
 20
49.5031505609
 30
0.0
 11
3069.1202944866
 21
27.0892398333
 31
0.0
  0
ENDBLK
  5
254
330
213
100
AcDbEntity
  8
0
  6
ByBlock
 62
     0
100
AcDbBlockEnd
  0
BLOCK
  5
255
330
214
100
AcDbEntity
  8
0
100
AcDbBlockBegin
  2
PROIEZIONE_EU_BL0
 70
     0
 10
3081.5011373792
 20
62.0044630609
 30
0.0
  3
PROIEZIONE_EU_BL0
  1

  0
LWPOLYLINE
  5
256
330
214
100
AcDbEntity
  8
DEFAULT_1
  6
CENTER
 62
     7
100
AcDbPolyline
 90
        2
 70
     0
 43
0.25
 10
3087.6277580409
 20
67.0041571928
 10
3087.6277990232
 20
57.0047689291
  0
LWPOLYLINE
  5
257
330
214
100
AcDbEntity
  8
DEFAULT_1
  6
CENTER
 62
     7
100
AcDbPolyline
 90
        2
 70
     0
 43
0.25
 10
3093.6277878659
 20
62.0047341961
 10
3069.3744868925
 20
62.0044635357
  0
LWPOLYLINE
  5
258
330
214
100
AcDbEntity
  8
0
  6
Continuous
 62
     7
100
AcDbPolyline
 90
        2
 70
     1
 43
0.25
 10
3084.080647865
 20
61.9859153067
 42
1.0
 10
3091.1869769637
 20
61.9859153067
 42
1.0
  0
LWPOLYLINE
  5
259
330
214
100
AcDbEntity
  8
0
  6
Continuous
 62
     7
100
AcDbPolyline
 90
        2
 70
     1
 43
0.25
 10
3085.6303916934
 20
62.0038133513
 42
1.0
 10
3089.6421434435
 20
62.0038133513
 42
1.0
  0
LWPOLYLINE
  5
25A
330
214
100
AcDbEntity
  8
0
  6
Continuous
 62
     7
100
AcDbPolyline
 90
        2
 70
     0
 43
0.25
 10
3081.6277856599
 20
65.5796665562
 10
3081.6277853053
 20
58.4794636479
  0
LWPOLYLINE
  5
25B
330
214
100
AcDbEntity
  8
0
  6
Continuous
 62
     7
100
AcDbPolyline
 90
        2
 70
     0
 43
0.25
 10
3081.6278137417
 20
58.4794352115
 10
3071.6332564705
 20
59.9995286243
  0
LWPOLYLINE
  5
25C
330
214
100
AcDbEntity
  8
0
  6
Continuous
 62
     7
100
AcDbPolyline
 90
        2
 70
     0
 43
0.25
 10
3071.6309464849
 20
59.9988510828
 10
3071.6282795808
 20
64.0044896942
  0
LWPOLYLINE
  5
25D
330
214
100
AcDbEntity
  8
0
  6
Continuous
 62
     7
100
AcDbPolyline
 90
        2
 70
     0
 43
0.25
 10
3071.6282713048
 20
64.0044814181
 10
3081.6280145421
 20
65.5796386382
  0
ENDBLK
  5
25E
330
214
100
AcDbEntity
  8
0
  6
ByBlock
 62
     0
100
AcDbBlockEnd
  0
ENDSEC
  0
SECTION
  2
ENTITIES
  0
LINE
  5
280
330
1B
100
AcDbEntity
 67
     1
  8
0
  6
Continuous
 62
     7
100
AcDbLine
 10
0.0
 20
0.0
 30
0.0
 11
3200.0
 21
0.0
 31
0.0
  0
LINE
  5
281
330
1B
100
AcDbEntity
 67
     1
  8
0
  6
Continuous
 62
     7
100
AcDbLine
 10
3200.0
 20
0.0
 30
0.0
 11
3200.0
 21
2500.0
 31
0.0
  0
LINE
  5
282
330
1B
100
AcDbEntity
 67
     1
  8
0
  6
Continuous
 62
     7
100
AcDbLine
 10
0.0
 20
2500.0
 30
0.0
 11
3200.0
 21
2500.0
 31
0.0
  0
LINE
  5
283
330
1B
100
AcDbEntity
 67
     1
  8
0
  6
Continuous
 62
     7
100
AcDbLine
 10
0.0
 20
0.0
 30
0.0
 11
0.0
 21
2500.0
 31
0.0
  0
VIEWPORT
  5
284
330
1B
100
AcDbEntity
 67
     1
  8
0
100
AcDbViewport
 10
0.0
 20
0.0
 30
0.0
 40
4167.315175097277
 41
2946.887159533074
 68
     1
 69
     1
 12
1969.844357976654
 22
1250.0
 13
0.0
 23
0.0
 14
1.0
 24
1.0
 15
0.0
 25
0.0
 16
0.0
 26
0.0
 36
1.0
 17
0.0
 27
0.0
 37
0.0
 42
50.0
 43
0.0
 44
0.0
 45
2946.887159533074
 50
0.0
 51
0.0
 72
   100
 90
   557216
  1

281
     0
 71
     1
 74
     0
110
0.0
120
0.0
130
0.0
111
1.0
121
0.0
131
0.0
112
0.0
122
1.0
132
0.0
 79
     0
146
0.0
170
     0
 61
     5
348
511
292
     1
282
     1
141
0.0
142
0.0
 63
   256
  0
LINE
  5
285
330
1B
100
AcDbEntity
 67
     1
  8
7_ALL_FEATURES
  6
Continuous
 62
     7
100
AcDbLine
 10
2837.689912229
 20
151.2153436987
 30
0.0
 11
2837.689912229
 21
151.0997395646
 31
0.0
  0
LINE
  5
286
330
1B
100
AcDbEntity
 67
     1
  8
7_ALL_FEATURES
  6
Continuous
 62
     7
100
AcDbLine
 10
1083.689912229
 20
151.2153436987
 30
0.0
 11
1083.689912229
 21
151.0997395646
 31
0.0
  0
LINE
  5
287
330
1B
100
AcDbEntity
 67
     1
  8
7_ALL_FEATURES
  6
Continuous
 62
     7
100
AcDbLine
 10
2837.689912229
 20
154.6638292794
 30
0.0
 11
2837.689912229
 21
151.2153436987
 31
0.0
  0
LINE
  5
288
330
1B
100
AcDbEntity
 67
     1
  8
7_ALL_FEATURES
  6
Continuous
 62
     7
100
AcDbLine
 10
1083.689912229
 20
154.6638292794
 30
0.0
 11
1083.689912229
 21
153.9673183514
 31
0.0
  0
LINE
  5
289
330
1B
100
AcDbEntity
 67
     1
  8
7_ALL_FEATURES
  6
Continuous
 62
     7
100
AcDbLine
 10
1083.689912229
 20
153.9673183514
 30
0.0
 11
1083.689912229
 21
151.2153436987
 31
0.0
  0
LINE
  5
28A
330
1B
100
AcDbEntity
 67
     1
  8
7_ALL_FEATURES
  6
Continuous
 62
     7
100
AcDbLine
 10
2837.689912229
 20
154.7468144032
 30
0.0
 11
2837.689912229
 21
154.6638292794
 31
0.0
  0
LINE
  5
28B
330
1B
100
AcDbEntity
 67
     1
  8
7_ALL_FEATURES
  6
Continuous
 62
     7
100
AcDbLine
 10
1083.689912229
 20
154.7468144032
 30
0.0
 11
1083.689912229
 21
154.6638292794
 31
0.0
  0
LINE
  5
28C
330
1B
100
AcDbEntity
 67
     1
  8
7_ALL_FEATURES
  6
Continuous
 62
     7
100
AcDbLine
 10
2837.689912229
 20
157.0424701845
 30
0.0
 11
2837.689912229
 21
154.7468144032
 31
0.0
  0
LINE
  5
28D
330
1B
100
AcDbEntity
 67
     1
  8
7_ALL_FEATURES
  6
Continuous
 62
     7
100
AcDbLine
 10
1083.689912229
 20
157.0424701845
 30
0.0
 11
1083.689912229
 21
156.2964407975
 31
0.0
  0
LINE
  5
28E
330
1B
100
AcDbEntity
 67
     1
  8
7_ALL_FEATURES
  6
Continuous
 62
     7
100
AcDbLine
 10
1083.689912229
 20
156.2964407975
 30
0.0
 11
1083.689912229
 21
154.7468144032
 31
0.0
  0
LINE
  5
28F
330
1B
100
AcDbEntity
 67
     1
  8
7_ALL_FEATURES
  6
Continuous
 62
     7
100
AcDbLine
 10
2837.689912229
 20
157.0916858681
 30
0.0
 11
2837.689912229
 21
157.0424701845
 31
0.0
  0
LINE
  5
290
330
1B
100
AcDbEntity
 67
     1
  8
7_ALL_FEATURES
  6
Continuous
 62
     7
100
AcDbLine
 10
1083.689912229
 20
158.2173971506
 30
0.0
 11
1083.689912229
 21
158.2026869762
 31
0.0
  0
LINE
  5
291
330
1B
100
AcDbEntity
 67
     1
  8
7_ALL_FEATURES
  6
Continuous
 62
     7
100
AcDbLine
 10
1083.689912229
 20
157.0916858681
 30
0.0
 11
1083.689912229
 21
157.0424701845
 31
0.0
  0
LINE
  5
292
330
1B
100
AcDbEntity
 67
     1
  8
7_ALL_FEATURES
  6
Continuous
 62
     7
100
AcDbLine
 10
2837.689912229
 20
158.2173971506
 30
0.0
 11
2837.689912229
 21
158.2026869762
 31
0.0
  0
LINE
  5
293
330
1B
100
AcDbEntity
 67
     1
  8
7_ALL_FEATURES
  6
Continuous
 62
     7
100
AcDbLine
 10
2837.689912229
 20
158.2026869762
 30
0.0
 11
2837.689912229
 21
157.4174813999
 31
0.0
  0
LINE
  5
294
330
1B
100
AcDbEntity
 67
     1
  8
7_ALL_FEATURES
  6
Continuous
 62
     7
100
AcDbLine
 10
2837.689912229
 20
157.4174813999
 30
0.0
 11
2837.689912229
 21
157.3284259308
 31
0.0
  0
LINE
  5
295
330
1B
100
AcDbEntity
 67
     1
  8
7_ALL_FEATURES
  6
Continuous
 62
     7
100
AcDbLine
 10
2837.689912229
 20
157.3284259308
 30
0.0
 11
2837.689912229
 21
157.0916858681
 31
0.0
  0
LINE
  5
296
330
1B
100
AcDbEntity
 67
     1
  8
7_ALL_FEATURES
  6
Continuous
 62
     7
100
AcDbLine
 10
2837.689912229
 20
158.2175461306
 30
0.0
 11
1960.689912229
 21
158.2175461306
 31
0.0
  0
LINE
  5
297
330
1B
100
AcDbEntity
 67
     1
  8
7_ALL_FEATURES
  6
Continuous
 62
     7
100
AcDbLine
 10
1960.689912229
 20
158.2175461306
 30
0.0
 11
1083.689912229
 21
158.2175461306
 31
0.0
  0
LINE
  5
298
330
1B
100
AcDbEntity
 67
     1
  8
7_ALL_FEATURES
  6
Continuous
 62
     7
100
AcDbLine
 10
1083.689912229
 20
158.2026869762
 30
0.0
 11
1083.689912229
 21
157.4174813999
 31
0.0
  0
LINE
  5
299
330
1B
100
AcDbEntity
 67
     1
  8
7_ALL_FEATURES
  6
Continuous
 62
     7
100
AcDbLine
 10
1083.689912229
 20
157.4174813999
 30
0.0
 11
1083.689912229
 21
157.3284259308
 31
0.0
  0
LINE
  5
29A
330
1B
100
AcDbEntity
 67
     1
  8
7_ALL_FEATURES
  6
Continuous
 62
     7
100
AcDbLine
 10
1083.689912229
 20
157.3284259308
 30
0.0
 11
1083.689912229
 21
157.0916858681
 31
0.0
  0
LINE
  5
29B
330
1B
100
AcDbEntity
 67
     1
  8
7_ALL_FEATURES
  6
Continuous
 62
     7
100
AcDbLine
 10
2837.689912229
 20
158.2174509383
 30
0.0
 11
2837.689912229
 21
158.2173971506
 31
0.0
  0
LINE
  5
29C
330
1B
100
AcDbEntity
 67
     1
  8
7_ALL_FEATURES
  6
Continuous
 62
     7
100
AcDbLine
 10
1083.689912229
 20
158.2174509383
 30
0.0
 11
1083.689912229
 21
158.2173971506
 31
0.0
  0
LINE
  5
29D
330
1B
100
AcDbEntity
 67
     1
  8
7_ALL_FEATURES
  6
Continuous
 62
     7
100
AcDbLine
 10
2837.689912229
 20
151.0997395646
 30
0.0
 11
2837.689912229
 21
148.7114357474
 31
0.0
  0
LINE
  5
29E
330
1B
100
AcDbEntity
 67
     1
  8
7_ALL_FEATURES
  6
Continuous
 62
     7
100
AcDbLine
 10
1083.689912229
 20
151.0997395646
 30
0.0
 11
1083.689912229
 21
150.4624028865
 31
0.0
  0
LINE
  5
29F
330
1B
100
AcDbEntity
 67
     1
  8
7_ALL_FEATURES
  6
Continuous
 62
     7
100
AcDbLine
 10
1083.689912229
 20
150.4624028865
 30
0.0
 11
1083.689912229
 21
148.7114357474
 31
0.0
  0
LINE
  5
2A0
330
1B
100
AcDbEntity
 67
     1
  8
7_ALL_FEATURES
  6
Continuous
 62
     9
100
AcDbLine
 10
2837.689912229
 20
154.6638292794
 30
0.0
 11
1083.689912229
 21
154.6638292794
 31
0.0
  0
LINE
  5
2A1
330
1B
100
AcDbEntity
 67
     1
  8
7_ALL_FEATURES
  6
Continuous
 62
     9
100
AcDbLine
 10
1088.689912229
 20
145.7644991926
 30
0.0
 11
1088.689912229
 21
146.4804466819
 31
0.0
  0
LINE
  5
2A2
330
1B
100
AcDbEntity
 67
     1
  8
7_ALL_FEATURES
  6
Continuous
 62
     7
100
AcDbLine
 10
2832.689912229
 20
146.4804466819
 30
0.0
 11
1088.689912229
 21
146.4804466819
 31
0.0
  0
LINE
  5
2A3
330
1B
100
AcDbEntity
 67
     1
  8
7_ALL_FEATURES
  6
Continuous
 62
     9
100
AcDbLine
 10
2837.689912229
 20
151.2153436987
 30
0.0
 11
1083.689912229
 21
151.2153436987
 31
0.0
  0
LINE
  5
2A4
330
1B
100
AcDbEntity
 67
     1
  8
7_ALL_FEATURES
  6
Continuous
 62
     9
100
AcDbLine
 10
2832.689912229
 20
145.7644991926
 30
0.0
 11
2832.689912229
 21
146.4804466819
 31
0.0
  0
LINE
  5
2A5
330
1B
100
AcDbEntity
 67
     1
  8
7_ALL_FEATURES
  6
Continuous
 62
     9
100
AcDbLine
 10
2837.689912229
 20
154.7468144032
 30
0.0
 11
1083.689912229
 21
154.7468144032
 31
0.0
  0
SPLINE
  5
2A6
330
1B
100
AcDbEntity
 67
     1
  8
7_ALL_FEATURES
  6
Continuous
 62
     7
100
AcDbSpline
 70
     0
 71
     3
 72
     9
 73
     5
 74
     0
 42
0.000000001
 43
0.0000001
 40
0.0
 40
0.0
 40
0.0
 40
0.0
 40
0.1997084373
 40
1.0
 40
1.0
 40
1.0
 40
1.0
 10
1083.689912229
 20
148.7114357474
 30
0.0
 10
1083.689912229
 20
148.5631339528
 30
0.0
 10
1083.8763631399
 20
147.8163869215
 30
0.0
 10
1084.6116632415
 20
147.3760465329
 30
0.0
 10
1085.154378323
 20
147.1338882504
 30
0.0
  0
SPLINE
  5
2A7
330
1B
100
AcDbEntity
 67
     1
  8
7_ALL_FEATURES
  6
Continuous
 62
     7
100
AcDbSpline
 70
     0
 71
     3
 72
     8
 73
     4
 74
     0
 42
0.000000001
 43
0.0000001
 40
0.0
 40
0.0
 40
0.0
 40
0.0
 40
1.0
 40
1.0
 40
1.0
 40
1.0
 10
1085.154378323
 20
147.1338882504
 30
0.0
 10
1085.6696378035
 20
146.9039805971
 30
0.0
 10
1086.2216387191
 20
146.7526634557
 30
0.0
 10
1086.7764950671
 20
146.6502706125
 30
0.0
  0
SPLINE
  5
2A8
330
1B
100
AcDbEntity
 67
     1
  8
7_ALL_FEATURES
  6
Continuous
 62
     7
100
AcDbSpline
 70
     0
 71
     3
 72
     8
 73
     4
 74
     0
 42
0.000000001
 43
0.0000001
 40
0.0
 40
0.0
 40
0.0
 40
0.0
 40
1.0
 40
1.0
 40
1.0
 40
1.0
 10
1086.7764950671
 20
146.6502706125
 30
0.0
 10
1087.4061758987
 20
146.534069706
 30
0.0
 10
1088.0495993365
 20
146.4804466819
 30
0.0
 10
1088.689912229
 20
146.4804466819
 30
0.0
  0
LINE
  5
2A9
330
1B
100
AcDbEntity
 67
     1
  8
7_ALL_FEATURES
  6
Continuous
 62
     9
100
AcDbLine
 10
2837.689912229
 20
151.0997395646
 30
0.0
 11
1083.689912229
 21
151.0997395646
 31
0.0
  0
SPLINE
  5
2AA
330
1B
100
AcDbEntity
 67
     1
  8
7_ALL_FEATURES
  6
Continuous
 62
     7
100
AcDbSpline
 70
     0
 71
     3
 72
     8
 73
     4
 74
     0
 42
0.000000001
 43
0.0000001
 40
0.0
 40
0.0
 40
0.0
 40
0.0
 40
1.0
 40
1.0
 40
1.0
 40
1.0
 10
2832.689912229
 20
146.4804466819
 30
0.0
 10
2833.3302251215
 20
146.4804466819
 30
0.0
 10
2833.9736485593
 20
146.534069706
 30
0.0
 10
2834.6033293908
 20
146.6502706125
 30
0.0
  0
SPLINE
  5
2AB
330
1B
100
AcDbEntity
 67
     1
  8
7_ALL_FEATURES
  6
Continuous
 62
     7
100
AcDbSpline
 70
     0
 71
     3
 72
     8
 73
     4
 74
     0
 42
0.000000001
 43
0.0000001
 40
0.0
 40
0.0
 40
0.0
 40
0.0
 40
1.0
 40
1.0
 40
1.0
 40
1.0
 10
2834.6033293908
 20
146.6502706125
 30
0.0
 10
2835.1581857388
 20
146.7526634557
 30
0.0
 10
2835.7101866545
 20
146.9039805971
 30
0.0
 10
2836.2254461349
 20
147.1338882504
 30
0.0
  0
SPLINE
  5
2AC
330
1B
100
AcDbEntity
 67
     1
  8
7_ALL_FEATURES
  6
Continuous
 62
     7
100
AcDbSpline
 70
     0
 71
     3
 72
     9
 73
     5
 74
     0
 42
0.000000001
 43
0.0000001
 40
0.0
 40
0.0
 40
0.0
 40
0.0
 40
0.3205766837
 40
1.0
 40
1.0
 40
1.0
 40
1.0
 10
2836.2254461349
 20
147.1338882504
 30
0.0
 10
2836.4407666815
 20
147.2299638074
 30
0.0
 10
2837.0782902631
 20
147.5535353485
 30
0.0
 10
2837.689912229
 20
148.2117231133
 30
0.0
 10
2837.689912229
 20
148.7114357474
 30
0.0
  0
LINE
  5
2AD
330
1B
100
AcDbEntity
 67
     1
  8
7_ALL_FEATURES
  6
Continuous
 62
     9
100
AcDbLine
 10
2837.689912229
 20
157.0424701845
 30
0.0
 11
1083.689912229
 21
157.0424701845
 31
0.0
  0
LINE
  5
2AE
330
1B
100
AcDbEntity
 67
     1
  8
7_ALL_FEATURES
  6
Continuous
 62
     9
100
AcDbLine
 10
2837.689912229
 20
157.0916858681
 30
0.0
 11
1083.689912229
 21
157.0916858681
 31
0.0
  0
LINE
  5
2AF
330
1B
100
AcDbEntity
 67
     1
  8
7_ALL_FEATURES
  6
Continuous
 62
     9
100
AcDbLine
 10
2837.689912229
 20
158.2026869762
 30
0.0
 11
1083.689912229
 21
158.2026869762
 31
0.0
  0
LINE
  5
2B0
330
1B
100
AcDbEntity
 67
     1
  8
03___PRT_ALL_CURVES
  6
Continuous
 62
    40
100
AcDbLine
 10
1960.689912229
 20
151.0997395646
 30
0.0
 11
1960.689912229
 21
151.2153437015
 31
0.0
  0
LINE
  5
2B1
330
1B
100
AcDbEntity
 67
     1
  8
03___PRT_ALL_CURVES
  6
Continuous
 62
    40
100
AcDbLine
 10
1960.689912229
 20
151.0997395646
 30
0.0
 11
1960.689912229
 21
146.4804466819
 31
0.0
  0
LINE
  5
2B2
330
1B
100
AcDbEntity
 67
     1
  8
03___PRT_ALL_CURVES
  6
Continuous
 62
    40
100
AcDbLine
 10
1960.689912229
 20
158.2187375151
 30
0.0
 11
1960.689912229
 21
157.0756353292
 31
0.0
  0
LINE
  5
2B3
330
1B
100
AcDbEntity
 67
     1
  8
03___PRT_ALL_CURVES
  6
Continuous
 62
    40
100
AcDbLine
 10
1960.689912229
 20
157.0756353292
 30
0.0
 11
1960.689912229
 21
154.7136492586
 31
0.0
  0
LINE
  5
2B4
330
1B
100
AcDbEntity
 67
     1
  8
03___PRT_ALL_CURVES
  6
Continuous
 62
    40
100
AcDbLine
 10
1960.689912229
 20
158.2026869762
 30
0.0
 11
1960.689912229
 21
158.2174509382
 31
0.0
  0
LINE
  5
2B5
330
1B
100
AcDbEntity
 67
     1
  8
03___PRT_ALL_CURVES
  6
Continuous
 62
    40
100
AcDbLine
 10
1960.689912229
 20
154.7136492586
 30
0.0
 11
1960.689912229
 21
151.1655237195
 31
0.0
  0
LINE
  5
2B6
330
1B
100
AcDbEntity
 67
     1
  8
03___PRT_ALL_CURVES
  6
Continuous
 62
    40
100
AcDbLine
 10
1960.689912229
 20
151.1655237195
 30
0.0
 11
1960.689912229
 21
146.4804466819
 31
0.0
  0
LINE
  5
2B7
330
1B
100
AcDbEntity
 67
     1
  8
03___PRT_ALL_CURVES
  6
Continuous
 62
    40
100
AcDbLine
 10
1960.689912229
 20
158.2026869762
 30
0.0
 11
1960.689912229
 21
157.0916858681
 31
0.0
  0
LINE
  5
2B8
330
1B
100
AcDbEntity
 67
     1
  8
03___PRT_ALL_CURVES
  6
Continuous
 62
    40
100
AcDbLine
 10
1960.689912229
 20
157.0424701845
 30
0.0
 11
1960.689912229
 21
157.091685869
 31
0.0
  0
LINE
  5
2B9
330
1B
100
AcDbEntity
 67
     1
  8
03___PRT_ALL_CURVES
  6
Continuous
 62
    40
100
AcDbLine
 10
1960.689912229
 20
157.0424701845
 30
0.0
 11
1960.689912229
 21
154.7468144032
 31
0.0
  0
LINE
  5
2BA
330
1B
100
AcDbEntity
 67
     1
  8
03___PRT_ALL_CURVES
  6
Continuous
 62
    40
100
AcDbLine
 10
1960.689912229
 20
154.6638292794
 30
0.0
 11
1960.689912229
 21
154.7468144051
 31
0.0
  0
LINE
  5
2BB
330
1B
100
AcDbEntity
 67
     1
  8
03___PRT_ALL_CURVES
  6
Continuous
 62
    40
100
AcDbLine
 10
1960.689912229
 20
154.6638292794
 30
0.0
 11
1960.689912229
 21
151.2153436987
 31
0.0
  0
ARC
  5
2BC
330
1B
100
AcDbEntity
 67
     1
  8
02___PRT_ALL_AXES
  6
Continuous
 62
     3
100
AcDbCircle
 10
2800.689912229
 20
146.7779960215
 30
0.0
 40
1.75
100
AcDbArc
 50
216.3527923319
 51
323.6472076681
  0
ARC
  5
2BD
330
1B
100
AcDbEntity
 67
     1
  8
02___PRT_ALL_AXES
  6
Continuous
 62
     3
100
AcDbCircle
 10
2560.689912229
 20
146.7779960215
 30
0.0
 40
1.75
100
AcDbArc
 50
216.3527923319
 51
323.6472076681
  0
ARC
  5
2BE
330
1B
100
AcDbEntity
 67
     1
  8
02___PRT_ALL_AXES
  6
Continuous
 62
     3
100
AcDbCircle
 10
2320.689912229
 20
146.7779960215
 30
0.0
 40
1.75
100
AcDbArc
 50
216.3527923319
 51
323.6472076681
  0
ARC
  5
2BF
330
1B
100
AcDbEntity
 67
     1
  8
02___PRT_ALL_AXES
  6
Continuous
 62
     3
100
AcDbCircle
 10
2080.689912229
 20
146.7779960215
 30
0.0
 40
1.75
100
AcDbArc
 50
216.3527923319
 51
323.6472076681
  0
ARC
  5
2C0
330
1B
100
AcDbEntity
 67
     1
  8
02___PRT_ALL_AXES
  6
Continuous
 62
     3
100
AcDbCircle
 10
1840.689912229
 20
146.7779960215
 30
0.0
 40
1.75
100
AcDbArc
 50
216.3527923319
 51
323.6472076681
  0
ARC
  5
2C1
330
1B
100
AcDbEntity
 67
     1
  8
02___PRT_ALL_AXES
  6
Continuous
 62
     3
100
AcDbCircle
 10
1600.689912229
 20
146.7779960215
 30
0.0
 40
1.75
100
AcDbArc
 50
216.3527923319
 51
323.6472076681
  0
ARC
  5
2C2
330
1B
100
AcDbEntity
 67
     1
  8
02___PRT_ALL_AXES
  6
Continuous
 62
     3
100
AcDbCircle
 10
1360.689912229
 20
146.7779960215
 30
0.0
 40
1.75
100
AcDbArc
 50
216.3527923319
 51
323.6472076681
  0
ARC
  5
2C3
330
1B
100
AcDbEntity
 67
     1
  8
02___PRT_ALL_AXES
  6
Continuous
 62
     3
100
AcDbCircle
 10
1120.689912229
 20
146.7779960215
 30
0.0
 40
1.75
100
AcDbArc
 50
216.3527923319
 51
323.6472076681
  0
ARC
  5
2C4
330
1B
100
AcDbEntity
 67
     1
  8
7_ALL_FEATURES
  6
Continuous
 62
     3
100
AcDbCircle
 10
1117.189912229
 20
144.2779960215
 30
0.0
 40
3.0
100
AcDbArc
 50
180.0
 51
270.0
  0
LINE
  5
2C5
330
1B
100
AcDbEntity
 67
     1
  8
7_ALL_FEATURES
  6
Continuous
 62
     3
100
AcDbLine
 10
1114.189912229
 20
144.2779960215
 30
0.0
 11
1114.189912229
 21
145.7644991926
 31
0.0
  0
LINE
  5
2C6
330
1B
100
AcDbEntity
 67
     1
  8
7_ALL_FEATURES
  6
Continuous
 62
     3
100
AcDbLine
 10
1127.189912229
 20
144.2779960215
 30
0.0
 11
1127.189912229
 21
145.7644991926
 31
0.0
  0
ARC
  5
2C7
330
1B
100
AcDbEntity
 67
     1
  8
7_ALL_FEATURES
  6
Continuous
 62
     3
100
AcDbCircle
 10
1124.189912229
 20
144.2779960215
 30
0.0
 40
3.0
100
AcDbArc
 50
270.0
 51
360.0
  0
LINE
  5
2C8
330
1B
100
AcDbEntity
 67
     1
  8
7_ALL_FEATURES
  6
Continuous
 62
     3
100
AcDbLine
 10
1117.189912229
 20
141.2779960215
 30
0.0
 11
1124.189912229
 21
141.2779960215
 31
0.0
  0
ARC
  5
2C9
330
1B
100
AcDbEntity
 67
     1
  8
7_ALL_FEATURES
  6
Continuous
 62
     3
100
AcDbCircle
 10
1357.189912229
 20
144.2779960215
 30
0.0
 40
3.0
100
AcDbArc
 50
180.0
 51
270.0
  0
LINE
  5
2CA
330
1B
100
AcDbEntity
 67
     1
  8
7_ALL_FEATURES
  6
Continuous
 62
     3
100
AcDbLine
 10
1354.189912229
 20
144.2779960215
 30
0.0
 11
1354.189912229
 21
145.7644991926
 31
0.0
  0
LINE
  5
2CB
330
1B
100
AcDbEntity
 67
     1
  8
7_ALL_FEATURES
  6
Continuous
 62
     3
100
AcDbLine
 10
1367.189912229
 20
144.2779960215
 30
0.0
 11
1367.189912229
 21
145.7644991926
 31
0.0
  0
ARC
  5
2CC
330
1B
100
AcDbEntity
 67
     1
  8
7_ALL_FEATURES
  6
Continuous
 62
     3
100
AcDbCircle
 10
1364.189912229
 20
144.2779960215
 30
0.0
 40
3.0
100
AcDbArc
 50
270.0
 51
360.0
  0
LINE
  5
2CD
330
1B
100
AcDbEntity
 67
     1
  8
7_ALL_FEATURES
  6
Continuous
 62
     3
100
AcDbLine
 10
1357.189912229
 20
141.2779960215
 30
0.0
 11
1364.189912229
 21
141.2779960215
 31
0.0
  0
ARC
  5
2CE
330
1B
100
AcDbEntity
 67
     1
  8
7_ALL_FEATURES
  6
Continuous
 62
     3
100
AcDbCircle
 10
1597.189912229
 20
144.2779960215
 30
0.0
 40
3.0
100
AcDbArc
 50
180.0
 51
270.0
  0
LINE
  5
2CF
330
1B
100
AcDbEntity
 67
     1
  8
7_ALL_FEATURES
  6
Continuous
 62
     3
100
AcDbLine
 10
1594.189912229
 20
144.2779960215
 30
0.0
 11
1594.189912229
 21
145.7644991926
 31
0.0
  0
LINE
  5
2D0
330
1B
100
AcDbEntity
 67
     1
  8
7_ALL_FEATURES
  6
Continuous
 62
     3
100
AcDbLine
 10
1607.189912229
 20
144.2779960215
 30
0.0
 11
1607.189912229
 21
145.7644991926
 31
0.0
  0
ARC
  5
2D1
330
1B
100
AcDbEntity
 67
     1
  8
7_ALL_FEATURES
  6
Continuous
 62
     3
100
AcDbCircle
 10
1604.189912229
 20
144.2779960215
 30
0.0
 40
3.0
100
AcDbArc
 50
270.0
 51
360.0
  0
LINE
  5
2D2
330
1B
100
AcDbEntity
 67
     1
  8
7_ALL_FEATURES
  6
Continuous
 62
     3
100
AcDbLine
 10
1597.189912229
 20
141.2779960215
 30
0.0
 11
1604.189912229
 21
141.2779960215
 31
0.0
  0
ARC
  5
2D3
330
1B
100
AcDbEntity
 67
     1
  8
7_ALL_FEATURES
  6
Continuous
 62
     3
100
AcDbCircle
 10
1837.189912229
 20
144.2779960215
 30
0.0
 40
3.0
100
AcDbArc
 50
180.0
 51
270.0
  0
LINE
  5
2D4
330
1B
100
AcDbEntity
 67
     1
  8
7_ALL_FEATURES
  6
Continuous
 62
     3
100
AcDbLine
 10
1834.189912229
 20
144.2779960215
 30
0.0
 11
1834.189912229
 21
145.7644991926
 31
0.0
  0
LINE
  5
2D5
330
1B
100
AcDbEntity
 67
     1
  8
7_ALL_FEATURES
  6
Continuous
 62
     3
100
AcDbLine
 10
1847.189912229
 20
144.2779960215
 30
0.0
 11
1847.189912229
 21
145.7644991926
 31
0.0
  0
ARC
  5
2D6
330
1B
100
AcDbEntity
 67
     1
  8
7_ALL_FEATURES
  6
Continuous
 62
     3
100
AcDbCircle
 10
1844.189912229
 20
144.2779960215
 30
0.0
 40
3.0
100
AcDbArc
 50
270.0
 51
360.0
  0
LINE
  5
2D7
330
1B
100
AcDbEntity
 67
     1
  8
7_ALL_FEATURES
  6
Continuous
 62
     3
100
AcDbLine
 10
1837.189912229
 20
141.2779960215
 30
0.0
 11
1844.189912229
 21
141.2779960215
 31
0.0
  0
ARC
  5
2D8
330
1B
100
AcDbEntity
 67
     1
  8
7_ALL_FEATURES
  6
Continuous
 62
     3
100
AcDbCircle
 10
2077.189912229
 20
144.2779960215
 30
0.0
 40
3.0
100
AcDbArc
 50
180.0
 51
270.0
  0
LINE
  5
2D9
330
1B
100
AcDbEntity
 67
     1
  8
7_ALL_FEATURES
  6
Continuous
 62
     3
100
AcDbLine
 10
2074.189912229
 20
144.2779960215
 30
0.0
 11
2074.189912229
 21
145.7644991926
 31
0.0
  0
LINE
  5
2DA
330
1B
100
AcDbEntity
 67
     1
  8
7_ALL_FEATURES
  6
Continuous
 62
     3
100
AcDbLine
 10
2087.189912229
 20
144.2779960215
 30
0.0
 11
2087.189912229
 21
145.7644991926
 31
0.0
  0
ARC
  5
2DB
330
1B
100
AcDbEntity
 67
     1
  8
7_ALL_FEATURES
  6
Continuous
 62
     3
100
AcDbCircle
 10
2084.189912229
 20
144.2779960215
 30
0.0
 40
3.0
100
AcDbArc
 50
270.0
 51
360.0
  0
LINE
  5
2DC
330
1B
100
AcDbEntity
 67
     1
  8
7_ALL_FEATURES
  6
Continuous
 62
     3
100
AcDbLine
 10
2077.189912229
 20
141.2779960215
 30
0.0
 11
2084.189912229
 21
141.2779960215
 31
0.0
  0
ARC
  5
2DD
330
1B
100
AcDbEntity
 67
     1
  8
7_ALL_FEATURES
  6
Continuous
 62
     3
100
AcDbCircle
 10
2317.189912229
 20
144.2779960215
 30
0.0
 40
3.0
100
AcDbArc
 50
180.0
 51
270.0
  0
LINE
  5
2DE
330
1B
100
AcDbEntity
 67
     1
  8
7_ALL_FEATURES
  6
Continuous
 62
     3
100
AcDbLine
 10
2314.189912229
 20
144.2779960215
 30
0.0
 11
2314.189912229
 21
145.7644991926
 31
0.0
  0
LINE
  5
2DF
330
1B
100
AcDbEntity
 67
     1
  8
7_ALL_FEATURES
  6
Continuous
 62
     3
100
AcDbLine
 10
2327.189912229
 20
144.2779960215
 30
0.0
 11
2327.189912229
 21
145.7644991926
 31
0.0
  0
ARC
  5
2E0
330
1B
100
AcDbEntity
 67
     1
  8
7_ALL_FEATURES
  6
Continuous
 62
     3
100
AcDbCircle
 10
2324.189912229
 20
144.2779960215
 30
0.0
 40
3.0
100
AcDbArc
 50
270.0
 51
360.0
  0
LINE
  5
2E1
330
1B
100
AcDbEntity
 67
     1
  8
7_ALL_FEATURES
  6
Continuous
 62
     3
100
AcDbLine
 10
2317.189912229
 20
141.2779960215
 30
0.0
 11
2324.189912229
 21
141.2779960215
 31
0.0
  0
ARC
  5
2E2
330
1B
100
AcDbEntity
 67
     1
  8
7_ALL_FEATURES
  6
Continuous
 62
     3
100
AcDbCircle
 10
2557.189912229
 20
144.2779960215
 30
0.0
 40
3.0
100
AcDbArc
 50
180.0
 51
270.0
  0
LINE
  5
2E3
330
1B
100
AcDbEntity
 67
     1
  8
7_ALL_FEATURES
  6
Continuous
 62
     3
100
AcDbLine
 10
2554.189912229
 20
144.2779960215
 30
0.0
 11
2554.189912229
 21
145.7644991926
 31
0.0
  0
LINE
  5
2E4
330
1B
100
AcDbEntity
 67
     1
  8
7_ALL_FEATURES
  6
Continuous
 62
     3
100
AcDbLine
 10
2567.189912229
 20
144.2779960215
 30
0.0
 11
2567.189912229
 21
145.7644991926
 31
0.0
  0
ARC
  5
2E5
330
1B
100
AcDbEntity
 67
     1
  8
7_ALL_FEATURES
  6
Continuous
 62
     3
100
AcDbCircle
 10
2564.189912229
 20
144.2779960215
 30
0.0
 40
3.0
100
AcDbArc
 50
270.0
 51
360.0
  0
LINE
  5
2E6
330
1B
100
AcDbEntity
 67
     1
  8
7_ALL_FEATURES
  6
Continuous
 62
     3
100
AcDbLine
 10
2557.189912229
 20
141.2779960215
 30
0.0
 11
2564.189912229
 21
141.2779960215
 31
0.0
  0
ARC
  5
2E7
330
1B
100
AcDbEntity
 67
     1
  8
7_ALL_FEATURES
  6
Continuous
 62
     3
100
AcDbCircle
 10
2797.189912229
 20
144.2779960215
 30
0.0
 40
3.0
100
AcDbArc
 50
180.0
 51
270.0
  0
LINE
  5
2E8
330
1B
100
AcDbEntity
 67
     1
  8
7_ALL_FEATURES
  6
Continuous
 62
     3
100
AcDbLine
 10
2794.189912229
 20
144.2779960215
 30
0.0
 11
2794.189912229
 21
145.7644991926
 31
0.0
  0
LINE
  5
2E9
330
1B
100
AcDbEntity
 67
     1
  8
7_ALL_FEATURES
  6
Continuous
 62
     3
100
AcDbLine
 10
2807.189912229
 20
144.2779960215
 30
0.0
 11
2807.189912229
 21
145.7644991926
 31
0.0
  0
ARC
  5
2EA
330
1B
100
AcDbEntity
 67
     1
  8
7_ALL_FEATURES
  6
Continuous
 62
     3
100
AcDbCircle
 10
2804.189912229
 20
144.2779960215
 30
0.0
 40
3.0
100
AcDbArc
 50
270.0
 51
360.0
  0
LINE
  5
2EB
330
1B
100
AcDbEntity
 67
     1
  8
7_ALL_FEATURES
  6
Continuous
 62
     3
100
AcDbLine
 10
2797.189912229
 20
141.2779960215
 30
0.0
 11
2804.189912229
 21
141.2779960215
 31
0.0
  0
SPLINE
  5
2EC
330
1B
100
AcDbEntity
 67
     1
  8
7_ALL_FEATURES
  6
Continuous
 62
     3
100
AcDbSpline
 70
     0
 71
     3
 72
     8
 73
     4
 74
     0
 42
0.000000001
 43
0.0000001
 40
0.0
 40
0.0
 40
0.0
 40
0.0
 40
1.0
 40
1.0
 40
1.0
 40
1.0
 10
1088.689912229
 20
145.7644991926
 30
0.0
 10
1088.0495993365
 20
145.7644991926
 30
0.0
 10
1087.4061758987
 20
145.8181222167
 30
0.0
 10
1086.7764950671
 20
145.9343231232
 30
0.0
  0
SPLINE
  5
2ED
330
1B
100
AcDbEntity
 67
     1
  8
7_ALL_FEATURES
  6
Continuous
 62
     3
100
AcDbSpline
 70
     0
 71
     3
 72
     8
 73
     4
 74
     0
 42
0.000000001
 43
0.0000001
 40
0.0
 40
0.0
 40
0.0
 40
0.0
 40
1.0
 40
1.0
 40
1.0
 40
1.0
 10
1086.7764950671
 20
145.9343231232
 30
0.0
 10
1086.2216387191
 20
146.0367159664
 30
0.0
 10
1085.6696378035
 20
146.1880331078
 30
0.0
 10
1085.154378323
 20
146.4179407611
 30
0.0
  0
SPLINE
  5
2EE
330
1B
100
AcDbEntity
 67
     1
  8
7_ALL_FEATURES
  6
Continuous
 62
     3
100
AcDbSpline
 70
     0
 71
     3
 72
     9
 73
     5
 74
     0
 42
0.000000001
 43
0.0000001
 40
0.0
 40
0.0
 40
0.0
 40
0.0
 40
0.3205766837
 40
1.0
 40
1.0
 40
1.0
 40
1.0
 10
1085.154378323
 20
146.4179407611
 30
0.0
 10
1084.9390577765
 20
146.5140163181
 30
0.0
 10
1084.3015341948
 20
146.8375878592
 30
0.0
 10
1083.689912229
 20
147.495775624
 30
0.0
 10
1083.689912229
 20
147.9954882581
 30
0.0
  0
SPLINE
  5
2EF
330
1B
100
AcDbEntity
 67
     1
  8
7_ALL_FEATURES
  6
Continuous
 62
     3
100
AcDbSpline
 70
     0
 71
     3
 72
     8
 73
     4
 74
     0
 42
0.000000001
 43
0.0000001
 40
0.0
 40
0.0
 40
0.0
 40
0.0
 40
1.0
 40
1.0
 40
1.0
 40
1.0
 10
2837.689912229
 20
147.9954882581
 30
0.0
 10
2837.689912229
 20
147.6839029503
 30
0.0
 10
2837.5211236059
 20
147.3702434383
 30
0.0
 10
2837.3093098915
 20
147.141725705
 30
0.0
  0
SPLINE
  5
2F0
330
1B
100
AcDbEntity
 67
     1
  8
7_ALL_FEATURES
  6
Continuous
 62
     3
100
AcDbSpline
 70
     0
 71
     3
 72
     8
 73
     4
 74
     0
 42
0.000000001
 43
0.0000001
 40
0.0
 40
0.0
 40
0.0
 40
0.0
 40
1.0
 40
1.0
 40
1.0
 40
1.0
 10
2837.3093098915
 20
147.141725705
 30
0.0
 10
2837.0139818789
 20
146.8231075824
 30
0.0
 10
2836.622181757
 20
146.5949633281
 30
0.0
 10
2836.2254461349
 20
146.4179407611
 30
0.0
  0
SPLINE
  5
2F1
330
1B
100
AcDbEntity
 67
     1
  8
7_ALL_FEATURES
  6
Continuous
 62
     3
100
AcDbSpline
 70
     0
 71
     3
 72
     8
 73
     4
 74
     0
 42
0.000000001
 43
0.0000001
 40
0.0
 40
0.0
 40
0.0
 40
0.0
 40
1.0
 40
1.0
 40
1.0
 40
1.0
 10
2836.2254461349
 20
146.4179407611
 30
0.0
 10
2835.7101866545
 20
146.1880331078
 30
0.0
 10
2835.1581857388
 20
146.0367159664
 30
0.0
 10
2834.6033293908
 20
145.9343231232
 30
0.0
  0
SPLINE
  5
2F2
330
1B
100
AcDbEntity
 67
     1
  8
7_ALL_FEATURES
  6
Continuous
 62
     3
100
AcDbSpline
 70
     0
 71
     3
 72
     8
 73
     4
 74
     0
 42
0.000000001
 43
0.0000001
 40
0.0
 40
0.0
 40
0.0
 40
0.0
 40
1.0
 40
1.0
 40
1.0
 40
1.0
 10
2834.6033293908
 20
145.9343231232
 30
0.0
 10
2833.9736485593
 20
145.8181222167
 30
0.0
 10
2833.3302251215
 20
145.7644991926
 30
0.0
 10
2832.689912229
 20
145.7644991926
 30
0.0
  0
LINE
  5
2F3
330
1B
100
AcDbEntity
 67
     1
  8
7_ALL_FEATURES
  6
Continuous
 62
     3
100
AcDbLine
 10
2832.689912229
 20
145.7644991926
 30
0.0
 11
1960.689912229
 21
145.7644991926
 31
0.0
  0
LINE
  5
2F4
330
1B
100
AcDbEntity
 67
     1
  8
7_ALL_FEATURES
  6
Continuous
 62
     3
100
AcDbLine
 10
1960.689912229
 20
145.7644991926
 30
0.0
 11
1088.689912229
 21
145.7644991926
 31
0.0
  0
LINE
  5
2F5
330
1B
100
AcDbEntity
 67
     1
  8
7_ALL_FEATURES
  6
Continuous
 62
     7
100
AcDbLine
 10
1114.189912229
 20
259.746134618
 30
0.0
 11
1114.189912229
 21
260.546134618
 31
0.0
  0
LINE
  5
2F6
330
1B
100
AcDbEntity
 67
     1
  8
7_ALL_FEATURES
  6
Continuous
 62
     7
100
AcDbLine
 10
2794.189912229
 20
259.746134618
 30
0.0
 11
2794.189912229
 21
260.546134618
 31
0.0
  0
LINE
  5
2F7
330
1B
100
AcDbEntity
 67
     1
  8
7_ALL_FEATURES
  6
Continuous
 62
     7
100
AcDbLine
 10
2554.189912229
 20
259.746134618
 30
0.0
 11
2554.189912229
 21
260.546134618
 31
0.0
  0
LINE
  5
2F8
330
1B
100
AcDbEntity
 67
     1
  8
7_ALL_FEATURES
  6
Continuous
 62
     7
100
AcDbLine
 10
2314.189912229
 20
259.746134618
 30
0.0
 11
2314.189912229
 21
260.546134618
 31
0.0
  0
LINE
  5
2F9
330
1B
100
AcDbEntity
 67
     1
  8
7_ALL_FEATURES
  6
Continuous
 62
     7
100
AcDbLine
 10
2074.189912229
 20
259.746134618
 30
0.0
 11
2074.189912229
 21
260.546134618
 31
0.0
  0
LINE
  5
2FA
330
1B
100
AcDbEntity
 67
     1
  8
7_ALL_FEATURES
  6
Continuous
 62
     7
100
AcDbLine
 10
1834.189912229
 20
259.746134618
 30
0.0
 11
1834.189912229
 21
260.546134618
 31
0.0
  0
LINE
  5
2FB
330
1B
100
AcDbEntity
 67
     1
  8
7_ALL_FEATURES
  6
Continuous
 62
     7
100
AcDbLine
 10
1594.189912229
 20
259.746134618
 30
0.0
 11
1594.189912229
 21
260.546134618
 31
0.0
  0
LINE
  5
2FC
330
1B
100
AcDbEntity
 67
     1
  8
7_ALL_FEATURES
  6
Continuous
 62
     7
100
AcDbLine
 10
1354.189912229
 20
259.746134618
 30
0.0
 11
1354.189912229
 21
260.546134618
 31
0.0
  0
LINE
  5
2FD
330
1B
100
AcDbEntity
 67
     1
  8
7_ALL_FEATURES
  6
Continuous
 62
     7
100
AcDbLine
 10
1083.689912229
 20
267.7109281285
 30
0.0
 11
1083.689912229
 21
267.9044656449
 31
0.0
  0
LINE
  5
2FE
330
1B
100
AcDbEntity
 67
     1
  8
7_ALL_FEATURES
  6
Continuous
 62
     7
100
AcDbLine
 10
1083.689912229
 20
323.4732513547
 30
0.0
 11
1083.689912229
 21
323.1162931042
 31
0.0
  0
LINE
  5
2FF
330
1B
100
AcDbEntity
 67
     1
  8
7_ALL_FEATURES
  6
Continuous
 62
     7
100
AcDbLine
 10
1083.689912229
 20
323.2025486169
 30
0.0
 11
1083.689912229
 21
322.9322152425
 31
0.0
  0
SPLINE
  5
300
330
1B
100
AcDbEntity
 67
     1
  8
7_ALL_FEATURES
  6
Continuous
 62
     7
100
AcDbSpline
 70
     0
 71
     3
 72
     9
 73
     5
 74
     0
 42
0.000000001
 43
0.0000001
 40
0.0
 40
0.0
 40
0.0
 40
0.0
 40
0.4397223996
 40
1.0
 40
1.0
 40
1.0
 40
1.0
 10
1113.689912229
 20
262.729454519
 30
0.0
 10
1113.642259268
 20
262.729454519
 30
0.0
 10
1113.5337180848
 20
262.7044778604
 30
0.0
 10
1113.4407031296
 20
262.6461552204
 30
0.0
 10
1113.3924153979
 20
262.6093459644
 30
0.0
  0
LINE
  5
301
330
1B
100
AcDbEntity
 67
     1
  8
7_ALL_FEATURES
  6
Continuous
 62
     7
100
AcDbLine
 10
1083.689912229
 20
313.597720727
 30
0.0
 11
1083.689912229
 21
313.3273873526
 31
0.0
  0
SPLINE
  5
302
330
1B
100
AcDbEntity
 67
     1
  8
7_ALL_FEATURES
  6
Continuous
 62
     7
100
AcDbSpline
 70
     0
 71
     3
 72
     9
 73
     5
 74
     0
 42
0.000000001
 43
0.0000001
 40
0.0
 40
0.0
 40
0.0
 40
0.0
 40
0.4397223996
 40
1.0
 40
1.0
 40
1.0
 40
1.0
 10
1353.689912229
 20
262.729454519
 30
0.0
 10
1353.642259268
 20
262.729454519
 30
0.0
 10
1353.5337180848
 20
262.7044778604
 30
0.0
 10
1353.4407031296
 20
262.6461552204
 30
0.0
 10
1353.3924153979
 20
262.6093459644
 30
0.0
  0
LINE
  5
303
330
1B
100
AcDbEntity
 67
     1
  8
7_ALL_FEATURES
  6
Continuous
 62
     7
100
AcDbLine
 10
1083.689912229
 20
313.3153065679
 30
0.0
 11
1083.689912229
 21
313.1353457244
 31
0.0
  0
SPLINE
  5
304
330
1B
100
AcDbEntity
 67
     1
  8
7_ALL_FEATURES
  6
Continuous
 62
     7
100
AcDbSpline
 70
     0
 71
     3
 72
     9
 73
     5
 74
     0
 42
0.000000001
 43
0.0000001
 40
0.0
 40
0.0
 40
0.0
 40
0.0
 40
0.4397223996
 40
1.0
 40
1.0
 40
1.0
 40
1.0
 10
1593.689912229
 20
262.729454519
 30
0.0
 10
1593.642259268
 20
262.729454519
 30
0.0
 10
1593.5337180848
 20
262.7044778604
 30
0.0
 10
1593.4407031296
 20
262.6461552204
 30
0.0
 10
1593.3924153979
 20
262.6093459644
 30
0.0
  0
LINE
  5
305
330
1B
100
AcDbEntity
 67
     1
  8
7_ALL_FEATURES
  6
Continuous
 62
     7
100
AcDbLine
 10
1083.689912229
 20
303.3717289356
 30
0.0
 11
1083.689912229
 21
303.1917680921
 31
0.0
  0
SPLINE
  5
306
330
1B
100
AcDbEntity
 67
     1
  8
7_ALL_FEATURES
  6
Continuous
 62
     7
100
AcDbSpline
 70
     0
 71
     3
 72
     9
 73
     5
 74
     0
 42
0.000000001
 43
0.0000001
 40
0.0
 40
0.0
 40
0.0
 40
0.0
 40
0.4397223996
 40
1.0
 40
1.0
 40
1.0
 40
1.0
 10
1833.689912229
 20
262.729454519
 30
0.0
 10
1833.642259268
 20
262.729454519
 30
0.0
 10
1833.5337180848
 20
262.7044778604
 30
0.0
 10
1833.4407031296
 20
262.6461552204
 30
0.0
 10
1833.3924153979
 20
262.6093459644
 30
0.0
  0
LINE
  5
307
330
1B
100
AcDbEntity
 67
     1
  8
7_ALL_FEATURES
  6
Continuous
 62
     7
100
AcDbLine
 10
1083.689912229
 20
303.0815184869
 30
0.0
 11
1083.689912229
 21
302.994424987
 31
0.0
  0
LINE
  5
308
330
1B
100
AcDbEntity
 67
     1
  8
7_ALL_FEATURES
  6
Continuous
 62
     7
100
AcDbLine
 10
2837.689912229
 20
292.6430562591
 30
0.0
 11
2837.689912229
 21
292.6500374875
 31
0.0
  0
LINE
  5
309
330
1B
100
AcDbEntity
 67
     1
  8
7_ALL_FEATURES
  6
Continuous
 62
     7
100
AcDbLine
 10
1083.689912229
 20
292.937039785
 30
0.0
 11
1083.689912229
 21
292.8499462851
 31
0.0
  0
LINE
  5
30A
330
1B
100
AcDbEntity
 67
     1
  8
7_ALL_FEATURES
  6
Continuous
 62
     7
100
AcDbLine
 10
2837.689912229
 20
282.4383102692
 30
0.0
 11
2837.689912229
 21
282.4452914976
 31
0.0
  0
SPLINE
  5
30B
330
1B
100
AcDbEntity
 67
     1
  8
7_ALL_FEATURES
  6
Continuous
 62
     7
100
AcDbSpline
 70
     0
 71
     3
 72
     9
 73
     5
 74
     0
 42
0.000000001
 43
0.0000001
 40
0.0
 40
0.0
 40
0.0
 40
0.0
 40
0.4397223996
 40
1.0
 40
1.0
 40
1.0
 40
1.0
 10
2073.689912229
 20
262.729454519
 30
0.0
 10
2073.642259268
 20
262.729454519
 30
0.0
 10
2073.5337180848
 20
262.7044778604
 30
0.0
 10
2073.4407031296
 20
262.6461552204
 30
0.0
 10
2073.3924153979
 20
262.6093459644
 30
0.0
  0
LINE
  5
30C
330
1B
100
AcDbEntity
 67
     1
  8
7_ALL_FEATURES
  6
Continuous
 62
     7
100
AcDbLine
 10
2837.689912229
 20
282.1446291852
 30
0.0
 11
2837.689912229
 21
282.2455883605
 31
0.0
  0
SPLINE
  5
30D
330
1B
100
AcDbEntity
 67
     1
  8
7_ALL_FEATURES
  6
Continuous
 62
     7
100
AcDbSpline
 70
     0
 71
     3
 72
     9
 73
     5
 74
     0
 42
0.000000001
 43
0.0000001
 40
0.0
 40
0.0
 40
0.0
 40
0.0
 40
0.4397223996
 40
1.0
 40
1.0
 40
1.0
 40
1.0
 10
2313.689912229
 20
262.729454519
 30
0.0
 10
2313.642259268
 20
262.729454519
 30
0.0
 10
2313.5337180848
 20
262.7044778604
 30
0.0
 10
2313.4407031296
 20
262.6461552204
 30
0.0
 10
2313.3924153979
 20
262.6093459644
 30
0.0
  0
LINE
  5
30E
330
1B
100
AcDbEntity
 67
     1
  8
7_ALL_FEATURES
  6
Continuous
 62
     7
100
AcDbLine
 10
2837.689912229
 20
272.0210851794
 30
0.0
 11
2837.689912229
 21
272.1220443547
 31
0.0
  0
SPLINE
  5
30F
330
1B
100
AcDbEntity
 67
     1
  8
7_ALL_FEATURES
  6
Continuous
 62
     7
100
AcDbSpline
 70
     0
 71
     3
 72
     9
 73
     5
 74
     0
 42
0.000000001
 43
0.0000001
 40
0.0
 40
0.0
 40
0.0
 40
0.0
 40
0.4397223996
 40
1.0
 40
1.0
 40
1.0
 40
1.0
 10
2553.689912229
 20
262.729454519
 30
0.0
 10
2553.642259268
 20
262.729454519
 30
0.0
 10
2553.5337180848
 20
262.7044778604
 30
0.0
 10
2553.4407031296
 20
262.6461552204
 30
0.0
 10
2553.3924153979
 20
262.6093459644
 30
0.0
  0
LINE
  5
310
330
1B
100
AcDbEntity
 67
     1
  8
7_ALL_FEATURES
  6
Continuous
 62
     7
100
AcDbLine
 10
2837.689912229
 20
271.7317778633
 30
0.0
 11
2837.689912229
 21
271.9253153797
 31
0.0
  0
SPLINE
  5
311
330
1B
100
AcDbEntity
 67
     1
  8
7_ALL_FEATURES
  6
Continuous
 62
     7
100
AcDbSpline
 70
     0
 71
     3
 72
     9
 73
     5
 74
     0
 42
0.000000001
 43
0.0000001
 40
0.0
 40
0.0
 40
0.0
 40
0.0
 40
0.4397223996
 40
1.0
 40
1.0
 40
1.0
 40
1.0
 10
2793.689912229
 20
262.729454519
 30
0.0
 10
2793.642259268
 20
262.729454519
 30
0.0
 10
2793.5337180848
 20
262.7044778604
 30
0.0
 10
2793.4407031296
 20
262.6461552204
 30
0.0
 10
2793.3924153979
 20
262.6093459644
 30
0.0
  0
LINE
  5
312
330
1B
100
AcDbEntity
 67
     1
  8
7_ALL_FEATURES
  6
Continuous
 62
     7
100
AcDbLine
 10
2837.689912229
 20
327.9064894904
 30
0.0
 11
2837.689912229
 21
328.2634477409
 31
0.0
  0
LINE
  5
313
330
1B
100
AcDbEntity
 67
     1
  8
7_ALL_FEATURES
  6
Continuous
 62
     7
100
AcDbLine
 10
1083.689912229
 20
327.9064894904
 30
0.0
 11
1083.689912229
 21
328.2634477409
 31
0.0
  0
LINE
  5
314
330
1B
100
AcDbEntity
 67
     1
  8
7_ALL_FEATURES
  6
Continuous
 62
     7
100
AcDbLine
 10
2832.689912229
 20
332.7381195489
 30
0.0
 11
1960.689912229
 21
332.7381195489
 31
0.0
  0
LINE
  5
315
330
1B
100
AcDbEntity
 67
     1
  8
7_ALL_FEATURES
  6
Continuous
 62
     7
100
AcDbLine
 10
1960.689912229
 20
332.7381195489
 30
0.0
 11
1088.689912229
 21
332.7381195489
 31
0.0
  0
SPLINE
  5
316
330
1B
100
AcDbEntity
 67
     1
  8
7_ALL_FEATURES
  6
Continuous
 62
     7
100
AcDbSpline
 70
     0
 71
     3
 72
     8
 73
     4
 74
     0
 42
0.000000001
 43
0.0000001
 40
0.0
 40
0.0
 40
0.0
 40
0.0
 40
1.0
 40
1.0
 40
1.0
 40
1.0
 10
1085.154378323
 20
331.4275185199
 30
0.0
 10
1086.0909636134
 20
332.2657008788
 30
0.0
 10
1087.4330344811
 20
332.7381195489
 30
0.0
 10
1088.689912229
 20
332.7381195489
 30
0.0
  0
SPLINE
  5
317
330
1B
100
AcDbEntity
 67
     1
  8
7_ALL_FEATURES
  6
Continuous
 62
     7
100
AcDbSpline
 70
     0
 71
     3
 72
     8
 73
     4
 74
     0
 42
0.000000001
 43
0.0000001
 40
0.0
 40
0.0
 40
0.0
 40
0.0
 40
1.0
 40
1.0
 40
1.0
 40
1.0
 10
2832.689912229
 20
332.7381195489
 30
0.0
 10
2833.3377447868
 20
332.7381195489
 30
0.0
 10
2833.9957774102
 20
332.622377878
 30
0.0
 10
2834.6033293908
 20
332.397505439
 30
0.0
  0
SPLINE
  5
318
330
1B
100
AcDbEntity
 67
     1
  8
7_ALL_FEATURES
  6
Continuous
 62
     7
100
AcDbSpline
 70
     0
 71
     3
 72
     8
 73
     4
 74
     0
 42
0.000000001
 43
0.0000001
 40
0.0
 40
0.0
 40
0.0
 40
0.0
 40
1.0
 40
1.0
 40
1.0
 40
1.0
 10
2834.6033293908
 20
332.397505439
 30
0.0
 10
2835.1941606858
 20
332.178821806
 30
0.0
 10
2835.7559877336
 20
331.8476529745
 30
0.0
 10
2836.2254461349
 20
331.4275185199
 30
0.0
  0
LINE
  5
319
330
1B
100
AcDbEntity
 67
     1
  8
7_ALL_FEATURES
  6
Continuous
 62
     7
100
AcDbLine
 10
1117.189912229
 20
259.746134618
 30
0.0
 11
1116.0418619319
 21
259.746134618
 31
0.0
  0
LINE
  5
31A
330
1B
100
AcDbEntity
 67
     1
  8
7_ALL_FEATURES
  6
Continuous
 62
     7
100
AcDbLine
 10
1116.0418619319
 20
259.746134618
 30
0.0
 11
1114.4182736314
 21
259.746134618
 31
0.0
  0
LINE
  5
31B
330
1B
100
AcDbEntity
 67
     1
  8
7_ALL_FEATURES
  6
Continuous
 62
     7
100
AcDbLine
 10
1114.4182736314
 20
259.746134618
 30
0.0
 11
1114.189912229
 21
259.746134618
 31
0.0
  0
LINE
  5
31C
330
1B
100
AcDbEntity
 67
     1
  8
7_ALL_FEATURES
  6
Continuous
 62
     7
100
AcDbLine
 10
1117.189912229
 20
259.746134618
 30
0.0
 11
1124.189912229
 21
259.746134618
 31
0.0
  0
LINE
  5
31D
330
1B
100
AcDbEntity
 67
     1
  8
7_ALL_FEATURES
  6
Continuous
 62
     7
100
AcDbLine
 10
1127.189912229
 20
259.746134618
 30
0.0
 11
1125.3379625261
 21
259.746134618
 31
0.0
  0
LINE
  5
31E
330
1B
100
AcDbEntity
 67
     1
  8
7_ALL_FEATURES
  6
Continuous
 62
     7
100
AcDbLine
 10
1125.3379625261
 20
259.746134618
 30
0.0
 11
1124.189912229
 21
259.746134618
 31
0.0
  0
LINE
  5
31F
330
1B
100
AcDbEntity
 67
     1
  8
7_ALL_FEATURES
  6
Continuous
 62
     7
100
AcDbLine
 10
1357.189912229
 20
259.746134618
 30
0.0
 11
1356.0418619319
 21
259.746134618
 31
0.0
  0
LINE
  5
320
330
1B
100
AcDbEntity
 67
     1
  8
7_ALL_FEATURES
  6
Continuous
 62
     7
100
AcDbLine
 10
1356.0418619319
 20
259.746134618
 30
0.0
 11
1354.4182736314
 21
259.746134618
 31
0.0
  0
LINE
  5
321
330
1B
100
AcDbEntity
 67
     1
  8
7_ALL_FEATURES
  6
Continuous
 62
     7
100
AcDbLine
 10
1354.4182736314
 20
259.746134618
 30
0.0
 11
1354.189912229
 21
259.746134618
 31
0.0
  0
LINE
  5
322
330
1B
100
AcDbEntity
 67
     1
  8
7_ALL_FEATURES
  6
Continuous
 62
     7
100
AcDbLine
 10
1357.189912229
 20
259.746134618
 30
0.0
 11
1364.189912229
 21
259.746134618
 31
0.0
  0
LINE
  5
323
330
1B
100
AcDbEntity
 67
     1
  8
7_ALL_FEATURES
  6
Continuous
 62
     7
100
AcDbLine
 10
1367.189912229
 20
259.746134618
 30
0.0
 11
1365.3379625261
 21
259.746134618
 31
0.0
  0
LINE
  5
324
330
1B
100
AcDbEntity
 67
     1
  8
7_ALL_FEATURES
  6
Continuous
 62
     7
100
AcDbLine
 10
1365.3379625261
 20
259.746134618
 30
0.0
 11
1364.189912229
 21
259.746134618
 31
0.0
  0
LINE
  5
325
330
1B
100
AcDbEntity
 67
     1
  8
7_ALL_FEATURES
  6
Continuous
 62
     7
100
AcDbLine
 10
1597.189912229
 20
259.746134618
 30
0.0
 11
1596.0418619319
 21
259.746134618
 31
0.0
  0
LINE
  5
326
330
1B
100
AcDbEntity
 67
     1
  8
7_ALL_FEATURES
  6
Continuous
 62
     7
100
AcDbLine
 10
1596.0418619319
 20
259.746134618
 30
0.0
 11
1594.4182736314
 21
259.746134618
 31
0.0
  0
LINE
  5
327
330
1B
100
AcDbEntity
 67
     1
  8
7_ALL_FEATURES
  6
Continuous
 62
     7
100
AcDbLine
 10
1594.4182736314
 20
259.746134618
 30
0.0
 11
1594.189912229
 21
259.746134618
 31
0.0
  0
LINE
  5
328
330
1B
100
AcDbEntity
 67
     1
  8
7_ALL_FEATURES
  6
Continuous
 62
     7
100
AcDbLine
 10
1597.189912229
 20
259.746134618
 30
0.0
 11
1604.189912229
 21
259.746134618
 31
0.0
  0
LINE
  5
329
330
1B
100
AcDbEntity
 67
     1
  8
7_ALL_FEATURES
  6
Continuous
 62
     7
100
AcDbLine
 10
1607.189912229
 20
259.746134618
 30
0.0
 11
1605.3379625261
 21
259.746134618
 31
0.0
  0
LINE
  5
32A
330
1B
100
AcDbEntity
 67
     1
  8
7_ALL_FEATURES
  6
Continuous
 62
     7
100
AcDbLine
 10
1605.3379625261
 20
259.746134618
 30
0.0
 11
1604.189912229
 21
259.746134618
 31
0.0
  0
LINE
  5
32B
330
1B
100
AcDbEntity
 67
     1
  8
7_ALL_FEATURES
  6
Continuous
 62
     7
100
AcDbLine
 10
1837.189912229
 20
259.746134618
 30
0.0
 11
1836.0418619319
 21
259.746134618
 31
0.0
  0
LINE
  5
32C
330
1B
100
AcDbEntity
 67
     1
  8
7_ALL_FEATURES
  6
Continuous
 62
     7
100
AcDbLine
 10
1836.0418619319
 20
259.746134618
 30
0.0
 11
1834.4182736314
 21
259.746134618
 31
0.0
  0
LINE
  5
32D
330
1B
100
AcDbEntity
 67
     1
  8
7_ALL_FEATURES
  6
Continuous
 62
     7
100
AcDbLine
 10
1834.4182736314
 20
259.746134618
 30
0.0
 11
1834.189912229
 21
259.746134618
 31
0.0
  0
LINE
  5
32E
330
1B
100
AcDbEntity
 67
     1
  8
7_ALL_FEATURES
  6
Continuous
 62
     7
100
AcDbLine
 10
1837.189912229
 20
259.746134618
 30
0.0
 11
1844.189912229
 21
259.746134618
 31
0.0
  0
LINE
  5
32F
330
1B
100
AcDbEntity
 67
     1
  8
7_ALL_FEATURES
  6
Continuous
 62
     7
100
AcDbLine
 10
1847.189912229
 20
259.746134618
 30
0.0
 11
1845.3379625261
 21
259.746134618
 31
0.0
  0
LINE
  5
330
330
1B
100
AcDbEntity
 67
     1
  8
7_ALL_FEATURES
  6
Continuous
 62
     7
100
AcDbLine
 10
1845.3379625261
 20
259.746134618
 30
0.0
 11
1844.189912229
 21
259.746134618
 31
0.0
  0
LINE
  5
331
330
1B
100
AcDbEntity
 67
     1
  8
7_ALL_FEATURES
  6
Continuous
 62
     7
100
AcDbLine
 10
2077.189912229
 20
259.746134618
 30
0.0
 11
2076.0418619319
 21
259.746134618
 31
0.0
  0
LINE
  5
332
330
1B
100
AcDbEntity
 67
     1
  8
7_ALL_FEATURES
  6
Continuous
 62
     7
100
AcDbLine
 10
2076.0418619319
 20
259.746134618
 30
0.0
 11
2074.4182736314
 21
259.746134618
 31
0.0
  0
LINE
  5
333
330
1B
100
AcDbEntity
 67
     1
  8
7_ALL_FEATURES
  6
Continuous
 62
     7
100
AcDbLine
 10
2074.4182736314
 20
259.746134618
 30
0.0
 11
2074.189912229
 21
259.746134618
 31
0.0
  0
LINE
  5
334
330
1B
100
AcDbEntity
 67
     1
  8
7_ALL_FEATURES
  6
Continuous
 62
     7
100
AcDbLine
 10
2077.189912229
 20
259.746134618
 30
0.0
 11
2084.189912229
 21
259.746134618
 31
0.0
  0
LINE
  5
335
330
1B
100
AcDbEntity
 67
     1
  8
7_ALL_FEATURES
  6
Continuous
 62
     7
100
AcDbLine
 10
2087.189912229
 20
259.746134618
 30
0.0
 11
2085.3379625261
 21
259.746134618
 31
0.0
  0
LINE
  5
336
330
1B
100
AcDbEntity
 67
     1
  8
7_ALL_FEATURES
  6
Continuous
 62
     7
100
AcDbLine
 10
2085.3379625261
 20
259.746134618
 30
0.0
 11
2084.189912229
 21
259.746134618
 31
0.0
  0
LINE
  5
337
330
1B
100
AcDbEntity
 67
     1
  8
7_ALL_FEATURES
  6
Continuous
 62
     7
100
AcDbLine
 10
2317.189912229
 20
259.746134618
 30
0.0
 11
2316.0418619319
 21
259.746134618
 31
0.0
  0
LINE
  5
338
330
1B
100
AcDbEntity
 67
     1
  8
7_ALL_FEATURES
  6
Continuous
 62
     7
100
AcDbLine
 10
2316.0418619319
 20
259.746134618
 30
0.0
 11
2314.4182736314
 21
259.746134618
 31
0.0
  0
LINE
  5
339
330
1B
100
AcDbEntity
 67
     1
  8
7_ALL_FEATURES
  6
Continuous
 62
     7
100
AcDbLine
 10
2314.4182736314
 20
259.746134618
 30
0.0
 11
2314.189912229
 21
259.746134618
 31
0.0
  0
LINE
  5
33A
330
1B
100
AcDbEntity
 67
     1
  8
7_ALL_FEATURES
  6
Continuous
 62
     7
100
AcDbLine
 10
2317.189912229
 20
259.746134618
 30
0.0
 11
2324.189912229
 21
259.746134618
 31
0.0
  0
LINE
  5
33B
330
1B
100
AcDbEntity
 67
     1
  8
7_ALL_FEATURES
  6
Continuous
 62
     7
100
AcDbLine
 10
2327.189912229
 20
259.746134618
 30
0.0
 11
2325.3379625261
 21
259.746134618
 31
0.0
  0
LINE
  5
33C
330
1B
100
AcDbEntity
 67
     1
  8
7_ALL_FEATURES
  6
Continuous
 62
     7
100
AcDbLine
 10
2325.3379625261
 20
259.746134618
 30
0.0
 11
2324.189912229
 21
259.746134618
 31
0.0
  0
LINE
  5
33D
330
1B
100
AcDbEntity
 67
     1
  8
7_ALL_FEATURES
  6
Continuous
 62
     7
100
AcDbLine
 10
2557.189912229
 20
259.746134618
 30
0.0
 11
2556.0418619319
 21
259.746134618
 31
0.0
  0
LINE
  5
33E
330
1B
100
AcDbEntity
 67
     1
  8
7_ALL_FEATURES
  6
Continuous
 62
     7
100
AcDbLine
 10
2556.0418619319
 20
259.746134618
 30
0.0
 11
2554.4182736314
 21
259.746134618
 31
0.0
  0
LINE
  5
33F
330
1B
100
AcDbEntity
 67
     1
  8
7_ALL_FEATURES
  6
Continuous
 62
     7
100
AcDbLine
 10
2554.4182736314
 20
259.746134618
 30
0.0
 11
2554.189912229
 21
259.746134618
 31
0.0
  0
LINE
  5
340
330
1B
100
AcDbEntity
 67
     1
  8
7_ALL_FEATURES
  6
Continuous
 62
     7
100
AcDbLine
 10
2557.189912229
 20
259.746134618
 30
0.0
 11
2564.189912229
 21
259.746134618
 31
0.0
  0
LINE
  5
341
330
1B
100
AcDbEntity
 67
     1
  8
7_ALL_FEATURES
  6
Continuous
 62
     7
100
AcDbLine
 10
2567.189912229
 20
259.746134618
 30
0.0
 11
2565.3379625261
 21
259.746134618
 31
0.0
  0
LINE
  5
342
330
1B
100
AcDbEntity
 67
     1
  8
7_ALL_FEATURES
  6
Continuous
 62
     7
100
AcDbLine
 10
2565.3379625261
 20
259.746134618
 30
0.0
 11
2564.189912229
 21
259.746134618
 31
0.0
  0
LINE
  5
343
330
1B
100
AcDbEntity
 67
     1
  8
7_ALL_FEATURES
  6
Continuous
 62
     7
100
AcDbLine
 10
2797.189912229
 20
259.746134618
 30
0.0
 11
2796.0418619319
 21
259.746134618
 31
0.0
  0
LINE
  5
344
330
1B
100
AcDbEntity
 67
     1
  8
7_ALL_FEATURES
  6
Continuous
 62
     7
100
AcDbLine
 10
2796.0418619319
 20
259.746134618
 30
0.0
 11
2794.4182736314
 21
259.746134618
 31
0.0
  0
LINE
  5
345
330
1B
100
AcDbEntity
 67
     1
  8
7_ALL_FEATURES
  6
Continuous
 62
     7
100
AcDbLine
 10
2794.4182736314
 20
259.746134618
 30
0.0
 11
2794.189912229
 21
259.746134618
 31
0.0
  0
LINE
  5
346
330
1B
100
AcDbEntity
 67
     1
  8
7_ALL_FEATURES
  6
Continuous
 62
     7
100
AcDbLine
 10
2797.189912229
 20
259.746134618
 30
0.0
 11
2804.189912229
 21
259.746134618
 31
0.0
  0
LINE
  5
347
330
1B
100
AcDbEntity
 67
     1
  8
7_ALL_FEATURES
  6
Continuous
 62
     7
100
AcDbLine
 10
2807.189912229
 20
259.746134618
 30
0.0
 11
2805.3379625261
 21
259.746134618
 31
0.0
  0
LINE
  5
348
330
1B
100
AcDbEntity
 67
     1
  8
7_ALL_FEATURES
  6
Continuous
 62
     7
100
AcDbLine
 10
2805.3379625261
 20
259.746134618
 30
0.0
 11
2804.189912229
 21
259.746134618
 31
0.0
  0
LINE
  5
349
330
1B
100
AcDbEntity
 67
     1
  8
7_ALL_FEATURES
  6
Continuous
 62
     7
100
AcDbLine
 10
2793.189912229
 20
262.8594494971
 30
0.0
 11
2568.189912229
 21
262.8594494971
 31
0.0
  0
LINE
  5
34A
330
1B
100
AcDbEntity
 67
     1
  8
7_ALL_FEATURES
  6
Continuous
 62
     7
100
AcDbLine
 10
2832.689912229
 20
262.8594494971
 30
0.0
 11
2808.189912229
 21
262.8594494971
 31
0.0
  0
LINE
  5
34B
330
1B
100
AcDbEntity
 67
     1
  8
7_ALL_FEATURES
  6
Continuous
 62
     7
100
AcDbLine
 10
1088.689912229
 20
262.8594494971
 30
0.0
 11
1113.189912229
 21
262.8594494971
 31
0.0
  0
LINE
  5
34C
330
1B
100
AcDbEntity
 67
     1
  8
7_ALL_FEATURES
  6
Continuous
 62
     7
100
AcDbLine
 10
1353.189912229
 20
262.8594494971
 30
0.0
 11
1128.189912229
 21
262.8594494971
 31
0.0
  0
LINE
  5
34D
330
1B
100
AcDbEntity
 67
     1
  8
7_ALL_FEATURES
  6
Continuous
 62
     7
100
AcDbLine
 10
1593.189912229
 20
262.8594494971
 30
0.0
 11
1368.189912229
 21
262.8594494971
 31
0.0
  0
LINE
  5
34E
330
1B
100
AcDbEntity
 67
     1
  8
7_ALL_FEATURES
  6
Continuous
 62
     7
100
AcDbLine
 10
1833.189912229
 20
262.8594494971
 30
0.0
 11
1608.189912229
 21
262.8594494971
 31
0.0
  0
LINE
  5
34F
330
1B
100
AcDbEntity
 67
     1
  8
7_ALL_FEATURES
  6
Continuous
 62
     7
100
AcDbLine
 10
2073.189912229
 20
262.8594494971
 30
0.0
 11
1848.189912229
 21
262.8594494971
 31
0.0
  0
LINE
  5
350
330
1B
100
AcDbEntity
 67
     1
  8
7_ALL_FEATURES
  6
Continuous
 62
     7
100
AcDbLine
 10
1114.189912229
 20
261.1525971015
 30
0.0
 11
1114.189912229
 21
260.9590595851
 31
0.0
  0
LINE
  5
351
330
1B
100
AcDbEntity
 67
     1
  8
7_ALL_FEATURES
  6
Continuous
 62
     7
100
AcDbLine
 10
1114.189912229
 20
262.0826912873
 30
0.0
 11
1114.189912229
 21
261.8891537708
 31
0.0
  0
LINE
  5
352
330
1B
100
AcDbEntity
 67
     1
  8
7_ALL_FEATURES
  6
Continuous
 62
     7
100
AcDbLine
 10
2313.189912229
 20
262.8594494971
 30
0.0
 11
2088.189912229
 21
262.8594494971
 31
0.0
  0
LINE
  5
353
330
1B
100
AcDbEntity
 67
     1
  8
7_ALL_FEATURES
  6
Continuous
 62
     7
100
AcDbLine
 10
1127.189912229
 20
262.0826912873
 30
0.0
 11
1127.189912229
 21
261.8891537708
 31
0.0
  0
LINE
  5
354
330
1B
100
AcDbEntity
 67
     1
  8
7_ALL_FEATURES
  6
Continuous
 62
     7
100
AcDbLine
 10
2553.189912229
 20
262.8594494971
 30
0.0
 11
2328.189912229
 21
262.8594494971
 31
0.0
  0
LINE
  5
355
330
1B
100
AcDbEntity
 67
     1
  8
7_ALL_FEATURES
  6
Continuous
 62
     7
100
AcDbLine
 10
1354.189912229
 20
261.1525971015
 30
0.0
 11
1354.189912229
 21
260.9590595851
 31
0.0
  0
LINE
  5
356
330
1B
100
AcDbEntity
 67
     1
  8
7_ALL_FEATURES
  6
Continuous
 62
     7
100
AcDbLine
 10
1354.189912229
 20
262.0826912873
 30
0.0
 11
1354.189912229
 21
261.8891537708
 31
0.0
  0
LINE
  5
357
330
1B
100
AcDbEntity
 67
     1
  8
7_ALL_FEATURES
  6
Continuous
 62
     7
100
AcDbLine
 10
1367.189912229
 20
262.0826912873
 30
0.0
 11
1367.189912229
 21
261.8891537708
 31
0.0
  0
LINE
  5
358
330
1B
100
AcDbEntity
 67
     1
  8
7_ALL_FEATURES
  6
Continuous
 62
     7
100
AcDbLine
 10
1083.689912229
 20
267.7109281285
 30
0.0
 11
1083.689912229
 21
267.9044656449
 31
0.0
  0
LINE
  5
359
330
1B
100
AcDbEntity
 67
     1
  8
7_ALL_FEATURES
  6
Continuous
 62
     7
100
AcDbLine
 10
2837.689912229
 20
267.7109281285
 30
0.0
 11
2837.689912229
 21
267.9044656449
 31
0.0
  0
LINE
  5
35A
330
1B
100
AcDbEntity
 67
     1
  8
7_ALL_FEATURES
  6
Continuous
 62
     7
100
AcDbLine
 10
1594.189912229
 20
261.1525971015
 30
0.0
 11
1594.189912229
 21
260.9590595851
 31
0.0
  0
LINE
  5
35B
330
1B
100
AcDbEntity
 67
     1
  8
7_ALL_FEATURES
  6
Continuous
 62
     7
100
AcDbLine
 10
2807.189912229
 20
259.746134618
 30
0.0
 11
2807.189912229
 21
260.546134618
 31
0.0
  0
LINE
  5
35C
330
1B
100
AcDbEntity
 67
     1
  8
7_ALL_FEATURES
  6
Continuous
 62
     7
100
AcDbLine
 10
1594.189912229
 20
262.0826912873
 30
0.0
 11
1594.189912229
 21
261.8891537708
 31
0.0
  0
LINE
  5
35D
330
1B
100
AcDbEntity
 67
     1
  8
7_ALL_FEATURES
  6
Continuous
 62
     7
100
AcDbLine
 10
2794.189912229
 20
259.746134618
 30
0.0
 11
2794.189912229
 21
260.546134618
 31
0.0
  0
LINE
  5
35E
330
1B
100
AcDbEntity
 67
     1
  8
7_ALL_FEATURES
  6
Continuous
 62
     7
100
AcDbLine
 10
2567.189912229
 20
259.746134618
 30
0.0
 11
2567.189912229
 21
260.546134618
 31
0.0
  0
LINE
  5
35F
330
1B
100
AcDbEntity
 67
     1
  8
7_ALL_FEATURES
  6
Continuous
 62
     7
100
AcDbLine
 10
1607.189912229
 20
262.0826912873
 30
0.0
 11
1607.189912229
 21
261.8891537708
 31
0.0
  0
LINE
  5
360
330
1B
100
AcDbEntity
 67
     1
  8
7_ALL_FEATURES
  6
Continuous
 62
     7
100
AcDbLine
 10
2554.189912229
 20
259.746134618
 30
0.0
 11
2554.189912229
 21
260.546134618
 31
0.0
  0
LINE
  5
361
330
1B
100
AcDbEntity
 67
     1
  8
7_ALL_FEATURES
  6
Continuous
 62
     7
100
AcDbLine
 10
2327.189912229
 20
259.746134618
 30
0.0
 11
2327.189912229
 21
260.546134618
 31
0.0
  0
LINE
  5
362
330
1B
100
AcDbEntity
 67
     1
  8
7_ALL_FEATURES
  6
Continuous
 62
     7
100
AcDbLine
 10
2314.189912229
 20
259.746134618
 30
0.0
 11
2314.189912229
 21
260.546134618
 31
0.0
  0
LINE
  5
363
330
1B
100
AcDbEntity
 67
     1
  8
7_ALL_FEATURES
  6
Continuous
 62
     7
100
AcDbLine
 10
2087.189912229
 20
259.746134618
 30
0.0
 11
2087.189912229
 21
260.546134618
 31
0.0
  0
LINE
  5
364
330
1B
100
AcDbEntity
 67
     1
  8
7_ALL_FEATURES
  6
Continuous
 62
     7
100
AcDbLine
 10
2074.189912229
 20
259.746134618
 30
0.0
 11
2074.189912229
 21
260.546134618
 31
0.0
  0
LINE
  5
365
330
1B
100
AcDbEntity
 67
     1
  8
7_ALL_FEATURES
  6
Continuous
 62
     7
100
AcDbLine
 10
1847.189912229
 20
259.746134618
 30
0.0
 11
1847.189912229
 21
260.546134618
 31
0.0
  0
LINE
  5
366
330
1B
100
AcDbEntity
 67
     1
  8
7_ALL_FEATURES
  6
Continuous
 62
     7
100
AcDbLine
 10
1834.189912229
 20
261.1525971015
 30
0.0
 11
1834.189912229
 21
260.9590595851
 31
0.0
  0
LINE
  5
367
330
1B
100
AcDbEntity
 67
     1
  8
7_ALL_FEATURES
  6
Continuous
 62
     7
100
AcDbLine
 10
1834.189912229
 20
259.746134618
 30
0.0
 11
1834.189912229
 21
260.546134618
 31
0.0
  0
LINE
  5
368
330
1B
100
AcDbEntity
 67
     1
  8
7_ALL_FEATURES
  6
Continuous
 62
     7
100
AcDbLine
 10
1607.189912229
 20
259.746134618
 30
0.0
 11
1607.189912229
 21
260.546134618
 31
0.0
  0
LINE
  5
369
330
1B
100
AcDbEntity
 67
     1
  8
7_ALL_FEATURES
  6
Continuous
 62
     7
100
AcDbLine
 10
1834.189912229
 20
262.0826912873
 30
0.0
 11
1834.189912229
 21
261.8891537708
 31
0.0
  0
LINE
  5
36A
330
1B
100
AcDbEntity
 67
     1
  8
7_ALL_FEATURES
  6
Continuous
 62
     7
100
AcDbLine
 10
1594.189912229
 20
259.746134618
 30
0.0
 11
1594.189912229
 21
260.546134618
 31
0.0
  0
LINE
  5
36B
330
1B
100
AcDbEntity
 67
     1
  8
7_ALL_FEATURES
  6
Continuous
 62
     7
100
AcDbLine
 10
1367.189912229
 20
259.746134618
 30
0.0
 11
1367.189912229
 21
260.546134618
 31
0.0
  0
LINE
  5
36C
330
1B
100
AcDbEntity
 67
     1
  8
7_ALL_FEATURES
  6
Continuous
 62
     7
100
AcDbLine
 10
1354.189912229
 20
259.746134618
 30
0.0
 11
1354.189912229
 21
260.546134618
 31
0.0
  0
LINE
  5
36D
330
1B
100
AcDbEntity
 67
     1
  8
7_ALL_FEATURES
  6
Continuous
 62
     7
100
AcDbLine
 10
1127.189912229
 20
259.746134618
 30
0.0
 11
1127.189912229
 21
260.546134618
 31
0.0
  0
LINE
  5
36E
330
1B
100
AcDbEntity
 67
     1
  8
7_ALL_FEATURES
  6
Continuous
 62
     7
100
AcDbLine
 10
1114.189912229
 20
259.746134618
 30
0.0
 11
1114.189912229
 21
260.546134618
 31
0.0
  0
LINE
  5
36F
330
1B
100
AcDbEntity
 67
     1
  8
7_ALL_FEATURES
  6
Continuous
 62
     7
100
AcDbLine
 10
2807.189912229
 20
262.0826912873
 30
0.0
 11
2807.189912229
 21
261.8891537708
 31
0.0
  0
LINE
  5
370
330
1B
100
AcDbEntity
 67
     1
  8
7_ALL_FEATURES
  6
Continuous
 62
     7
100
AcDbLine
 10
2794.189912229
 20
262.0826912873
 30
0.0
 11
2794.189912229
 21
261.8891537708
 31
0.0
  0
LINE
  5
371
330
1B
100
AcDbEntity
 67
     1
  8
7_ALL_FEATURES
  6
Continuous
 62
     7
100
AcDbLine
 10
2794.189912229
 20
261.1525971015
 30
0.0
 11
2794.189912229
 21
260.9590595851
 31
0.0
  0
LINE
  5
372
330
1B
100
AcDbEntity
 67
     1
  8
7_ALL_FEATURES
  6
Continuous
 62
     7
100
AcDbLine
 10
2074.189912229
 20
261.1525971015
 30
0.0
 11
2074.189912229
 21
260.9590595851
 31
0.0
  0
LINE
  5
373
330
1B
100
AcDbEntity
 67
     1
  8
7_ALL_FEATURES
  6
Continuous
 62
     7
100
AcDbLine
 10
2554.189912229
 20
262.0826912873
 30
0.0
 11
2554.189912229
 21
261.8891537708
 31
0.0
  0
LINE
  5
374
330
1B
100
AcDbEntity
 67
     1
  8
7_ALL_FEATURES
  6
Continuous
 62
     7
100
AcDbLine
 10
2554.189912229
 20
261.1525971015
 30
0.0
 11
2554.189912229
 21
260.9590595851
 31
0.0
  0
LINE
  5
375
330
1B
100
AcDbEntity
 67
     1
  8
7_ALL_FEATURES
  6
Continuous
 62
     7
100
AcDbLine
 10
2074.189912229
 20
262.0826912873
 30
0.0
 11
2074.189912229
 21
261.8891537708
 31
0.0
  0
LINE
  5
376
330
1B
100
AcDbEntity
 67
     1
  8
7_ALL_FEATURES
  6
Continuous
 62
     7
100
AcDbLine
 10
2314.189912229
 20
262.0826912873
 30
0.0
 11
2314.189912229
 21
261.8891537708
 31
0.0
  0
LINE
  5
377
330
1B
100
AcDbEntity
 67
     1
  8
7_ALL_FEATURES
  6
Continuous
 62
     7
100
AcDbLine
 10
2314.189912229
 20
261.1525971015
 30
0.0
 11
2314.189912229
 21
260.9590595851
 31
0.0
  0
LINE
  5
378
330
1B
100
AcDbEntity
 67
     1
  8
7_ALL_FEATURES
  6
Continuous
 62
     7
100
AcDbLine
 10
2087.189912229
 20
262.0826912873
 30
0.0
 11
2087.189912229
 21
261.8891537708
 31
0.0
  0
LINE
  5
379
330
1B
100
AcDbEntity
 67
     1
  8
7_ALL_FEATURES
  6
Continuous
 62
     9
100
AcDbLine
 10
2804.189912229
 20
259.746134618
 30
0.0
 11
2804.189912229
 21
260.546134618
 31
0.0
  0
LINE
  5
37A
330
1B
100
AcDbEntity
 67
     1
  8
7_ALL_FEATURES
  6
Continuous
 62
     9
100
AcDbLine
 10
1088.689912229
 20
332.3811612984
 30
0.0
 11
1088.689912229
 21
332.7381195489
 31
0.0
  0
LINE
  5
37B
330
1B
100
AcDbEntity
 67
     1
  8
7_ALL_FEATURES
  6
Continuous
 62
     9
100
AcDbLine
 10
2832.689912229
 20
332.3811612984
 30
0.0
 11
2832.689912229
 21
332.7381195489
 31
0.0
  0
LINE
  5
37C
330
1B
100
AcDbEntity
 67
     1
  8
7_ALL_FEATURES
  6
Continuous
 62
     9
100
AcDbLine
 10
2797.189912229
 20
259.746134618
 30
0.0
 11
2797.189912229
 21
260.546134618
 31
0.0
  0
LINE
  5
37D
330
1B
100
AcDbEntity
 67
     1
  8
7_ALL_FEATURES
  6
Continuous
 62
     9
100
AcDbLine
 10
1088.689912229
 20
262.8594494971
 30
0.0
 11
1088.689912229
 21
263.0529870136
 31
0.0
  0
LINE
  5
37E
330
1B
100
AcDbEntity
 67
     1
  8
7_ALL_FEATURES
  6
Continuous
 62
     9
100
AcDbLine
 10
1113.189912229
 20
263.0529870136
 30
0.0
 11
1113.189912229
 21
262.8594494971
 31
0.0
  0
LINE
  5
37F
330
1B
100
AcDbEntity
 67
     1
  8
7_ALL_FEATURES
  6
Continuous
 62
     9
100
AcDbLine
 10
1128.189912229
 20
263.0529870136
 30
0.0
 11
1128.189912229
 21
262.8594494971
 31
0.0
  0
LINE
  5
380
330
1B
100
AcDbEntity
 67
     1
  8
7_ALL_FEATURES
  6
Continuous
 62
     9
100
AcDbLine
 10
1353.189912229
 20
263.0529870136
 30
0.0
 11
1353.189912229
 21
262.8594494971
 31
0.0
  0
LINE
  5
381
330
1B
100
AcDbEntity
 67
     1
  8
7_ALL_FEATURES
  6
Continuous
 62
     9
100
AcDbLine
 10
2564.189912229
 20
259.746134618
 30
0.0
 11
2564.189912229
 21
260.546134618
 31
0.0
  0
LINE
  5
382
330
1B
100
AcDbEntity
 67
     1
  8
7_ALL_FEATURES
  6
Continuous
 62
     9
100
AcDbLine
 10
2557.189912229
 20
259.746134618
 30
0.0
 11
2557.189912229
 21
260.546134618
 31
0.0
  0
LINE
  5
383
330
1B
100
AcDbEntity
 67
     1
  8
7_ALL_FEATURES
  6
Continuous
 62
     9
100
AcDbLine
 10
2324.189912229
 20
259.746134618
 30
0.0
 11
2324.189912229
 21
260.546134618
 31
0.0
  0
LINE
  5
384
330
1B
100
AcDbEntity
 67
     1
  8
7_ALL_FEATURES
  6
Continuous
 62
     9
100
AcDbLine
 10
2317.189912229
 20
259.746134618
 30
0.0
 11
2317.189912229
 21
260.546134618
 31
0.0
  0
LINE
  5
385
330
1B
100
AcDbEntity
 67
     1
  8
7_ALL_FEATURES
  6
Continuous
 62
     9
100
AcDbLine
 10
1117.189912229
 20
259.746134618
 30
0.0
 11
1117.189912229
 21
260.546134618
 31
0.0
  0
LINE
  5
386
330
1B
100
AcDbEntity
 67
     1
  8
7_ALL_FEATURES
  6
Continuous
 62
     9
100
AcDbLine
 10
1124.189912229
 20
259.746134618
 30
0.0
 11
1124.189912229
 21
260.546134618
 31
0.0
  0
LINE
  5
387
330
1B
100
AcDbEntity
 67
     1
  8
7_ALL_FEATURES
  6
Continuous
 62
     9
100
AcDbLine
 10
2084.189912229
 20
259.746134618
 30
0.0
 11
2084.189912229
 21
260.546134618
 31
0.0
  0
LINE
  5
388
330
1B
100
AcDbEntity
 67
     1
  8
7_ALL_FEATURES
  6
Continuous
 62
     9
100
AcDbLine
 10
1368.189912229
 20
263.0529870136
 30
0.0
 11
1368.189912229
 21
262.8594494971
 31
0.0
  0
LINE
  5
389
330
1B
100
AcDbEntity
 67
     1
  8
7_ALL_FEATURES
  6
Continuous
 62
     9
100
AcDbLine
 10
1593.189912229
 20
263.0529870136
 30
0.0
 11
1593.189912229
 21
262.8594494971
 31
0.0
  0
LINE
  5
38A
330
1B
100
AcDbEntity
 67
     1
  8
7_ALL_FEATURES
  6
Continuous
 62
     9
100
AcDbLine
 10
2077.189912229
 20
259.746134618
 30
0.0
 11
2077.189912229
 21
260.546134618
 31
0.0
  0
LINE
  5
38B
330
1B
100
AcDbEntity
 67
     1
  8
7_ALL_FEATURES
  6
Continuous
 62
     9
100
AcDbLine
 10
1844.189912229
 20
259.746134618
 30
0.0
 11
1844.189912229
 21
260.546134618
 31
0.0
  0
LINE
  5
38C
330
1B
100
AcDbEntity
 67
     1
  8
7_ALL_FEATURES
  6
Continuous
 62
     9
100
AcDbLine
 10
1837.189912229
 20
259.746134618
 30
0.0
 11
1837.189912229
 21
260.546134618
 31
0.0
  0
LINE
  5
38D
330
1B
100
AcDbEntity
 67
     1
  8
7_ALL_FEATURES
  6
Continuous
 62
     9
100
AcDbLine
 10
1604.189912229
 20
259.746134618
 30
0.0
 11
1604.189912229
 21
260.546134618
 31
0.0
  0
LINE
  5
38E
330
1B
100
AcDbEntity
 67
     1
  8
7_ALL_FEATURES
  6
Continuous
 62
     9
100
AcDbLine
 10
1597.189912229
 20
259.746134618
 30
0.0
 11
1597.189912229
 21
260.546134618
 31
0.0
  0
LINE
  5
38F
330
1B
100
AcDbEntity
 67
     1
  8
7_ALL_FEATURES
  6
Continuous
 62
     9
100
AcDbLine
 10
1364.189912229
 20
259.746134618
 30
0.0
 11
1364.189912229
 21
260.546134618
 31
0.0
  0
LINE
  5
390
330
1B
100
AcDbEntity
 67
     1
  8
7_ALL_FEATURES
  6
Continuous
 62
     9
100
AcDbLine
 10
1357.189912229
 20
259.746134618
 30
0.0
 11
1357.189912229
 21
260.546134618
 31
0.0
  0
LINE
  5
391
330
1B
100
AcDbEntity
 67
     1
  8
7_ALL_FEATURES
  6
Continuous
 62
     9
100
AcDbLine
 10
1608.189912229
 20
263.0529870136
 30
0.0
 11
1608.189912229
 21
262.8594494971
 31
0.0
  0
LINE
  5
392
330
1B
100
AcDbEntity
 67
     1
  8
7_ALL_FEATURES
  6
Continuous
 62
     9
100
AcDbLine
 10
1833.189912229
 20
263.0529870136
 30
0.0
 11
1833.189912229
 21
262.8594494971
 31
0.0
  0
LINE
  5
393
330
1B
100
AcDbEntity
 67
     1
  8
7_ALL_FEATURES
  6
Continuous
 62
     9
100
AcDbLine
 10
1848.189912229
 20
263.0529870136
 30
0.0
 11
1848.189912229
 21
262.8594494971
 31
0.0
  0
LINE
  5
394
330
1B
100
AcDbEntity
 67
     1
  8
7_ALL_FEATURES
  6
Continuous
 62
     9
100
AcDbLine
 10
2073.189912229
 20
263.0529870136
 30
0.0
 11
2073.189912229
 21
262.8594494971
 31
0.0
  0
LINE
  5
395
330
1B
100
AcDbEntity
 67
     1
  8
7_ALL_FEATURES
  6
Continuous
 62
     9
100
AcDbLine
 10
2808.189912229
 20
263.0529870136
 30
0.0
 11
2808.189912229
 21
262.8594494971
 31
0.0
  0
LINE
  5
396
330
1B
100
AcDbEntity
 67
     1
  8
7_ALL_FEATURES
  6
Continuous
 62
     9
100
AcDbLine
 10
2832.689912229
 20
262.8594494971
 30
0.0
 11
2832.689912229
 21
263.0529870136
 31
0.0
  0
LINE
  5
397
330
1B
100
AcDbEntity
 67
     1
  8
7_ALL_FEATURES
  6
Continuous
 62
     9
100
AcDbLine
 10
2793.189912229
 20
263.0529870136
 30
0.0
 11
2793.189912229
 21
262.8594494971
 31
0.0
  0
LINE
  5
398
330
1B
100
AcDbEntity
 67
     1
  8
7_ALL_FEATURES
  6
Continuous
 62
     9
100
AcDbLine
 10
2568.189912229
 20
263.0529870136
 30
0.0
 11
2568.189912229
 21
262.8594494971
 31
0.0
  0
LINE
  5
399
330
1B
100
AcDbEntity
 67
     1
  8
7_ALL_FEATURES
  6
Continuous
 62
     9
100
AcDbLine
 10
2553.189912229
 20
263.0529870136
 30
0.0
 11
2553.189912229
 21
262.8594494971
 31
0.0
  0
LINE
  5
39A
330
1B
100
AcDbEntity
 67
     1
  8
7_ALL_FEATURES
  6
Continuous
 62
     9
100
AcDbLine
 10
2328.189912229
 20
263.0529870136
 30
0.0
 11
2328.189912229
 21
262.8594494971
 31
0.0
  0
LINE
  5
39B
330
1B
100
AcDbEntity
 67
     1
  8
7_ALL_FEATURES
  6
Continuous
 62
     9
100
AcDbLine
 10
2313.189912229
 20
263.0529870136
 30
0.0
 11
2313.189912229
 21
262.8594494971
 31
0.0
  0
LINE
  5
39C
330
1B
100
AcDbEntity
 67
     1
  8
7_ALL_FEATURES
  6
Continuous
 62
     9
100
AcDbLine
 10
2088.189912229
 20
263.0529870136
 30
0.0
 11
2088.189912229
 21
262.8594494971
 31
0.0
  0
LINE
  5
39D
330
1B
100
AcDbEntity
 67
     1
  8
03___PRT_ALL_CURVES
  6
Continuous
 62
    40
100
AcDbLine
 10
1960.689912229
 20
259.746134618
 30
0.0
 11
1960.689912229
 21
262.8594494971
 31
0.0
  0
LINE
  5
39E
330
1B
100
AcDbEntity
 67
     1
  8
03___PRT_ALL_CURVES
  6
Continuous
 62
    40
100
AcDbLine
 10
1960.689912229
 20
259.746134618
 30
0.0
 11
1960.689912229
 21
262.8594494971
 31
0.0
  0
LINE
  5
39F
330
1B
100
AcDbEntity
 67
     1
  8
7_ALL_FEATURES
  6
Continuous
 62
     3
100
AcDbLine
 10
1114.189912229
 20
260.546134618
 30
0.0
 11
1116.0418619319
 21
260.546134618
 31
0.0
  0
LINE
  5
3A0
330
1B
100
AcDbEntity
 67
     1
  8
7_ALL_FEATURES
  6
Continuous
 62
     3
100
AcDbLine
 10
1116.0418619319
 20
260.546134618
 30
0.0
 11
1117.189912229
 21
260.546134618
 31
0.0
  0
LINE
  5
3A1
330
1B
100
AcDbEntity
 67
     1
  8
7_ALL_FEATURES
  6
Continuous
 62
     3
100
AcDbLine
 10
2794.189912229
 20
260.546134618
 30
0.0
 11
2796.0418619319
 21
260.546134618
 31
0.0
  0
LINE
  5
3A2
330
1B
100
AcDbEntity
 67
     1
  8
7_ALL_FEATURES
  6
Continuous
 62
     3
100
AcDbLine
 10
2796.0418619319
 20
260.546134618
 30
0.0
 11
2797.189912229
 21
260.546134618
 31
0.0
  0
LINE
  5
3A3
330
1B
100
AcDbEntity
 67
     1
  8
7_ALL_FEATURES
  6
Continuous
 62
     3
100
AcDbLine
 10
2554.189912229
 20
260.546134618
 30
0.0
 11
2556.0418619319
 21
260.546134618
 31
0.0
  0
LINE
  5
3A4
330
1B
100
AcDbEntity
 67
     1
  8
7_ALL_FEATURES
  6
Continuous
 62
     3
100
AcDbLine
 10
2556.0418619319
 20
260.546134618
 30
0.0
 11
2557.189912229
 21
260.546134618
 31
0.0
  0
LINE
  5
3A5
330
1B
100
AcDbEntity
 67
     1
  8
7_ALL_FEATURES
  6
Continuous
 62
     3
100
AcDbLine
 10
2314.189912229
 20
260.546134618
 30
0.0
 11
2316.0418619319
 21
260.546134618
 31
0.0
  0
LINE
  5
3A6
330
1B
100
AcDbEntity
 67
     1
  8
7_ALL_FEATURES
  6
Continuous
 62
     3
100
AcDbLine
 10
2316.0418619319
 20
260.546134618
 30
0.0
 11
2317.189912229
 21
260.546134618
 31
0.0
  0
LINE
  5
3A7
330
1B
100
AcDbEntity
 67
     1
  8
7_ALL_FEATURES
  6
Continuous
 62
     3
100
AcDbLine
 10
2074.189912229
 20
260.546134618
 30
0.0
 11
2076.0418619319
 21
260.546134618
 31
0.0
  0
LINE
  5
3A8
330
1B
100
AcDbEntity
 67
     1
  8
7_ALL_FEATURES
  6
Continuous
 62
     3
100
AcDbLine
 10
2076.0418619319
 20
260.546134618
 30
0.0
 11
2077.189912229
 21
260.546134618
 31
0.0
  0
LINE
  5
3A9
330
1B
100
AcDbEntity
 67
     1
  8
7_ALL_FEATURES
  6
Continuous
 62
     3
100
AcDbLine
 10
1124.189912229
 20
260.546134618
 30
0.0
 11
1125.3379625261
 21
260.546134618
 31
0.0
  0
LINE
  5
3AA
330
1B
100
AcDbEntity
 67
     1
  8
7_ALL_FEATURES
  6
Continuous
 62
     3
100
AcDbLine
 10
1125.3379625261
 20
260.546134618
 30
0.0
 11
1126.9615508265
 21
260.546134618
 31
0.0
  0
LINE
  5
3AB
330
1B
100
AcDbEntity
 67
     1
  8
7_ALL_FEATURES
  6
Continuous
 62
     3
100
AcDbLine
 10
1126.9615508265
 20
260.546134618
 30
0.0
 11
1127.189912229
 21
260.546134618
 31
0.0
  0
LINE
  5
3AC
330
1B
100
AcDbEntity
 67
     1
  8
7_ALL_FEATURES
  6
Continuous
 62
     3
100
AcDbLine
 10
1117.189912229
 20
260.546134618
 30
0.0
 11
1124.189912229
 21
260.546134618
 31
0.0
  0
LINE
  5
3AD
330
1B
100
AcDbEntity
 67
     1
  8
7_ALL_FEATURES
  6
Continuous
 62
     3
100
AcDbLine
 10
1834.189912229
 20
260.546134618
 30
0.0
 11
1836.0418619319
 21
260.546134618
 31
0.0
  0
LINE
  5
3AE
330
1B
100
AcDbEntity
 67
     1
  8
7_ALL_FEATURES
  6
Continuous
 62
     3
100
AcDbLine
 10
1836.0418619319
 20
260.546134618
 30
0.0
 11
1837.189912229
 21
260.546134618
 31
0.0
  0
LINE
  5
3AF
330
1B
100
AcDbEntity
 67
     1
  8
7_ALL_FEATURES
  6
Continuous
 62
     3
100
AcDbLine
 10
1594.189912229
 20
260.546134618
 30
0.0
 11
1596.0418619319
 21
260.546134618
 31
0.0
  0
LINE
  5
3B0
330
1B
100
AcDbEntity
 67
     1
  8
7_ALL_FEATURES
  6
Continuous
 62
     3
100
AcDbLine
 10
1596.0418619319
 20
260.546134618
 30
0.0
 11
1597.189912229
 21
260.546134618
 31
0.0
  0
LINE
  5
3B1
330
1B
100
AcDbEntity
 67
     1
  8
7_ALL_FEATURES
  6
Continuous
 62
     3
100
AcDbLine
 10
1364.189912229
 20
260.546134618
 30
0.0
 11
1365.3379625261
 21
260.546134618
 31
0.0
  0
LINE
  5
3B2
330
1B
100
AcDbEntity
 67
     1
  8
7_ALL_FEATURES
  6
Continuous
 62
     3
100
AcDbLine
 10
1365.3379625261
 20
260.546134618
 30
0.0
 11
1366.9615508265
 21
260.546134618
 31
0.0
  0
LINE
  5
3B3
330
1B
100
AcDbEntity
 67
     1
  8
7_ALL_FEATURES
  6
Continuous
 62
     3
100
AcDbLine
 10
1366.9615508265
 20
260.546134618
 30
0.0
 11
1367.189912229
 21
260.546134618
 31
0.0
  0
LINE
  5
3B4
330
1B
100
AcDbEntity
 67
     1
  8
7_ALL_FEATURES
  6
Continuous
 62
     3
100
AcDbLine
 10
1357.189912229
 20
260.546134618
 30
0.0
 11
1364.189912229
 21
260.546134618
 31
0.0
  0
LINE
  5
3B5
330
1B
100
AcDbEntity
 67
     1
  8
7_ALL_FEATURES
  6
Continuous
 62
     3
100
AcDbLine
 10
1354.189912229
 20
260.546134618
 30
0.0
 11
1356.0418619319
 21
260.546134618
 31
0.0
  0
LINE
  5
3B6
330
1B
100
AcDbEntity
 67
     1
  8
7_ALL_FEATURES
  6
Continuous
 62
     3
100
AcDbLine
 10
1356.0418619319
 20
260.546134618
 30
0.0
 11
1357.189912229
 21
260.546134618
 31
0.0
  0
LINE
  5
3B7
330
1B
100
AcDbEntity
 67
     1
  8
7_ALL_FEATURES
  6
Continuous
 62
     3
100
AcDbLine
 10
1604.189912229
 20
260.546134618
 30
0.0
 11
1605.3379625261
 21
260.546134618
 31
0.0
  0
LINE
  5
3B8
330
1B
100
AcDbEntity
 67
     1
  8
7_ALL_FEATURES
  6
Continuous
 62
     3
100
AcDbLine
 10
1605.3379625261
 20
260.546134618
 30
0.0
 11
1606.9615508265
 21
260.546134618
 31
0.0
  0
LINE
  5
3B9
330
1B
100
AcDbEntity
 67
     1
  8
7_ALL_FEATURES
  6
Continuous
 62
     3
100
AcDbLine
 10
1606.9615508265
 20
260.546134618
 30
0.0
 11
1607.189912229
 21
260.546134618
 31
0.0
  0
LINE
  5
3BA
330
1B
100
AcDbEntity
 67
     1
  8
7_ALL_FEATURES
  6
Continuous
 62
     3
100
AcDbLine
 10
1597.189912229
 20
260.546134618
 30
0.0
 11
1604.189912229
 21
260.546134618
 31
0.0
  0
LINE
  5
3BB
330
1B
100
AcDbEntity
 67
     1
  8
7_ALL_FEATURES
  6
Continuous
 62
     3
100
AcDbLine
 10
1844.189912229
 20
260.546134618
 30
0.0
 11
1845.3379625261
 21
260.546134618
 31
0.0
  0
LINE
  5
3BC
330
1B
100
AcDbEntity
 67
     1
  8
7_ALL_FEATURES
  6
Continuous
 62
     3
100
AcDbLine
 10
1845.3379625261
 20
260.546134618
 30
0.0
 11
1846.9615508265
 21
260.546134618
 31
0.0
  0
LINE
  5
3BD
330
1B
100
AcDbEntity
 67
     1
  8
7_ALL_FEATURES
  6
Continuous
 62
     3
100
AcDbLine
 10
1846.9615508265
 20
260.546134618
 30
0.0
 11
1847.189912229
 21
260.546134618
 31
0.0
  0
LINE
  5
3BE
330
1B
100
AcDbEntity
 67
     1
  8
7_ALL_FEATURES
  6
Continuous
 62
     3
100
AcDbLine
 10
1837.189912229
 20
260.546134618
 30
0.0
 11
1844.189912229
 21
260.546134618
 31
0.0
  0
LINE
  5
3BF
330
1B
100
AcDbEntity
 67
     1
  8
7_ALL_FEATURES
  6
Continuous
 62
     3
100
AcDbLine
 10
2084.189912229
 20
260.546134618
 30
0.0
 11
2085.3379625261
 21
260.546134618
 31
0.0
  0
LINE
  5
3C0
330
1B
100
AcDbEntity
 67
     1
  8
7_ALL_FEATURES
  6
Continuous
 62
     3
100
AcDbLine
 10
2085.3379625261
 20
260.546134618
 30
0.0
 11
2086.9615508265
 21
260.546134618
 31
0.0
  0
LINE
  5
3C1
330
1B
100
AcDbEntity
 67
     1
  8
7_ALL_FEATURES
  6
Continuous
 62
     3
100
AcDbLine
 10
2086.9615508265
 20
260.546134618
 30
0.0
 11
2087.189912229
 21
260.546134618
 31
0.0
  0
LINE
  5
3C2
330
1B
100
AcDbEntity
 67
     1
  8
7_ALL_FEATURES
  6
Continuous
 62
     3
100
AcDbLine
 10
2077.189912229
 20
260.546134618
 30
0.0
 11
2084.189912229
 21
260.546134618
 31
0.0
  0
LINE
  5
3C3
330
1B
100
AcDbEntity
 67
     1
  8
7_ALL_FEATURES
  6
Continuous
 62
     3
100
AcDbLine
 10
2324.189912229
 20
260.546134618
 30
0.0
 11
2325.3379625261
 21
260.546134618
 31
0.0
  0
LINE
  5
3C4
330
1B
100
AcDbEntity
 67
     1
  8
7_ALL_FEATURES
  6
Continuous
 62
     3
100
AcDbLine
 10
2325.3379625261
 20
260.546134618
 30
0.0
 11
2326.9615508265
 21
260.546134618
 31
0.0
  0
LINE
  5
3C5
330
1B
100
AcDbEntity
 67
     1
  8
7_ALL_FEATURES
  6
Continuous
 62
     3
100
AcDbLine
 10
2326.9615508265
 20
260.546134618
 30
0.0
 11
2327.189912229
 21
260.546134618
 31
0.0
  0
LINE
  5
3C6
330
1B
100
AcDbEntity
 67
     1
  8
7_ALL_FEATURES
  6
Continuous
 62
     3
100
AcDbLine
 10
2317.189912229
 20
260.546134618
 30
0.0
 11
2324.189912229
 21
260.546134618
 31
0.0
  0
LINE
  5
3C7
330
1B
100
AcDbEntity
 67
     1
  8
7_ALL_FEATURES
  6
Continuous
 62
     3
100
AcDbLine
 10
2564.189912229
 20
260.546134618
 30
0.0
 11
2565.3379625261
 21
260.546134618
 31
0.0
  0
LINE
  5
3C8
330
1B
100
AcDbEntity
 67
     1
  8
7_ALL_FEATURES
  6
Continuous
 62
     3
100
AcDbLine
 10
2565.3379625261
 20
260.546134618
 30
0.0
 11
2566.9615508265
 21
260.546134618
 31
0.0
  0
LINE
  5
3C9
330
1B
100
AcDbEntity
 67
     1
  8
7_ALL_FEATURES
  6
Continuous
 62
     3
100
AcDbLine
 10
2566.9615508265
 20
260.546134618
 30
0.0
 11
2567.189912229
 21
260.546134618
 31
0.0
  0
LINE
  5
3CA
330
1B
100
AcDbEntity
 67
     1
  8
7_ALL_FEATURES
  6
Continuous
 62
     3
100
AcDbLine
 10
2557.189912229
 20
260.546134618
 30
0.0
 11
2564.189912229
 21
260.546134618
 31
0.0
  0
LINE
  5
3CB
330
1B
100
AcDbEntity
 67
     1
  8
7_ALL_FEATURES
  6
Continuous
 62
     3
100
AcDbLine
 10
2804.189912229
 20
260.546134618
 30
0.0
 11
2805.3379625261
 21
260.546134618
 31
0.0
  0
LINE
  5
3CC
330
1B
100
AcDbEntity
 67
     1
  8
7_ALL_FEATURES
  6
Continuous
 62
     3
100
AcDbLine
 10
2805.3379625261
 20
260.546134618
 30
0.0
 11
2806.9615508265
 21
260.546134618
 31
0.0
  0
LINE
  5
3CD
330
1B
100
AcDbEntity
 67
     1
  8
7_ALL_FEATURES
  6
Continuous
 62
     3
100
AcDbLine
 10
2806.9615508265
 20
260.546134618
 30
0.0
 11
2807.189912229
 21
260.546134618
 31
0.0
  0
LINE
  5
3CE
330
1B
100
AcDbEntity
 67
     1
  8
7_ALL_FEATURES
  6
Continuous
 62
     3
100
AcDbLine
 10
2797.189912229
 20
260.546134618
 30
0.0
 11
2804.189912229
 21
260.546134618
 31
0.0
  0
LINE
  5
3CF
330
1B
100
AcDbEntity
 67
     1
  8
7_ALL_FEATURES
  6
Continuous
 62
     3
100
AcDbLine
 10
2794.189912229
 20
261.1525971015
 30
0.0
 11
2794.189912229
 21
262.0826912873
 31
0.0
  0
LINE
  5
3D0
330
1B
100
AcDbEntity
 67
     1
  8
7_ALL_FEATURES
  6
Continuous
 62
     3
100
AcDbLine
 10
2567.189912229
 20
261.1525971015
 30
0.0
 11
2567.189912229
 21
262.0826912873
 31
0.0
  0
LINE
  5
3D1
330
1B
100
AcDbEntity
 67
     1
  8
7_ALL_FEATURES
  6
Continuous
 62
     3
100
AcDbLine
 10
2554.189912229
 20
261.1525971015
 30
0.0
 11
2554.189912229
 21
262.0826912873
 31
0.0
  0
LINE
  5
3D2
330
1B
100
AcDbEntity
 67
     1
  8
7_ALL_FEATURES
  6
Continuous
 62
     3
100
AcDbLine
 10
2327.189912229
 20
261.1525971015
 30
0.0
 11
2327.189912229
 21
262.0826912873
 31
0.0
  0
LINE
  5
3D3
330
1B
100
AcDbEntity
 67
     1
  8
7_ALL_FEATURES
  6
Continuous
 62
     3
100
AcDbLine
 10
2314.189912229
 20
261.1525971015
 30
0.0
 11
2314.189912229
 21
262.0826912873
 31
0.0
  0
LINE
  5
3D4
330
1B
100
AcDbEntity
 67
     1
  8
7_ALL_FEATURES
  6
Continuous
 62
     3
100
AcDbLine
 10
2087.189912229
 20
261.1525971015
 30
0.0
 11
2087.189912229
 21
262.0826912873
 31
0.0
  0
LINE
  5
3D5
330
1B
100
AcDbEntity
 67
     1
  8
7_ALL_FEATURES
  6
Continuous
 62
     3
100
AcDbLine
 10
2074.189912229
 20
261.1525971015
 30
0.0
 11
2074.189912229
 21
262.0826912873
 31
0.0
  0
LINE
  5
3D6
330
1B
100
AcDbEntity
 67
     1
  8
7_ALL_FEATURES
  6
Continuous
 62
     3
100
AcDbLine
 10
1847.189912229
 20
261.1525971015
 30
0.0
 11
1847.189912229
 21
262.0826912873
 31
0.0
  0
LINE
  5
3D7
330
1B
100
AcDbEntity
 67
     1
  8
7_ALL_FEATURES
  6
Continuous
 62
     3
100
AcDbLine
 10
1834.189912229
 20
261.1525971015
 30
0.0
 11
1834.189912229
 21
262.0826912873
 31
0.0
  0
LINE
  5
3D8
330
1B
100
AcDbEntity
 67
     1
  8
7_ALL_FEATURES
  6
Continuous
 62
     3
100
AcDbLine
 10
1607.189912229
 20
261.1525971015
 30
0.0
 11
1607.189912229
 21
262.0826912873
 31
0.0
  0
LINE
  5
3D9
330
1B
100
AcDbEntity
 67
     1
  8
7_ALL_FEATURES
  6
Continuous
 62
     3
100
AcDbLine
 10
1594.189912229
 20
261.1525971015
 30
0.0
 11
1594.189912229
 21
262.0826912873
 31
0.0
  0
LINE
  5
3DA
330
1B
100
AcDbEntity
 67
     1
  8
7_ALL_FEATURES
  6
Continuous
 62
     3
100
AcDbLine
 10
1367.189912229
 20
261.1525971015
 30
0.0
 11
1367.189912229
 21
262.0826912873
 31
0.0
  0
LINE
  5
3DB
330
1B
100
AcDbEntity
 67
     1
  8
7_ALL_FEATURES
  6
Continuous
 62
     3
100
AcDbLine
 10
1354.189912229
 20
261.1525971015
 30
0.0
 11
1354.189912229
 21
262.0826912873
 31
0.0
  0
LINE
  5
3DC
330
1B
100
AcDbEntity
 67
     1
  8
7_ALL_FEATURES
  6
Continuous
 62
     3
100
AcDbLine
 10
1127.189912229
 20
261.1525971015
 30
0.0
 11
1127.189912229
 21
262.0826912873
 31
0.0
  0
LINE
  5
3DD
330
1B
100
AcDbEntity
 67
     1
  8
7_ALL_FEATURES
  6
Continuous
 62
     3
100
AcDbLine
 10
1114.189912229
 20
261.1525971015
 30
0.0
 11
1114.189912229
 21
262.0826912873
 31
0.0
  0
LINE
  5
3DE
330
1B
100
AcDbEntity
 67
     1
  8
7_ALL_FEATURES
  6
Continuous
 62
     3
100
AcDbLine
 10
2807.189912229
 20
261.1525971015
 30
0.0
 11
2807.189912229
 21
262.0826912873
 31
0.0
  0
LINE
  5
3DF
330
1B
100
AcDbEntity
 67
     1
  8
7_ALL_FEATURES
  6
Continuous
 62
     3
100
AcDbLine
 10
2807.189912229
 20
261.1525971015
 30
0.0
 11
2807.189912229
 21
260.6230676021
 31
0.0
  0
LINE
  5
3E0
330
1B
100
AcDbEntity
 67
     1
  8
7_ALL_FEATURES
  6
Continuous
 62
     3
100
AcDbLine
 10
2794.189912229
 20
261.1525971015
 30
0.0
 11
2794.189912229
 21
260.6230676021
 31
0.0
  0
LINE
  5
3E1
330
1B
100
AcDbEntity
 67
     1
  8
7_ALL_FEATURES
  6
Continuous
 62
     3
100
AcDbLine
 10
2837.689912229
 20
322.9322152425
 30
0.0
 11
2837.689912229
 21
323.1162931042
 31
0.0
  0
LINE
  5
3E2
330
1B
100
AcDbEntity
 67
     1
  8
7_ALL_FEATURES
  6
Continuous
 62
     3
100
AcDbLine
 10
1083.689912229
 20
322.9322152425
 30
0.0
 11
1083.689912229
 21
323.1162931042
 31
0.0
  0
LINE
  5
3E3
330
1B
100
AcDbEntity
 67
     1
  8
7_ALL_FEATURES
  6
Continuous
 62
     3
100
AcDbLine
 10
2837.689912229
 20
313.3273873526
 30
0.0
 11
2837.689912229
 21
322.9322152425
 31
0.0
  0
LINE
  5
3E4
330
1B
100
AcDbEntity
 67
     1
  8
7_ALL_FEATURES
  6
Continuous
 62
     3
100
AcDbLine
 10
1083.689912229
 20
313.3273873526
 30
0.0
 11
1083.689912229
 21
322.9322152425
 31
0.0
  0
LINE
  5
3E5
330
1B
100
AcDbEntity
 67
     1
  8
7_ALL_FEATURES
  6
Continuous
 62
     3
100
AcDbLine
 10
2837.689912229
 20
313.1353457244
 30
0.0
 11
2837.689912229
 21
313.3273873526
 31
0.0
  0
LINE
  5
3E6
330
1B
100
AcDbEntity
 67
     1
  8
7_ALL_FEATURES
  6
Continuous
 62
     3
100
AcDbLine
 10
1083.689912229
 20
313.1353457244
 30
0.0
 11
1083.689912229
 21
313.3273873526
 31
0.0
  0
LINE
  5
3E7
330
1B
100
AcDbEntity
 67
     1
  8
7_ALL_FEATURES
  6
Continuous
 62
     3
100
AcDbLine
 10
2837.689912229
 20
303.1917680921
 30
0.0
 11
2837.689912229
 21
313.1353457244
 31
0.0
  0
LINE
  5
3E8
330
1B
100
AcDbEntity
 67
     1
  8
7_ALL_FEATURES
  6
Continuous
 62
     3
100
AcDbLine
 10
1083.689912229
 20
303.1917680921
 30
0.0
 11
1083.689912229
 21
313.1353457244
 31
0.0
  0
LINE
  5
3E9
330
1B
100
AcDbEntity
 67
     1
  8
7_ALL_FEATURES
  6
Continuous
 62
     3
100
AcDbLine
 10
2837.689912229
 20
302.994424987
 30
0.0
 11
2837.689912229
 21
303.1917680921
 31
0.0
  0
LINE
  5
3EA
330
1B
100
AcDbEntity
 67
     1
  8
7_ALL_FEATURES
  6
Continuous
 62
     3
100
AcDbLine
 10
1083.689912229
 20
302.994424987
 30
0.0
 11
1083.689912229
 21
303.1917680921
 31
0.0
  0
LINE
  5
3EB
330
1B
100
AcDbEntity
 67
     1
  8
7_ALL_FEATURES
  6
Continuous
 62
     3
100
AcDbLine
 10
2837.689912229
 20
292.8499462851
 30
0.0
 11
2837.689912229
 21
302.994424987
 31
0.0
  0
LINE
  5
3EC
330
1B
100
AcDbEntity
 67
     1
  8
7_ALL_FEATURES
  6
Continuous
 62
     3
100
AcDbLine
 10
1083.689912229
 20
292.8499462851
 30
0.0
 11
1083.689912229
 21
302.994424987
 31
0.0
  0
LINE
  5
3ED
330
1B
100
AcDbEntity
 67
     1
  8
7_ALL_FEATURES
  6
Continuous
 62
     3
100
AcDbLine
 10
2837.689912229
 20
292.6500374875
 30
0.0
 11
2837.689912229
 21
292.8499462851
 31
0.0
  0
LINE
  5
3EE
330
1B
100
AcDbEntity
 67
     1
  8
7_ALL_FEATURES
  6
Continuous
 62
     3
100
AcDbLine
 10
1083.689912229
 20
292.6500374875
 30
0.0
 11
1083.689912229
 21
292.8499462851
 31
0.0
  0
LINE
  5
3EF
330
1B
100
AcDbEntity
 67
     1
  8
7_ALL_FEATURES
  6
Continuous
 62
     3
100
AcDbLine
 10
2837.689912229
 20
282.4452914976
 30
0.0
 11
2837.689912229
 21
292.6500374875
 31
0.0
  0
LINE
  5
3F0
330
1B
100
AcDbEntity
 67
     1
  8
7_ALL_FEATURES
  6
Continuous
 62
     3
100
AcDbLine
 10
1083.689912229
 20
282.4452914976
 30
0.0
 11
1083.689912229
 21
292.6500374875
 31
0.0
  0
LINE
  5
3F1
330
1B
100
AcDbEntity
 67
     1
  8
7_ALL_FEATURES
  6
Continuous
 62
     3
100
AcDbLine
 10
2837.689912229
 20
282.2455883605
 30
0.0
 11
2837.689912229
 21
282.4452914976
 31
0.0
  0
LINE
  5
3F2
330
1B
100
AcDbEntity
 67
     1
  8
7_ALL_FEATURES
  6
Continuous
 62
     3
100
AcDbLine
 10
1083.689912229
 20
282.2455883605
 30
0.0
 11
1083.689912229
 21
282.4452914976
 31
0.0
  0
LINE
  5
3F3
330
1B
100
AcDbEntity
 67
     1
  8
7_ALL_FEATURES
  6
Continuous
 62
     3
100
AcDbLine
 10
2837.689912229
 20
272.1220443547
 30
0.0
 11
2837.689912229
 21
282.2455883605
 31
0.0
  0
LINE
  5
3F4
330
1B
100
AcDbEntity
 67
     1
  8
7_ALL_FEATURES
  6
Continuous
 62
     3
100
AcDbLine
 10
1083.689912229
 20
272.1220443547
 30
0.0
 11
1083.689912229
 21
282.2455883605
 31
0.0
  0
LINE
  5
3F5
330
1B
100
AcDbEntity
 67
     1
  8
7_ALL_FEATURES
  6
Continuous
 62
     3
100
AcDbLine
 10
2837.689912229
 20
271.9253153797
 30
0.0
 11
2837.689912229
 21
272.1220443547
 31
0.0
  0
LINE
  5
3F6
330
1B
100
AcDbEntity
 67
     1
  8
7_ALL_FEATURES
  6
Continuous
 62
     3
100
AcDbLine
 10
1083.689912229
 20
271.9253153797
 30
0.0
 11
1083.689912229
 21
272.1220443547
 31
0.0
  0
LINE
  5
3F7
330
1B
100
AcDbEntity
 67
     1
  8
7_ALL_FEATURES
  6
Continuous
 62
     3
100
AcDbLine
 10
2837.689912229
 20
323.1162931042
 30
0.0
 11
2837.689912229
 21
327.9064894904
 31
0.0
  0
LINE
  5
3F8
330
1B
100
AcDbEntity
 67
     1
  8
7_ALL_FEATURES
  6
Continuous
 62
     3
100
AcDbLine
 10
1083.689912229
 20
323.1162931042
 30
0.0
 11
1083.689912229
 21
327.9064894904
 31
0.0
  0
LINE
  5
3F9
330
1B
100
AcDbEntity
 67
     1
  8
7_ALL_FEATURES
  6
Continuous
 62
     3
100
AcDbLine
 10
1114.189912229
 20
261.1525971015
 30
0.0
 11
1114.189912229
 21
260.6230676021
 31
0.0
  0
LINE
  5
3FA
330
1B
100
AcDbEntity
 67
     1
  8
7_ALL_FEATURES
  6
Continuous
 62
     3
100
AcDbLine
 10
1127.189912229
 20
261.1525971015
 30
0.0
 11
1127.189912229
 21
260.6230676021
 31
0.0
  0
LINE
  5
3FB
330
1B
100
AcDbEntity
 67
     1
  8
7_ALL_FEATURES
  6
Continuous
 62
     3
100
AcDbLine
 10
1354.189912229
 20
261.1525971015
 30
0.0
 11
1354.189912229
 21
260.6230676021
 31
0.0
  0
LINE
  5
3FC
330
1B
100
AcDbEntity
 67
     1
  8
7_ALL_FEATURES
  6
Continuous
 62
     3
100
AcDbLine
 10
1367.189912229
 20
261.1525971015
 30
0.0
 11
1367.189912229
 21
260.6230676021
 31
0.0
  0
LINE
  5
3FD
330
1B
100
AcDbEntity
 67
     1
  8
7_ALL_FEATURES
  6
Continuous
 62
     3
100
AcDbLine
 10
1594.189912229
 20
261.1525971015
 30
0.0
 11
1594.189912229
 21
260.6230676021
 31
0.0
  0
LINE
  5
3FE
330
1B
100
AcDbEntity
 67
     1
  8
7_ALL_FEATURES
  6
Continuous
 62
     3
100
AcDbLine
 10
1607.189912229
 20
261.1525971015
 30
0.0
 11
1607.189912229
 21
260.6230676021
 31
0.0
  0
LINE
  5
3FF
330
1B
100
AcDbEntity
 67
     1
  8
7_ALL_FEATURES
  6
Continuous
 62
     3
100
AcDbLine
 10
1834.189912229
 20
261.1525971015
 30
0.0
 11
1834.189912229
 21
260.6230676021
 31
0.0
  0
LINE
  5
400
330
1B
100
AcDbEntity
 67
     1
  8
7_ALL_FEATURES
  6
Continuous
 62
     3
100
AcDbLine
 10
1847.189912229
 20
261.1525971015
 30
0.0
 11
1847.189912229
 21
260.6230676021
 31
0.0
  0
LINE
  5
401
330
1B
100
AcDbEntity
 67
     1
  8
7_ALL_FEATURES
  6
Continuous
 62
     3
100
AcDbLine
 10
2074.189912229
 20
261.1525971015
 30
0.0
 11
2074.189912229
 21
260.6230676021
 31
0.0
  0
LINE
  5
402
330
1B
100
AcDbEntity
 67
     1
  8
7_ALL_FEATURES
  6
Continuous
 62
     3
100
AcDbLine
 10
2087.189912229
 20
261.1525971015
 30
0.0
 11
2087.189912229
 21
260.6230676021
 31
0.0
  0
LINE
  5
403
330
1B
100
AcDbEntity
 67
     1
  8
7_ALL_FEATURES
  6
Continuous
 62
     3
100
AcDbLine
 10
2314.189912229
 20
261.1525971015
 30
0.0
 11
2314.189912229
 21
260.6230676021
 31
0.0
  0
LINE
  5
404
330
1B
100
AcDbEntity
 67
     1
  8
7_ALL_FEATURES
  6
Continuous
 62
     3
100
AcDbLine
 10
2327.189912229
 20
261.1525971015
 30
0.0
 11
2327.189912229
 21
260.6230676021
 31
0.0
  0
LINE
  5
405
330
1B
100
AcDbEntity
 67
     1
  8
7_ALL_FEATURES
  6
Continuous
 62
     3
100
AcDbLine
 10
2554.189912229
 20
261.1525971015
 30
0.0
 11
2554.189912229
 21
260.6230676021
 31
0.0
  0
LINE
  5
406
330
1B
100
AcDbEntity
 67
     1
  8
7_ALL_FEATURES
  6
Continuous
 62
     3
100
AcDbLine
 10
2567.189912229
 20
261.1525971015
 30
0.0
 11
2567.189912229
 21
260.6230676021
 31
0.0
  0
LINE
  5
407
330
1B
100
AcDbEntity
 67
     1
  8
7_ALL_FEATURES
  6
Continuous
 62
     3
100
AcDbLine
 10
1083.689912229
 20
267.9044656449
 30
0.0
 11
1083.689912229
 21
271.9253153797
 31
0.0
  0
LINE
  5
408
330
1B
100
AcDbEntity
 67
     1
  8
7_ALL_FEATURES
  6
Continuous
 62
     3
100
AcDbLine
 10
2837.689912229
 20
267.9044656449
 30
0.0
 11
2837.689912229
 21
271.9253153797
 31
0.0
  0
LINE
  5
409
330
1B
100
AcDbEntity
 67
     1
  8
7_ALL_FEATURES
  6
Continuous
 62
     3
100
AcDbLine
 10
1353.189912229
 20
263.0529870136
 30
0.0
 11
1128.189912229
 21
263.0529870136
 31
0.0
  0
SPLINE
  5
40A
330
1B
100
AcDbEntity
 67
     1
  8
7_ALL_FEATURES
  6
Continuous
 62
     3
100
AcDbSpline
 70
     0
 71
     3
 72
     9
 73
     5
 74
     0
 42
0.000000001
 43
0.0000001
 40
0.0
 40
0.0
 40
0.0
 40
0.0
 40
0.5053295823
 40
1.0
 40
1.0
 40
1.0
 40
1.0
 10
2832.689912229
 20
263.0529870136
 30
0.0
 10
2833.9600452963
 20
263.0529870136
 30
0.0
 10
2836.5862427348
 20
264.0522976846
 30
0.0
 10
2837.689912229
 20
266.661124117
 30
0.0
 10
2837.689912229
 20
267.9044656449
 30
0.0
  0
SPLINE
  5
40B
330
1B
100
AcDbEntity
 67
     1
  8
7_ALL_FEATURES
  6
Continuous
 62
     3
100
AcDbSpline
 70
     0
 71
     3
 72
     9
 73
     5
 74
     0
 42
0.000000001
 43
0.0000001
 40
0.0
 40
0.0
 40
0.0
 40
0.0
 40
0.5498949854
 40
1.0
 40
1.0
 40
1.0
 40
1.0
 10
2553.189912229
 20
263.0529870136
 30
0.0
 10
2553.4273752875
 20
263.0529870136
 30
0.0
 10
2553.9496462222
 20
263.0425969583
 30
0.0
 10
2554.0544636492
 20
262.4302413058
 30
0.0
 10
2553.9321521194
 20
262.2791792466
 30
0.0
  0
SPLINE
  5
40C
330
1B
100
AcDbEntity
 67
     1
  8
7_ALL_FEATURES
  6
Continuous
 62
     3
100
AcDbSpline
 70
     0
 71
     3
 72
     8
 73
     4
 74
     0
 42
0.000000001
 43
0.0000001
 40
0.0
 40
0.0
 40
0.0
 40
0.0
 40
1.0
 40
1.0
 40
1.0
 40
1.0
 10
1847.189912229
 20
262.0826912873
 30
0.0
 10
1847.189912229
 20
262.4086267525
 30
0.0
 10
1847.3639767638
 20
262.9229920354
 30
0.0
 10
1847.689912229
 20
262.9229920354
 30
0.0
  0
SPLINE
  5
40D
330
1B
100
AcDbEntity
 67
     1
  8
7_ALL_FEATURES
  6
Continuous
 62
     3
100
AcDbSpline
 70
     0
 71
     3
 72
     9
 73
     5
 74
     0
 42
0.000000001
 43
0.0000001
 40
0.0
 40
0.0
 40
0.0
 40
0.0
 40
0.4397223996
 40
1.0
 40
1.0
 40
1.0
 40
1.0
 10
1847.689912229
 20
262.9229920354
 30
0.0
 10
1847.73756519
 20
262.9229920354
 30
0.0
 10
1847.8461063731
 20
262.8980153769
 30
0.0
 10
1847.9391213284
 20
262.8396927369
 30
0.0
 10
1847.9874090601
 20
262.8028834809
 30
0.0
  0
LINE
  5
40E
330
1B
100
AcDbEntity
 67
     1
  8
7_ALL_FEATURES
  6
Continuous
 62
     3
100
AcDbLine
 10
2832.689912229
 20
332.3811612984
 30
0.0
 11
1088.689912229
 21
332.3811612984
 31
0.0
  0
SPLINE
  5
40F
330
1B
100
AcDbEntity
 67
     1
  8
7_ALL_FEATURES
  6
Continuous
 62
     3
100
AcDbSpline
 70
     0
 71
     3
 72
     8
 73
     4
 74
     0
 42
0.000000001
 43
0.0000001
 40
0.0
 40
0.0
 40
0.0
 40
0.0
 40
1.0
 40
1.0
 40
1.0
 40
1.0
 10
1088.689912229
 20
332.3811612984
 30
0.0
 10
1088.0420796711
 20
332.3811612984
 30
0.0
 10
1087.3840470478
 20
332.2654196275
 30
0.0
 10
1086.7764950671
 20
332.0405471885
 30
0.0
  0
SPLINE
  5
410
330
1B
100
AcDbEntity
 67
     1
  8
7_ALL_FEATURES
  6
Continuous
 62
     3
100
AcDbSpline
 70
     0
 71
     3
 72
     8
 73
     4
 74
     0
 42
0.000000001
 43
0.0000001
 40
0.0
 40
0.0
 40
0.0
 40
0.0
 40
1.0
 40
1.0
 40
1.0
 40
1.0
 10
1086.7764950671
 20
332.0405471885
 30
0.0
 10
1086.1856637721
 20
331.8218635555
 30
0.0
 10
1085.6238367243
 20
331.4906947241
 30
0.0
 10
1085.154378323
 20
331.0705602694
 30
0.0
  0
SPLINE
  5
411
330
1B
100
AcDbEntity
 67
     1
  8
7_ALL_FEATURES
  6
Continuous
 62
     3
100
AcDbSpline
 70
     0
 71
     3
 72
     8
 73
     4
 74
     0
 42
0.000000001
 43
0.0000001
 40
0.0
 40
0.0
 40
0.0
 40
0.0
 40
1.0
 40
1.0
 40
1.0
 40
1.0
 10
1085.154378323
 20
331.0705602694
 30
0.0
 10
1084.2883572247
 20
330.2955282306
 30
0.0
 10
1083.689912229
 20
329.0686715776
 30
0.0
 10
1083.689912229
 20
327.9064894904
 30
0.0
  0
SPLINE
  5
412
330
1B
100
AcDbEntity
 67
     1
  8
7_ALL_FEATURES
  6
Continuous
 62
     3
100
AcDbSpline
 70
     0
 71
     3
 72
     8
 73
     4
 74
     0
 42
0.000000001
 43
0.0000001
 40
0.0
 40
0.0
 40
0.0
 40
0.0
 40
1.0
 40
1.0
 40
1.0
 40
1.0
 10
2837.689912229
 20
327.9064894904
 30
0.0
 10
2837.689912229
 20
329.0686715776
 30
0.0
 10
2837.0914672332
 20
330.2955282306
 30
0.0
 10
2836.2254461349
 20
331.0705602694
 30
0.0
  0
SPLINE
  5
413
330
1B
100
AcDbEntity
 67
     1
  8
7_ALL_FEATURES
  6
Continuous
 62
     3
100
AcDbSpline
 70
     0
 71
     3
 72
     8
 73
     4
 74
     0
 42
0.000000001
 43
0.0000001
 40
0.0
 40
0.0
 40
0.0
 40
0.0
 40
1.0
 40
1.0
 40
1.0
 40
1.0
 10
2836.2254461349
 20
331.0705602694
 30
0.0
 10
2835.7559877336
 20
331.4906947241
 30
0.0
 10
2835.1941606858
 20
331.8218635555
 30
0.0
 10
2834.6033293908
 20
332.0405471885
 30
0.0
  0
SPLINE
  5
414
330
1B
100
AcDbEntity
 67
     1
  8
7_ALL_FEATURES
  6
Continuous
 62
     3
100
AcDbSpline
 70
     0
 71
     3
 72
     8
 73
     4
 74
     0
 42
0.000000001
 43
0.0000001
 40
0.0
 40
0.0
 40
0.0
 40
0.0
 40
1.0
 40
1.0
 40
1.0
 40
1.0
 10
2834.6033293908
 20
332.0405471885
 30
0.0
 10
2833.9957774102
 20
332.2654196275
 30
0.0
 10
2833.3377447868
 20
332.3811612984
 30
0.0
 10
2832.689912229
 20
332.3811612984
 30
0.0
  0
LINE
  5
415
330
1B
100
AcDbEntity
 67
     1
  8
7_ALL_FEATURES
  6
Continuous
 62
     9
100
AcDbLine
 10
2837.689912229
 20
323.1162931042
 30
0.0
 11
1083.689912229
 21
323.1162931042
 31
0.0
  0
LINE
  5
416
330
1B
100
AcDbEntity
 67
     1
  8
7_ALL_FEATURES
  6
Continuous
 62
     9
100
AcDbLine
 10
2837.689912229
 20
322.9322152425
 30
0.0
 11
1083.689912229
 21
322.9322152425
 31
0.0
  0
LINE
  5
417
330
1B
100
AcDbEntity
 67
     1
  8
7_ALL_FEATURES
  6
Continuous
 62
     9
100
AcDbLine
 10
2837.689912229
 20
313.3273873526
 30
0.0
 11
1083.689912229
 21
313.3273873526
 31
0.0
  0
LINE
  5
418
330
1B
100
AcDbEntity
 67
     1
  8
7_ALL_FEATURES
  6
Continuous
 62
     9
100
AcDbLine
 10
2837.689912229
 20
313.1353457244
 30
0.0
 11
1083.689912229
 21
313.1353457244
 31
0.0
  0
LINE
  5
419
330
1B
100
AcDbEntity
 67
     1
  8
7_ALL_FEATURES
  6
Continuous
 62
     9
100
AcDbLine
 10
2837.689912229
 20
303.1917680921
 30
0.0
 11
1083.689912229
 21
303.1917680921
 31
0.0
  0
LINE
  5
41A
330
1B
100
AcDbEntity
 67
     1
  8
7_ALL_FEATURES
  6
Continuous
 62
     9
100
AcDbLine
 10
2837.689912229
 20
302.994424987
 30
0.0
 11
1083.689912229
 21
302.994424987
 31
0.0
  0
SPLINE
  5
41B
330
1B
100
AcDbEntity
 67
     1
  8
7_ALL_FEATURES
  6
Continuous
 62
     3
100
AcDbSpline
 70
     0
 71
     3
 72
     8
 73
     4
 74
     0
 42
0.000000001
 43
0.0000001
 40
0.0
 40
0.0
 40
0.0
 40
0.0
 40
1.0
 40
1.0
 40
1.0
 40
1.0
 10
1127.189912229
 20
262.0826912873
 30
0.0
 10
1127.189912229
 20
262.4086267525
 30
0.0
 10
1127.3639767638
 20
262.9229920354
 30
0.0
 10
1127.689912229
 20
262.9229920354
 30
0.0
  0
SPLINE
  5
41C
330
1B
100
AcDbEntity
 67
     1
  8
7_ALL_FEATURES
  6
Continuous
 62
     3
100
AcDbSpline
 70
     0
 71
     3
 72
     9
 73
     5
 74
     0
 42
0.000000001
 43
0.0000001
 40
0.0
 40
0.0
 40
0.0
 40
0.0
 40
0.4397223996
 40
1.0
 40
1.0
 40
1.0
 40
1.0
 10
1127.689912229
 20
262.9229920354
 30
0.0
 10
1127.73756519
 20
262.9229920354
 30
0.0
 10
1127.8461063731
 20
262.8980153769
 30
0.0
 10
1127.9391213284
 20
262.8396927369
 30
0.0
 10
1127.9874090601
 20
262.8028834809
 30
0.0
  0
LINE
  5
41D
330
1B
100
AcDbEntity
 67
     1
  8
7_ALL_FEATURES
  6
Continuous
 62
     9
100
AcDbLine
 10
2837.689912229
 20
292.8499462851
 30
0.0
 11
1083.689912229
 21
292.8499462851
 31
0.0
  0
LINE
  5
41E
330
1B
100
AcDbEntity
 67
     1
  8
7_ALL_FEATURES
  6
Continuous
 62
     9
100
AcDbLine
 10
2837.689912229
 20
292.6500374875
 30
0.0
 11
1083.689912229
 21
292.6500374875
 31
0.0
  0
SPLINE
  5
41F
330
1B
100
AcDbEntity
 67
     1
  8
7_ALL_FEATURES
  6
Continuous
 62
     3
100
AcDbSpline
 70
     0
 71
     3
 72
     9
 73
     5
 74
     0
 42
0.000000001
 43
0.0000001
 40
0.0
 40
0.0
 40
0.0
 40
0.0
 40
0.5498949854
 40
1.0
 40
1.0
 40
1.0
 40
1.0
 10
1113.189912229
 20
263.0529870136
 30
0.0
 10
1113.4273752875
 20
263.0529870136
 30
0.0
 10
1113.9496462222
 20
263.0425969583
 30
0.0
 10
1114.0544636492
 20
262.4302413058
 30
0.0
 10
1113.9321521194
 20
262.2791792466
 30
0.0
  0
LINE
  5
420
330
1B
100
AcDbEntity
 67
     1
  8
7_ALL_FEATURES
  6
Continuous
 62
     9
100
AcDbLine
 10
2837.689912229
 20
282.4452914976
 30
0.0
 11
1083.689912229
 21
282.4452914976
 31
0.0
  0
LINE
  5
421
330
1B
100
AcDbEntity
 67
     1
  8
7_ALL_FEATURES
  6
Continuous
 62
     9
100
AcDbLine
 10
2837.689912229
 20
282.2455883605
 30
0.0
 11
1083.689912229
 21
282.2455883605
 31
0.0
  0
LINE
  5
422
330
1B
100
AcDbEntity
 67
     1
  8
7_ALL_FEATURES
  6
Continuous
 62
     9
100
AcDbLine
 10
2837.689912229
 20
272.1220443547
 30
0.0
 11
1083.689912229
 21
272.1220443547
 31
0.0
  0
SPLINE
  5
423
330
1B
100
AcDbEntity
 67
     1
  8
7_ALL_FEATURES
  6
Continuous
 62
     3
100
AcDbSpline
 70
     0
 71
     3
 72
     8
 73
     4
 74
     0
 42
0.000000001
 43
0.0000001
 40
0.0
 40
0.0
 40
0.0
 40
0.0
 40
1.0
 40
1.0
 40
1.0
 40
1.0
 10
1367.189912229
 20
262.0826912873
 30
0.0
 10
1367.189912229
 20
262.4086267525
 30
0.0
 10
1367.3639767638
 20
262.9229920354
 30
0.0
 10
1367.689912229
 20
262.9229920354
 30
0.0
  0
SPLINE
  5
424
330
1B
100
AcDbEntity
 67
     1
  8
7_ALL_FEATURES
  6
Continuous
 62
     3
100
AcDbSpline
 70
     0
 71
     3
 72
     9
 73
     5
 74
     0
 42
0.000000001
 43
0.0000001
 40
0.0
 40
0.0
 40
0.0
 40
0.0
 40
0.4397223996
 40
1.0
 40
1.0
 40
1.0
 40
1.0
 10
1367.689912229
 20
262.9229920354
 30
0.0
 10
1367.73756519
 20
262.9229920354
 30
0.0
 10
1367.8461063731
 20
262.8980153769
 30
0.0
 10
1367.9391213284
 20
262.8396927369
 30
0.0
 10
1367.9874090601
 20
262.8028834809
 30
0.0
  0
LINE
  5
425
330
1B
100
AcDbEntity
 67
     1
  8
7_ALL_FEATURES
  6
Continuous
 62
     9
100
AcDbLine
 10
2837.689912229
 20
271.9253153797
 30
0.0
 11
1083.689912229
 21
271.9253153797
 31
0.0
  0
SPLINE
  5
426
330
1B
100
AcDbEntity
 67
     1
  8
7_ALL_FEATURES
  6
Continuous
 62
     3
100
AcDbSpline
 70
     0
 71
     3
 72
     8
 73
     4
 74
     0
 42
0.000000001
 43
0.0000001
 40
0.0
 40
0.0
 40
0.0
 40
0.0
 40
1.0
 40
1.0
 40
1.0
 40
1.0
 10
2327.189912229
 20
262.0826912873
 30
0.0
 10
2327.189912229
 20
262.4086267525
 30
0.0
 10
2327.3639767638
 20
262.9229920354
 30
0.0
 10
2327.689912229
 20
262.9229920354
 30
0.0
  0
SPLINE
  5
427
330
1B
100
AcDbEntity
 67
     1
  8
7_ALL_FEATURES
  6
Continuous
 62
     3
100
AcDbSpline
 70
     0
 71
     3
 72
     9
 73
     5
 74
     0
 42
0.000000001
 43
0.0000001
 40
0.0
 40
0.0
 40
0.0
 40
0.0
 40
0.4397223996
 40
1.0
 40
1.0
 40
1.0
 40
1.0
 10
2327.689912229
 20
262.9229920354
 30
0.0
 10
2327.73756519
 20
262.9229920354
 30
0.0
 10
2327.8461063731
 20
262.8980153769
 30
0.0
 10
2327.9391213284
 20
262.8396927369
 30
0.0
 10
2327.9874090601
 20
262.8028834809
 30
0.0
  0
LINE
  5
428
330
1B
100
AcDbEntity
 67
     1
  8
7_ALL_FEATURES
  6
Continuous
 62
     3
100
AcDbLine
 10
2793.189912229
 20
263.0529870136
 30
0.0
 11
2568.189912229
 21
263.0529870136
 31
0.0
  0
SPLINE
  5
429
330
1B
100
AcDbEntity
 67
     1
  8
7_ALL_FEATURES
  6
Continuous
 62
     3
100
AcDbSpline
 70
     0
 71
     3
 72
     8
 73
     4
 74
     0
 42
0.000000001
 43
0.0000001
 40
0.0
 40
0.0
 40
0.0
 40
0.0
 40
1.0
 40
1.0
 40
1.0
 40
1.0
 10
2567.189912229
 20
262.0826912873
 30
0.0
 10
2567.189912229
 20
262.4086267525
 30
0.0
 10
2567.3639767638
 20
262.9229920354
 30
0.0
 10
2567.689912229
 20
262.9229920354
 30
0.0
  0
SPLINE
  5
42A
330
1B
100
AcDbEntity
 67
     1
  8
7_ALL_FEATURES
  6
Continuous
 62
     3
100
AcDbSpline
 70
     0
 71
     3
 72
     9
 73
     5
 74
     0
 42
0.000000001
 43
0.0000001
 40
0.0
 40
0.0
 40
0.0
 40
0.0
 40
0.4397223996
 40
1.0
 40
1.0
 40
1.0
 40
1.0
 10
2567.689912229
 20
262.9229920354
 30
0.0
 10
2567.73756519
 20
262.9229920354
 30
0.0
 10
2567.8461063731
 20
262.8980153769
 30
0.0
 10
2567.9391213284
 20
262.8396927369
 30
0.0
 10
2567.9874090601
 20
262.8028834809
 30
0.0
  0
SPLINE
  5
42B
330
1B
100
AcDbEntity
 67
     1
  8
7_ALL_FEATURES
  6
Continuous
 62
     3
100
AcDbSpline
 70
     0
 71
     3
 72
     9
 73
     5
 74
     0
 42
0.000000001
 43
0.0000001
 40
0.0
 40
0.0
 40
0.0
 40
0.0
 40
0.5498949854
 40
1.0
 40
1.0
 40
1.0
 40
1.0
 10
1353.189912229
 20
263.0529870136
 30
0.0
 10
1353.4273752875
 20
263.0529870136
 30
0.0
 10
1353.9496462222
 20
263.0425969583
 30
0.0
 10
1354.0544636492
 20
262.4302413058
 30
0.0
 10
1353.9321521194
 20
262.2791792466
 30
0.0
  0
LINE
  5
42C
330
1B
100
AcDbEntity
 67
     1
  8
7_ALL_FEATURES
  6
Continuous
 62
     9
100
AcDbLine
 10
2567.189912229
 20
261.1525971015
 30
0.0
 11
2564.189912229
 21
261.1525971015
 31
0.0
  0
LINE
  5
42D
330
1B
100
AcDbEntity
 67
     1
  8
7_ALL_FEATURES
  6
Continuous
 62
     9
100
AcDbLine
 10
2564.189912229
 20
261.1525971015
 30
0.0
 11
2562.439912229
 21
261.1525971015
 31
0.0
  0
LINE
  5
42E
330
1B
100
AcDbEntity
 67
     1
  8
7_ALL_FEATURES
  6
Continuous
 62
     9
100
AcDbLine
 10
2562.439912229
 20
261.1525971015
 30
0.0
 11
2558.939912229
 21
261.1525971015
 31
0.0
  0
LINE
  5
42F
330
1B
100
AcDbEntity
 67
     1
  8
7_ALL_FEATURES
  6
Continuous
 62
     9
100
AcDbLine
 10
2558.939912229
 20
261.1525971015
 30
0.0
 11
2557.189912229
 21
261.1525971015
 31
0.0
  0
LINE
  5
430
330
1B
100
AcDbEntity
 67
     1
  8
7_ALL_FEATURES
  6
Continuous
 62
     9
100
AcDbLine
 10
2557.189912229
 20
261.1525971015
 30
0.0
 11
2554.189912229
 21
261.1525971015
 31
0.0
  0
LINE
  5
431
330
1B
100
AcDbEntity
 67
     1
  8
7_ALL_FEATURES
  6
Continuous
 62
     3
100
AcDbLine
 10
2832.689912229
 20
263.0529870136
 30
0.0
 11
2808.189912229
 21
263.0529870136
 31
0.0
  0
SPLINE
  5
432
330
1B
100
AcDbEntity
 67
     1
  8
7_ALL_FEATURES
  6
Continuous
 62
     3
100
AcDbSpline
 70
     0
 71
     3
 72
     9
 73
     5
 74
     0
 42
0.000000001
 43
0.0000001
 40
0.0
 40
0.0
 40
0.0
 40
0.0
 40
0.5498949854
 40
1.0
 40
1.0
 40
1.0
 40
1.0
 10
1593.189912229
 20
263.0529870136
 30
0.0
 10
1593.4273752875
 20
263.0529870136
 30
0.0
 10
1593.9496462222
 20
263.0425969583
 30
0.0
 10
1594.0544636492
 20
262.4302413058
 30
0.0
 10
1593.9321521194
 20
262.2791792466
 30
0.0
  0
LINE
  5
433
330
1B
100
AcDbEntity
 67
     1
  8
7_ALL_FEATURES
  6
Continuous
 62
     3
100
AcDbLine
 10
2553.189912229
 20
263.0529870136
 30
0.0
 11
2328.189912229
 21
263.0529870136
 31
0.0
  0
LINE
  5
434
330
1B
100
AcDbEntity
 67
     1
  8
7_ALL_FEATURES
  6
Continuous
 62
     9
100
AcDbLine
 10
1367.189912229
 20
261.1525971015
 30
0.0
 11
1364.189912229
 21
261.1525971015
 31
0.0
  0
LINE
  5
435
330
1B
100
AcDbEntity
 67
     1
  8
7_ALL_FEATURES
  6
Continuous
 62
     9
100
AcDbLine
 10
1364.189912229
 20
261.1525971015
 30
0.0
 11
1362.439912229
 21
261.1525971015
 31
0.0
  0
LINE
  5
436
330
1B
100
AcDbEntity
 67
     1
  8
7_ALL_FEATURES
  6
Continuous
 62
     9
100
AcDbLine
 10
1362.439912229
 20
261.1525971015
 30
0.0
 11
1358.939912229
 21
261.1525971015
 31
0.0
  0
LINE
  5
437
330
1B
100
AcDbEntity
 67
     1
  8
7_ALL_FEATURES
  6
Continuous
 62
     9
100
AcDbLine
 10
1358.939912229
 20
261.1525971015
 30
0.0
 11
1357.189912229
 21
261.1525971015
 31
0.0
  0
LINE
  5
438
330
1B
100
AcDbEntity
 67
     1
  8
7_ALL_FEATURES
  6
Continuous
 62
     9
100
AcDbLine
 10
1357.189912229
 20
261.1525971015
 30
0.0
 11
1354.189912229
 21
261.1525971015
 31
0.0
  0
LINE
  5
439
330
1B
100
AcDbEntity
 67
     1
  8
7_ALL_FEATURES
  6
Continuous
 62
     9
100
AcDbLine
 10
2327.189912229
 20
261.1525971015
 30
0.0
 11
2324.189912229
 21
261.1525971015
 31
0.0
  0
LINE
  5
43A
330
1B
100
AcDbEntity
 67
     1
  8
7_ALL_FEATURES
  6
Continuous
 62
     9
100
AcDbLine
 10
2324.189912229
 20
261.1525971015
 30
0.0
 11
2322.439912229
 21
261.1525971015
 31
0.0
  0
LINE
  5
43B
330
1B
100
AcDbEntity
 67
     1
  8
7_ALL_FEATURES
  6
Continuous
 62
     9
100
AcDbLine
 10
2322.439912229
 20
261.1525971015
 30
0.0
 11
2318.939912229
 21
261.1525971015
 31
0.0
  0
LINE
  5
43C
330
1B
100
AcDbEntity
 67
     1
  8
7_ALL_FEATURES
  6
Continuous
 62
     9
100
AcDbLine
 10
2318.939912229
 20
261.1525971015
 30
0.0
 11
2317.189912229
 21
261.1525971015
 31
0.0
  0
LINE
  5
43D
330
1B
100
AcDbEntity
 67
     1
  8
7_ALL_FEATURES
  6
Continuous
 62
     9
100
AcDbLine
 10
2317.189912229
 20
261.1525971015
 30
0.0
 11
2314.189912229
 21
261.1525971015
 31
0.0
  0
SPLINE
  5
43E
330
1B
100
AcDbEntity
 67
     1
  8
7_ALL_FEATURES
  6
Continuous
 62
     3
100
AcDbSpline
 70
     0
 71
     3
 72
     8
 73
     4
 74
     0
 42
0.000000001
 43
0.0000001
 40
0.0
 40
0.0
 40
0.0
 40
0.0
 40
1.0
 40
1.0
 40
1.0
 40
1.0
 10
1607.189912229
 20
262.0826912873
 30
0.0
 10
1607.189912229
 20
262.4086267525
 30
0.0
 10
1607.3639767638
 20
262.9229920354
 30
0.0
 10
1607.689912229
 20
262.9229920354
 30
0.0
  0
SPLINE
  5
43F
330
1B
100
AcDbEntity
 67
     1
  8
7_ALL_FEATURES
  6
Continuous
 62
     3
100
AcDbSpline
 70
     0
 71
     3
 72
     9
 73
     5
 74
     0
 42
0.000000001
 43
0.0000001
 40
0.0
 40
0.0
 40
0.0
 40
0.0
 40
0.4397223996
 40
1.0
 40
1.0
 40
1.0
 40
1.0
 10
1607.689912229
 20
262.9229920354
 30
0.0
 10
1607.73756519
 20
262.9229920354
 30
0.0
 10
1607.8461063731
 20
262.8980153769
 30
0.0
 10
1607.9391213284
 20
262.8396927369
 30
0.0
 10
1607.9874090601
 20
262.8028834809
 30
0.0
  0
SPLINE
  5
440
330
1B
100
AcDbEntity
 67
     1
  8
7_ALL_FEATURES
  6
Continuous
 62
     3
100
AcDbSpline
 70
     0
 71
     3
 72
     9
 73
     5
 74
     0
 42
0.000000001
 43
0.0000001
 40
0.0
 40
0.0
 40
0.0
 40
0.0
 40
0.4946704177
 40
1.0
 40
1.0
 40
1.0
 40
1.0
 10
1083.689912229
 20
267.9044656449
 30
0.0
 10
1083.689912229
 20
266.661124117
 30
0.0
 10
1084.7935817231
 20
264.0522976846
 30
0.0
 10
1087.4197791617
 20
263.0529870136
 30
0.0
 10
1088.689912229
 20
263.0529870136
 30
0.0
  0
LINE
  5
441
330
1B
100
AcDbEntity
 67
     1
  8
7_ALL_FEATURES
  6
Continuous
 62
     3
100
AcDbLine
 10
2313.189912229
 20
263.0529870136
 30
0.0
 11
2088.189912229
 21
263.0529870136
 31
0.0
  0
LINE
  5
442
330
1B
100
AcDbEntity
 67
     1
  8
7_ALL_FEATURES
  6
Continuous
 62
     9
100
AcDbLine
 10
2807.189912229
 20
261.1525971015
 30
0.0
 11
2804.189912229
 21
261.1525971015
 31
0.0
  0
LINE
  5
443
330
1B
100
AcDbEntity
 67
     1
  8
7_ALL_FEATURES
  6
Continuous
 62
     9
100
AcDbLine
 10
2804.189912229
 20
261.1525971015
 30
0.0
 11
2802.439912229
 21
261.1525971015
 31
0.0
  0
LINE
  5
444
330
1B
100
AcDbEntity
 67
     1
  8
7_ALL_FEATURES
  6
Continuous
 62
     9
100
AcDbLine
 10
2802.439912229
 20
261.1525971015
 30
0.0
 11
2798.939912229
 21
261.1525971015
 31
0.0
  0
LINE
  5
445
330
1B
100
AcDbEntity
 67
     1
  8
7_ALL_FEATURES
  6
Continuous
 62
     9
100
AcDbLine
 10
2798.939912229
 20
261.1525971015
 30
0.0
 11
2797.189912229
 21
261.1525971015
 31
0.0
  0
LINE
  5
446
330
1B
100
AcDbEntity
 67
     1
  8
7_ALL_FEATURES
  6
Continuous
 62
     9
100
AcDbLine
 10
2797.189912229
 20
261.1525971015
 30
0.0
 11
2794.189912229
 21
261.1525971015
 31
0.0
  0
LINE
  5
447
330
1B
100
AcDbEntity
 67
     1
  8
7_ALL_FEATURES
  6
Continuous
 62
     9
100
AcDbLine
 10
2087.189912229
 20
261.1525971015
 30
0.0
 11
2084.189912229
 21
261.1525971015
 31
0.0
  0
LINE
  5
448
330
1B
100
AcDbEntity
 67
     1
  8
7_ALL_FEATURES
  6
Continuous
 62
     9
100
AcDbLine
 10
2084.189912229
 20
261.1525971015
 30
0.0
 11
2082.439912229
 21
261.1525971015
 31
0.0
  0
LINE
  5
449
330
1B
100
AcDbEntity
 67
     1
  8
7_ALL_FEATURES
  6
Continuous
 62
     9
100
AcDbLine
 10
2082.439912229
 20
261.1525971015
 30
0.0
 11
2078.939912229
 21
261.1525971015
 31
0.0
  0
LINE
  5
44A
330
1B
100
AcDbEntity
 67
     1
  8
7_ALL_FEATURES
  6
Continuous
 62
     9
100
AcDbLine
 10
2078.939912229
 20
261.1525971015
 30
0.0
 11
2077.189912229
 21
261.1525971015
 31
0.0
  0
LINE
  5
44B
330
1B
100
AcDbEntity
 67
     1
  8
7_ALL_FEATURES
  6
Continuous
 62
     9
100
AcDbLine
 10
2077.189912229
 20
261.1525971015
 30
0.0
 11
2074.189912229
 21
261.1525971015
 31
0.0
  0
SPLINE
  5
44C
330
1B
100
AcDbEntity
 67
     1
  8
7_ALL_FEATURES
  6
Continuous
 62
     3
100
AcDbSpline
 70
     0
 71
     3
 72
     9
 73
     5
 74
     0
 42
0.000000001
 43
0.0000001
 40
0.0
 40
0.0
 40
0.0
 40
0.0
 40
0.5498949854
 40
1.0
 40
1.0
 40
1.0
 40
1.0
 10
1833.189912229
 20
263.0529870136
 30
0.0
 10
1833.4273752875
 20
263.0529870136
 30
0.0
 10
1833.9496462222
 20
263.0425969583
 30
0.0
 10
1834.0544636492
 20
262.4302413058
 30
0.0
 10
1833.9321521194
 20
262.2791792466
 30
0.0
  0
SPLINE
  5
44D
330
1B
100
AcDbEntity
 67
     1
  8
7_ALL_FEATURES
  6
Continuous
 62
     3
100
AcDbSpline
 70
     0
 71
     3
 72
     9
 73
     5
 74
     0
 42
0.000000001
 43
0.0000001
 40
0.0
 40
0.0
 40
0.0
 40
0.0
 40
0.5498949854
 40
1.0
 40
1.0
 40
1.0
 40
1.0
 10
2793.189912229
 20
263.0529870136
 30
0.0
 10
2793.4273752875
 20
263.0529870136
 30
0.0
 10
2793.9496462222
 20
263.0425969583
 30
0.0
 10
2794.0544636492
 20
262.4302413058
 30
0.0
 10
2793.9321521194
 20
262.2791792466
 30
0.0
  0
LINE
  5
44E
330
1B
100
AcDbEntity
 67
     1
  8
7_ALL_FEATURES
  6
Continuous
 62
     3
100
AcDbLine
 10
2073.189912229
 20
263.0529870136
 30
0.0
 11
1848.189912229
 21
263.0529870136
 31
0.0
  0
LINE
  5
44F
330
1B
100
AcDbEntity
 67
     1
  8
7_ALL_FEATURES
  6
Continuous
 62
     9
100
AcDbLine
 10
1127.189912229
 20
261.1525971015
 30
0.0
 11
1124.189912229
 21
261.1525971015
 31
0.0
  0
LINE
  5
450
330
1B
100
AcDbEntity
 67
     1
  8
7_ALL_FEATURES
  6
Continuous
 62
     9
100
AcDbLine
 10
1124.189912229
 20
261.1525971015
 30
0.0
 11
1122.439912229
 21
261.1525971015
 31
0.0
  0
LINE
  5
451
330
1B
100
AcDbEntity
 67
     1
  8
7_ALL_FEATURES
  6
Continuous
 62
     9
100
AcDbLine
 10
1122.439912229
 20
261.1525971015
 30
0.0
 11
1118.939912229
 21
261.1525971015
 31
0.0
  0
LINE
  5
452
330
1B
100
AcDbEntity
 67
     1
  8
7_ALL_FEATURES
  6
Continuous
 62
     9
100
AcDbLine
 10
1118.939912229
 20
261.1525971015
 30
0.0
 11
1117.189912229
 21
261.1525971015
 31
0.0
  0
LINE
  5
453
330
1B
100
AcDbEntity
 67
     1
  8
7_ALL_FEATURES
  6
Continuous
 62
     9
100
AcDbLine
 10
1117.189912229
 20
261.1525971015
 30
0.0
 11
1114.189912229
 21
261.1525971015
 31
0.0
  0
LINE
  5
454
330
1B
100
AcDbEntity
 67
     1
  8
7_ALL_FEATURES
  6
Continuous
 62
     9
100
AcDbLine
 10
1847.189912229
 20
261.1525971015
 30
0.0
 11
1844.189912229
 21
261.1525971015
 31
0.0
  0
LINE
  5
455
330
1B
100
AcDbEntity
 67
     1
  8
7_ALL_FEATURES
  6
Continuous
 62
     9
100
AcDbLine
 10
1844.189912229
 20
261.1525971015
 30
0.0
 11
1842.439912229
 21
261.1525971015
 31
0.0
  0
LINE
  5
456
330
1B
100
AcDbEntity
 67
     1
  8
7_ALL_FEATURES
  6
Continuous
 62
     9
100
AcDbLine
 10
1842.439912229
 20
261.1525971015
 30
0.0
 11
1838.939912229
 21
261.1525971015
 31
0.0
  0
LINE
  5
457
330
1B
100
AcDbEntity
 67
     1
  8
7_ALL_FEATURES
  6
Continuous
 62
     9
100
AcDbLine
 10
1838.939912229
 20
261.1525971015
 30
0.0
 11
1837.189912229
 21
261.1525971015
 31
0.0
  0
LINE
  5
458
330
1B
100
AcDbEntity
 67
     1
  8
7_ALL_FEATURES
  6
Continuous
 62
     9
100
AcDbLine
 10
1837.189912229
 20
261.1525971015
 30
0.0
 11
1834.189912229
 21
261.1525971015
 31
0.0
  0
SPLINE
  5
459
330
1B
100
AcDbEntity
 67
     1
  8
7_ALL_FEATURES
  6
Continuous
 62
     3
100
AcDbSpline
 70
     0
 71
     3
 72
     9
 73
     5
 74
     0
 42
0.000000001
 43
0.0000001
 40
0.0
 40
0.0
 40
0.0
 40
0.0
 40
0.5498949854
 40
1.0
 40
1.0
 40
1.0
 40
1.0
 10
2313.189912229
 20
263.0529870136
 30
0.0
 10
2313.4273752875
 20
263.0529870136
 30
0.0
 10
2313.9496462222
 20
263.0425969583
 30
0.0
 10
2314.0544636492
 20
262.4302413058
 30
0.0
 10
2313.9321521194
 20
262.2791792466
 30
0.0
  0
LINE
  5
45A
330
1B
100
AcDbEntity
 67
     1
  8
7_ALL_FEATURES
  6
Continuous
 62
     3
100
AcDbLine
 10
1833.189912229
 20
263.0529870136
 30
0.0
 11
1608.189912229
 21
263.0529870136
 31
0.0
  0
LINE
  5
45B
330
1B
100
AcDbEntity
 67
     1
  8
7_ALL_FEATURES
  6
Continuous
 62
     3
100
AcDbLine
 10
1088.689912229
 20
263.0529870136
 30
0.0
 11
1113.189912229
 21
263.0529870136
 31
0.0
  0
LINE
  5
45C
330
1B
100
AcDbEntity
 67
     1
  8
7_ALL_FEATURES
  6
Continuous
 62
     9
100
AcDbLine
 10
1607.189912229
 20
261.1525971015
 30
0.0
 11
1604.189912229
 21
261.1525971015
 31
0.0
  0
LINE
  5
45D
330
1B
100
AcDbEntity
 67
     1
  8
7_ALL_FEATURES
  6
Continuous
 62
     9
100
AcDbLine
 10
1604.189912229
 20
261.1525971015
 30
0.0
 11
1602.439912229
 21
261.1525971015
 31
0.0
  0
LINE
  5
45E
330
1B
100
AcDbEntity
 67
     1
  8
7_ALL_FEATURES
  6
Continuous
 62
     9
100
AcDbLine
 10
1602.439912229
 20
261.1525971015
 30
0.0
 11
1598.939912229
 21
261.1525971015
 31
0.0
  0
LINE
  5
45F
330
1B
100
AcDbEntity
 67
     1
  8
7_ALL_FEATURES
  6
Continuous
 62
     9
100
AcDbLine
 10
1598.939912229
 20
261.1525971015
 30
0.0
 11
1597.189912229
 21
261.1525971015
 31
0.0
  0
LINE
  5
460
330
1B
100
AcDbEntity
 67
     1
  8
7_ALL_FEATURES
  6
Continuous
 62
     9
100
AcDbLine
 10
1597.189912229
 20
261.1525971015
 30
0.0
 11
1594.189912229
 21
261.1525971015
 31
0.0
  0
SPLINE
  5
461
330
1B
100
AcDbEntity
 67
     1
  8
7_ALL_FEATURES
  6
Continuous
 62
     3
100
AcDbSpline
 70
     0
 71
     3
 72
     8
 73
     4
 74
     0
 42
0.000000001
 43
0.0000001
 40
0.0
 40
0.0
 40
0.0
 40
0.0
 40
1.0
 40
1.0
 40
1.0
 40
1.0
 10
2087.189912229
 20
262.0826912873
 30
0.0
 10
2087.189912229
 20
262.4086267525
 30
0.0
 10
2087.3639767638
 20
262.9229920354
 30
0.0
 10
2087.689912229
 20
262.9229920354
 30
0.0
  0
SPLINE
  5
462
330
1B
100
AcDbEntity
 67
     1
  8
7_ALL_FEATURES
  6
Continuous
 62
     3
100
AcDbSpline
 70
     0
 71
     3
 72
     9
 73
     5
 74
     0
 42
0.000000001
 43
0.0000001
 40
0.0
 40
0.0
 40
0.0
 40
0.0
 40
0.4397223996
 40
1.0
 40
1.0
 40
1.0
 40
1.0
 10
2087.689912229
 20
262.9229920354
 30
0.0
 10
2087.73756519
 20
262.9229920354
 30
0.0
 10
2087.8461063731
 20
262.8980153769
 30
0.0
 10
2087.9391213284
 20
262.8396927369
 30
0.0
 10
2087.9874090601
 20
262.8028834809
 30
0.0
  0
SPLINE
  5
463
330
1B
100
AcDbEntity
 67
     1
  8
7_ALL_FEATURES
  6
Continuous
 62
     3
100
AcDbSpline
 70
     0
 71
     3
 72
     8
 73
     4
 74
     0
 42
0.000000001
 43
0.0000001
 40
0.0
 40
0.0
 40
0.0
 40
0.0
 40
1.0
 40
1.0
 40
1.0
 40
1.0
 10
2807.189912229
 20
262.0826912873
 30
0.0
 10
2807.189912229
 20
262.4086267525
 30
0.0
 10
2807.3639767638
 20
262.9229920354
 30
0.0
 10
2807.689912229
 20
262.9229920354
 30
0.0
  0
SPLINE
  5
464
330
1B
100
AcDbEntity
 67
     1
  8
7_ALL_FEATURES
  6
Continuous
 62
     3
100
AcDbSpline
 70
     0
 71
     3
 72
     9
 73
     5
 74
     0
 42
0.000000001
 43
0.0000001
 40
0.0
 40
0.0
 40
0.0
 40
0.0
 40
0.4397223996
 40
1.0
 40
1.0
 40
1.0
 40
1.0
 10
2807.689912229
 20
262.9229920354
 30
0.0
 10
2807.73756519
 20
262.9229920354
 30
0.0
 10
2807.8461063731
 20
262.8980153769
 30
0.0
 10
2807.9391213284
 20
262.8396927369
 30
0.0
 10
2807.9874090601
 20
262.8028834809
 30
0.0
  0
LINE
  5
465
330
1B
100
AcDbEntity
 67
     1
  8
7_ALL_FEATURES
  6
Continuous
 62
     3
100
AcDbLine
 10
1593.189912229
 20
263.0529870136
 30
0.0
 11
1368.189912229
 21
263.0529870136
 31
0.0
  0
SPLINE
  5
466
330
1B
100
AcDbEntity
 67
     1
  8
7_ALL_FEATURES
  6
Continuous
 62
     3
100
AcDbSpline
 70
     0
 71
     3
 72
     9
 73
     5
 74
     0
 42
0.000000001
 43
0.0000001
 40
0.0
 40
0.0
 40
0.0
 40
0.0
 40
0.5498949854
 40
1.0
 40
1.0
 40
1.0
 40
1.0
 10
2073.189912229
 20
263.0529870136
 30
0.0
 10
2073.4273752875
 20
263.0529870136
 30
0.0
 10
2073.9496462222
 20
263.0425969583
 30
0.0
 10
2074.0544636492
 20
262.4302413058
 30
0.0
 10
2073.9321521194
 20
262.2791792466
 30
0.0
  0
LINE
  5
467
330
1B
100
AcDbEntity
 67
     1
  8
7_ALL_FEATURES
  6
Continuous
 62
     7
100
AcDbLine
 10
2910.8377100642
 20
261.8891537708
 30
0.0
 11
2910.7167491164
 21
262.374301634
 31
0.0
  0
LINE
  5
468
330
1B
100
AcDbEntity
 67
     1
  8
7_ALL_FEATURES
  6
Continuous
 62
     7
100
AcDbLine
 10
2910.7167491164
 20
262.374301634
 30
0.0
 11
2910.6281995569
 21
262.729454519
 31
0.0
  0
ARC
  5
469
330
1B
100
AcDbEntity
 67
     1
  8
7_ALL_FEATURES
  6
Continuous
 62
     7
100
AcDbCircle
 10
2912.622081752
 20
261.346134618
 30
0.0
 40
1.6
100
AcDbArc
 50
194.0
 51
219.3333333333
  0
ARC
  5
46A
330
1B
100
AcDbEntity
 67
     1
  8
7_ALL_FEATURES
  6
Continuous
 62
     7
100
AcDbCircle
 10
2912.622081752
 20
261.346134618
 30
0.0
 40
1.6
100
AcDbArc
 50
219.3333333333
 51
244.6666666667
  0
ARC
  5
46B
330
1B
100
AcDbEntity
 67
     1
  8
7_ALL_FEATURES
  6
Continuous
 62
     7
100
AcDbCircle
 10
2912.622081752
 20
261.346134618
 30
0.0
 40
1.6
100
AcDbArc
 50
244.6666666667
 51
270.0
  0
ARC
  5
46C
330
1B
100
AcDbEntity
 67
     1
  8
7_ALL_FEATURES
  6
Continuous
 62
     7
100
AcDbCircle
 10
2916.2876171105
 20
322.3577568219
 30
0.0
 40
2.5
100
AcDbArc
 50
153.5
 51
160.25
  0
LINE
  5
46D
330
1B
100
AcDbEntity
 67
     1
  8
7_ALL_FEATURES
  6
Continuous
 62
     7
100
AcDbLine
 10
2910.4861914917
 20
313.597720727
 30
0.0
 11
2913.9346770724
 21
323.2025486169
 31
0.0
  0
LINE
  5
46E
330
1B
100
AcDbEntity
 67
     1
  8
7_ALL_FEATURES
  6
Continuous
 62
     7
100
AcDbLine
 10
2910.5957881686
 20
262.8594494971
 30
0.0
 11
2911.3720247496
 21
263.0529870136
 31
0.0
  0
ARC
  5
46F
330
1B
100
AcDbEntity
 67
     1
  8
7_ALL_FEATURES
  6
Continuous
 62
     7
100
AcDbCircle
 10
2912.8391315298
 20
312.752928932
 30
0.0
 40
2.5
100
AcDbArc
 50
160.25
 51
167.0
  0
LINE
  5
470
330
1B
100
AcDbEntity
 67
     1
  8
7_ALL_FEATURES
  6
Continuous
 62
     7
100
AcDbLine
 10
2908.1075505866
 20
303.3717289356
 30
0.0
 11
2910.4032063679
 21
313.3153065679
 31
0.0
  0
ARC
  5
471
330
1B
100
AcDbEntity
 67
     1
  8
7_ALL_FEATURES
  6
Continuous
 62
     7
100
AcDbCircle
 10
2910.5434757485
 20
302.8093512997
 30
0.0
 40
2.5
100
AcDbArc
 50
167.0
 51
173.75
  0
LINE
  5
472
330
1B
100
AcDbEntity
 67
     1
  8
7_ALL_FEATURES
  6
Continuous
 62
     7
100
AcDbLine
 10
2906.9473337949
 20
292.937039785
 30
0.0
 11
2908.058334903
 21
303.0815184869
 31
0.0
  0
ARC
  5
473
330
1B
100
AcDbEntity
 67
     1
  8
7_ALL_FEATURES
  6
Continuous
 62
     7
100
AcDbCircle
 10
2909.4324746405
 20
292.6648725979
 30
0.0
 40
2.5
100
AcDbArc
 50
173.75
 51
180.5
  0
LINE
  5
474
330
1B
100
AcDbEntity
 67
     1
  8
7_ALL_FEATURES
  6
Continuous
 62
     7
100
AcDbLine
 10
2907.0216253019
 20
282.4383102692
 30
0.0
 11
2906.9325698328
 21
292.6430562591
 31
0.0
  0
ARC
  5
475
330
1B
100
AcDbEntity
 67
     1
  8
7_ALL_FEATURES
  6
Continuous
 62
     7
100
AcDbCircle
 10
2909.5215301095
 20
282.460126608
 30
0.0
 40
2.5
100
AcDbArc
 50
180.5
 51
187.25
  0
LINE
  5
476
330
1B
100
AcDbEntity
 67
     1
  8
7_ALL_FEATURES
  6
Continuous
 62
     7
100
AcDbLine
 10
2908.329395198
 20
272.0210851794
 30
0.0
 11
2907.0415177353
 21
282.1446291852
 31
0.0
  0
ARC
  5
477
330
1B
100
AcDbEntity
 67
     1
  8
7_ALL_FEATURES
  6
Continuous
 62
     7
100
AcDbCircle
 10
2910.8094075722
 20
272.3365826023
 30
0.0
 40
2.5
100
AcDbArc
 50
187.25
 51
194.0
  0
LINE
  5
478
330
1B
100
AcDbEntity
 67
     1
  8
7_ALL_FEATURES
  6
Continuous
 62
     7
100
AcDbLine
 10
2914.0502812065
 20
323.4732513547
 30
0.0
 11
2916.4385850237
 21
328.2634477409
 31
0.0
  0
LINE
  5
479
330
1B
100
AcDbEntity
 67
     1
  8
7_ALL_FEATURES
  6
Continuous
 62
     7
100
AcDbLine
 10
2919.3855215785
 20
332.3811612984
 30
0.0
 11
2918.6695740892
 21
332.7381195489
 31
0.0
  0
LINE
  5
47A
330
1B
100
AcDbEntity
 67
     1
  8
7_ALL_FEATURES
  6
Continuous
 62
     7
100
AcDbLine
 10
2916.4385850237
 20
328.2634477409
 30
0.0
 11
2918.0161325207
 21
331.4275185199
 31
0.0
  0
LINE
  5
47B
330
1B
100
AcDbEntity
 67
     1
  8
7_ALL_FEATURES
  6
Continuous
 62
     7
100
AcDbLine
 10
2918.0161325207
 20
331.4275185199
 30
0.0
 11
2918.6695740892
 21
332.7381195489
 31
0.0
  0
LINE
  5
47C
330
1B
100
AcDbEntity
 67
     1
  8
7_ALL_FEATURES
  6
Continuous
 62
     7
100
AcDbLine
 10
2909.3861786906
 20
267.7109281285
 30
0.0
 11
2908.3836682565
 21
271.7317778633
 31
0.0
  0
LINE
  5
47D
330
1B
100
AcDbEntity
 67
     1
  8
7_ALL_FEATURES
  6
Continuous
 62
     7
100
AcDbLine
 10
2923.8720247496
 20
259.746134618
 30
0.0
 11
2923.8720247496
 21
260.546134618
 31
0.0
  0
LINE
  5
47E
330
1B
100
AcDbEntity
 67
     1
  8
7_ALL_FEATURES
  6
Continuous
 62
     7
100
AcDbLine
 10
2911.06960859
 20
260.9590595851
 30
0.0
 11
2910.8377100642
 21
261.8891537708
 31
0.0
  0
LINE
  5
47F
330
1B
100
AcDbEntity
 67
     1
  8
7_ALL_FEATURES
  6
Continuous
 62
     7
100
AcDbLine
 10
2910.5957881686
 20
262.8594494971
 30
0.0
 11
2910.2415017551
 21
264.2804146894
 31
0.0
  0
LINE
  5
480
330
1B
100
AcDbEntity
 67
     1
  8
7_ALL_FEATURES
  6
Continuous
 62
     7
100
AcDbLine
 10
2910.2415017551
 20
264.2804146894
 30
0.0
 11
2909.8490761975
 21
265.8543476338
 31
0.0
  0
LINE
  5
481
330
1B
100
AcDbEntity
 67
     1
  8
7_ALL_FEATURES
  6
Continuous
 62
     7
100
AcDbLine
 10
2909.8490761975
 20
265.8543476338
 30
0.0
 11
2909.3861786906
 21
267.7109281285
 31
0.0
  0
LINE
  5
482
330
1B
100
AcDbEntity
 67
     1
  8
7_ALL_FEATURES
  6
Continuous
 62
     7
100
AcDbLine
 10
2923.8720247496
 20
259.746134618
 30
0.0
 11
2922.0200750467
 21
259.746134618
 31
0.0
  0
LINE
  5
483
330
1B
100
AcDbEntity
 67
     1
  8
7_ALL_FEATURES
  6
Continuous
 62
     7
100
AcDbLine
 10
2922.0200750467
 20
259.746134618
 30
0.0
 11
2920.8720247496
 21
259.746134618
 31
0.0
  0
LINE
  5
484
330
1B
100
AcDbEntity
 67
     1
  8
7_ALL_FEATURES
  6
Continuous
 62
     7
100
AcDbLine
 10
2920.8720247496
 20
259.746134618
 30
0.0
 11
2912.622081752
 21
259.746134618
 31
0.0
  0
LINE
  5
485
330
1B
100
AcDbEntity
 67
     1
  8
7_ALL_FEATURES
  6
Continuous
 62
     9
100
AcDbLine
 10
2913.9346770724
 20
323.2025486169
 30
0.0
 11
2914.6876178846
 21
322.9322152425
 31
0.0
  0
LINE
  5
486
330
1B
100
AcDbEntity
 67
     1
  8
7_ALL_FEATURES
  6
Continuous
 62
     9
100
AcDbLine
 10
2914.0502812065
 20
323.4732513547
 30
0.0
 11
2914.7662286958
 21
323.1162931042
 31
0.0
  0
LINE
  5
487
330
1B
100
AcDbEntity
 67
     1
  8
7_ALL_FEATURES
  6
Continuous
 62
     9
100
AcDbLine
 10
2911.845845171
 20
261.1525971015
 30
0.0
 11
2911.06960859
 21
260.9590595851
 31
0.0
  0
LINE
  5
488
330
1B
100
AcDbEntity
 67
     1
  8
7_ALL_FEATURES
  6
Continuous
 62
     9
100
AcDbLine
 10
2908.3836682565
 20
271.7317778633
 30
0.0
 11
2909.1599048375
 21
271.9253153797
 31
0.0
  0
LINE
  5
489
330
1B
100
AcDbEntity
 67
     1
  8
7_ALL_FEATURES
  6
Continuous
 62
     9
100
AcDbLine
 10
2909.3861786906
 20
267.7109281285
 30
0.0
 11
2910.1624152716
 21
267.9044656449
 31
0.0
  0
LINE
  5
48A
330
1B
100
AcDbEntity
 67
     1
  8
7_ALL_FEATURES
  6
Continuous
 62
     9
100
AcDbLine
 10
2910.4861914917
 20
313.597720727
 30
0.0
 11
2911.2391323039
 21
313.3273873526
 31
0.0
  0
LINE
  5
48B
330
1B
100
AcDbEntity
 67
     1
  8
7_ALL_FEATURES
  6
Continuous
 62
     9
100
AcDbLine
 10
2907.0216253019
 20
282.4383102692
 30
0.0
 11
2907.8215948403
 21
282.4452914976
 31
0.0
  0
LINE
  5
48C
330
1B
100
AcDbEntity
 67
     1
  8
7_ALL_FEATURES
  6
Continuous
 62
     9
100
AcDbLine
 10
2911.6139466452
 20
262.0826912873
 30
0.0
 11
2910.8377100642
 21
261.8891537708
 31
0.0
  0
LINE
  5
48D
330
1B
100
AcDbEntity
 67
     1
  8
7_ALL_FEATURES
  6
Continuous
 62
     9
100
AcDbLine
 10
2907.0415177353
 20
282.1446291852
 30
0.0
 11
2907.8351216951
 21
282.2455883605
 31
0.0
  0
LINE
  5
48E
330
1B
100
AcDbEntity
 67
     1
  8
7_ALL_FEATURES
  6
Continuous
 62
     9
100
AcDbLine
 10
2910.4032063679
 20
313.3153065679
 30
0.0
 11
2911.1827024197
 21
313.1353457244
 31
0.0
  0
LINE
  5
48F
330
1B
100
AcDbEntity
 67
     1
  8
7_ALL_FEATURES
  6
Continuous
 62
     9
100
AcDbLine
 10
2920.8720247496
 20
259.746134618
 30
0.0
 11
2920.8720247496
 21
260.546134618
 31
0.0
  0
LINE
  5
490
330
1B
100
AcDbEntity
 67
     1
  8
7_ALL_FEATURES
  6
Continuous
 62
     9
100
AcDbLine
 10
2908.1075505866
 20
303.3717289356
 30
0.0
 11
2908.8870466384
 21
303.1917680921
 31
0.0
  0
LINE
  5
491
330
1B
100
AcDbEntity
 67
     1
  8
7_ALL_FEATURES
  6
Continuous
 62
     9
100
AcDbLine
 10
2908.329395198
 20
272.0210851794
 30
0.0
 11
2909.1229991577
 21
272.1220443547
 31
0.0
  0
LINE
  5
492
330
1B
100
AcDbEntity
 67
     1
  8
7_ALL_FEATURES
  6
Continuous
 62
     9
100
AcDbLine
 10
2908.058334903
 20
303.0815184869
 30
0.0
 11
2908.8535799736
 21
302.994424987
 31
0.0
  0
LINE
  5
493
330
1B
100
AcDbEntity
 67
     1
  8
7_ALL_FEATURES
  6
Continuous
 62
     9
100
AcDbLine
 10
2906.9473337949
 20
292.937039785
 30
0.0
 11
2907.7425788655
 21
292.8499462851
 31
0.0
  0
LINE
  5
494
330
1B
100
AcDbEntity
 67
     1
  8
7_ALL_FEATURES
  6
Continuous
 62
     9
100
AcDbLine
 10
2912.622081752
 20
260.546134618
 30
0.0
 11
2912.622081752
 21
259.746134618
 31
0.0
  0
LINE
  5
495
330
1B
100
AcDbEntity
 67
     1
  8
7_ALL_FEATURES
  6
Continuous
 62
     9
100
AcDbLine
 10
2917.1545325129
 20
327.9064894904
 30
0.0
 11
2916.4385850237
 21
328.2634477409
 31
0.0
  0
LINE
  5
496
330
1B
100
AcDbEntity
 67
     1
  8
7_ALL_FEATURES
  6
Continuous
 62
     9
100
AcDbLine
 10
2906.9325698328
 20
292.6430562591
 30
0.0
 11
2907.7325393712
 21
292.6500374875
 31
0.0
  0
LINE
  5
497
330
1B
100
AcDbEntity
 67
     1
  8
03___PRT_ALL_CURVES
  6
Continuous
 62
    40
100
AcDbLine
 10
2911.3720247496
 20
259.746134618
 30
0.0
 11
2911.2573972151
 21
260.2058805479
 31
0.0
  0
LINE
  5
498
330
1B
100
AcDbEntity
 67
     1
  8
03___PRT_ALL_CURVES
  6
Continuous
 62
    40
100
AcDbLine
 10
2911.3720247496
 20
259.746134618
 30
0.0
 11
2911.2573972151
 21
260.2058805479
 31
0.0
  0
LINE
  5
499
330
1B
100
AcDbEntity
 67
     1
  8
7_ALL_FEATURES
  6
Continuous
 62
     3
100
AcDbLine
 10
2920.8720247496
 20
260.546134618
 30
0.0
 11
2922.0200750467
 21
260.546134618
 31
0.0
  0
LINE
  5
49A
330
1B
100
AcDbEntity
 67
     1
  8
7_ALL_FEATURES
  6
Continuous
 62
     3
100
AcDbLine
 10
2922.0200750467
 20
260.546134618
 30
0.0
 11
2923.6436633472
 21
260.546134618
 31
0.0
  0
LINE
  5
49B
330
1B
100
AcDbEntity
 67
     1
  8
7_ALL_FEATURES
  6
Continuous
 62
     3
100
AcDbLine
 10
2923.6436633472
 20
260.546134618
 30
0.0
 11
2923.8720247496
 21
260.546134618
 31
0.0
  0
LINE
  5
49C
330
1B
100
AcDbEntity
 67
     1
  8
7_ALL_FEATURES
  6
Continuous
 62
     3
100
AcDbLine
 10
2920.8720247496
 20
260.546134618
 30
0.0
 11
2912.622081752
 21
260.546134618
 31
0.0
  0
LINE
  5
49D
330
1B
100
AcDbEntity
 67
     1
  8
7_ALL_FEATURES
  6
Continuous
 62
     3
100
AcDbLine
 10
2911.4929856974
 20
262.5678391504
 30
0.0
 11
2911.6139466452
 21
262.0826912873
 31
0.0
  0
LINE
  5
49E
330
1B
100
AcDbEntity
 67
     1
  8
7_ALL_FEATURES
  6
Continuous
 62
     3
100
AcDbLine
 10
2919.3855215785
 20
332.3811612984
 30
0.0
 11
2918.0082950661
 21
329.6188722566
 31
0.0
  0
LINE
  5
49F
330
1B
100
AcDbEntity
 67
     1
  8
7_ALL_FEATURES
  6
Continuous
 62
     3
100
AcDbLine
 10
2918.0082950661
 20
329.6188722566
 30
0.0
 11
2917.1545325129
 21
327.9064894904
 31
0.0
  0
ARC
  5
4A0
330
1B
100
AcDbEntity
 67
     1
  8
7_ALL_FEATURES
  6
Continuous
 62
     3
100
AcDbCircle
 10
2912.622081752
 20
261.346134618
 30
0.0
 40
0.8
100
AcDbArc
 50
194.0
 51
244.6666666667
  0
ARC
  5
4A1
330
1B
100
AcDbEntity
 67
     1
  8
7_ALL_FEATURES
  6
Continuous
 62
     3
100
AcDbCircle
 10
2912.622081752
 20
261.346134618
 30
0.0
 40
0.8
100
AcDbArc
 50
244.6666666667
 51
270.0
  0
LINE
  5
4A2
330
1B
100
AcDbEntity
 67
     1
  8
7_ALL_FEATURES
  6
Continuous
 62
     3
100
AcDbLine
 10
2911.845845171
 20
261.1525971015
 30
0.0
 11
2911.6139466452
 21
262.0826912873
 31
0.0
  0
LINE
  5
4A3
330
1B
100
AcDbEntity
 67
     1
  8
7_ALL_FEATURES
  6
Continuous
 62
     3
100
AcDbLine
 10
2910.1624152716
 20
267.9044656449
 30
0.0
 11
2910.6253127785
 21
266.0478851502
 31
0.0
  0
LINE
  5
4A4
330
1B
100
AcDbEntity
 67
     1
  8
7_ALL_FEATURES
  6
Continuous
 62
     3
100
AcDbLine
 10
2910.6253127785
 20
266.0478851502
 30
0.0
 11
2911.0177383361
 21
264.4739522059
 31
0.0
  0
LINE
  5
4A5
330
1B
100
AcDbEntity
 67
     1
  8
7_ALL_FEATURES
  6
Continuous
 62
     3
100
AcDbLine
 10
2911.0177383361
 20
264.4739522059
 30
0.0
 11
2911.3720247496
 21
263.0529870136
 31
0.0
  0
ARC
  5
4A6
330
1B
100
AcDbEntity
 67
     1
  8
7_ALL_FEATURES
  6
Continuous
 62
     3
100
AcDbCircle
 10
2916.2876171105
 20
322.3577568219
 30
0.0
 40
1.7
100
AcDbArc
 50
153.5
 51
160.25
  0
LINE
  5
4A7
330
1B
100
AcDbEntity
 67
     1
  8
7_ALL_FEATURES
  6
Continuous
 62
     3
100
AcDbLine
 10
2911.2391323039
 20
313.3273873526
 30
0.0
 11
2914.6876178846
 21
322.9322152425
 31
0.0
  0
ARC
  5
4A8
330
1B
100
AcDbEntity
 67
     1
  8
7_ALL_FEATURES
  6
Continuous
 62
     3
100
AcDbCircle
 10
2912.8391315298
 20
312.752928932
 30
0.0
 40
1.7
100
AcDbArc
 50
160.25
 51
167.0
  0
LINE
  5
4A9
330
1B
100
AcDbEntity
 67
     1
  8
7_ALL_FEATURES
  6
Continuous
 62
     3
100
AcDbLine
 10
2908.8870466384
 20
303.1917680921
 30
0.0
 11
2911.1827024197
 21
313.1353457244
 31
0.0
  0
ARC
  5
4AA
330
1B
100
AcDbEntity
 67
     1
  8
7_ALL_FEATURES
  6
Continuous
 62
     3
100
AcDbCircle
 10
2910.5434757485
 20
302.8093512997
 30
0.0
 40
1.7
100
AcDbArc
 50
167.0
 51
173.75
  0
LINE
  5
4AB
330
1B
100
AcDbEntity
 67
     1
  8
7_ALL_FEATURES
  6
Continuous
 62
     3
100
AcDbLine
 10
2907.7425788655
 20
292.8499462851
 30
0.0
 11
2908.8535799736
 21
302.994424987
 31
0.0
  0
ARC
  5
4AC
330
1B
100
AcDbEntity
 67
     1
  8
7_ALL_FEATURES
  6
Continuous
 62
     3
100
AcDbCircle
 10
2909.4324746405
 20
292.6648725979
 30
0.0
 40
1.7
100
AcDbArc
 50
173.75
 51
180.5
  0
LINE
  5
4AD
330
1B
100
AcDbEntity
 67
     1
  8
7_ALL_FEATURES
  6
Continuous
 62
     3
100
AcDbLine
 10
2907.8215948403
 20
282.4452914976
 30
0.0
 11
2907.7325393712
 21
292.6500374875
 31
0.0
  0
ARC
  5
4AE
330
1B
100
AcDbEntity
 67
     1
  8
7_ALL_FEATURES
  6
Continuous
 62
     3
100
AcDbCircle
 10
2909.5215301095
 20
282.460126608
 30
0.0
 40
1.7
100
AcDbArc
 50
180.5
 51
187.25
  0
LINE
  5
4AF
330
1B
100
AcDbEntity
 67
     1
  8
7_ALL_FEATURES
  6
Continuous
 62
     3
100
AcDbLine
 10
2909.1229991577
 20
272.1220443547
 30
0.0
 11
2907.8351216951
 21
282.2455883605
 31
0.0
  0
ARC
  5
4B0
330
1B
100
AcDbEntity
 67
     1
  8
7_ALL_FEATURES
  6
Continuous
 62
     3
100
AcDbCircle
 10
2910.8094075722
 20
272.3365826023
 30
0.0
 40
1.7
100
AcDbArc
 50
187.25
 51
194.0
  0
LINE
  5
4B1
330
1B
100
AcDbEntity
 67
     1
  8
7_ALL_FEATURES
  6
Continuous
 62
     3
100
AcDbLine
 10
2914.7662286958
 20
323.1162931042
 30
0.0
 11
2917.1545325129
 21
327.9064894904
 31
0.0
  0
LINE
  5
4B2
330
1B
100
AcDbEntity
 67
     1
  8
7_ALL_FEATURES
  6
Continuous
 62
     3
100
AcDbLine
 10
2910.1624152716
 20
267.9044656449
 30
0.0
 11
2909.1599048375
 21
271.9253153797
 31
0.0
  0
DIMENSION
  5
4B3
330
1B
100
AcDbEntity
 67
     1
  8
0
  6
Continuous
 62
     2
100
AcDbDimension
280
     0
  2
*D1
 10
1083.689912229
 20
347.7381195489
 30
0.0
 11
1960.261328125
 21
347.7381195489
 31
0.0
 70
   160
  1
1754
 71
     5
 42
-1.0
 73
     0
 74
     0
 75
     0
  3
DIMSTYLE_1
100
AcDbAlignedDimension
 13
2837.689912229
 23
334.3801372432
 33
0.0
 14
1083.689912229
 24
335.3226826978
 34
0.0
 50
180.0
100
AcDbRotatedDimension
  0
DIMENSION
  5
4B4
330
1B
100
AcDbEntity
 67
     1
  8
0
  6
Continuous
 62
     2
100
AcDbDimension
280
     0
  2
*D2
 10
2852.689912229
 20
259.746134618
 30
0.0
 11
2852.689912229
 21
295.8135429795
 31
0.0
 70
   160
 71
     5
 42
-1.0
 73
     0
 74
     0
 75
     0
  3
DIMSTYLE_2
100
AcDbAlignedDimension
 13
2832.689912229
 23
332.7381195489
 33
0.0
 14
2807.189912229
 24
259.746134618
 34
0.0
 50
270.0
100
AcDbRotatedDimension
  0
DIMENSION
  5
4B5
330
1B
100
AcDbEntity
 67
     1
  8
0
  6
Continuous
 62
     2
100
AcDbDimension
280
     0
  2
*D3
 10
2852.689912229
 20
141.2779960215
 30
0.0
 11
2852.689912229
 21
149.3116876404
 31
0.0
 70
   160
 71
     5
 42
-1.0
 73
     0
 74
     0
 75
     0
  3
DIMSTYLE_3
100
AcDbAlignedDimension
 13
2837.689912229
 23
158.2026869762
 33
0.0
 14
2804.189912229
 24
141.2779960215
 34
0.0
 50
270.0
100
AcDbRotatedDimension
  0
LINE
  5
4B6
330
1B
100
AcDbEntity
 67
     1
  8
0
  6
Continuous
 62
     2
100
AcDbLine
 10
3066.5011373792
 20
70.3794630609
 30
0.0
 11
3196.5011373792
 21
70.3794630609
 31
0.0
  0
LINE
  5
4B7
330
1B
100
AcDbEntity
 67
     1
  8
0
  6
Continuous
 62
     2
100
AcDbLine
 10
3066.5011373792
 20
70.3794630609
 30
0.0
 11
3066.5011373792
 21
4.3794630609
 31
0.0
  0
LINE
  5
4B8
330
1B
100
AcDbEntity
 67
     1
  8
0
  6
Continuous
 62
     2
100
AcDbLine
 10
3096.5011373792
 20
62.3794630609
 30
0.0
 11
3196.5011373792
 21
62.3794630609
 31
0.0
  0
LINE
  5
4B9
330
1B
100
AcDbEntity
 67
     1
  8
0
  6
Continuous
 62
     2
100
AcDbLine
 10
3066.5011373792
 20
54.3794630609
 30
0.0
 11
3196.5011373792
 21
54.3794630609
 31
0.0
  0
LINE
  5
4BA
330
1B
100
AcDbEntity
 67
     1
  8
0
  6
Continuous
 62
     2
100
AcDbLine
 10
3096.5011373792
 20
48.3794630609
 30
0.0
 11
3196.5011373792
 21
48.3794630609
 31
0.0
  0
LINE
  5
4BB
330
1B
100
AcDbEntity
 67
     1
  8
0
  6
Continuous
 62
     2
100
AcDbLine
 10
3096.5011373792
 20
42.3794630609
 30
0.0
 11
3196.5011373792
 21
42.3794630609
 31
0.0
  0
LINE
  5
4BC
330
1B
100
AcDbEntity
 67
     1
  8
0
  6
Continuous
 62
     2
100
AcDbLine
 10
3096.5011373792
 20
36.3794630609
 30
0.0
 11
3196.5011373792
 21
36.3794630609
 31
0.0
  0
LINE
  5
4BD
330
1B
100
AcDbEntity
 67
     1
  8
0
  6
Continuous
 62
     2
100
AcDbLine
 10
3096.5011373792
 20
30.3794630609
 30
0.0
 11
3196.5011373792
 21
30.3794630609
 31
0.0
  0
LINE
  5
4BE
330
1B
100
AcDbEntity
 67
     1
  8
0
  6
Continuous
 62
     2
100
AcDbLine
 10
3096.5011373792
 20
24.3794630609
 30
0.0
 11
3196.5011373792
 21
24.3794630609
 31
0.0
  0
LINE
  5
4BF
330
1B
100
AcDbEntity
 67
     1
  8
0
  6
Continuous
 62
     2
100
AcDbLine
 10
3066.5011373792
 20
18.3794630609
 30
0.0
 11
3196.5011373792
 21
18.3794630609
 31
0.0
  0
LINE
  5
4C0
330
1B
100
AcDbEntity
 67
     1
  8
0
  6
Continuous
 62
     2
100
AcDbLine
 10
3066.5011373792
 20
12.3794630609
 30
0.0
 11
3196.5011373792
 21
12.3794630609
 31
0.0
  0
LINE
  5
4C1
330
1B
100
AcDbEntity
 67
     1
  8
0
  6
Continuous
 62
     2
100
AcDbLine
 10
3066.5011373792
 20
8.3794630609
 30
0.0
 11
3196.5011373792
 21
8.3794630609
 31
0.0
  0
LINE
  5
4C2
330
1B
100
AcDbEntity
 67
     1
  8
0
  6
Continuous
 62
     2
100
AcDbLine
 10
3066.5011373792
 20
4.3794630609
 30
0.0
 11
3196.5011373792
 21
4.3794630609
 31
0.0
  0
LINE
  5
4C3
330
1B
100
AcDbEntity
 67
     1
  8
0
  6
Continuous
 62
     2
100
AcDbLine
 10
3096.5011373792
 20
70.3794630609
 30
0.0
 11
3096.5011373792
 21
12.3794630609
 31
0.0
  0
LINE
  5
4C4
330
1B
100
AcDbEntity
 67
     1
  8
0
  6
Continuous
 62
     2
100
AcDbLine
 10
3116.5011373792
 20
54.3794630609
 30
0.0
 11
3116.5011373792
 21
48.3794630609
 31
0.0
  0
LINE
  5
4C5
330
1B
100
AcDbEntity
 67
     1
  8
0
  6
Continuous
 62
     2
100
AcDbLine
 10
3146.5011373792
 20
24.3794630609
 30
0.0
 11
3146.5011373792
 21
12.3794630609
 31
0.0
  0
LINE
  5
4C6
330
1B
100
AcDbEntity
 67
     1
  8
0
  6
Continuous
 62
     2
100
AcDbLine
 10
3156.5011373792
 20
54.3794630609
 30
0.0
 11
3156.5011373792
 21
48.3794630609
 31
0.0
  0
LINE
  5
4C7
330
1B
100
AcDbEntity
 67
     1
  8
0
  6
Continuous
 62
     2
100
AcDbLine
 10
3156.5011373792
 20
42.3794630609
 30
0.0
 11
3156.5011373792
 21
36.3794630609
 31
0.0
  0
LINE
  5
4C8
330
1B
100
AcDbEntity
 67
     1
  8
0
  6
Continuous
 62
     2
100
AcDbLine
 10
3176.5011373792
 20
54.3794630609
 30
0.0
 11
3176.5011373792
 21
48.3794630609
 31
0.0
  0
LINE
  5
4C9
330
1B
100
AcDbEntity
 67
     1
  8
0
  6
Continuous
 62
     2
100
AcDbLine
 10
3186.5011373792
 20
42.3794630609
 30
0.0
 11
3186.5011373792
 21
36.3794630609
 31
0.0
  0
LINE
  5
4CA
330
1B
100
AcDbEntity
 67
     1
  8
0
  6
Continuous
 62
     2
100
AcDbLine
 10
3196.5011373792
 20
70.3794630609
 30
0.0
 11
3196.5011373792
 21
4.3794630609
 31
0.0
  0
INSERT
  5
4CB
330
1B
100
AcDbEntity
 67
     1
  8
0
  6
Continuous
 62
     2
100
AcDbBlockReference
  2
PROIEZIONE_EU_BL0
 10
3081.5011373792
 20
62.0044630609
 30
0.0
  0
MTEXT
  5
4CC
330
1B
100
AcDbEntity
 67
     1
  8
9_SOLID
  6
Continuous
 62
     2
100
AcDbMText
 10
3097.9886373792
 20
68.7544630609
 30
0.0
 40
1.9
 41
142.3642857143
 46
0.0
 71
     1
 72
     1
  1
EN: Chamfer/radii unlisted 0.3x45°. Remove sharp edges.\PGen. tol.: hole H11, shaft h11, lenght Js12. UNI EN 22768 Medium Grande.
 73
     1
 44
1.0
  0
MTEXT
  5
4CD
330
1B
100
AcDbEntity
 67
     1
  8
9_SOLID
  6
Continuous
 62
     2
100
AcDbMText
 10
3097.9886373792
 20
60.7544630609
 30
0.0
 40
1.9
 41
148.2678571429
 46
0.0
 71
     1
 72
     1
  1
IT: Sm./rac. non quotati 0.3x45°. Eliminare spigoli taglienti.\PToll. gen.: foro H11, albero h11, lunghezza Js12. UNI EN 22768 Grado Medio.
 73
     1
 44
1.0
  0
INSERT
  5
4CE
330
1B
100
AcDbEntity
 67
     1
  8
0
  6
Continuous
 62
     2
100
AcDbBlockReference
  2
LOGO2_BL1
 10
3080.327184424
 20
36.3794630609
 30
0.0
  0
MTEXT
  5
4CF
330
1B
100
AcDbEntity
 67
     1
  8
9_SOLID
  6
Continuous
 62
     2
100
AcDbMText
 10
3097.9886373792
 20
52.6294630609
 30
0.0
 40
3.0
 41
21.75
 46
0.0
 71
     1
 72
     1
  1
Pj: 565
 73
     1
 44
1.0
  0
MTEXT
  5
4D0
330
1B
100
AcDbEntity
 67
     1
  8
0
  6
Continuous
 62
     2
100
AcDbMText
 10
3117.9886373792
 20
52.6294630609
 30
0.0
 40
3.0
 41
41.5714285714
 46
0.0
 71
     1
 72
     1
  1
% Check:  %
 73
     1
 44
1.0
  0
MTEXT
  5
4D1
330
1B
100
AcDbEntity
 67
     1
  8
9_SOLID
  6
Continuous
 62
     2
100
AcDbMText
 10
3157.9886373792
 20
52.6294630609
 30
0.0
 40
3.0
 41
19.5
 46
0.0
 71
     1
 72
     1
  1
Rev:00
 73
     1
 44
1.0
  0
MTEXT
  5
4D2
330
1B
100
AcDbEntity
 67
     1
  8
9_SOLID
  6
Continuous
 62
     2
100
AcDbMText
 10
3177.9886373792
 20
52.8794630609
 30
0.0
 40
3.0
 41
19.7142857143
 46
0.0
 71
     1
 72
     1
  1
Ver: A
 73
     1
 44
1.0
  0
MTEXT
  5
4D3
330
1B
100
AcDbEntity
 67
     1
  8
9_SOLID
  6
Continuous
 62
     2
100
AcDbMText
 10
3097.9886373792
 20
46.6294630609
 30
0.0
 40
3.0
 41
74.3571428571
 46
0.0
 71
     1
 72
     1
  1
Neutral code: 565_C_288
 73
     1
 44
1.0
  0
MTEXT
  5
4D4
330
1B
100
AcDbEntity
 67
     1
  8
0
  6
Continuous
 62
     2
100
AcDbMText
 10
3097.9886373792
 20
40.6294630609
 30
0.0
 40
3.0
 41
22.9285714286
 46
0.0
 71
     1
 72
     1
  1
Code:  
 73
     1
 44
1.0
  0
MTEXT
  5
4D5
330
1B
100
AcDbEntity
 67
     1
  8
9_SOLID
  6
Continuous
 62
     2
100
AcDbMText
 10
3157.9886373792
 20
40.8794630609
 30
0.0
 40
3.0
 41
27.8571428571
 46
0.0
 71
     1
 72
     1
  1
Scale: 1:1
 73
     1
 44
1.0
  0
MTEXT
  5
4D6
330
1B
100
AcDbEntity
 67
     1
  8
9_SOLID
  6
Continuous
 62
     2
100
AcDbMText
 10
3191.5011373792
 20
40.8794630609
 30
0.0
 40
3.0
 41
41.5714285714
 46
0.0
 71
     2
 72
     1
  1
3200 by 2500
 73
     1
 44
1.0
  0
MTEXT
  5
4D7
330
1B
100
AcDbEntity
 67
     1
  8
9_SOLID
  6
Continuous
 62
     2
100
AcDbMText
 10
3097.9886373792
 20
34.8794630609
 30
0.0
 40
3.0
 41
146.6785714286
 46
0.0
 71
     1
 72
     1
  1
It descr.: ANTIABBAGLIAMENTO NEVA 2.2 L=1754
 73
     1
 44
1.0
  0
MTEXT
  5
4D8
330
1B
100
AcDbEntity
 67
     1
  8
0
  6
Continuous
 62
     2
100
AcDbMText
 10
3097.9886373792
 20
28.8794630609
 30
0.0
 40
3.0
 41
37.5
 46
0.0
 71
     1
 72
     1
  1
En descr.:  
 73
     1
 44
1.0
  0
MTEXT
  5
4D9
330
1B
100
AcDbEntity
 67
     1
  8
9_SOLID
  6
Continuous
 62
     2
100
AcDbMText
 10
3097.9886373792
 20
22.8794630609
 30
0.0
 40
3.0
 41
31.2857142857
 46
0.0
 71
     1
 72
     1
  1
Des.: A.F.
 73
     1
 44
1.0
  0
MTEXT
  5
4DA
330
1B
100
AcDbEntity
 67
     1
  8
9_SOLID
  6
Continuous
 62
     2
100
AcDbMText
 10
3147.9886373792
 20
22.8794630609
 30
0.0
 40
3.0
 41
22.2857142857
 46
0.0
 71
     1
 72
     1
  1
Check: 
 73
     1
 44
1.0
  0
MTEXT
  5
4DB
330
1B
100
AcDbEntity
 67
     1
  8
9_SOLID
  6
Continuous
 62
     2
100
AcDbMText
 10
3067.9886373792
 20
16.8794630609
 30
0.0
 40
3.0
 41
44.1428571429
 46
0.0
 71
     1
 72
     1
  1
Date: 29.05.14
 73
     1
 44
1.0
  0
MTEXT
  5
4DC
330
1B
100
AcDbEntity
 67
     1
  8
0
  6
Continuous
 62
     2
100
AcDbMText
 10
3097.9886373792
 20
16.8794630609
 30
0.0
 40
3.0
 41
21.75
 46
0.0
 71
     1
 72
     1
  1
Mat.:  
 73
     1
 44
1.0
  0
MTEXT
  5
4DD
330
1B
100
AcDbEntity
 67
     1
  8
9_SOLID
  6
Continuous
 62
     2
100
AcDbMText
 10
3147.9886373792
 20
16.3794630609
 30
0.0
 40
2.0
 41
42.3571428571
 46
0.0
 71
     1
 72
     1
  1
Disegno per catalogo
 73
     1
 44
1.0
  0
MTEXT
  5
4DE
330
1B
100
AcDbEntity
 67
     1
  8
9_SOLID
  6
Continuous
 62
     2
100
AcDbMText
 10
3067.9886373792
 20
11.2794630609
 30
0.0
 40
1.8
 41
176.2071428571
 46
0.0
 71
     1
 72
     1
  1
It: A norma di legge si diffida da qualsiasi riproduzione senza nostra autorizzazione esplicita.
 73
     1
 44
1.0
  0
MTEXT
  5
4DF
330
1B
100
AcDbEntity
 67
     1
  8
9_SOLID
  6
Continuous
 62
     2
100
AcDbMText
 10
3067.9886373792
 20
7.2794630609
 30
0.0
 40
1.8
 41
158.1428571429
 46
0.0
 71
     1
 72
     1
  1
En: According to the law, beware of any reproduction made without our authorization.
 73
     1
 44
1.0
  0
ENDSEC
  0
SECTION
  2
OBJECTS
  0
DICTIONARY
  5
4E0
330
0
100
AcDbDictionary
281
     1
  3
ACAD_DETAILVIEWSTYLE
350
536
  3
ACAD_GROUP
350
4E1
  3
ACAD_LAYOUT
350
509
  3
ACAD_MATERIAL
350
525
  3
ACAD_MLEADERSTYLE
350
52B
  3
ACAD_MLINESTYLE
350
4E2
  3
ACAD_PLOTSETTINGS
350
4E4
  3
ACAD_PLOTSTYLENAME
350
4E5
  3
ACAD_SCALELIST
350
4E7
  3
ACAD_SECTIONVIEWSTYLE
350
537
  3
ACAD_TABLESTYLE
350
529
  3
ACAD_VISUALSTYLE
350
50C
  3
ACDB_RECOMPOSE_DATA
350
532
  3
AcDbVariableDictionary
350
52E
  3
APPDATA
350
52D
  0
DICTIONARY
  5
536
102
{ACAD_REACTORS
330
4E0
102
}
330
4E0
100
AcDbDictionary
281
     1
  0
DICTIONARY
  5
4E1
102
{ACAD_REACTORS
330
4E0
102
}
330
4E0
100
AcDbDictionary
281
     1
  0
DICTIONARY
  5
509
102
{ACAD_REACTORS
330
4E0
102
}
330
4E0
100
AcDbDictionary
281
     1
  3
Foglio 1
350
50B
  3
Model
350
50A
  0
DICTIONARY
  5
525
102
{ACAD_REACTORS
330
4E0
102
}
330
4E0
100
AcDbDictionary
281
     1
  3
ByBlock
350
527
  3
ByLayer
350
526
  3
Global
350
528
  0
DICTIONARY
  5
52B
102
{ACAD_REACTORS
330
4E0
102
}
330
4E0
100
AcDbDictionary
281
     1
  3
Standard
350
52C
  0
DICTIONARY
  5
4E2
102
{ACAD_REACTORS
330
4E0
102
}
330
4E0
100
AcDbDictionary
281
     1
  3
STANDARD
350
4E3
  0
DICTIONARY
  5
4E4
102
{ACAD_REACTORS
330
4E0
102
}
330
4E0
100
AcDbDictionary
281
     1
  0
ACDBDICTIONARYWDFLT
  5
4E5
102
{ACAD_REACTORS
330
4E0
102
}
330
4E0
100
AcDbDictionary
281
     1
  3
Normal
350
4E6
100
AcDbDictionaryWithDefault
340
4E6
  0
DICTIONARY
  5
4E7
102
{ACAD_REACTORS
330
4E0
102
}
330
4E0
100
AcDbDictionary
281
     1
  3
A0
350
4E8
  3
A1
350
4E9
  3
A2
350
4EA
  3
A3
350
4EB
  3
A4
350
4EC
  3
A5
350
4ED
  3
A6
350
4EE
  3
A7
350
4EF
  3
A8
350
4F0
  3
A9
350
4F1
  3
B0
350
4F2
  3
B1
350
4F3
  3
B2
350
4F4
  3
B3
350
4F5
  3
B4
350
4F6
  3
B5
350
4F7
  3
B6
350
4F8
  3
B7
350
4F9
  3
B8
350
4FA
  3
B9
350
4FB
  3
C0
350
4FC
  3
C1
350
4FD
  3
C2
350
4FE
  3
C3
350
4FF
  3
C4
350
500
  3
C5
350
501
  3
C6
350
502
  3
C7
350
503
  3
C8
350
504
  3
C9
350
505
  3
D0
350
506
  3
D1
350
507
  3
D2
350
508
  0
DICTIONARY
  5
537
102
{ACAD_REACTORS
330
4E0
102
}
330
4E0
100
AcDbDictionary
281
     1
  0
DICTIONARY
  5
529
102
{ACAD_REACTORS
330
4E0
102
}
330
4E0
100
AcDbDictionary
281
     1
  3
Standard
350
52A
  0
DICTIONARY
  5
50C
102
{ACAD_REACTORS
330
4E0
102
}
330
4E0
100
AcDbDictionary
281
     1
  3
2dWireframe
350
511
  3
Basic
350
514
  3
Brighten
350
518
  3
ColorChange
350
51C
  3
Conceptual
350
516
  3
Dim
350
517
  3
EdgeColorOff
350
51F
  3
Facepattern
350
51B
  3
Flat
350
50D
  3
FlatWithEdges
350
50E
  3
Gouraud
350
50F
  3
GouraudWithEdges
350
510
  3
Hidden
350
513
  3
JitterOff
350
51D
  3
Linepattern
350
51A
  3
OverhangOff
350
51E
  3
Realistic
350
515
  3
Shaded
350
524
  3
Shaded with edges
350
523
  3
Shades of Gray
350
520
  3
Sketchy
350
521
  3
Thicken
350
519
  3
Wireframe
350
512
  3
X-Ray
350
522
  0
XRECORD
  5
532
102
{ACAD_REACTORS
330
4E0
102
}
330
4E0
100
AcDbXrecord
280
     1
 90
        1
330
52A
  0
DICTIONARY
  5
52E
102
{ACAD_REACTORS
330
4E0
102
}
330
4E0
100
AcDbDictionary
281
     1
  3
CANNOSCALE
350
52F
  3
CMLEADERSTYLE
350
534
  3
CTABLESTYLE
350
533
  3
MSLTSCALE
350
535
  0
DICTIONARY
  5
52D
102
{ACAD_REACTORS
330
4E0
102
}
330
4E0
100
AcDbDictionary
281
     1
  0
LAYOUT
  5
50B
102
{ACAD_REACTORS
330
509
102
}
330
509
100
AcDbPlotSettings
  1

  2
none_device
  4
ISO_A3_(420.00_x_297.00_MM)
  6

 40
7.5
 41
20.0
 42
7.5
 43
20.0
 44
420.0
 45
297.0
 46
0.0
 47
0.0
 48
0.0
 49
0.0
140
0.0
141
0.0
142
1.0
143
9.727626459143968
 70
   688
 72
     1
 73
     0
 74
     1
  7

 75
     0
 76
     0
 77
     2
 78
   300
147
0.1028
148
0.0
149
0.0
100
AcDbLayout
  1
Foglio 1
 70
     1
 71
     1
 10
0.0
 20
0.0
 11
412.5
 21
277.0
 12
0.0
 22
0.0
 32
0.0
 14
0.0
 24
0.0
 34
0.0
 15
3205.5261373792
 25
2500.0
 35
0.0
146
0.0
 13
0.0
 23
0.0
 33
0.0
 16
1.0
 26
0.0
 36
0.0
 17
0.0
 27
1.0
 37
0.0
 76
     0
330
1B
331
284
  0
LAYOUT
  5
50A
102
{ACAD_REACTORS
330
509
102
}
330
509
100
AcDbPlotSettings
  1

  2
none_device
  4
Letter_(8.50_x_11.00_Inches)
  6

 40
6.35
 41
6.35
 42
6.35
 43
6.35
 44
215.9
 45
279.4
 46
0.0
 47
0.0
 48
0.0
 49
0.0
140
0.0
141
0.0
142
1.0
143
400.0
 70
  1712
 72
     0
 73
     0
 74
     0
  7

 75
     0
 76
     0
 77
     2
 78
   300
147
0.0025
148
0.0
149
0.0
100
AcDbLayout
  1
Model
 70
     1
 71
     0
 10
0.0
 20
0.0
 11
3200.0
 21
2500.0
 12
0.0
 22
0.0
 32
0.0
 14
0.0
 24
0.0
 34
0.0
 15
3200.0
 25
2500.0
 35
0.0
146
0.0
 13
0.0
 23
0.0
 33
0.0
 16
1.0
 26
0.0
 36
0.0
 17
0.0
 27
1.0
 37
0.0
 76
     0
330
1F
331
1F4
  0
MATERIAL
  5
527
102
{ACAD_REACTORS
330
525
102
}
330
525
100
AcDbMaterial
  1
ByBlock
 72
     1
 94
      127
  0
MATERIAL
  5
526
102
{ACAD_REACTORS
330
525
102
}
330
525
100
AcDbMaterial
  1
ByLayer
 72
     1
 94
      127
  0
MATERIAL
  5
528
102
{ACAD_REACTORS
330
525
102
}
330
525
100
AcDbMaterial
  1
Global
 72
     1
 94
      127
  0
MLEADERSTYLE
  5
52C
102
{ACAD_REACTORS
330
52B
102
}
330
52B
100
AcDbMLeaderStyle
179
     2
170
     2
171
     1
172
     0
 90
        2
 40
0.0
 41
0.0
173
     1
 91
-1056964608
340
14
 92
       -2
290
     1
 42
2.0
291
     1
 43
8.0
  3
Standard
341
0
 44
4.0
300

342
11
174
     1
178
     1
175
     1
176
     0
 93
-1056964608
 45
4.0
292
     0
297
     0
 46
4.0
343
0
 94
-1056964608
 47
1.0
 49
1.0
140
1.0
293
     1
141
0.0
294
     1
177
     0
142
1.0
295
     0
296
     0
143
3.75
271
     0
272
     9
273
     9
298
     0
  0
MLINESTYLE
  5
4E3
102
{ACAD_REACTORS
330
4E2
102
}
330
4E2
100
AcDbMlineStyle
  2
STANDARD
 70
     0
  3

 62
   256
 51
90.0
 52
90.0
 71
     2
 49
0.5
 62
   256
  6
BYLAYER
 49
-0.5
 62
   256
  6
BYLAYER
  0
ACDBPLACEHOLDER
  5
4E6
102
{ACAD_REACTORS
330
4E5
102
}
330
4E5
  0
SCALE
  5
4E8
102
{ACAD_REACTORS
330
4E7
102
}
330
4E7
100
AcDbScale
 70
     0
300
1:1
140
1.0
141
1.0
290
     1
  0
SCALE
  5
4E9
102
{ACAD_REACTORS
330
4E7
102
}
330
4E7
100
AcDbScale
 70
     0
300
1:2
140
1.0
141
2.0
290
     0
  0
SCALE
  5
4EA
102
{ACAD_REACTORS
330
4E7
102
}
330
4E7
100
AcDbScale
 70
     0
300
1:4
140
1.0
141
4.0
290
     0
  0
SCALE
  5
4EB
102
{ACAD_REACTORS
330
4E7
102
}
330
4E7
100
AcDbScale
 70
     0
300
1:5
140
1.0
141
5.0
290
     0
  0
SCALE
  5
4EC
102
{ACAD_REACTORS
330
4E7
102
}
330
4E7
100
AcDbScale
 70
     0
300
1:8
140
1.0
141
8.0
290
     0
  0
SCALE
  5
4ED
102
{ACAD_REACTORS
330
4E7
102
}
330
4E7
100
AcDbScale
 70
     0
300
1:10
140
1.0
141
10.0
290
     0
  0
SCALE
  5
4EE
102
{ACAD_REACTORS
330
4E7
102
}
330
4E7
100
AcDbScale
 70
     0
300
1:16
140
1.0
141
16.0
290
     0
  0
SCALE
  5
4EF
102
{ACAD_REACTORS
330
4E7
102
}
330
4E7
100
AcDbScale
 70
     0
300
1:20
140
1.0
141
20.0
290
     0
  0
SCALE
  5
4F0
102
{ACAD_REACTORS
330
4E7
102
}
330
4E7
100
AcDbScale
 70
     0
300
1:30
140
1.0
141
30.0
290
     0
  0
SCALE
  5
4F1
102
{ACAD_REACTORS
330
4E7
102
}
330
4E7
100
AcDbScale
 70
     0
300
1:40
140
1.0
141
40.0
290
     0
  0
SCALE
  5
4F2
102
{ACAD_REACTORS
330
4E7
102
}
330
4E7
100
AcDbScale
 70
     0
300
1:50
140
1.0
141
50.0
290
     0
  0
SCALE
  5
4F3
102
{ACAD_REACTORS
330
4E7
102
}
330
4E7
100
AcDbScale
 70
     0
300
1:100
140
1.0
141
100.0
290
     0
  0
SCALE
  5
4F4
102
{ACAD_REACTORS
330
4E7
102
}
330
4E7
100
AcDbScale
 70
     0
300
2:1
140
2.0
141
1.0
290
     0
  0
SCALE
  5
4F5
102
{ACAD_REACTORS
330
4E7
102
}
330
4E7
100
AcDbScale
 70
     0
300
4:1
140
4.0
141
1.0
290
     0
  0
SCALE
  5
4F6
102
{ACAD_REACTORS
330
4E7
102
}
330
4E7
100
AcDbScale
 70
     0
300
8:1
140
8.0
141
1.0
290
     0
  0
SCALE
  5
4F7
102
{ACAD_REACTORS
330
4E7
102
}
330
4E7
100
AcDbScale
 70
     0
300
10:1
140
10.0
141
1.0
290
     0
  0
SCALE
  5
4F8
102
{ACAD_REACTORS
330
4E7
102
}
330
4E7
100
AcDbScale
 70
     0
300
100:1
140
100.0
141
1.0
290
     0
  0
SCALE
  5
4F9
102
{ACAD_REACTORS
330
4E7
102
}
330
4E7
100
AcDbScale
 70
     0
300
1/128" = 1'-0"
140
0.0078125
141
12.0
290
     0
  0
SCALE
  5
4FA
102
{ACAD_REACTORS
330
4E7
102
}
330
4E7
100
AcDbScale
 70
     0
300
1/64" = 1'-0"
140
0.015625
141
12.0
290
     0
  0
SCALE
  5
4FB
102
{ACAD_REACTORS
330
4E7
102
}
330
4E7
100
AcDbScale
 70
     0
300
1/32" = 1'-0"
140
0.03125
141
12.0
290
     0
  0
SCALE
  5
4FC
102
{ACAD_REACTORS
330
4E7
102
}
330
4E7
100
AcDbScale
 70
     0
300
1/16" = 1'-0"
140
0.0625
141
12.0
290
     0
  0
SCALE
  5
4FD
102
{ACAD_REACTORS
330
4E7
102
}
330
4E7
100
AcDbScale
 70
     0
300
3/32" = 1'-0"
140
0.09375
141
12.0
290
     0
  0
SCALE
  5
4FE
102
{ACAD_REACTORS
330
4E7
102
}
330
4E7
100
AcDbScale
 70
     0
300
1/8" = 1'-0"
140
0.125
141
12.0
290
     0
  0
SCALE
  5
4FF
102
{ACAD_REACTORS
330
4E7
102
}
330
4E7
100
AcDbScale
 70
     0
300
3/16" = 1'-0"
140
0.1875
141
12.0
290
     0
  0
SCALE
  5
500
102
{ACAD_REACTORS
330
4E7
102
}
330
4E7
100
AcDbScale
 70
     0
300
1/4" = 1'-0"
140
0.25
141
12.0
290
     0
  0
SCALE
  5
501
102
{ACAD_REACTORS
330
4E7
102
}
330
4E7
100
AcDbScale
 70
     0
300
3/8" = 1'-0"
140
0.375
141
12.0
290
     0
  0
SCALE
  5
502
102
{ACAD_REACTORS
330
4E7
102
}
330
4E7
100
AcDbScale
 70
     0
300
1/2" = 1'-0"
140
0.5
141
12.0
290
     0
  0
SCALE
  5
503
102
{ACAD_REACTORS
330
4E7
102
}
330
4E7
100
AcDbScale
 70
     0
300
3/4" = 1'-0"
140
0.75
141
12.0
290
     0
  0
SCALE
  5
504
102
{ACAD_REACTORS
330
4E7
102
}
330
4E7
100
AcDbScale
 70
     0
300
1" = 1'-0"
140
1.0
141
12.0
290
     0
  0
SCALE
  5
505
102
{ACAD_REACTORS
330
4E7
102
}
330
4E7
100
AcDbScale
 70
     0
300
1-1/2" = 1'-0"
140
1.5
141
12.0
290
     0
  0
SCALE
  5
506
102
{ACAD_REACTORS
330
4E7
102
}
330
4E7
100
AcDbScale
 70
     0
300
3" = 1'-0"
140
3.0
141
12.0
290
     0
  0
SCALE
  5
507
102
{ACAD_REACTORS
330
4E7
102
}
330
4E7
100
AcDbScale
 70
     0
300
6" = 1'-0"
140
6.0
141
12.0
290
     0
  0
SCALE
  5
508
102
{ACAD_REACTORS
330
4E7
102
}
330
4E7
100
AcDbScale
 70
     0
300
1'-0" = 1'-0"
140
12.0
141
12.0
290
     0
  0
TABLESTYLE
  5
52A
102
{ACAD_REACTORS
330
529
102
}
102
{ACAD_XDICTIONARY
360
530
102
}
330
529
100
AcDbTableStyle
  3
Standard
 70
     0
 71
     0
 40
0.06
 41
0.06
280
     0
281
     0
  7
STANDARD
140
4.5
170
     2
 62
     0
 63
   257
283
     0
 90
        4
 91
        0
  1

274
    -2
284
     1
 64
     0
275
    -2
285
     1
 65
     0
276
    -2
286
     1
 66
     0
277
    -2
287
     1
 67
     0
278
    -2
288
     1
 68
     0
279
    -2
289
     1
 69
     0
  7
STANDARD
140
6.0
170
     5
 62
     0
 63
   257
283
     0
 90
        4
 91
        0
  1

274
    -2
284
     1
 64
     0
275
    -2
285
     1
 65
     0
276
    -2
286
     1
 66
     0
277
    -2
287
     1
 67
     0
278
    -2
288
     1
 68
     0
279
    -2
289
     1
 69
     0
  7
STANDARD
140
4.5
170
     5
 62
     0
 63
   257
283
     0
 90
        4
 91
        0
  1

274
    -2
284
     1
 64
     0
275
    -2
285
     1
 65
     0
276
    -2
286
     1
 66
     0
277
    -2
287
     1
 67
     0
278
    -2
288
     1
 68
     0
279
    -2
289
     1
 69
     0
  0
VISUALSTYLE
  5
511
102
{ACAD_REACTORS
330
50C
102
}
330
50C
100
AcDbVisualStyle
  2
2dWireframe
 70
     4
177
     3
291
     0
 70
    58
 90
        0
176
     1
 90
        2
176
     1
 90
        0
176
     1
 90
        0
176
     1
 40
0.6
176
     1
 40
30.0
176
     1
 62
     7
420
 16777215
176
     1
 90
        1
176
     1
 90
        4
176
     1
 62
     7
176
     1
 62
   257
176
     1
 90
        1
176
     1
 90
        1
176
     1
 40
1.0
176
     1
 90
        0
176
     1
 62
   257
176
     1
 40
1.0
176
     1
 90
        1
176
     1
 90
        6
176
     1
 90
        2
176
     1
 62
     7
176
     1
 90
        5
176
     1
 90
        0
176
     1
 90
        0
176
     1
290
     0
176
     1
 90
        1
176
     1
 40
0.0
176
     1
 90
        0
176
     1
290
     1
176
     1
290
     1
176
     1
290
     0
176
     1
290
     0
176
     1
290
     0
176
     1
290
     0
176
     1
290
     0
176
     1
290
     0
176
     1
290
     0
176
     1
 90
       50
176
     1
 40
0.0
176
     1
 40
1.0
176
     1
 90
        0
176
     1
 62
    18
420
        0
176
     1
 90
       50
176
     1
 90
        3
176
     1
 62
     5
420
      255
176
     1
290
     0
176
     1
 90
       50
176
     1
 90
       50
176
     1
 90
       50
176
     1
290
     0
176
     1
 90
       50
176
     1
 62
   256
176
     0
 40
1.0
176
     0
 90
        2
176
     1
  1
strokes_ogs.tif
176
     1
290
     0
176
     1
 40
1.0
176
     1
 40
1.0
176
     1
  0
VISUALSTYLE
  5
514
102
{ACAD_REACTORS
330
50C
102
}
330
50C
100
AcDbVisualStyle
  2
Basic
 70
     7
177
     3
291
     1
 70
    58
 90
        1
176
     1
 90
        0
176
     1
 90
        1
176
     1
 90
        0
176
     1
 40
0.6
176
     1
 40
30.0
176
     1
 62
     7
420
 16777215
176
     1
 90
        0
176
     1
 90
        4
176
     1
 62
     7
176
     1
 62
   257
176
     1
 90
        1
176
     1
 90
        1
176
     1
 40
1.0
176
     1
 90
        8
176
     1
 62
     7
176
     1
 40
1.0
176
     1
 90
        1
176
     1
 90
        6
176
     1
 90
        2
176
     1
 62
     7
176
     1
 90
        5
176
     1
 90
        0
176
     1
 90
        0
176
     1
290
     0
176
     1
 90
        1
176
     1
 40
0.0
176
     1
 90
        0
176
     1
290
     0
176
     1
290
     1
176
     1
290
     1
176
     1
290
     0
176
     1
290
     0
176
     1
290
     0
176
     1
290
     0
176
     1
290
     0
176
     1
290
     0
176
     1
 90
       50
176
     1
 40
0.0
176
     1
 40
1.0
176
     1
 90
        0
176
     1
 62
    18
420
        0
176
     1
 90
       50
176
     1
 90
        3
176
     1
 62
     5
420
      255
176
     1
290
     0
176
     1
 90
       50
176
     1
 90
       50
176
     1
 90
       50
176
     1
290
     0
176
     1
 90
       50
176
     1
 62
   256
176
     0
 40
1.0
176
     0
 90
        2
176
     1
  1
strokes_ogs.tif
176
     1
290
     0
176
     1
 40
1.0
176
     1
 40
1.0
176
     1
  0
VISUALSTYLE
  5
518
102
{ACAD_REACTORS
330
50C
102
}
330
50C
100
AcDbVisualStyle
  2
Brighten
 70
    12
177
     3
291
     1
 70
    58
 90
        2
176
     1
 90
        2
176
     1
 90
        0
176
     1
 90
        0
176
     1
 40
0.6
176
     1
 40
30.0
176
     1
 62
     7
420
 16777215
176
     1
 90
        1
176
     1
 90
        4
176
     1
 62
     7
176
     1
 62
   257
176
     1
 90
        1
176
     1
 90
        1
176
     1
 40
1.0
176
     1
 90
        8
176
     1
 62
     7
176
     1
 40
1.0
176
     1
 90
        1
176
     1
 90
        6
176
     1
 90
        2
176
     1
 62
     7
176
     1
 90
        5
176
     1
 90
        0
176
     1
 90
        0
176
     1
290
     0
176
     1
 90
        1
176
     1
 40
50.0
176
     1
 90
        0
176
     1
290
     0
176
     1
290
     1
176
     1
290
     1
176
     1
290
     0
176
     1
290
     0
176
     1
290
     0
176
     1
290
     0
176
     1
290
     0
176
     1
290
     0
176
     1
 90
       50
176
     1
 40
0.0
176
     1
 40
1.0
176
     1
 90
        0
176
     1
 62
    18
420
        0
176
     1
 90
       50
176
     1
 90
        3
176
     1
 62
     5
420
      255
176
     1
290
     0
176
     1
 90
       50
176
     1
 90
       50
176
     1
 90
       50
176
     1
290
     0
176
     1
 90
       50
176
     1
 62
   256
176
     0
 40
1.0
176
     0
 90
        2
176
     1
  1
strokes_ogs.tif
176
     1
290
     0
176
     1
 40
1.0
176
     1
 40
1.0
176
     1
  0
VISUALSTYLE
  5
51C
102
{ACAD_REACTORS
330
50C
102
}
330
50C
100
AcDbVisualStyle
  2
ColorChange
 70
    16
177
     3
291
     1
 70
    58
 90
        2
176
     1
 90
        2
176
     1
 90
        3
176
     1
 90
        0
176
     1
 40
0.6
176
     1
 40
30.0
176
     1
 62
     8
420
  8421504
176
     1
 90
        1
176
     1
 90
        4
176
     1
 62
     7
176
     1
 62
   257
176
     1
 90
        1
176
     1
 90
        1
176
     1
 40
1.0
176
     1
 90
        8
176
     1
 62
     8
420
  8421504
176
     1
 40
1.0
176
     1
 90
        1
176
     1
 90
        6
176
     1
 90
        2
176
     1
 62
     7
176
     1
 90
        5
176
     1
 90
        0
176
     1
 90
        0
176
     1
290
     0
176
     1
 90
        1
176
     1
 40
0.0
176
     1
 90
        0
176
     1
290
     0
176
     1
290
     1
176
     1
290
     1
176
     1
290
     0
176
     1
290
     0
176
     1
290
     0
176
     1
290
     0
176
     1
290
     0
176
     1
290
     0
176
     1
 90
       50
176
     1
 40
0.0
176
     1
 40
1.0
176
     1
 90
        0
176
     1
 62
    18
420
        0
176
     1
 90
       50
176
     1
 90
        3
176
     1
 62
     5
420
      255
176
     1
290
     0
176
     1
 90
       50
176
     1
 90
       50
176
     1
 90
       50
176
     1
290
     0
176
     1
 90
       50
176
     1
 62
   256
176
     0
 40
1.0
176
     0
 90
        2
176
     1
  1
strokes_ogs.tif
176
     1
290
     0
176
     1
 40
1.0
176
     1
 40
1.0
176
     1
  0
VISUALSTYLE
  5
516
102
{ACAD_REACTORS
330
50C
102
}
330
50C
100
AcDbVisualStyle
  2
Conceptual
 70
     9
177
     3
291
     0
 70
    58
 90
        3
176
     1
 90
        2
176
     1
 90
        0
176
     1
 90
        0
176
     1
 40
0.6
176
     1
 40
30.0
176
     1
 62
     7
420
 16777215
176
     1
 90
        2
176
     1
 90
        2
176
     1
 62
     7
176
     1
 62
   257
176
     1
 90
        1
176
     1
 90
        1
176
     1
 40
179.0
176
     1
 90
        8
176
     1
 62
     7
176
     1
 40
1.0
176
     1
 90
        1
176
     1
 90
        6
176
     1
 90
        2
176
     1
 62
     7
176
     1
 90
        3
176
     1
 90
        0
176
     1
 90
        0
176
     1
290
     0
176
     1
 90
        1
176
     1
 40
0.0
176
     1
 90
        0
176
     1
290
     0
176
     1
290
     1
176
     1
290
     1
176
     1
290
     0
176
     1
290
     0
176
     1
290
     0
176
     1
290
     0
176
     1
290
     0
176
     1
290
     0
176
     1
 90
       50
176
     1
 40
0.0
176
     1
 40
1.0
176
     1
 90
        0
176
     1
 62
    18
420
        0
176
     1
 90
       50
176
     1
 90
        3
176
     1
 62
     5
420
      255
176
     1
290
     0
176
     1
 90
       50
176
     1
 90
       50
176
     1
 90
       50
176
     1
290
     0
176
     1
 90
       50
176
     1
 62
   256
176
     0
 40
1.0
176
     0
 90
        2
176
     1
  1
strokes_ogs.tif
176
     1
290
     0
176
     1
 40
1.0
176
     1
 40
1.0
176
     1
  0
VISUALSTYLE
  5
517
102
{ACAD_REACTORS
330
50C
102
}
330
50C
100
AcDbVisualStyle
  2
Dim
 70
    11
177
     3
291
     1
 70
    58
 90
        2
176
     1
 90
        2
176
     1
 90
        0
176
     1
 90
        0
176
     1
 40
0.6
176
     1
 40
30.0
176
     1
 62
     7
420
 16777215
176
     1
 90
        1
176
     1
 90
        4
176
     1
 62
     7
176
     1
 62
   257
176
     1
 90
        1
176
     1
 90
        1
176
     1
 40
1.0
176
     1
 90
        8
176
     1
 62
     7
176
     1
 40
1.0
176
     1
 90
        1
176
     1
 90
        6
176
     1
 90
        2
176
     1
 62
     7
176
     1
 90
        5
176
     1
 90
        0
176
     1
 90
        0
176
     1
290
     0
176
     1
 90
        1
176
     1
 40
-50.0
176
     1
 90
        0
176
     1
290
     0
176
     1
290
     1
176
     1
290
     1
176
     1
290
     0
176
     1
290
     0
176
     1
290
     0
176
     1
290
     0
176
     1
290
     0
176
     1
290
     0
176
     1
 90
       50
176
     1
 40
0.0
176
     1
 40
1.0
176
     1
 90
        0
176
     1
 62
    18
420
        0
176
     1
 90
       50
176
     1
 90
        3
176
     1
 62
     5
420
      255
176
     1
290
     0
176
     1
 90
       50
176
     1
 90
       50
176
     1
 90
       50
176
     1
290
     0
176
     1
 90
       50
176
     1
 62
   256
176
     0
 40
1.0
176
     0
 90
        2
176
     1
  1
strokes_ogs.tif
176
     1
290
     0
176
     1
 40
1.0
176
     1
 40
1.0
176
     1
  0
VISUALSTYLE
  5
51F
102
{ACAD_REACTORS
330
50C
102
}
330
50C
100
AcDbVisualStyle
  2
EdgeColorOff
 70
    22
177
     3
291
     1
 70
    58
 90
        2
176
     0
 90
        2
176
     0
 90
        0
176
     0
 90
        0
176
     0
 40
0.6
176
     0
 40
30.0
176
     0
 62
     7
420
 16777215
176
     0
 90
        1
176
     0
 90
        4
176
     0
 62
     7
176
     0
 62
   257
176
     0
 90
        1
176
     0
 90
        1
176
     0
 40
1.0
176
     0
 90
        8
176
     2
 62
     7
176
     0
 40
1.0
176
     0
 90
        1
176
     0
 90
        6
176
     0
 90
        2
176
     0
 62
     7
176
     0
 90
        5
176
     0
 90
        0
176
     0
 90
        0
176
     0
290
     0
176
     0
 90
        1
176
     0
 40
0.0
176
     0
 90
        0
176
     0
290
     0
176
     0
290
     1
176
     0
290
     1
176
     0
290
     0
176
     0
290
     0
176
     0
290
     0
176
     0
290
     0
176
     0
290
     0
176
     0
290
     0
176
     0
 90
       50
176
     0
 40
0.0
176
     0
 40
1.0
176
     0
 90
        0
176
     0
 62
    18
420
        0
176
     0
 90
       50
176
     0
 90
        3
176
     0
 62
     5
420
      255
176
     0
290
     0
176
     0
 90
       50
176
     0
 90
       50
176
     0
 90
       50
176
     0
290
     0
176
     0
 90
       50
176
     0
 62
   256
176
     0
 40
1.0
176
     0
 90
        2
176
     0
  1
strokes_ogs.tif
176
     0
290
     0
176
     0
 40
1.0
176
     0
 40
1.0
176
     0
  0
VISUALSTYLE
  5
51B
102
{ACAD_REACTORS
330
50C
102
}
330
50C
100
AcDbVisualStyle
  2
Facepattern
 70
    15
177
     3
291
     1
 70
    58
 90
        2
176
     1
 90
        2
176
     1
 90
        0
176
     1
 90
        0
176
     1
 40
0.6
176
     1
 40
30.0
176
     1
 62
     7
420
 16777215
176
     1
 90
        1
176
     1
 90
        4
176
     1
 62
     7
176
     1
 62
   257
176
     1
 90
        1
176
     1
 90
        1
176
     1
 40
1.0
176
     1
 90
        8
176
     1
 62
     7
176
     1
 40
1.0
176
     1
 90
        1
176
     1
 90
        6
176
     1
 90
        2
176
     1
 62
     7
176
     1
 90
        5
176
     1
 90
        0
176
     1
 90
        0
176
     1
290
     0
176
     1
 90
        1
176
     1
 40
0.0
176
     1
 90
        0
176
     1
290
     0
176
     1
290
     1
176
     1
290
     1
176
     1
290
     0
176
     1
290
     0
176
     1
290
     0
176
     1
290
     0
176
     1
290
     0
176
     1
290
     0
176
     1
 90
       50
176
     1
 40
0.0
176
     1
 40
1.0
176
     1
 90
        0
176
     1
 62
    18
420
        0
176
     1
 90
       50
176
     1
 90
        3
176
     1
 62
     5
420
      255
176
     1
290
     0
176
     1
 90
       50
176
     1
 90
       50
176
     1
 90
       50
176
     1
290
     0
176
     1
 90
       50
176
     1
 62
   256
176
     0
 40
1.0
176
     0
 90
        2
176
     1
  1
strokes_ogs.tif
176
     1
290
     0
176
     1
 40
1.0
176
     1
 40
1.0
176
     1
  0
VISUALSTYLE
  5
50D
102
{ACAD_REACTORS
330
50C
102
}
330
50C
100
AcDbVisualStyle
  2
Flat
 70
     0
177
     3
291
     1
 70
    58
 90
        2
176
     1
 90
        1
176
     1
 90
        1
176
     1
 90
        2
176
     1
 40
0.6
176
     1
 40
30.0
176
     1
 62
     7
420
 16777215
176
     1
 90
        0
176
     1
 90
        0
176
     1
 62
     7
176
     1
 62
   257
176
     1
 90
        1
176
     1
 90
        1
176
     1
 40
1.0
176
     1
 90
        8
176
     1
 62
     7
176
     1
 40
1.0
176
     1
 90
        1
176
     1
 90
        6
176
     1
 90
        2
176
     1
 62
     7
176
     1
 90
        5
176
     1
 90
        0
176
     1
 90
        0
176
     1
290
     0
176
     1
 90
       13
176
     1
 40
0.0
176
     1
 90
        0
176
     1
290
     0
176
     1
290
     1
176
     1
290
     1
176
     1
290
     0
176
     1
290
     0
176
     1
290
     0
176
     1
290
     0
176
     1
290
     0
176
     1
290
     0
176
     1
 90
       50
176
     1
 40
0.0
176
     1
 40
1.0
176
     1
 90
        0
176
     1
 62
    18
420
        0
176
     1
 90
       50
176
     1
 90
        3
176
     1
 62
     5
420
      255
176
     1
290
     0
176
     1
 90
       50
176
     1
 90
       50
176
     1
 90
       50
176
     1
290
     0
176
     1
 90
       50
176
     1
 62
   256
176
     0
 40
1.0
176
     0
 90
        2
176
     1
  1
strokes_ogs.tif
176
     1
290
     0
176
     1
 40
1.0
176
     1
 40
1.0
176
     1
  0
VISUALSTYLE
  5
50E
102
{ACAD_REACTORS
330
50C
102
}
330
50C
100
AcDbVisualStyle
  2
FlatWithEdges
 70
     1
177
     3
291
     1
 70
    58
 90
        2
176
     1
 90
        1
176
     1
 90
        1
176
     1
 90
        2
176
     1
 40
0.6
176
     1
 40
30.0
176
     1
 62
     7
420
 16777215
176
     1
 90
        1
176
     1
 90
        0
176
     1
 62
     7
176
     1
 62
   257
176
     1
 90
        1
176
     1
 90
        1
176
     1
 40
1.0
176
     1
 90
        0
176
     1
 62
   257
176
     1
 40
1.0
176
     1
 90
        1
176
     1
 90
        6
176
     1
 90
        2
176
     1
 62
     7
176
     1
 90
        5
176
     1
 90
        0
176
     1
 90
        0
176
     1
290
     0
176
     1
 90
       13
176
     1
 40
0.0
176
     1
 90
        0
176
     1
290
     0
176
     1
290
     1
176
     1
290
     1
176
     1
290
     0
176
     1
290
     0
176
     1
290
     0
176
     1
290
     0
176
     1
290
     0
176
     1
290
     0
176
     1
 90
       50
176
     1
 40
0.0
176
     1
 40
1.0
176
     1
 90
        0
176
     1
 62
    18
420
        0
176
     1
 90
       50
176
     1
 90
        3
176
     1
 62
     5
420
      255
176
     1
290
     0
176
     1
 90
       50
176
     1
 90
       50
176
     1
 90
       50
176
     1
290
     0
176
     1
 90
       50
176
     1
 62
   256
176
     0
 40
1.0
176
     0
 90
        2
176
     1
  1
strokes_ogs.tif
176
     1
290
     0
176
     1
 40
1.0
176
     1
 40
1.0
176
     1
  0
VISUALSTYLE
  5
50F
102
{ACAD_REACTORS
330
50C
102
}
330
50C
100
AcDbVisualStyle
  2
Gouraud
 70
     2
177
     3
291
     1
 70
    58
 90
        2
176
     1
 90
        2
176
     1
 90
        1
176
     1
 90
        2
176
     1
 40
0.6
176
     1
 40
30.0
176
     1
 62
     7
420
 16777215
176
     1
 90
        0
176
     1
 90
        0
176
     1
 62
     7
176
     1
 62
   257
176
     1
 90
        1
176
     1
 90
        1
176
     1
 40
1.0
176
     1
 90
        0
176
     1
 62
     7
176
     1
 40
1.0
176
     1
 90
        1
176
     1
 90
        6
176
     1
 90
        2
176
     1
 62
     7
176
     1
 90
        5
176
     1
 90
        0
176
     1
 90
        0
176
     1
290
     0
176
     1
 90
       13
176
     1
 40
0.0
176
     1
 90
        0
176
     1
290
     0
176
     1
290
     1
176
     1
290
     1
176
     1
290
     0
176
     1
290
     0
176
     1
290
     0
176
     1
290
     0
176
     1
290
     0
176
     1
290
     0
176
     1
 90
       50
176
     1
 40
0.0
176
     1
 40
1.0
176
     1
 90
        0
176
     1
 62
    18
420
        0
176
     1
 90
       50
176
     1
 90
        3
176
     1
 62
     5
420
      255
176
     1
290
     0
176
     1
 90
       50
176
     1
 90
       50
176
     1
 90
       50
176
     1
290
     0
176
     1
 90
       50
176
     1
 62
   256
176
     0
 40
1.0
176
     0
 90
        2
176
     1
  1
strokes_ogs.tif
176
     1
290
     0
176
     1
 40
1.0
176
     1
 40
1.0
176
     1
  0
VISUALSTYLE
  5
510
102
{ACAD_REACTORS
330
50C
102
}
330
50C
100
AcDbVisualStyle
  2
GouraudWithEdges
 70
     3
177
     3
291
     1
 70
    58
 90
        2
176
     1
 90
        2
176
     1
 90
        1
176
     1
 90
        2
176
     1
 40
0.6
176
     1
 40
30.0
176
     1
 62
     7
420
 16777215
176
     1
 90
        1
176
     1
 90
        0
176
     1
 62
     7
176
     1
 62
   257
176
     1
 90
        1
176
     1
 90
        1
176
     1
 40
1.0
176
     1
 90
        0
176
     1
 62
   257
176
     1
 40
1.0
176
     1
 90
        1
176
     1
 90
        6
176
     1
 90
        2
176
     1
 62
     7
176
     1
 90
        5
176
     1
 90
        0
176
     1
 90
        0
176
     1
290
     0
176
     1
 90
       13
176
     1
 40
0.0
176
     1
 90
        0
176
     1
290
     0
176
     1
290
     1
176
     1
290
     1
176
     1
290
     0
176
     1
290
     0
176
     1
290
     0
176
     1
290
     0
176
     1
290
     0
176
     1
290
     0
176
     1
 90
       50
176
     1
 40
0.0
176
     1
 40
1.0
176
     1
 90
        0
176
     1
 62
    18
420
        0
176
     1
 90
       50
176
     1
 90
        3
176
     1
 62
     5
420
      255
176
     1
290
     0
176
     1
 90
       50
176
     1
 90
       50
176
     1
 90
       50
176
     1
290
     0
176
     1
 90
       50
176
     1
 62
   256
176
     0
 40
1.0
176
     0
 90
        2
176
     1
  1
strokes_ogs.tif
176
     1
290
     0
176
     1
 40
1.0
176
     1
 40
1.0
176
     1
  0
VISUALSTYLE
  5
513
102
{ACAD_REACTORS
330
50C
102
}
330
50C
100
AcDbVisualStyle
  2
Hidden
 70
     6
177
     3
291
     0
 70
    58
 90
        1
176
     1
 90
        2
176
     1
 90
        2
176
     1
 90
        0
176
     1
 40
0.6
176
     1
 40
30.0
176
     1
 62
     7
420
 16777215
176
     1
 90
        2
176
     1
 90
        2
176
     1
 62
     7
176
     1
 62
   257
176
     1
 90
        2
176
     1
 90
        1
176
     1
 40
40.0
176
     1
 90
        0
176
     1
 62
   257
176
     1
 40
1.0
176
     1
 90
        1
176
     1
 90
        6
176
     1
 90
        2
176
     1
 62
     7
176
     1
 90
        3
176
     1
 90
        0
176
     1
 90
        0
176
     1
290
     0
176
     1
 90
        1
176
     1
 40
0.0
176
     1
 90
        0
176
     1
290
     0
176
     1
290
     1
176
     1
290
     1
176
     1
290
     0
176
     1
290
     0
176
     1
290
     0
176
     1
290
     0
176
     1
290
     0
176
     1
290
     0
176
     1
 90
       50
176
     1
 40
0.0
176
     1
 40
1.0
176
     1
 90
        0
176
     1
 62
    18
420
        0
176
     1
 90
       50
176
     1
 90
        3
176
     1
 62
     5
420
      255
176
     1
290
     0
176
     1
 90
       50
176
     1
 90
       50
176
     1
 90
       50
176
     1
290
     0
176
     1
 90
       50
176
     1
 62
   256
176
     0
 40
1.0
176
     0
 90
        2
176
     1
  1
strokes_ogs.tif
176
     1
290
     0
176
     1
 40
1.0
176
     1
 40
1.0
176
     1
  0
VISUALSTYLE
  5
51D
102
{ACAD_REACTORS
330
50C
102
}
330
50C
100
AcDbVisualStyle
  2
JitterOff
 70
    20
177
     3
291
     1
 70
    58
 90
        2
176
     0
 90
        2
176
     0
 90
        0
176
     0
 90
        0
176
     0
 40
0.6
176
     0
 40
30.0
176
     0
 62
     7
420
 16777215
176
     0
 90
        1
176
     0
 90
        4
176
     0
 62
     7
176
     0
 62
   257
176
     0
 90
        1
176
     0
 90
        1
176
     0
 40
1.0
176
     0
 90
       10
176
     2
 62
     7
176
     0
 40
1.0
176
     0
 90
        1
176
     0
 90
        6
176
     0
 90
        2
176
     0
 62
     7
176
     0
 90
        5
176
     0
 90
        0
176
     0
 90
        0
176
     0
290
     0
176
     0
 90
        1
176
     0
 40
0.0
176
     0
 90
        0
176
     0
290
     0
176
     0
290
     1
176
     0
290
     1
176
     0
290
     0
176
     0
290
     0
176
     0
290
     0
176
     0
290
     0
176
     0
290
     0
176
     0
290
     0
176
     0
 90
       50
176
     0
 40
0.0
176
     0
 40
1.0
176
     0
 90
        0
176
     0
 62
    18
420
        0
176
     0
 90
       50
176
     0
 90
        3
176
     0
 62
     5
420
      255
176
     0
290
     0
176
     0
 90
       50
176
     0
 90
       50
176
     0
 90
       50
176
     0
290
     0
176
     0
 90
       50
176
     0
 62
   256
176
     0
 40
1.0
176
     0
 90
        2
176
     0
  1
strokes_ogs.tif
176
     0
290
     0
176
     0
 40
1.0
176
     0
 40
1.0
176
     0
  0
VISUALSTYLE
  5
51A
102
{ACAD_REACTORS
330
50C
102
}
330
50C
100
AcDbVisualStyle
  2
Linepattern
 70
    14
177
     3
291
     1
 70
    58
 90
        2
176
     1
 90
        2
176
     1
 90
        0
176
     1
 90
        0
176
     1
 40
0.6
176
     1
 40
30.0
176
     1
 62
     7
420
 16777215
176
     1
 90
        1
176
     1
 90
        4
176
     1
 62
     7
176
     1
 62
   257
176
     1
 90
        7
176
     1
 90
        7
176
     1
 40
1.0
176
     1
 90
        8
176
     1
 62
     7
176
     1
 40
1.0
176
     1
 90
        1
176
     1
 90
        6
176
     1
 90
        2
176
     1
 62
     7
176
     1
 90
        5
176
     1
 90
        0
176
     1
 90
        0
176
     1
290
     0
176
     1
 90
        1
176
     1
 40
0.0
176
     1
 90
        0
176
     1
290
     0
176
     1
290
     1
176
     1
290
     1
176
     1
290
     0
176
     1
290
     0
176
     1
290
     0
176
     1
290
     0
176
     1
290
     0
176
     1
290
     0
176
     1
 90
       50
176
     1
 40
0.0
176
     1
 40
1.0
176
     1
 90
        0
176
     1
 62
    18
420
        0
176
     1
 90
       50
176
     1
 90
        3
176
     1
 62
     5
420
      255
176
     1
290
     0
176
     1
 90
       50
176
     1
 90
       50
176
     1
 90
       50
176
     1
290
     0
176
     1
 90
       50
176
     1
 62
   256
176
     0
 40
1.0
176
     0
 90
        2
176
     1
  1
strokes_ogs.tif
176
     1
290
     0
176
     1
 40
1.0
176
     1
 40
1.0
176
     1
  0
VISUALSTYLE
  5
51E
102
{ACAD_REACTORS
330
50C
102
}
330
50C
100
AcDbVisualStyle
  2
OverhangOff
 70
    21
177
     3
291
     1
 70
    58
 90
        2
176
     0
 90
        2
176
     0
 90
        0
176
     0
 90
        0
176
     0
 40
0.6
176
     0
 40
30.0
176
     0
 62
     7
420
 16777215
176
     0
 90
        1
176
     0
 90
        4
176
     0
 62
     7
176
     0
 62
   257
176
     0
 90
        1
176
     0
 90
        1
176
     0
 40
1.0
176
     0
 90
        9
176
     2
 62
     7
176
     0
 40
1.0
176
     0
 90
        1
176
     0
 90
        6
176
     0
 90
        2
176
     0
 62
     7
176
     0
 90
        5
176
     0
 90
        0
176
     0
 90
        0
176
     0
290
     0
176
     0
 90
        1
176
     0
 40
0.0
176
     0
 90
        0
176
     0
290
     0
176
     0
290
     1
176
     0
290
     1
176
     0
290
     0
176
     0
290
     0
176
     0
290
     0
176
     0
290
     0
176
     0
290
     0
176
     0
290
     0
176
     0
 90
       50
176
     0
 40
0.0
176
     0
 40
1.0
176
     0
 90
        0
176
     0
 62
    18
420
        0
176
     0
 90
       50
176
     0
 90
        3
176
     0
 62
     5
420
      255
176
     0
290
     0
176
     0
 90
       50
176
     0
 90
       50
176
     0
 90
       50
176
     0
290
     0
176
     0
 90
       50
176
     0
 62
   256
176
     0
 40
1.0
176
     0
 90
        2
176
     0
  1
strokes_ogs.tif
176
     0
290
     0
176
     0
 40
1.0
176
     0
 40
1.0
176
     0
  0
VISUALSTYLE
  5
515
102
{ACAD_REACTORS
330
50C
102
}
330
50C
100
AcDbVisualStyle
  2
Realistic
 70
     8
177
     3
291
     0
 70
    58
 90
        2
176
     1
 90
        3
176
     1
 90
        0
176
     1
 90
        2
176
     1
 40
0.6
176
     1
 40
30.0
176
     1
 62
     7
420
 16777215
176
     1
 90
        0
176
     1
 90
        0
176
     1
 62
     7
176
     1
 62
   257
176
     1
 90
        1
176
     1
 90
        1
176
     1
 40
1.0
176
     1
 90
        8
176
     1
 62
   257
176
     1
 40
1.0
176
     1
 90
        1
176
     1
 90
        6
176
     1
 90
        2
176
     1
 62
     7
176
     1
 90
        3
176
     1
 90
        0
176
     1
 90
        0
176
     1
290
     0
176
     1
 90
       13
176
     1
 40
0.0
176
     1
 90
        0
176
     1
290
     0
176
     1
290
     1
176
     1
290
     1
176
     1
290
     0
176
     1
290
     0
176
     1
290
     0
176
     1
290
     0
176
     1
290
     0
176
     1
290
     0
176
     1
 90
       50
176
     1
 40
0.0
176
     1
 40
1.0
176
     1
 90
        0
176
     1
 62
    18
420
        0
176
     1
 90
       50
176
     1
 90
        3
176
     1
 62
     5
420
      255
176
     1
290
     0
176
     1
 90
       50
176
     1
 90
       50
176
     1
 90
       50
176
     1
290
     0
176
     1
 90
       50
176
     1
 62
   256
176
     0
 40
1.0
176
     0
 90
        2
176
     1
  1
strokes_ogs.tif
176
     1
290
     0
176
     1
 40
1.0
176
     1
 40
1.0
176
     1
  0
VISUALSTYLE
  5
524
102
{ACAD_REACTORS
330
50C
102
}
330
50C
100
AcDbVisualStyle
  2
Shaded
 70
    27
177
     3
291
     0
 70
    58
 90
        2
176
     1
 90
        2
176
     1
 90
        1
176
     1
 90
        2
176
     1
 40
0.6
176
     1
 40
30.0
176
     1
 62
     7
420
 16777215
176
     1
 90
        0
176
     1
 90
        4
176
     1
 62
     7
176
     1
 62
   257
176
     1
 90
        1
176
     1
 90
        1
176
     1
 40
1.0
176
     1
 90
        8
176
     1
 62
   257
176
     1
 40
1.0
176
     1
 90
        1
176
     1
 90
        6
176
     1
 90
        2
176
     1
 62
     8
420
  7895160
176
     1
 90
        3
176
     1
 90
        0
176
     1
 90
        0
176
     1
290
     0
176
     1
 90
        5
176
     1
 40
0.0
176
     1
 90
        0
176
     1
290
     0
176
     1
290
     1
176
     1
290
     1
176
     1
290
     0
176
     1
290
     0
176
     1
290
     0
176
     1
290
     0
176
     1
290
     0
176
     1
290
     0
176
     1
 90
       50
176
     1
 40
0.0
176
     1
 40
1.0
176
     1
 90
        0
176
     1
 62
    18
420
        0
176
     1
 90
       50
176
     1
 90
        3
176
     1
 62
     5
420
      255
176
     1
290
     0
176
     1
 90
       50
176
     1
 90
       50
176
     1
 90
       50
176
     1
290
     0
176
     1
 90
       50
176
     1
 62
   256
176
     0
 40
1.0
176
     0
 90
        2
176
     1
  1
strokes_ogs.tif
176
     1
290
     0
176
     1
 40
1.0
176
     1
 40
1.0
176
     1
  0
VISUALSTYLE
  5
523
102
{ACAD_REACTORS
330
50C
102
}
330
50C
100
AcDbVisualStyle
  2
Shaded with edges
 70
    26
177
     3
291
     0
 70
    58
 90
        2
176
     1
 90
        2
176
     1
 90
        1
176
     1
 90
        2
176
     1
 40
0.6
176
     1
 40
30.0
176
     1
 62
     7
420
 16777215
176
     1
 90
        1
176
     1
 90
       10
176
     1
 62
     7
176
     1
 62
   257
176
     1
 90
        2
176
     1
 90
        1
176
     1
 40
1.0
176
     1
 90
        8
176
     1
 62
   257
176
     1
 40
1.0
176
     1
 90
        1
176
     1
 90
        6
176
     1
 90
        2
176
     1
 62
     7
176
     1
 90
        3
176
     1
 90
        0
176
     1
 90
        0
176
     1
290
     0
176
     1
 90
        5
176
     1
 40
0.0
176
     1
 90
        0
176
     1
290
     0
176
     1
290
     1
176
     1
290
     1
176
     1
290
     0
176
     1
290
     0
176
     1
290
     0
176
     1
290
     0
176
     1
290
     0
176
     1
290
     0
176
     1
 90
       50
176
     1
 40
0.0
176
     1
 40
1.0
176
     1
 90
        0
176
     1
 62
    18
420
        0
176
     1
 90
       50
176
     1
 90
        3
176
     1
 62
     5
420
      255
176
     1
290
     0
176
     1
 90
       50
176
     1
 90
       50
176
     1
 90
       50
176
     1
290
     0
176
     1
 90
       50
176
     1
 62
   256
176
     0
 40
1.0
176
     0
 90
        2
176
     1
  1
strokes_ogs.tif
176
     1
290
     0
176
     1
 40
1.0
176
     1
 40
1.0
176
     1
  0
VISUALSTYLE
  5
520
102
{ACAD_REACTORS
330
50C
102
}
330
50C
100
AcDbVisualStyle
  2
Shades of Gray
 70
    23
177
     3
291
     0
 70
    58
 90
        2
176
     1
 90
        2
176
     1
 90
        3
176
     1
 90
        0
176
     1
 40
0.6
176
     1
 40
30.0
176
     1
 62
     7
420
 16777215
176
     1
 90
        2
176
     1
 90
        2
176
     1
 62
     7
176
     1
 62
     7
176
     1
 90
        1
176
     1
 90
        1
176
     1
 40
40.0
176
     1
 90
        8
176
     1
 62
     7
176
     1
 40
1.0
176
     1
 90
        1
176
     1
 90
        6
176
     1
 90
        2
176
     1
 62
     7
176
     1
 90
        3
176
     1
 90
        0
176
     1
 90
        0
176
     1
290
     0
176
     1
 90
        1
176
     1
 40
0.0
176
     1
 90
        0
176
     1
290
     0
176
     1
290
     1
176
     1
290
     1
176
     1
290
     0
176
     1
290
     0
176
     1
290
     0
176
     1
290
     0
176
     1
290
     0
176
     1
290
     0
176
     1
 90
       50
176
     1
 40
0.0
176
     1
 40
1.0
176
     1
 90
        0
176
     1
 62
    18
420
        0
176
     1
 90
       50
176
     1
 90
        3
176
     1
 62
     5
420
      255
176
     1
290
     0
176
     1
 90
       50
176
     1
 90
       50
176
     1
 90
       50
176
     1
290
     0
176
     1
 90
       50
176
     1
 62
   256
176
     0
 40
1.0
176
     0
 90
        2
176
     1
  1
strokes_ogs.tif
176
     1
290
     0
176
     1
 40
1.0
176
     1
 40
1.0
176
     1
  0
VISUALSTYLE
  5
521
102
{ACAD_REACTORS
330
50C
102
}
330
50C
100
AcDbVisualStyle
  2
Sketchy
 70
    24
177
     3
291
     0
 70
    58
 90
        1
176
     1
 90
        2
176
     1
 90
        2
176
     1
 90
        0
176
     1
 40
0.6
176
     1
 40
30.0
176
     1
 62
     7
420
 16777215
176
     1
 90
        2
176
     1
 90
        2
176
     1
 62
     7
176
     1
 62
     7
176
     1
 90
        1
176
     1
 90
        1
176
     1
 40
40.0
176
     1
 90
       11
176
     1
 62
     7
176
     1
 40
1.0
176
     1
 90
        1
176
     1
 90
        6
176
     1
 90
        2
176
     1
 62
     7
176
     1
 90
        6
176
     1
 90
        0
176
     1
 90
        0
176
     1
290
     0
176
     1
 90
        1
176
     1
 40
0.0
176
     1
 90
        0
176
     1
290
     0
176
     1
290
     1
176
     1
290
     1
176
     1
290
     0
176
     1
290
     0
176
     1
290
     0
176
     1
290
     0
176
     1
290
     0
176
     1
290
     0
176
     1
 90
       50
176
     1
 40
0.0
176
     1
 40
1.0
176
     1
 90
        0
176
     1
 62
    18
420
        0
176
     1
 90
       50
176
     1
 90
        3
176
     1
 62
     5
420
      255
176
     1
290
     0
176
     1
 90
       50
176
     1
 90
       50
176
     1
 90
       50
176
     1
290
     0
176
     1
 90
       50
176
     1
 62
   256
176
     0
 40
1.0
176
     0
 90
        2
176
     1
  1
strokes_ogs.tif
176
     1
290
     0
176
     1
 40
1.0
176
     1
 40
1.0
176
     1
  0
VISUALSTYLE
  5
519
102
{ACAD_REACTORS
330
50C
102
}
330
50C
100
AcDbVisualStyle
  2
Thicken
 70
    13
177
     3
291
     1
 70
    58
 90
        2
176
     1
 90
        2
176
     1
 90
        0
176
     1
 90
        0
176
     1
 40
0.6
176
     1
 40
30.0
176
     1
 62
     7
420
 16777215
176
     1
 90
        1
176
     1
 90
        4
176
     1
 62
     7
176
     1
 62
   257
176
     1
 90
        1
176
     1
 90
        1
176
     1
 40
1.0
176
     1
 90
       12
176
     1
 62
     7
176
     1
 40
1.0
176
     1
 90
        1
176
     1
 90
        6
176
     1
 90
        2
176
     1
 62
     7
176
     1
 90
        5
176
     1
 90
        0
176
     1
 90
        0
176
     1
290
     0
176
     1
 90
        1
176
     1
 40
0.0
176
     1
 90
        0
176
     1
290
     0
176
     1
290
     1
176
     1
290
     1
176
     1
290
     0
176
     1
290
     0
176
     1
290
     0
176
     1
290
     0
176
     1
290
     0
176
     1
290
     0
176
     1
 90
       50
176
     1
 40
0.0
176
     1
 40
1.0
176
     1
 90
        0
176
     1
 62
    18
420
        0
176
     1
 90
       50
176
     1
 90
        3
176
     1
 62
     5
420
      255
176
     1
290
     0
176
     1
 90
       50
176
     1
 90
       50
176
     1
 90
       50
176
     1
290
     0
176
     1
 90
       50
176
     1
 62
   256
176
     0
 40
1.0
176
     0
 90
        2
176
     1
  1
strokes_ogs.tif
176
     1
290
     0
176
     1
 40
1.0
176
     1
 40
1.0
176
     1
  0
VISUALSTYLE
  5
512
102
{ACAD_REACTORS
330
50C
102
}
330
50C
100
AcDbVisualStyle
  2
Wireframe
 70
     5
177
     3
291
     0
 70
    58
 90
        0
176
     1
 90
        2
176
     1
 90
        0
176
     1
 90
        0
176
     1
 40
0.6
176
     1
 40
30.0
176
     1
 62
     7
420
 16777215
176
     1
 90
        1
176
     1
 90
        4
176
     1
 62
     7
176
     1
 62
   257
176
     1
 90
        1
176
     1
 90
        1
176
     1
 40
1.0
176
     1
 90
        0
176
     1
 62
   257
176
     1
 40
1.0
176
     1
 90
        1
176
     1
 90
        6
176
     1
 90
        2
176
     1
 62
     7
176
     1
 90
        3
176
     1
 90
        0
176
     1
 90
        0
176
     1
290
     0
176
     1
 90
        1
176
     1
 40
0.0
176
     1
 90
        0
176
     1
290
     0
176
     1
290
     1
176
     1
290
     1
176
     1
290
     0
176
     1
290
     0
176
     1
290
     0
176
     1
290
     0
176
     1
290
     0
176
     1
290
     0
176
     1
 90
       50
176
     1
 40
0.0
176
     1
 40
1.0
176
     1
 90
        0
176
     1
 62
    18
420
        0
176
     1
 90
       50
176
     1
 90
        3
176
     1
 62
     5
420
      255
176
     1
290
     0
176
     1
 90
       50
176
     1
 90
       50
176
     1
 90
       50
176
     1
290
     0
176
     1
 90
       50
176
     1
 62
   256
176
     0
 40
1.0
176
     0
 90
        2
176
     1
  1
strokes_ogs.tif
176
     1
290
     0
176
     1
 40
1.0
176
     1
 40
1.0
176
     1
  0
VISUALSTYLE
  5
522
102
{ACAD_REACTORS
330
50C
102
}
330
50C
100
AcDbVisualStyle
  2
X-Ray
 70
    25
177
     3
291
     0
 70
    58
 90
        2
176
     1
 90
        2
176
     1
 90
        1
176
     1
 90
        1
176
     1
 40
0.5
176
     1
 40
30.0
176
     1
 62
     7
420
 16777215
176
     1
 90
        1
176
     1
 90
        0
176
     1
 62
     7
176
     1
 62
   257
176
     1
 90
        1
176
     1
 90
        1
176
     1
 40
1.0
176
     1
 90
        8
176
     1
 62
     7
176
     1
 40
1.0
176
     1
 90
        1
176
     1
 90
        6
176
     1
 90
        2
176
     1
 62
     7
176
     1
 90
        3
176
     1
 90
        0
176
     1
 90
        0
176
     1
290
     0
176
     1
 90
       13
176
     1
 40
0.0
176
     1
 90
        0
176
     1
290
     0
176
     1
290
     1
176
     1
290
     1
176
     1
290
     0
176
     1
290
     0
176
     1
290
     0
176
     1
290
     0
176
     1
290
     0
176
     1
290
     0
176
     1
 90
       50
176
     1
 40
0.0
176
     1
 40
1.0
176
     1
 90
        0
176
     1
 62
    18
420
        0
176
     1
 90
       50
176
     1
 90
        3
176
     1
 62
     5
420
      255
176
     1
290
     0
176
     1
 90
       50
176
     1
 90
       50
176
     1
 90
       50
176
     1
290
     0
176
     1
 90
       50
176
     1
 62
   256
176
     0
 40
1.0
176
     0
 90
        2
176
     1
  1
strokes_ogs.tif
176
     1
290
     0
176
     1
 40
1.0
176
     1
 40
1.0
176
     1
  0
DICTIONARYVAR
  5
52F
102
{ACAD_REACTORS
330
52E
102
}
330
52E
100
DictionaryVariables
280
     0
  1
1:1
  0
DICTIONARYVAR
  5
534
102
{ACAD_REACTORS
330
52E
102
}
330
52E
100
DictionaryVariables
280
     0
  1
Standard
  0
DICTIONARYVAR
  5
533
102
{ACAD_REACTORS
330
52E
102
}
330
52E
100
DictionaryVariables
280
     0
  1
Standard
  0
DICTIONARYVAR
  5
535
102
{ACAD_REACTORS
330
52E
102
}
330
52E
100
DictionaryVariables
280
     0
  1
0
  0
DICTIONARY
  5
530
330
52A
100
AcDbDictionary
280
     1
281
     1
  3
ACAD_ROUNDTRIP_2008_TABLESTYLE_CELLSTYLEMAP
360
531
  0
CELLSTYLEMAP
  5
531
102
{ACAD_REACTORS
330
530
102
}
330
530
100
AcDbCellStyleMap
 90
        3
300
CELLSTYLE
  1
TABLEFORMAT_BEGIN
 90
        5
170
     1
 91
        0
 92
    32768
 62
   257
 93
        1
300
CONTENTFORMAT
  1
CONTENTFORMAT_BEGIN
 90
        0
 91
        0
 92
        4
 93
        0
300

 40
0.0
140
1.0
 94
        5
 62
     0
340
11
144
6.0
309
CONTENTFORMAT_END
171
     1
301
MARGIN
  1
CELLMARGIN_BEGIN
 40
1.5
 40
1.5
 40
1.5
 40
1.5
 40
1.5
 40
1.5
309
CELLMARGIN_END
 94
        6
 95
        1
302
GRIDFORMAT
  1
GRIDFORMAT_BEGIN
 90
        0
 91
        1
 62
     0
 92
       -2
340
14
 93
        0
 40
0.045
309
GRIDFORMAT_END
 95
        2
302
GRIDFORMAT
  1
GRIDFORMAT_BEGIN
 90
        0
 91
        1
 62
     0
 92
       -2
340
14
 93
        0
 40
0.045
309
GRIDFORMAT_END
 95
        4
302
GRIDFORMAT
  1
GRIDFORMAT_BEGIN
 90
        0
 91
        1
 62
     0
 92
       -2
340
14
 93
        0
 40
0.045
309
GRIDFORMAT_END
 95
        8
302
GRIDFORMAT
  1
GRIDFORMAT_BEGIN
 90
        0
 91
        1
 62
     0
 92
       -2
340
14
 93
        0
 40
0.045
309
GRIDFORMAT_END
 95
       16
302
GRIDFORMAT
  1
GRIDFORMAT_BEGIN
 90
        0
 91
        1
 62
     0
 92
       -2
340
14
 93
        0
 40
0.045
309
GRIDFORMAT_END
 95
       32
302
GRIDFORMAT
  1
GRIDFORMAT_BEGIN
 90
        0
 91
        1
 62
     0
 92
       -2
340
14
 93
        0
 40
0.045
309
GRIDFORMAT_END
309
TABLEFORMAT_END
  1
CELLSTYLE_BEGIN
 90
        1
 91
        1
300
_TITLE
309
CELLSTYLE_END
300
CELLSTYLE
  1
TABLEFORMAT_BEGIN
 90
        5
170
     1
 91
        0
 92
        0
 62
   257
 93
        1
300
CONTENTFORMAT
  1
CONTENTFORMAT_BEGIN
 90
        0
 91
        0
 92
        4
 93
        0
300

 40
0.0
140
1.0
 94
        5
 62
     0
340
11
144
4.5
309
CONTENTFORMAT_END
171
     1
301
MARGIN
  1
CELLMARGIN_BEGIN
 40
1.5
 40
1.5
 40
1.5
 40
1.5
 40
1.5
 40
1.5
309
CELLMARGIN_END
 94
        6
 95
        1
302
GRIDFORMAT
  1
GRIDFORMAT_BEGIN
 90
        0
 91
        1
 62
     0
 92
       -2
340
14
 93
        0
 40
0.045
309
GRIDFORMAT_END
 95
        2
302
GRIDFORMAT
  1
GRIDFORMAT_BEGIN
 90
        0
 91
        1
 62
     0
 92
       -2
340
14
 93
        0
 40
0.045
309
GRIDFORMAT_END
 95
        4
302
GRIDFORMAT
  1
GRIDFORMAT_BEGIN
 90
        0
 91
        1
 62
     0
 92
       -2
340
14
 93
        0
 40
0.045
309
GRIDFORMAT_END
 95
        8
302
GRIDFORMAT
  1
GRIDFORMAT_BEGIN
 90
        0
 91
        1
 62
     0
 92
       -2
340
14
 93
        0
 40
0.045
309
GRIDFORMAT_END
 95
       16
302
GRIDFORMAT
  1
GRIDFORMAT_BEGIN
 90
        0
 91
        1
 62
     0
 92
       -2
340
14
 93
        0
 40
0.045
309
GRIDFORMAT_END
 95
       32
302
GRIDFORMAT
  1
GRIDFORMAT_BEGIN
 90
        0
 91
        1
 62
     0
 92
       -2
340
14
 93
        0
 40
0.045
309
GRIDFORMAT_END
309
TABLEFORMAT_END
  1
CELLSTYLE_BEGIN
 90
        2
 91
        1
300
_HEADER
309
CELLSTYLE_END
300
CELLSTYLE
  1
TABLEFORMAT_BEGIN
 90
        5
170
     1
 91
        0
 92
        0
 62
   257
 93
        1
300
CONTENTFORMAT
  1
CONTENTFORMAT_BEGIN
 90
        0
 91
        0
 92
        4
 93
        0
300

 40
0.0
140
1.0
 94
        2
 62
     0
340
11
144
4.5
309
CONTENTFORMAT_END
171
     1
301
MARGIN
  1
CELLMARGIN_BEGIN
 40
1.5
 40
1.5
 40
1.5
 40
1.5
 40
1.5
 40
1.5
309
CELLMARGIN_END
 94
        6
 95
        1
302
GRIDFORMAT
  1
GRIDFORMAT_BEGIN
 90
        0
 91
        1
 62
     0
 92
       -2
340
14
 93
        0
 40
0.045
309
GRIDFORMAT_END
 95
        2
302
GRIDFORMAT
  1
GRIDFORMAT_BEGIN
 90
        0
 91
        1
 62
     0
 92
       -2
340
14
 93
        0
 40
0.045
309
GRIDFORMAT_END
 95
        4
302
GRIDFORMAT
  1
GRIDFORMAT_BEGIN
 90
        0
 91
        1
 62
     0
 92
       -2
340
14
 93
        0
 40
0.045
309
GRIDFORMAT_END
 95
        8
302
GRIDFORMAT
  1
GRIDFORMAT_BEGIN
 90
        0
 91
        1
 62
     0
 92
       -2
340
14
 93
        0
 40
0.045
309
GRIDFORMAT_END
 95
       16
302
GRIDFORMAT
  1
GRIDFORMAT_BEGIN
 90
        0
 91
        1
 62
     0
 92
       -2
340
14
 93
        0
 40
0.045
309
GRIDFORMAT_END
 95
       32
302
GRIDFORMAT
  1
GRIDFORMAT_BEGIN
 90
        0
 91
        1
 62
     0
 92
       -2
340
14
 93
        0
 40
0.045
309
GRIDFORMAT_END
309
TABLEFORMAT_END
  1
CELLSTYLE_BEGIN
 90
        3
 91
        2
300
_DATA
309
CELLSTYLE_END
  0
ENDSEC
  0
EOF
