  0
SECTION
  2
HEADER
  9
$ACADVER
  1
AC1027
  9
$ACADMAINTVER
 70
   105
  9
$DWGCODEPAGE
  3
ANSI_1252
  9
$REQUIREDVERSIONS
160
                 0
  9
$LASTSAVEDBY
  1
andrea.zolin
  9
$INSBASE
 10
0.0
 20
0.0
 30
0.0
  9
$EXTMIN
 10
0.0
 20
0.0
 30
0.0
  9
$EXTMAX
 10
3200.0
 20
2500.0
 30
0.0
  9
$LIMMIN
 10
0.0
 20
0.0
  9
$LIMMAX
 10
3200.0
 20
2500.0
  9
$ORTHOMODE
 70
     0
  9
$REGENMODE
 70
     1
  9
$FILLMODE
 70
     1
  9
$QTEXTMODE
 70
     0
  9
$MIRRTEXT
 70
     1
  9
$LTSCALE
 40
176.0
  9
$ATTMODE
 70
     1
  9
$TEXTSIZE
 40
0.2
  9
$TRACEWID
 40
0.05
  9
$TEXTSTYLE
  7
STANDARD
  9
$CLAYER
  8
0
  9
$CELTYPE
  6
BYLAYER
  9
$CECOLOR
 62
   256
  9
$CELTSCALE
 40
1.0
  9
$DISPSILH
 70
     0
  9
$DIMSCALE
 40
1.0
  9
$DIMASZ
 40
2.5
  9
$DIMEXO
 40
0.75
  9
$DIMDLI
 40
121.6
  9
$DIMRND
 40
0.0
  9
$DIMDLE
 40
0.0
  9
$DIMEXE
 40
0.75
  9
$DIMTP
 40
0.01
  9
$DIMTM
 40
0.01
  9
$DIMTXT
 40
3.0
  9
$DIMCEN
 40
28.8
  9
$DIMTSZ
 40
0.0
  9
$DIMTOL
 70
     1
  9
$DIMLIM
 70
     0
  9
$DIMTIH
 70
     1
  9
$DIMTOH
 70
     1
  9
$DIMSE1
 70
     0
  9
$DIMSE2
 70
     0
  9
$DIMTAD
 70
     0
  9
$DIMZIN
 70
     0
  9
$DIMBLK
  1
CLOSED
  9
$DIMASO
 70
     1
  9
$DIMSHO
 70
     1
  9
$DIMPOST
  1

  9
$DIMAPOST
  1

  9
$DIMALT
 70
     0
  9
$DIMALTD
 70
     2
  9
$DIMALTF
 40
25.4
  9
$DIMLFAC
 40
1.0
  9
$DIMTOFL
 70
     0
  9
$DIMTVP
 40
0.0
  9
$DIMTIX
 70
     0
  9
$DIMSOXD
 70
     0
  9
$DIMSAH
 70
     0
  9
$DIMBLK1
  1

  9
$DIMBLK2
  1

  9
$DIMSTYLE
  2
STANDARD
  9
$DIMCLRD
 70
     0
  9
$DIMCLRE
 70
     0
  9
$DIMCLRT
 70
     0
  9
$DIMTFAC
 40
1.0
  9
$DIMGAP
 40
0.625
  9
$DIMJUST
 70
     0
  9
$DIMSD1
 70
     0
  9
$DIMSD2
 70
     0
  9
$DIMTOLJ
 70
     1
  9
$DIMTZIN
 70
     0
  9
$DIMALTZ
 70
     0
  9
$DIMALTTZ
 70
     0
  9
$DIMUPT
 70
     0
  9
$DIMDEC
 70
     4
  9
$DIMTDEC
 70
     4
  9
$DIMALTU
 70
     2
  9
$DIMALTTD
 70
     2
  9
$DIMTXSTY
  7
STANDARD
  9
$DIMAUNIT
 70
     0
  9
$DIMADEC
 70
     0
  9
$DIMALTRND
 40
0.0
  9
$DIMAZIN
 70
     0
  9
$DIMDSEP
 70
    46
  9
$DIMATFIT
 70
     3
  9
$DIMFRAC
 70
     0
  9
$DIMLDRBLK
  1

  9
$DIMLUNIT
 70
     2
  9
$DIMLWD
 70
    -2
  9
$DIMLWE
 70
    -2
  9
$DIMTMOVE
 70
     2
  9
$DIMFXL
 40
1.0
  9
$DIMFXLON
 70
     0
  9
$DIMJOGANG
 40
0.7853981633974483
  9
$DIMTFILL
 70
     0
  9
$DIMTFILLCLR
 70
     0
  9
$DIMARCSYM
 70
     0
  9
$DIMLTYPE
  6

  9
$DIMLTEX1
  6

  9
$DIMLTEX2
  6

  9
$DIMTXTDIRECTION
 70
     0
  9
$LUNITS
 70
     2
  9
$LUPREC
 70
     4
  9
$SKETCHINC
 40
0.1
  9
$FILLETRAD
 40
0.5
  9
$AUNITS
 70
     0
  9
$AUPREC
 70
     0
  9
$MENU
  1
.
  9
$ELEVATION
 40
0.0
  9
$PELEVATION
 40
0.0
  9
$THICKNESS
 40
0.0
  9
$LIMCHECK
 70
     0
  9
$CHAMFERA
 40
0.0
  9
$CHAMFERB
 40
0.0
  9
$CHAMFERC
 40
0.0
  9
$CHAMFERD
 40
0.0
  9
$SKPOLY
 70
     0
  9
$TDCREATE
 40
2447893.041666667
  9
$TDUCREATE
 40
0.0
  9
$TDUPDATE
 40
2458466.335264375
  9
$TDUUPDATE
 40
2458466.293597708
  9
$TDINDWG
 40
0.0002454861
  9
$TDUSRTIMER
 40
0.0002454861
  9
$USRTIMER
 70
     1
  9
$ANGBASE
 50
0.0
  9
$ANGDIR
 70
     0
  9
$PDMODE
 70
     3
  9
$PDSIZE
 40
0.3125
  9
$PLINEWID
 40
0.0
  9
$SPLFRAME
 70
     0
  9
$SPLINETYPE
 70
     6
  9
$SPLINESEGS
 70
     8
  9
$HANDSEED
  5
54E
  9
$SURFTAB1
 70
     6
  9
$SURFTAB2
 70
     6
  9
$SURFTYPE
 70
     6
  9
$SURFU
 70
     6
  9
$SURFV
 70
     6
  9
$UCSBASE
  2

  9
$UCSNAME
  2

  9
$UCSORG
 10
0.0
 20
0.0
 30
0.0
  9
$UCSXDIR
 10
1.0
 20
0.0
 30
0.0
  9
$UCSYDIR
 10
0.0
 20
1.0
 30
0.0
  9
$UCSORTHOREF
  2

  9
$UCSORTHOVIEW
 70
     0
  9
$UCSORGTOP
 10
0.0
 20
0.0
 30
0.0
  9
$UCSORGBOTTOM
 10
0.0
 20
0.0
 30
0.0
  9
$UCSORGLEFT
 10
0.0
 20
0.0
 30
0.0
  9
$UCSORGRIGHT
 10
0.0
 20
0.0
 30
0.0
  9
$UCSORGFRONT
 10
0.0
 20
0.0
 30
0.0
  9
$UCSORGBACK
 10
0.0
 20
0.0
 30
0.0
  9
$PUCSBASE
  2

  9
$PUCSNAME
  2

  9
$PUCSORG
 10
0.0
 20
0.0
 30
0.0
  9
$PUCSXDIR
 10
1.0
 20
0.0
 30
0.0
  9
$PUCSYDIR
 10
0.0
 20
1.0
 30
0.0
  9
$PUCSORTHOREF
  2

  9
$PUCSORTHOVIEW
 70
     0
  9
$PUCSORGTOP
 10
0.0
 20
0.0
 30
0.0
  9
$PUCSORGBOTTOM
 10
0.0
 20
0.0
 30
0.0
  9
$PUCSORGLEFT
 10
0.0
 20
0.0
 30
0.0
  9
$PUCSORGRIGHT
 10
0.0
 20
0.0
 30
0.0
  9
$PUCSORGFRONT
 10
0.0
 20
0.0
 30
0.0
  9
$PUCSORGBACK
 10
0.0
 20
0.0
 30
0.0
  9
$USERI1
 70
     0
  9
$USERI2
 70
     0
  9
$USERI3
 70
     0
  9
$USERI4
 70
     0
  9
$USERI5
 70
     0
  9
$USERR1
 40
0.0
  9
$USERR2
 40
0.0
  9
$USERR3
 40
0.0
  9
$USERR4
 40
0.0
  9
$USERR5
 40
0.0
  9
$WORLDVIEW
 70
     1
  9
$SHADEDGE
 70
     3
  9
$SHADEDIF
 70
    70
  9
$TILEMODE
 70
     0
  9
$MAXACTVP
 70
    64
  9
$PINSBASE
 10
0.0
 20
0.0
 30
0.0
  9
$PLIMCHECK
 70
     0
  9
$PEXTMIN
 10
0.0
 20
0.0
 30
0.0
  9
$PEXTMAX
 10
3206.9411580928
 20
2500.0
 30
0.0
  9
$PLIMMIN
 10
-72.95719844357977
 20
-194.5525291828794
  9
$PLIMMAX
 10
4012.645914396887
 20
2694.552529182879
  9
$UNITMODE
 70
     0
  9
$VISRETAIN
 70
     1
  9
$PLINEGEN
 70
     0
  9
$PSLTSCALE
 70
     1
  9
$TREEDEPTH
 70
  3020
  9
$CMLSTYLE
  2
STANDARD
  9
$CMLJUST
 70
     0
  9
$CMLSCALE
 40
1.0
  9
$PROXYGRAPHICS
 70
     1
  9
$MEASUREMENT
 70
     1
  9
$CELWEIGHT
370
    -1
  9
$ENDCAPS
280
     0
  9
$JOINSTYLE
280
     0
  9
$LWDISPLAY
290
     0
  9
$INSUNITS
 70
     0
  9
$HYPERLINKBASE
  1

  9
$STYLESHEET
  1

  9
$XEDIT
290
     1
  9
$CEPSNTYPE
380
     0
  9
$PSTYLEMODE
290
     1
  9
$FINGERPRINTGUID
  2
{D1B8BFFA-8810-40C2-B3D3-EFA3573076C0}
  9
$VERSIONGUID
  2
{FAEB1C32-E019-11D5-929B-00C0DF256EC4}
  9
$EXTNAMES
290
     1
  9
$PSVPSCALE
 40
0.0
  9
$OLESTARTUP
290
     0
  9
$SORTENTS
280
   127
  9
$INDEXCTL
280
     0
  9
$HIDETEXT
280
     1
  9
$XCLIPFRAME
280
     2
  9
$HALOGAP
280
     0
  9
$OBSCOLOR
 70
   257
  9
$OBSLTYPE
280
     0
  9
$INTERSECTIONDISPLAY
280
     0
  9
$INTERSECTIONCOLOR
 70
   257
  9
$DIMASSOC
280
     2
  9
$PROJECTNAME
  1

  9
$CAMERADISPLAY
290
     0
  9
$LENSLENGTH
 40
50.0
  9
$CAMERAHEIGHT
 40
0.0
  9
$STEPSPERSEC
 40
2.0
  9
$STEPSIZE
 40
6.0
  9
$3DDWFPREC
 40
2.0
  9
$PSOLWIDTH
 40
0.25
  9
$PSOLHEIGHT
 40
4.0
  9
$LOFTANG1
 40
1.570796326794897
  9
$LOFTANG2
 40
1.570796326794897
  9
$LOFTMAG1
 40
0.0
  9
$LOFTMAG2
 40
0.0
  9
$LOFTPARAM
 70
     7
  9
$LOFTNORMALS
280
     1
  9
$LATITUDE
 40
37.795
  9
$LONGITUDE
 40
-122.394
  9
$NORTHDIRECTION
 40
0.0
  9
$TIMEZONE
 70
 -8000
  9
$LIGHTGLYPHDISPLAY
280
     1
  9
$TILEMODELIGHTSYNCH
280
     1
  9
$SOLIDHIST
280
     0
  9
$SHOWHIST
280
     1
  9
$DWFFRAME
280
     2
  9
$DGNFRAME
280
     2
  9
$REALWORLDSCALE
290
     1
  9
$INTERFERECOLOR
 62
   256
  9
$CSHADOW
280
     0
  9
$SHADOWPLANELOCATION
 40
0.0
  0
ENDSEC
  0
SECTION
  2
CLASSES
  0
CLASS
  1
ACDBDICTIONARYWDFLT
  2
AcDbDictionaryWithDefault
  3
ObjectDBX Classes
 90
        0
 91
        4
280
     0
281
     0
  0
CLASS
  1
SCALE
  2
AcDbScale
  3
ObjectDBX Classes
 90
     1153
 91
        4
280
     0
281
     0
  0
CLASS
  1
VISUALSTYLE
  2
AcDbVisualStyle
  3
ObjectDBX Classes
 90
     4095
 91
        4
280
     0
281
     0
  0
CLASS
  1
MATERIAL
  2
AcDbMaterial
  3
ObjectDBX Classes
 90
     1153
 91
        4
280
     0
281
     0
  0
CLASS
  1
TABLESTYLE
  2
AcDbTableStyle
  3
ObjectDBX Classes
 90
     4095
 91
        4
280
     0
281
     0
  0
CLASS
  1
MLEADERSTYLE
  2
AcDbMLeaderStyle
  3
ACDB_MLEADERSTYLE_CLASS
 90
     4095
 91
        4
280
     0
281
     0
  0
CLASS
  1
DICTIONARYVAR
  2
AcDbDictionaryVar
  3
ObjectDBX Classes
 90
        0
 91
        4
280
     0
281
     0
  0
CLASS
  1
CELLSTYLEMAP
  2
AcDbCellStyleMap
  3
ObjectDBX Classes
 90
     1152
 91
        4
280
     0
281
     0
  0
ENDSEC
  0
SECTION
  2
TABLES
  0
TABLE
  2
VPORT
  5
8
330
0
100
AcDbSymbolTable
 70
     1
  0
VPORT
  5
1F4
330
8
100
AcDbSymbolTableRecord
100
AcDbViewportTableRecord
  2
*ACTIVE
 70
     0
 10
0.0
 20
0.0
 11
1.0
 21
1.0
 12
1600.0
 22
1250.0
 13
0.0
 23
0.0
 14
1.0
 24
1.0
 15
0.0
 25
0.0
 16
0.0
 26
0.0
 36
1.0
 17
0.0
 27
0.0
 37
0.0
 40
2500.0
 41
1.28
 42
50.0
 43
0.0
 44
0.0
 50
0.0
 51
0.0
 71
     0
 72
   100
 73
     1
 74
     1
 75
     0
 76
     0
 77
     0
 78
     0
281
     0
 65
     1
110
0.0
120
0.0
130
0.0
111
1.0
121
0.0
131
0.0
112
0.0
122
1.0
132
0.0
 79
     0
146
0.0
348
527
 60
     3
 61
     5
292
     1
282
     1
141
0.0
142
0.0
 63
   256
  0
ENDTAB
  0
TABLE
  2
LTYPE
  5
5
330
0
100
AcDbSymbolTable
 70
     6
  0
LTYPE
  5
14
330
5
100
AcDbSymbolTableRecord
100
AcDbLinetypeTableRecord
  2
BYBLOCK
 70
     0
  3

 72
    65
 73
     0
 40
0.0
  0
LTYPE
  5
15
330
5
100
AcDbSymbolTableRecord
100
AcDbLinetypeTableRecord
  2
BYLAYER
 70
     0
  3

 72
    65
 73
     0
 40
0.0
  0
LTYPE
  5
16
330
5
100
AcDbSymbolTableRecord
100
AcDbLinetypeTableRecord
  2
CONTINUOUS
 70
     0
  3
Solid line
 72
    65
 73
     0
 40
0.0
  0
LTYPE
  5
1F5
330
5
100
AcDbSymbolTableRecord
100
AcDbLinetypeTableRecord
  2
CENTER
 70
     0
  3
____ _ ____ _ ____ _ ____ _ ____ _ ____ _ ____
 72
    65
 73
     4
 40
0.6
 49
0.375
 74
     0
 49
-0.075
 74
     0
 49
0.075
 74
     0
 49
-0.075
 74
     0
  0
LTYPE
  5
1F6
330
5
100
AcDbSymbolTableRecord
100
AcDbLinetypeTableRecord
  2
HIDDEN
 70
     0
  3
- - - - - - - - - - - - - - - - - - - -
 72
    65
 73
     2
 40
0.2
 49
0.1
 74
     0
 49
-0.1
 74
     0
  0
LTYPE
  5
1F7
330
5
100
AcDbSymbolTableRecord
100
AcDbLinetypeTableRecord
  2
PHANTOM
 70
     0
  3
_____ _ _ _____ _ _ _____ _ _ _____
 72
    65
 73
     6
 40
0.8
 49
0.45
 74
     0
 49
-0.05
 74
     0
 49
0.1
 74
     0
 49
-0.05
 74
     0
 49
0.1
 74
     0
 49
-0.05
 74
     0
  0
LTYPE
  5
1F8
330
5
100
AcDbSymbolTableRecord
100
AcDbLinetypeTableRecord
  2
DOT
 70
     0
  3
. . . . . . . . . . . . . . . . . . . .
 72
    65
 73
     2
 40
0.2
 49
0.1
 74
     0
 49
-0.1
 74
     0
  0
LTYPE
  5
1F9
330
5
100
AcDbSymbolTableRecord
100
AcDbLinetypeTableRecord
  2
DASHED
 70
     0
  3
- - - - - - - - - - - - - - - - - - - -
 72
    65
 73
     2
 40
0.2
 49
0.1
 74
     0
 49
-0.1
 74
     0
  0
ENDTAB
  0
TABLE
  2
LAYER
  5
2
330
0
100
AcDbSymbolTable
 70
    19
  0
LAYER
  5
10
330
2
100
AcDbSymbolTableRecord
100
AcDbLayerTableRecord
  2
0
 70
     0
 62
     7
  6
CONTINUOUS
370
    -3
390
4FC
347
53E
348
0
  0
LAYER
  5
1FA
330
2
100
AcDbSymbolTableRecord
100
AcDbLayerTableRecord
  2
DEFAULT_1
 70
     0
 62
     7
  6
CENTER
370
    -3
390
4FC
347
53E
348
0
  0
LAYER
  5
1FB
330
2
100
AcDbSymbolTableRecord
100
AcDbLayerTableRecord
  2
DEFAULT_2
 70
     0
 62
     8
  6
HIDDEN
370
    -3
390
4FC
347
53E
348
0
  0
LAYER
  5
1FC
330
2
100
AcDbSymbolTableRecord
100
AcDbLayerTableRecord
  2
DEFAULT_3
 70
     0
 62
     7
  6
PHANTOM
370
    -3
390
4FC
347
53E
348
0
  0
LAYER
  5
1FD
330
2
100
AcDbSymbolTableRecord
100
AcDbLayerTableRecord
  2
01___PRT_ALL_DTM_PLN
 70
     0
 62
     7
  6
CONTINUOUS
370
    -3
390
4FC
347
53E
348
0
  0
LAYER
  5
1FE
330
2
100
AcDbSymbolTableRecord
100
AcDbLayerTableRecord
  2
01___PRT_DEF_DTM_PLN
 70
     0
 62
     7
  6
CONTINUOUS
370
    -3
390
4FC
347
53E
348
0
  0
LAYER
  5
1FF
330
2
100
AcDbSymbolTableRecord
100
AcDbLayerTableRecord
  2
02___PRT_ALL_AXES
 70
     0
 62
     7
  6
CONTINUOUS
370
    -3
390
4FC
347
53E
348
0
  0
LAYER
  5
200
330
2
100
AcDbSymbolTableRecord
100
AcDbLayerTableRecord
  2
03___PRT_ALL_CURVES
 70
     0
 62
     7
  6
CONTINUOUS
370
    -3
390
4FC
347
53E
348
0
  0
LAYER
  5
201
330
2
100
AcDbSymbolTableRecord
100
AcDbLayerTableRecord
  2
04___PRT_ALL_DTM_PNT
 70
     0
 62
     7
  6
CONTINUOUS
370
    -3
390
4FC
347
53E
348
0
  0
LAYER
  5
202
330
2
100
AcDbSymbolTableRecord
100
AcDbLayerTableRecord
  2
05___PRT_ALL_DTM_CSYS
 70
     0
 62
     7
  6
CONTINUOUS
370
    -3
390
4FC
347
53E
348
0
  0
LAYER
  5
203
330
2
100
AcDbSymbolTableRecord
100
AcDbLayerTableRecord
  2
05___PRT_DEF_DTM_CSYS
 70
     0
 62
     7
  6
CONTINUOUS
370
    -3
390
4FC
347
53E
348
0
  0
LAYER
  5
204
330
2
100
AcDbSymbolTableRecord
100
AcDbLayerTableRecord
  2
06___PRT_ALL_SURFS
 70
     0
 62
     7
  6
CONTINUOUS
370
    -3
390
4FC
347
53E
348
0
  0
LAYER
  5
205
330
2
100
AcDbSymbolTableRecord
100
AcDbLayerTableRecord
  2
1_ALL_PLANES
 70
     0
 62
     7
  6
CONTINUOUS
370
    -3
390
4FC
347
53E
348
0
  0
LAYER
  5
206
330
2
100
AcDbSymbolTableRecord
100
AcDbLayerTableRecord
  2
2_ALL_CSYS
 70
     0
 62
     7
  6
CONTINUOUS
370
    -3
390
4FC
347
53E
348
0
  0
LAYER
  5
207
330
2
100
AcDbSymbolTableRecord
100
AcDbLayerTableRecord
  2
3_ALL_AXES
 70
     0
 62
     7
  6
CONTINUOUS
370
    -3
390
4FC
347
53E
348
0
  0
LAYER
  5
208
330
2
100
AcDbSymbolTableRecord
100
AcDbLayerTableRecord
  2
5_ALL_CURVES
 70
     0
 62
     7
  6
CONTINUOUS
370
    -3
390
4FC
347
53E
348
0
  0
LAYER
  5
209
330
2
100
AcDbSymbolTableRecord
100
AcDbLayerTableRecord
  2
7_ALL_FEATURES
 70
     0
 62
     7
  6
CONTINUOUS
370
    -3
390
4FC
347
53E
348
0
  0
LAYER
  5
20A
330
2
100
AcDbSymbolTableRecord
100
AcDbLayerTableRecord
  2
8_ALL_NOTES_BALLOONS_SYMBOLS_GT
 70
     0
 62
     7
  6
CONTINUOUS
370
    -3
390
4FC
347
53E
348
0
  0
LAYER
  5
20B
330
2
100
AcDbSymbolTableRecord
100
AcDbLayerTableRecord
  2
9_SOLID
 70
     0
 62
     7
  6
CONTINUOUS
370
    -3
390
4FC
347
53E
348
0
  0
ENDTAB
  0
TABLE
  2
STYLE
  5
3
330
0
100
AcDbSymbolTable
 70
     3
  0
STYLE
  5
11
330
3
100
AcDbSymbolTableRecord
100
AcDbTextStyleTableRecord
  2
STANDARD
 70
     0
 40
0.0
 41
0.85
 50
0.0
 71
     0
 42
0.2
  3
txt
  4

  0
STYLE
  5
20C
330
3
100
AcDbSymbolTableRecord
100
AcDbTextStyleTableRecord
  2
TEXTSTYLE_1
 70
     0
 40
0.0
 41
0.8
 50
0.0
 71
     0
 42
0.2
  3
gdt
  4

  0
STYLE
  5
20D
330
3
100
AcDbSymbolTableRecord
100
AcDbTextStyleTableRecord
  2
TEXTSTYLE_2
 70
     0
 40
0.0
 41
2.0
 50
0.0
 71
     0
 42
0.2
  3
txt
  4

  0
ENDTAB
  0
TABLE
  2
VIEW
  5
6
330
0
100
AcDbSymbolTable
 70
     0
  0
ENDTAB
  0
TABLE
  2
UCS
  5
7
330
0
100
AcDbSymbolTable
 70
     0
  0
ENDTAB
  0
TABLE
  2
APPID
  5
9
330
0
100
AcDbSymbolTable
 70
     1
  0
APPID
  5
20E
330
9
100
AcDbSymbolTableRecord
100
AcDbRegAppTableRecord
  2
ACAD
 70
     0
  0
ENDTAB
  0
TABLE
  2
DIMSTYLE
  5
A
330
0
100
AcDbSymbolTable
 70
     4
100
AcDbDimStyleTable
  0
DIMSTYLE
105
215
330
A
100
AcDbSymbolTableRecord
100
AcDbDimStyleTableRecord
  2
STANDARD
 70
     0
 41
2.5
 42
0.75
 44
0.75
 47
0.01
 48
0.01
 71
     1
 73
     0
 74
     0
 77
     1
 78
     8
 79
     2
140
3.0
147
0.625
171
     1
178
     0
179
     2
271
     2
272
     2
284
     8
340
11
341
20F
342
20F
343
20F
344
20F
  0
DIMSTYLE
105
216
330
A
100
AcDbSymbolTableRecord
100
AcDbDimStyleTableRecord
  2
DIMSTYLE_1
 70
     0
 41
2.5
 42
0.75
 44
0.75
 47
0.2
 48
0.2
 73
     0
 74
     0
 77
     1
 78
     8
 79
     2
140
3.0
147
0.75
171
     1
178
     0
271
     0
272
     0
284
     8
340
11
341
20F
342
20F
343
20F
344
20F
  0
DIMSTYLE
105
217
330
A
100
AcDbSymbolTableRecord
100
AcDbDimStyleTableRecord
  2
DIMSTYLE_2
 70
     0
 41
2.5
 42
0.75
 44
0.75
 47
0.3
 48
0.3
 73
     0
 74
     0
 77
     1
 78
     8
 79
     2
140
3.0
147
0.75
171
     1
178
     0
271
     0
272
     0
284
     8
340
11
341
20F
342
20F
343
20F
344
20F
  0
DIMSTYLE
105
218
330
A
100
AcDbSymbolTableRecord
100
AcDbDimStyleTableRecord
  2
DIMSTYLE_3
 70
     0
 41
2.5
 42
0.75
 44
0.75
 47
1.2
 48
1.2
 73
     0
 74
     0
 77
     1
 78
     8
 79
     2
140
3.0
147
0.75
171
     1
178
     0
271
     0
272
    -1
284
     8
340
11
341
20F
342
20F
343
20F
344
20F
  0
ENDTAB
  0
TABLE
  2
BLOCK_RECORD
  5
1
330
0
100
AcDbSymbolTable
 70
     6
  0
BLOCK_RECORD
  5
1F
330
1
100
AcDbSymbolTableRecord
100
AcDbBlockTableRecord
  2
*MODEL_SPACE
340
520
 70
     0
280
     1
281
     0
  0
BLOCK_RECORD
  5
1B
330
1
100
AcDbSymbolTableRecord
100
AcDbBlockTableRecord
  2
*PAPER_SPACE
340
521
 70
     0
280
     1
281
     0
  0
BLOCK_RECORD
  5
20F
330
1
100
AcDbSymbolTableRecord
100
AcDbBlockTableRecord
  2
_CLOSED
340
0
102
{BLKREFS
331
26B
331
26C
331
274
331
275
331
27D
331
27E
102
}
 70
     0
280
     1
281
     0
  0
BLOCK_RECORD
  5
210
330
1
100
AcDbSymbolTableRecord
100
AcDbBlockTableRecord
  2
*D1
340
0
 70
     0
280
     1
281
     0
  0
BLOCK_RECORD
  5
211
330
1
100
AcDbSymbolTableRecord
100
AcDbBlockTableRecord
  2
*D2
340
0
 70
     0
280
     1
281
     0
  0
BLOCK_RECORD
  5
212
330
1
100
AcDbSymbolTableRecord
100
AcDbBlockTableRecord
  2
*D3
340
0
 70
     0
280
     1
281
     0
  0
BLOCK_RECORD
  5
213
330
1
100
AcDbSymbolTableRecord
100
AcDbBlockTableRecord
  2
LOGO2_BL1
340
0
102
{BLKREFS
331
4E4
102
}
 70
     0
280
     1
281
     0
  0
BLOCK_RECORD
  5
214
330
1
100
AcDbSymbolTableRecord
100
AcDbBlockTableRecord
  2
PROIEZIONE_EU_BL0
340
0
102
{BLKREFS
331
4E1
102
}
 70
     0
280
     1
281
     0
  0
ENDTAB
  0
ENDSEC
  0
SECTION
  2
BLOCKS
  0
BLOCK
  5
20
330
1F
100
AcDbEntity
  8
0
100
AcDbBlockBegin
  2
*MODEL_SPACE
 70
     0
 10
0.0
 20
0.0
 30
0.0
  3
*MODEL_SPACE
  1

  0
ENDBLK
  5
21
330
1F
100
AcDbEntity
  8
0
100
AcDbBlockEnd
  0
BLOCK
  5
1C
330
1B
100
AcDbEntity
 67
     1
  8
0
100
AcDbBlockBegin
  2
*PAPER_SPACE
 70
     0
 10
0.0
 20
0.0
 30
0.0
  3
*PAPER_SPACE
  1

  0
ENDBLK
  5
1D
330
1B
100
AcDbEntity
 67
     1
  8
0
100
AcDbBlockEnd
  0
BLOCK
  5
25F
330
20F
100
AcDbEntity
  8
0
100
AcDbBlockBegin
  2
_CLOSED
 70
     0
 10
0.0
 20
0.0
 30
0.0
  3
_CLOSED
  1

  0
LINE
  5
260
330
20F
100
AcDbEntity
  8
0
  6
ByBlock
 62
     0
100
AcDbLine
 10
0.0
 20
0.0
 30
0.0
 11
-1.0
 21
0.2
 31
0.0
  0
LINE
  5
261
330
20F
100
AcDbEntity
  8
0
  6
ByBlock
 62
     0
100
AcDbLine
 10
-1.0
 20
0.2
 30
0.0
 11
-1.0
 21
-0.2
 31
0.0
  0
LINE
  5
262
330
20F
100
AcDbEntity
  8
0
  6
ByBlock
 62
     0
100
AcDbLine
 10
-1.0
 20
-0.2
 30
0.0
 11
0.0
 21
0.0
 31
0.0
  0
LINE
  5
263
330
20F
100
AcDbEntity
  8
0
  6
ByBlock
 62
     0
100
AcDbLine
 10
-1.0
 20
0.0
 30
0.0
 11
0.0
 21
0.0
 31
0.0
  0
ENDBLK
  5
264
330
20F
100
AcDbEntity
  8
0
  6
ByBlock
 62
     0
100
AcDbBlockEnd
  0
BLOCK
  5
265
330
210
100
AcDbEntity
  8
0
100
AcDbBlockBegin
  2
*D1
 70
     1
 10
0.0
 20
0.0
 30
0.0
  3
*D1
  1

  0
MTEXT
  5
266
330
210
100
AcDbEntity
  8
0
  6
Continuous
 62
     2
100
AcDbMText
 10
2219.8853022545
 20
470.3712906873
 30
0.0
 40
3.0
 41
6.1071428571
 46
0.0
 71
     2
 72
     1
  1
17
 11
0.0
 21
1.0
 31
0.0
 73
     1
 44
1.0
  0
LINE
  5
267
330
210
100
AcDbEntity
  8
0
  6
Continuous
 62
     2
100
AcDbLine
 10
2183.2672578869
 20
478.8352412206
 30
0.0
 11
2224.3853022545
 21
478.8352412206
 31
0.0
  0
LINE
  5
268
330
210
100
AcDbEntity
  8
0
  6
Continuous
 62
     2
100
AcDbLine
 10
2158.7672578869
 20
461.907340154
 30
0.0
 11
2224.3853022545
 21
461.907340154
 31
0.0
  0
LINE
  5
269
330
210
100
AcDbEntity
  8
0
  6
Continuous
 62
     2
100
AcDbLine
 10
2223.6353022545
 20
478.8352412206
 30
0.0
 11
2223.6353022545
 21
470.3712906873
 31
0.0
  0
LINE
  5
26A
330
210
100
AcDbEntity
  8
0
  6
Continuous
 62
     2
100
AcDbLine
 10
2223.6353022545
 20
461.907340154
 30
0.0
 11
2223.6353022545
 21
470.3712906873
 31
0.0
  0
INSERT
  5
26B
330
210
100
AcDbEntity
  8
0
  6
Continuous
 62
     2
100
AcDbBlockReference
  2
_CLOSED
 10
2223.6353022545
 20
478.8352412206
 30
0.0
 41
2.5
 42
2.5
 43
2.5
 50
90.0
  0
INSERT
  5
26C
330
210
100
AcDbEntity
  8
0
  6
Continuous
 62
     2
100
AcDbBlockReference
  2
_CLOSED
 10
2223.6353022545
 20
461.907340154
 30
0.0
 41
2.5
 42
2.5
 43
2.5
 50
270.0
  0
ENDBLK
  5
26D
330
210
100
AcDbEntity
  8
0
  6
ByBlock
 62
     0
100
AcDbBlockEnd
  0
BLOCK
  5
26E
330
211
100
AcDbEntity
  8
0
100
AcDbBlockBegin
  2
*D2
 70
     1
 10
0.0
 20
0.0
 30
0.0
  3
*D2
  1

  0
MTEXT
  5
26F
330
211
100
AcDbEntity
  8
0
  6
Continuous
 62
     2
100
AcDbMText
 10
2243.9628744059
 20
639.1951255631
 30
0.0
 40
3.0
 41
6.75
 46
0.0
 71
     2
 72
     1
  1
73
 11
0.0
 21
1.0
 31
0.0
 73
     1
 44
1.0
  0
LINE
  5
270
330
211
100
AcDbEntity
  8
0
  6
Continuous
 62
     2
100
AcDbLine
 10
2178.2672578869
 20
675.6911180285
 30
0.0
 11
2248.4628744059
 21
675.6911180285
 31
0.0
  0
LINE
  5
271
330
211
100
AcDbEntity
  8
0
  6
Continuous
 62
     2
100
AcDbLine
 10
2161.7672578869
 20
602.6991330977
 30
0.0
 11
2248.4628744059
 21
602.6991330977
 31
0.0
  0
LINE
  5
272
330
211
100
AcDbEntity
  8
0
  6
Continuous
 62
     2
100
AcDbLine
 10
2247.7128744059
 20
675.6911180285
 30
0.0
 11
2247.7128744059
 21
639.1951255631
 31
0.0
  0
LINE
  5
273
330
211
100
AcDbEntity
  8
0
  6
Continuous
 62
     2
100
AcDbLine
 10
2247.7128744059
 20
602.6991330977
 30
0.0
 11
2247.7128744059
 21
639.1951255631
 31
0.0
  0
INSERT
  5
274
330
211
100
AcDbEntity
  8
0
  6
Continuous
 62
     2
100
AcDbBlockReference
  2
_CLOSED
 10
2247.7128744059
 20
675.6911180285
 30
0.0
 41
2.5
 42
2.5
 43
2.5
 50
90.0
  0
INSERT
  5
275
330
211
100
AcDbEntity
  8
0
  6
Continuous
 62
     2
100
AcDbBlockReference
  2
_CLOSED
 10
2247.7128744059
 20
602.6991330977
 30
0.0
 41
2.5
 42
2.5
 43
2.5
 50
270.0
  0
ENDBLK
  5
276
330
211
100
AcDbEntity
  8
0
  6
ByBlock
 62
     0
100
AcDbBlockEnd
  0
BLOCK
  5
277
330
212
100
AcDbEntity
  8
0
100
AcDbBlockBegin
  2
*D3
 70
     1
 10
0.0
 20
0.0
 30
0.0
  3
*D3
  1

  0
MTEXT
  5
278
330
212
100
AcDbEntity
  8
0
  6
Continuous
 62
     2
100
AcDbMText
 10
1426.0172578869
 20
732.3014423528
 30
0.0
 40
3.0
 41
11.5714285714
 46
0.0
 71
     2
 72
     1
  1
1513
 73
     1
 44
1.0
  0
LINE
  5
279
330
212
100
AcDbEntity
  8
0
  6
Continuous
 62
     2
100
AcDbLine
 10
2182.5172578869
 20
671.60948797
 30
0.0
 11
2182.5172578869
 21
729.3014423528
 31
0.0
  0
LINE
  5
27A
330
212
100
AcDbEntity
  8
0
  6
Continuous
 62
     2
100
AcDbLine
 10
669.5172578869
 20
671.60948797
 30
0.0
 11
669.5172578869
 21
729.3014423528
 31
0.0
  0
LINE
  5
27B
330
212
100
AcDbEntity
  8
0
  6
Continuous
 62
     2
100
AcDbLine
 10
2182.5172578869
 20
728.5514423528
 30
0.0
 11
1426.0172578869
 21
728.5514423528
 31
0.0
  0
LINE
  5
27C
330
212
100
AcDbEntity
  8
0
  6
Continuous
 62
     2
100
AcDbLine
 10
669.5172578869
 20
728.5514423528
 30
0.0
 11
1426.0172578869
 21
728.5514423528
 31
0.0
  0
INSERT
  5
27D
330
212
100
AcDbEntity
  8
0
  6
Continuous
 62
     2
100
AcDbBlockReference
  2
_CLOSED
 10
2182.5172578869
 20
728.5514423528
 30
0.0
 41
2.5
 42
2.5
 43
2.5
  0
INSERT
  5
27E
330
212
100
AcDbEntity
  8
0
  6
Continuous
 62
     2
100
AcDbBlockReference
  2
_CLOSED
 10
669.5172578869
 20
728.5514423528
 30
0.0
 41
2.5
 42
2.5
 43
2.5
 50
180.0
  0
ENDBLK
  5
27F
330
212
100
AcDbEntity
  8
0
  6
ByBlock
 62
     0
100
AcDbBlockEnd
  0
BLOCK
  5
219
330
213
100
AcDbEntity
  8
0
100
AcDbBlockBegin
  2
LOGO2_BL1
 70
     0
 10
3081.7422051375
 20
33.6062612284
 30
0.0
  3
LOGO2_BL1
  1

  0
LINE
  5
21A
330
213
100
AcDbEntity
  8
0
  6
Continuous
 62
     7
100
AcDbLine
 10
3073.4851303657
 20
36.8017525673
 30
0.0
 11
3072.1807894364
 21
36.8017525673
 31
0.0
  0
LINE
  5
21B
330
213
100
AcDbEntity
  8
0
  6
Continuous
 62
     7
100
AcDbLine
 10
3072.1807894364
 20
36.8017525673
 30
0.0
 11
3072.1807894364
 21
26.3426865074
 31
0.0
  0
LINE
  5
21C
330
213
100
AcDbEntity
  8
0
  6
Continuous
 62
     7
100
AcDbLine
 10
3072.1807894364
 20
26.3426865074
 30
0.0
 11
3076.6618443247
 21
26.3426865074
 31
0.0
  0
LINE
  5
21D
330
213
100
AcDbEntity
  8
0
  6
Continuous
 62
     7
100
AcDbLine
 10
3076.6618443247
 20
26.3426865074
 30
0.0
 11
3076.6618443247
 21
27.5355408324
 31
0.0
  0
LINE
  5
21E
330
213
100
AcDbEntity
  8
0
  6
Continuous
 62
     7
100
AcDbLine
 10
3076.6618443247
 20
27.5355408324
 30
0.0
 11
3073.4851303657
 21
27.5355408324
 31
0.0
  0
LINE
  5
21F
330
213
100
AcDbEntity
  8
0
  6
Continuous
 62
     7
100
AcDbLine
 10
3073.4851303657
 20
27.5355408324
 30
0.0
 11
3073.4851303657
 21
36.8017525673
 31
0.0
  0
LINE
  5
220
330
213
100
AcDbEntity
  8
0
  6
Continuous
 62
     7
100
AcDbLine
 10
3088.4214565821
 20
36.8017525673
 30
0.0
 11
3087.117639064
 21
36.8017525673
 31
0.0
  0
LINE
  5
221
330
213
100
AcDbEntity
  8
0
  6
Continuous
 62
     7
100
AcDbLine
 10
3087.117639064
 20
36.8017525673
 30
0.0
 11
3087.117639064
 21
26.3426865074
 31
0.0
  0
LINE
  5
222
330
213
100
AcDbEntity
  8
0
  6
Continuous
 62
     7
100
AcDbLine
 10
3087.117639064
 20
26.3426865074
 30
0.0
 11
3091.5988248051
 21
26.3426865074
 31
0.0
  0
LINE
  5
223
330
213
100
AcDbEntity
  8
0
  6
Continuous
 62
     7
100
AcDbLine
 10
3091.5988248051
 20
26.3426865074
 30
0.0
 11
3091.5988248051
 21
27.5355408324
 31
0.0
  0
LINE
  5
224
330
213
100
AcDbEntity
  8
0
  6
Continuous
 62
     7
100
AcDbLine
 10
3091.5988248051
 20
27.5355408324
 30
0.0
 11
3088.4214565821
 21
27.5355408324
 31
0.0
  0
LINE
  5
225
330
213
100
AcDbEntity
  8
0
  6
Continuous
 62
     7
100
AcDbLine
 10
3088.4214565821
 20
27.5355408324
 30
0.0
 11
3088.4214565821
 21
36.8017525673
 31
0.0
  0
LWPOLYLINE
  5
226
330
213
100
AcDbEntity
  8
0
  6
Continuous
 62
     7
100
AcDbPolyline
 90
        2
 70
     0
 43
0.2
 10
3070.5351843473
 20
22.9991352005
 10
3070.5351843473
 20
21.1420719511
  0
LWPOLYLINE
  5
227
330
213
100
AcDbEntity
  8
0
  6
Continuous
 62
     7
100
AcDbPolyline
 90
        2
 70
     0
 43
0.2
 10
3070.5351843473
 20
21.1420719511
 10
3071.3309003577
 20
21.1420719511
  0
LWPOLYLINE
  5
228
330
213
100
AcDbEntity
  8
0
  6
Continuous
 62
     7
100
AcDbPolyline
 90
        2
 70
     0
 43
0.2
 10
3071.3309003577
 20
21.1420719511
 10
3071.3309003577
 20
21.3540535227
  0
LWPOLYLINE
  5
229
330
213
100
AcDbEntity
  8
0
  6
Continuous
 62
     7
100
AcDbPolyline
 90
        2
 70
     0
 43
0.2
 10
3071.3309003577
 20
21.3540535227
 10
3070.7667938422
 20
21.3540535227
  0
LWPOLYLINE
  5
22A
330
213
100
AcDbEntity
  8
0
  6
Continuous
 62
     7
100
AcDbPolyline
 90
        2
 70
     0
 43
0.2
 10
3070.7667938422
 20
21.3540535227
 10
3070.7667938422
 20
22.9991352005
  0
LWPOLYLINE
  5
22B
330
213
100
AcDbEntity
  8
0
  6
Continuous
 62
     7
100
AcDbPolyline
 90
        2
 70
     0
 43
0.2
 10
3070.7667938422
 20
22.9991352005
 10
3070.5351843473
 20
22.9991352005
  0
SPLINE
  5
22C
330
213
100
AcDbEntity
  8
0
  6
Continuous
 62
     7
100
AcDbSpline
 70
     3
 71
     3
 72
    35
 73
    31
 74
     0
 42
0.000000001
 43
0.0000001
 40
0.0
 40
0.0
 40
0.0
 40
0.0
 40
1.0
 40
1.0
 40
1.0
 40
2.0
 40
2.0
 40
2.0
 40
3.0
 40
3.0
 40
3.0
 40
4.0
 40
4.0
 40
4.0
 40
5.0
 40
5.0
 40
5.0
 40
6.0
 40
6.0
 40
6.0
 40
7.0
 40
7.0
 40
7.0
 40
8.0
 40
8.0
 40
8.0
 40
9.0
 40
9.0
 40
9.0
 40
10.0
 40
10.0
 40
10.0
 40
10.0
 10
3072.7291936132
 20
22.294623607
 30
0.0
 10
3072.7291936132
 20
22.294623607
 30
0.0
 10
3072.7291936132
 20
21.6325083278
 30
0.0
 10
3072.7291936132
 20
21.6325083278
 30
0.0
 10
3072.7291936132
 20
21.3174147326
 30
0.0
 10
3072.8770573021
 20
21.1028161045
 30
0.0
 10
3073.2171437864
 20
21.1028161045
 30
0.0
 10
3073.5567068594
 20
21.1028161045
 30
0.0
 10
3073.7048322538
 20
21.3174147326
 30
0.0
 10
3073.7048322538
 20
21.6325083278
 30
0.0
 10
3073.7048322538
 20
21.6325083278
 30
0.0
 10
3073.7048322538
 20
22.294623607
 30
0.0
 10
3073.7048322538
 20
22.294623607
 30
0.0
 10
3073.7048322538
 20
22.294623607
 30
0.0
 10
3073.482775015
 20
22.294623607
 30
0.0
 10
3073.482775015
 20
22.294623607
 30
0.0
 10
3073.482775015
 20
22.294623607
 30
0.0
 10
3073.482775015
 20
21.6576320697
 30
0.0
 10
3073.482775015
 20
21.6576320697
 30
0.0
 10
3073.482775015
 20
21.4718210625
 30
0.0
 10
3073.4360605575
 20
21.3090401519
 30
0.0
 10
3073.2171437864
 20
21.3090401519
 30
0.0
 10
3072.9977036039
 20
21.3090401519
 30
0.0
 10
3072.9509891465
 20
21.4718210625
 30
0.0
 10
3072.9509891465
 20
21.6576320697
 30
0.0
 10
3072.9509891465
 20
21.6576320697
 30
0.0
 10
3072.9509891465
 20
22.294623607
 30
0.0
 10
3072.9509891465
 20
22.294623607
 30
0.0
 10
3072.9509891465
 20
22.294623607
 30
0.0
 10
3072.7291936132
 20
22.294623607
 30
0.0
 10
3072.7291936132
 20
22.294623607
 30
0.0
  0
SPLINE
  5
22D
330
213
100
AcDbEntity
  8
0
  6
Continuous
 62
     7
100
AcDbSpline
 70
     3
 71
     3
 72
    35
 73
    31
 74
     0
 42
0.000000001
 43
0.0000001
 40
0.0
 40
0.0
 40
0.0
 40
0.0
 40
1.0
 40
1.0
 40
1.0
 40
2.0
 40
2.0
 40
2.0
 40
3.0
 40
3.0
 40
3.0
 40
4.0
 40
4.0
 40
4.0
 40
5.0
 40
5.0
 40
5.0
 40
6.0
 40
6.0
 40
6.0
 40
7.0
 40
7.0
 40
7.0
 40
8.0
 40
8.0
 40
8.0
 40
9.0
 40
9.0
 40
9.0
 40
10.0
 40
10.0
 40
10.0
 40
10.0
 10
3076.127964811
 20
22.2532741153
 30
0.0
 10
3076.0395083034
 20
22.3045684215
 30
0.0
 10
3075.9260589067
 20
22.3296921633
 30
0.0
 10
3075.8224234717
 20
22.3296921633
 30
0.0
 10
3075.4675506186
 20
22.3296921633
 30
0.0
 10
3075.1921054283
 20
22.0658928742
 30
0.0
 10
3075.1921054283
 20
21.7084029646
 30
0.0
 10
3075.1921054283
 20
21.3634749259
 30
0.0
 10
3075.4705602335
 20
21.1033395158
 30
0.0
 10
3075.8101233065
 20
21.1033395158
 30
0.0
 10
3075.9260589067
 20
21.1033395158
 30
0.0
 10
3076.0268155796
 20
21.1253227899
 30
0.0
 10
3076.127964811
 20
21.1792341526
 30
0.0
 10
3076.127964811
 20
21.1792341526
 30
0.0
 10
3076.127964811
 20
21.461876248
 30
0.0
 10
3076.127964811
 20
21.461876248
 30
0.0
 10
3076.0440881521
 20
21.3687090388
 30
0.0
 10
3075.94058357
 20
21.3095635632
 30
0.0
 10
3075.8124786573
 20
21.3095635632
 30
0.0
 10
3075.5787755172
 20
21.3095635632
 30
0.0
 10
3075.4135084031
 20
21.4817658769
 30
0.0
 10
3075.4135084031
 20
21.7183477791
 30
0.0
 10
3075.4135084031
 20
21.9303293506
 30
0.0
 10
3075.5812617208
 20
22.1224212933
 30
0.0
 10
3075.7980848468
 20
22.1224212933
 30
0.0
 10
3075.9309004611
 20
22.1224212933
 30
0.0
 10
3076.0395083034
 20
22.0685099306
 30
0.0
 10
3076.127964811
 20
21.9674915521
 30
0.0
 10
3076.127964811
 20
21.9674915521
 30
0.0
 10
3076.127964811
 20
22.2532741153
 30
0.0
 10
3076.127964811
 20
22.2532741153
 30
0.0
  0
SPLINE
  5
22E
330
213
100
AcDbEntity
  8
0
  6
Continuous
 62
     7
100
AcDbSpline
 70
     3
 71
     3
 72
    32
 73
    28
 74
     0
 42
0.000000001
 43
0.0000001
 40
0.0
 40
0.0
 40
0.0
 40
0.0
 40
1.0
 40
1.0
 40
1.0
 40
2.0
 40
2.0
 40
2.0
 40
3.0
 40
3.0
 40
3.0
 40
4.0
 40
4.0
 40
4.0
 40
5.0
 40
5.0
 40
5.0
 40
6.0
 40
6.0
 40
6.0
 40
7.0
 40
7.0
 40
7.0
 40
8.0
 40
8.0
 40
8.0
 40
9.0
 40
9.0
 40
9.0
 40
9.0
 10
3078.6598360633
 20
21.6817089889
 30
0.0
 10
3078.6598360633
 20
21.6817089889
 30
0.0
 10
3078.6598360633
 20
21.7157307226
 30
0.0
 10
3078.6598360633
 20
21.7157307226
 30
0.0
 10
3078.6598360633
 20
22.0580417049
 30
0.0
 10
3078.4869794855
 20
22.3296921633
 30
0.0
 10
3078.1203298783
 20
22.3296921633
 30
0.0
 10
3077.7487078639
 20
22.3296921633
 30
0.0
 10
3077.5589712721
 20
22.0632758178
 30
0.0
 10
3077.5589712721
 20
21.7084029646
 30
0.0
 10
3077.5589712721
 20
21.3687090388
 30
0.0
 10
3077.7730464888
 20
21.1028161045
 30
0.0
 10
3078.1251714327
 20
21.1028161045
 30
0.0
 10
3078.3491914639
 20
21.1028161045
 30
0.0
 10
3078.5513590739
 20
21.2184899991
 30
0.0
 10
3078.6598360633
 20
21.4179096998
 30
0.0
 10
3078.6598360633
 20
21.4179096998
 30
0.0
 10
3078.4721931166
 20
21.5246856025
 30
0.0
 10
3078.4721931166
 20
21.5246856025
 30
0.0
 10
3078.3887090162
 20
21.3859816113
 30
0.0
 10
3078.2975045992
 20
21.3001421601
 30
0.0
 10
3078.127919342
 20
21.3001421601
 30
0.0
 10
3077.9159377704
 20
21.3001421601
 30
0.0
 10
3077.7829913033
 20
21.4849063447
 30
0.0
 10
3077.7806359525
 20
21.6817089889
 30
0.0
 10
3077.7806359525
 20
21.6817089889
 30
0.0
 10
3078.6598360633
 20
21.6817089889
 30
0.0
 10
3078.6598360633
 20
21.6817089889
 30
0.0
  0
SPLINE
  5
22F
330
213
100
AcDbEntity
  8
0
  6
Continuous
 62
     7
100
AcDbSpline
 70
     3
 71
     3
 72
    14
 73
    10
 74
     0
 42
0.000000001
 43
0.0000001
 40
0.0
 40
0.0
 40
0.0
 40
0.0
 40
1.0
 40
1.0
 40
1.0
 40
2.0
 40
2.0
 40
2.0
 40
3.0
 40
3.0
 40
3.0
 40
3.0
 10
3077.7926744121
 20
21.849200601
 30
0.0
 10
3077.8202843575
 20
22.0140751567
 30
0.0
 10
3077.9481275646
 20
22.1370768094
 30
0.0
 10
3078.1203298783
 20
22.1370768094
 30
0.0
 10
3078.2975045992
 20
22.1370768094
 30
0.0
 10
3078.4109539959
 20
22.0214029147
 30
0.0
 10
3078.4381713829
 20
21.849200601
 30
0.0
 10
3078.4381713829
 20
21.849200601
 30
0.0
 10
3077.7926744121
 20
21.849200601
 30
0.0
 10
3077.7926744121
 20
21.849200601
 30
0.0
  0
SPLINE
  5
230
330
213
100
AcDbEntity
  8
0
  6
Continuous
 62
     7
100
AcDbSpline
 70
     3
 71
     3
 72
    20
 73
    16
 74
     0
 42
0.000000001
 43
0.0000001
 40
0.0
 40
0.0
 40
0.0
 40
0.0
 40
1.0
 40
1.0
 40
1.0
 40
2.0
 40
2.0
 40
2.0
 40
3.0
 40
3.0
 40
3.0
 40
4.0
 40
4.0
 40
4.0
 40
5.0
 40
5.0
 40
5.0
 40
5.0
 10
3080.6838675135
 20
22.0585651162
 30
0.0
 10
3080.6838675135
 20
22.0585651162
 30
0.0
 10
3081.0950070801
 20
21.5560902798
 30
0.0
 10
3081.0950070801
 20
21.5560902798
 30
0.0
 10
3080.978940627
 20
21.4404163852
 30
0.0
 10
3080.8411526055
 20
21.3100869745
 30
0.0
 10
3080.6692119974
 20
21.3100869745
 30
0.0
 10
3080.4917755708
 20
21.3100869745
 30
0.0
 10
3080.3242839587
 20
21.4744381189
 30
0.0
 10
3080.3242839587
 20
21.6513511342
 30
0.0
 10
3080.3242839587
 20
21.8293109721
 30
0.0
 10
3080.5340410323
 20
21.9554530925
 30
0.0
 10
3080.6616225337
 20
22.0433861888
 30
0.0
 10
3080.6616225337
 20
22.0433861888
 30
0.0
 10
3080.6838675135
 20
22.0585651162
 30
0.0
 10
3080.6838675135
 20
22.0585651162
 30
0.0
  0
SPLINE
  5
231
330
213
100
AcDbEntity
  8
0
  6
Continuous
 62
     7
100
AcDbSpline
 70
     3
 71
     3
 72
    23
 73
    19
 74
     0
 42
0.000000001
 43
0.0000001
 40
0.0
 40
0.0
 40
0.0
 40
0.0
 40
1.0
 40
1.0
 40
1.0
 40
2.0
 40
2.0
 40
2.0
 40
3.0
 40
3.0
 40
3.0
 40
4.0
 40
4.0
 40
4.0
 40
5.0
 40
5.0
 40
5.0
 40
6.0
 40
6.0
 40
6.0
 40
6.0
 10
3080.7331990274
 20
22.3495817922
 30
0.0
 10
3080.7331990274
 20
22.3495817922
 30
0.0
 10
3080.6715673482
 20
22.4280934854
 30
0.0
 10
3080.6715673482
 20
22.4280934854
 30
0.0
 10
3080.6176559856
 20
22.4966603641
 30
0.0
 10
3080.5608658608
 20
22.5657506541
 30
0.0
 10
3080.5608658608
 20
22.6594412746
 30
0.0
 10
3080.5608658608
 20
22.778255637
 30
0.0
 10
3080.6567809793
 20
22.8557205076
 30
0.0
 10
3080.7677441724
 20
22.8557205076
 30
0.0
 10
3080.8910075306
 20
22.8557205076
 30
0.0
 10
3080.9843055927
 20
22.7845365725
 30
0.0
 10
3080.9843055927
 20
22.6542071618
 30
0.0
 10
3080.9843055927
 20
22.5191670495
 30
0.0
 10
3080.85620068
 20
22.4427490015
 30
0.0
 10
3080.7626409123
 20
22.3689480099
 30
0.0
 10
3080.7626409123
 20
22.3689480099
 30
0.0
 10
3080.7331990274
 20
22.3495817922
 30
0.0
 10
3080.7331990274
 20
22.3495817922
 30
0.0
  0
SPLINE
  5
232
330
213
100
AcDbEntity
  8
0
  6
Continuous
 62
     7
100
AcDbSpline
 70
     3
 71
     3
 72
    50
 73
    46
 74
     0
 42
0.000000001
 43
0.0000001
 40
0.0
 40
0.0
 40
0.0
 40
0.0
 40
1.0
 40
1.0
 40
1.0
 40
2.0
 40
2.0
 40
2.0
 40
3.0
 40
3.0
 40
3.0
 40
4.0
 40
4.0
 40
4.0
 40
5.0
 40
5.0
 40
5.0
 40
6.0
 40
6.0
 40
6.0
 40
7.0
 40
7.0
 40
7.0
 40
8.0
 40
8.0
 40
8.0
 40
9.0
 40
9.0
 40
9.0
 40
10.0
 40
10.0
 40
10.0
 40
11.0
 40
11.0
 40
11.0
 40
12.0
 40
12.0
 40
12.0
 40
13.0
 40
13.0
 40
13.0
 40
14.0
 40
14.0
 40
14.0
 40
15.0
 40
15.0
 40
15.0
 40
15.0
 10
3081.43535527
 20
21.1425953624
 30
0.0
 10
3081.43535527
 20
21.1425953624
 30
0.0
 10
3081.7207452747
 20
21.1425953624
 30
0.0
 10
3081.7207452747
 20
21.1425953624
 30
0.0
 10
3081.7207452747
 20
21.1425953624
 30
0.0
 10
3081.3883791069
 20
21.5534732234
 30
0.0
 10
3081.3883791069
 20
21.5534732234
 30
0.0
 10
3081.3883791069
 20
21.5534732234
 30
0.0
 10
3081.6148853418
 20
21.8193661576
 30
0.0
 10
3081.6148853418
 20
21.8193661576
 30
0.0
 10
3081.6148853418
 20
21.8193661576
 30
0.0
 10
3081.4666290945
 20
21.9722022537
 30
0.0
 10
3081.4666290945
 20
21.9722022537
 30
0.0
 10
3081.4666290945
 20
21.9722022537
 30
0.0
 10
3081.2507219382
 20
21.7209648355
 30
0.0
 10
3081.2507219382
 20
21.7209648355
 30
0.0
 10
3081.2507219382
 20
21.7209648355
 30
0.0
 10
3080.8636592909
 20
22.1888945269
 30
0.0
 10
3080.8636592909
 20
22.1888945269
 30
0.0
 10
3081.0191124434
 20
22.3029981876
 30
0.0
 10
3081.2013904244
 20
22.4427490015
 30
0.0
 10
3081.2013904244
 20
22.6521135166
 30
0.0
 10
3081.2013904244
 20
22.8960231768
 30
0.0
 10
3080.9993536672
 20
23.0394378696
 30
0.0
 10
3080.7728474324
 20
23.0394378696
 30
0.0
 10
3080.5286760666
 20
23.0394378696
 30
0.0
 10
3080.3443044405
 20
22.8886954187
 30
0.0
 10
3080.3443044405
 20
22.6322238877
 30
0.0
 10
3080.3443044405
 20
22.47467709
 30
0.0
 10
3080.4429674682
 20
22.3370199213
 30
0.0
 10
3080.5483039899
 20
22.2260567283
 30
0.0
 10
3080.5483039899
 20
22.2260567283
 30
0.0
 10
3080.4327609481
 20
22.1423109222
 30
0.0
 10
3080.4327609481
 20
22.1423109222
 30
0.0
 10
3080.2550628159
 20
22.0140751567
 30
0.0
 10
3080.1077225383
 20
21.8863628025
 30
0.0
 10
3080.1077225383
 20
21.6492574891
 30
0.0
 10
3080.1077225383
 20
21.3289297809
 30
0.0
 10
3080.3662877146
 20
21.1028161045
 30
0.0
 10
3080.6766706083
 20
21.1028161045
 30
0.0
 10
3080.8955873794
 20
21.1028161045
 30
0.0
 10
3081.0927825821
 20
21.2279114023
 30
0.0
 10
3081.2330568073
 20
21.3938327806
 30
0.0
 10
3081.2330568073
 20
21.3938327806
 30
0.0
 10
3081.43535527
 20
21.1425953624
 30
0.0
 10
3081.43535527
 20
21.1425953624
 30
0.0
  0
LWPOLYLINE
  5
233
330
213
100
AcDbEntity
  8
0
  6
Continuous
 62
     7
100
AcDbPolyline
 90
        2
 70
     0
 43
0.2
 10
3083.3707993598
 20
22.9991352005
 10
3083.1394515705
 20
22.9991352005
  0
LWPOLYLINE
  5
234
330
213
100
AcDbEntity
  8
0
  6
Continuous
 62
     7
100
AcDbPolyline
 90
        2
 70
     0
 43
0.2
 10
3083.1394515705
 20
22.9991352005
 10
3083.1394515705
 20
21.1420719511
  0
LWPOLYLINE
  5
235
330
213
100
AcDbEntity
  8
0
  6
Continuous
 62
     7
100
AcDbPolyline
 90
        2
 70
     0
 43
0.2
 10
3083.1394515705
 20
21.1420719511
 10
3083.9347750224
 20
21.1420719511
  0
LWPOLYLINE
  5
236
330
213
100
AcDbEntity
  8
0
  6
Continuous
 62
     7
100
AcDbPolyline
 90
        2
 70
     0
 43
0.2
 10
3083.9347750224
 20
21.1420719511
 10
3083.9347750224
 20
21.3540535227
  0
LWPOLYLINE
  5
237
330
213
100
AcDbEntity
  8
0
  6
Continuous
 62
     7
100
AcDbPolyline
 90
        2
 70
     0
 43
0.2
 10
3083.9347750224
 20
21.3540535227
 10
3083.3707993598
 20
21.3540535227
  0
LWPOLYLINE
  5
238
330
213
100
AcDbEntity
  8
0
  6
Continuous
 62
     7
100
AcDbPolyline
 90
        2
 70
     0
 43
0.2
 10
3083.3707993598
 20
21.3540535227
 10
3083.3707993598
 20
22.9991352005
  0
LWPOLYLINE
  5
239
330
213
100
AcDbEntity
  8
0
  6
Continuous
 62
     7
100
AcDbPolyline
 90
        2
 70
     0
 43
0.2
 10
3085.6138784339
 20
22.294623607
 10
3085.3927371648
 20
22.294623607
  0
LWPOLYLINE
  5
23A
330
213
100
AcDbEntity
  8
0
  6
Continuous
 62
     7
100
AcDbPolyline
 90
        2
 70
     0
 43
0.2
 10
3085.3927371648
 20
22.294623607
 10
3085.3927371648
 20
21.1425953624
  0
LWPOLYLINE
  5
23B
330
213
100
AcDbEntity
  8
0
  6
Continuous
 62
     7
100
AcDbPolyline
 90
        2
 70
     0
 43
0.2
 10
3085.3927371648
 20
21.1425953624
 10
3085.6138784339
 20
21.1425953624
  0
LWPOLYLINE
  5
23C
330
213
100
AcDbEntity
  8
0
  6
Continuous
 62
     7
100
AcDbPolyline
 90
        2
 70
     0
 43
0.2
 10
3085.6138784339
 20
21.1425953624
 10
3085.6138784339
 20
22.294623607
  0
LWPOLYLINE
  5
23D
330
213
100
AcDbEntity
  8
0
  6
Continuous
 62
     7
100
AcDbPolyline
 90
        2
 70
     1
 43
0.2
 10
3085.3508551567
 20
22.824577536
 42
1.0
 10
3085.6560221476
 20
22.824577536
 42
1.0
  0
SPLINE
  5
23E
330
213
100
AcDbEntity
  8
0
  6
Continuous
 62
     7
100
AcDbSpline
 70
     3
 71
     3
 72
    17
 73
    13
 74
     0
 42
0.000000001
 43
0.0000001
 40
0.0
 40
0.0
 40
0.0
 40
0.0
 40
1.0
 40
1.0
 40
1.0
 40
2.0
 40
2.0
 40
2.0
 40
3.0
 40
3.0
 40
3.0
 40
4.0
 40
4.0
 40
4.0
 40
4.0
 10
3087.7441623756
 20
21.3001421601
 30
0.0
 10
3087.5101975299
 20
21.3001421601
 30
0.0
 10
3087.3798681192
 20
21.5021789172
 30
0.0
 10
3087.3798681192
 20
21.7183477791
 30
0.0
 10
3087.3798681192
 20
21.9329464071
 30
0.0
 10
3087.5156933484
 20
22.1318426965
 30
0.0
 10
3087.7441623756
 20
22.1318426965
 30
0.0
 10
3087.9836230398
 20
22.1318426965
 30
0.0
 10
3088.1191865633
 20
21.9428912216
 30
0.0
 10
3088.1191865633
 20
21.7183477791
 30
0.0
 10
3088.1191865633
 20
21.4922341027
 30
0.0
 10
3087.9859783905
 20
21.3001421601
 30
0.0
 10
3087.7441623756
 20
21.3001421601
 30
0.0
  0
SPLINE
  5
23F
330
213
100
AcDbEntity
  8
0
  6
Continuous
 62
     7
100
AcDbSpline
 70
     3
 71
     3
 72
    50
 73
    46
 74
     0
 42
0.000000001
 43
0.0000001
 40
0.0
 40
0.0
 40
0.0
 40
0.0
 40
1.0
 40
1.0
 40
1.0
 40
2.0
 40
2.0
 40
2.0
 40
3.0
 40
3.0
 40
3.0
 40
4.0
 40
4.0
 40
4.0
 40
5.0
 40
5.0
 40
5.0
 40
6.0
 40
6.0
 40
6.0
 40
7.0
 40
7.0
 40
7.0
 40
8.0
 40
8.0
 40
8.0
 40
9.0
 40
9.0
 40
9.0
 40
10.0
 40
10.0
 40
10.0
 40
11.0
 40
11.0
 40
11.0
 40
12.0
 40
12.0
 40
12.0
 40
13.0
 40
13.0
 40
13.0
 40
14.0
 40
14.0
 40
14.0
 40
15.0
 40
15.0
 40
15.0
 40
15.0
 10
3088.3282893728
 20
22.2951470183
 30
0.0
 10
3088.3282893728
 20
22.2951470183
 30
0.0
 10
3088.1066246924
 20
22.2951470183
 30
0.0
 10
3088.1066246924
 20
22.2951470183
 30
0.0
 10
3088.1066246924
 20
22.2951470183
 30
0.0
 10
3088.1066246924
 20
22.0978209628
 30
0.0
 10
3088.1066246924
 20
22.0978209628
 30
0.0
 10
3088.1066246924
 20
22.0978209628
 30
0.0
 10
3088.1019139908
 20
22.0978209628
 30
0.0
 10
3088.1019139908
 20
22.0978209628
 30
0.0
 10
3088.0105787211
 20
22.2407122444
 30
0.0
 10
3087.8726598467
 20
22.329168752
 30
0.0
 10
3087.6999341217
 20
22.329168752
 30
0.0
 10
3087.3675679539
 20
22.329168752
 30
0.0
 10
3087.1584651444
 20
22.0412925437
 30
0.0
 10
3087.1584651444
 20
21.7256755371
 30
0.0
 10
3087.1584651444
 20
21.3959264257
 30
0.0
 10
3087.3555294943
 20
21.1028161045
 30
0.0
 10
3087.7104023475
 20
21.1028161045
 30
0.0
 10
3087.8726598467
 20
21.1028161045
 30
0.0
 10
3088.0126723662
 20
21.1912726122
 30
0.0
 10
3088.1019139908
 20
21.3221254341
 30
0.0
 10
3088.1019139908
 20
21.3221254341
 30
0.0
 10
3088.1066246924
 20
21.3221254341
 30
0.0
 10
3088.1066246924
 20
21.3221254341
 30
0.0
 10
3088.1066246924
 20
21.3221254341
 30
0.0
 10
3088.1066246924
 20
21.1028161045
 30
0.0
 10
3088.1066246924
 20
21.1028161045
 30
0.0
 10
3088.1066246924
 20
20.8662342024
 30
0.0
 10
3088.0500962733
 20
20.6793763726
 30
0.0
 10
3087.776875581
 20
20.6793763726
 30
0.0
 10
3087.5745771183
 20
20.6793763726
 30
0.0
 10
3087.4319475423
 20
20.7976673237
 30
0.0
 10
3087.4319475423
 20
21.0038913711
 30
0.0
 10
3087.4319475423
 20
21.0038913711
 30
0.0
 10
3087.2102828619
 20
21.0038913711
 30
0.0
 10
3087.2102828619
 20
21.0038913711
 30
0.0
 10
3087.2152552692
 20
20.6793763726
 30
0.0
 10
3087.4463413528
 20
20.4825737284
 30
0.0
 10
3087.7666690609
 20
20.4825737284
 30
0.0
 10
3088.2147091233
 20
20.4825737284
 30
0.0
 10
3088.3282893728
 20
20.7678328803
 30
0.0
 10
3088.3282893728
 20
21.1645786365
 30
0.0
 10
3088.3282893728
 20
21.1645786365
 30
0.0
 10
3088.3282893728
 20
22.2951470183
 30
0.0
 10
3088.3282893728
 20
22.2951470183
 30
0.0
  0
SPLINE
  5
240
330
213
100
AcDbEntity
  8
0
  6
Continuous
 62
     7
100
AcDbSpline
 70
     3
 71
     3
 72
    44
 73
    40
 74
     0
 42
0.000000001
 43
0.0000001
 40
0.0
 40
0.0
 40
0.0
 40
0.0
 40
1.0
 40
1.0
 40
1.0
 40
2.0
 40
2.0
 40
2.0
 40
3.0
 40
3.0
 40
3.0
 40
4.0
 40
4.0
 40
4.0
 40
5.0
 40
5.0
 40
5.0
 40
6.0
 40
6.0
 40
6.0
 40
7.0
 40
7.0
 40
7.0
 40
8.0
 40
8.0
 40
8.0
 40
9.0
 40
9.0
 40
9.0
 40
10.0
 40
10.0
 40
10.0
 40
11.0
 40
11.0
 40
11.0
 40
12.0
 40
12.0
 40
12.0
 40
13.0
 40
13.0
 40
13.0
 40
13.0
 10
3089.8972147082
 20
23.2802070621
 30
0.0
 10
3089.8972147082
 20
23.2802070621
 30
0.0
 10
3089.8972147082
 20
21.1420719511
 30
0.0
 10
3089.8972147082
 20
21.1420719511
 30
0.0
 10
3089.8972147082
 20
21.1420719511
 30
0.0
 10
3090.118617683
 20
21.1420719511
 30
0.0
 10
3090.118617683
 20
21.1420719511
 30
0.0
 10
3090.118617683
 20
21.1420719511
 30
0.0
 10
3090.118617683
 20
21.6717641744
 30
0.0
 10
3090.118617683
 20
21.6717641744
 30
0.0
 10
3090.118617683
 20
21.8816521009
 30
0.0
 10
3090.118617683
 20
22.1323661078
 30
0.0
 10
3090.4038768349
 20
22.1323661078
 30
0.0
 10
3090.6307756282
 20
22.1323661078
 30
0.0
 10
3090.6577313095
 20
21.9994196406
 30
0.0
 10
3090.6577313095
 20
21.8031404077
 30
0.0
 10
3090.6577313095
 20
21.8031404077
 30
0.0
 10
3090.6577313095
 20
21.1420719511
 30
0.0
 10
3090.6577313095
 20
21.1420719511
 30
0.0
 10
3090.6577313095
 20
21.1420719511
 30
0.0
 10
3090.8796576955
 20
21.1420719511
 30
0.0
 10
3090.8796576955
 20
21.1420719511
 30
0.0
 10
3090.8796576955
 20
21.1420719511
 30
0.0
 10
3090.8796576955
 20
21.8293109721
 30
0.0
 10
3090.8796576955
 20
21.8293109721
 30
0.0
 10
3090.8796576955
 20
22.1098594224
 30
0.0
 10
3090.7956501838
 20
22.3296921633
 30
0.0
 10
3090.4706117741
 20
22.3296921633
 30
0.0
 10
3090.3308609602
 20
22.3296921633
 30
0.0
 10
3090.1926803802
 20
22.2632189297
 30
0.0
 10
3090.1233283846
 20
22.1402172771
 30
0.0
 10
3090.1233283846
 20
22.1402172771
 30
0.0
 10
3090.118617683
 20
22.1402172771
 30
0.0
 10
3090.118617683
 20
22.1402172771
 30
0.0
 10
3090.118617683
 20
22.1402172771
 30
0.0
 10
3090.118617683
 20
23.2802070621
 30
0.0
 10
3090.118617683
 20
23.2802070621
 30
0.0
 10
3090.118617683
 20
23.2802070621
 30
0.0
 10
3089.8972147082
 20
23.2802070621
 30
0.0
 10
3089.8972147082
 20
23.2802070621
 30
0.0
  0
LWPOLYLINE
  5
241
330
213
100
AcDbEntity
  8
0
  6
Continuous
 62
     7
100
AcDbPolyline
 90
        2
 70
     0
 43
0.2
 10
3092.7194483724
 20
22.0878761483
 10
3092.9358789399
 20
22.0878761483
  0
LWPOLYLINE
  5
242
330
213
100
AcDbEntity
  8
0
  6
Continuous
 62
     7
100
AcDbPolyline
 90
        2
 70
     0
 43
0.2
 10
3092.9358789399
 20
22.0878761483
 10
3092.9358789399
 20
22.294623607
  0
LWPOLYLINE
  5
243
330
213
100
AcDbEntity
  8
0
  6
Continuous
 62
     7
100
AcDbPolyline
 90
        2
 70
     0
 43
0.2
 10
3092.9358789399
 20
22.294623607
 10
3092.7194483724
 20
22.294623607
  0
LWPOLYLINE
  5
244
330
213
100
AcDbEntity
  8
0
  6
Continuous
 62
     7
100
AcDbPolyline
 90
        2
 70
     0
 43
0.2
 10
3092.7194483724
 20
22.294623607
 10
3092.7194483724
 20
22.7353359114
  0
LWPOLYLINE
  5
245
330
213
100
AcDbEntity
  8
0
  6
Continuous
 62
     7
100
AcDbPolyline
 90
        2
 70
     0
 43
0.2
 10
3092.7194483724
 20
22.7353359114
 10
3092.497783692
 20
22.7353359114
  0
LWPOLYLINE
  5
246
330
213
100
AcDbEntity
  8
0
  6
Continuous
 62
     7
100
AcDbPolyline
 90
        2
 70
     0
 43
0.2
 10
3092.497783692
 20
22.7353359114
 10
3092.497783692
 20
22.294623607
  0
LWPOLYLINE
  5
247
330
213
100
AcDbEntity
  8
0
  6
Continuous
 62
     7
100
AcDbPolyline
 90
        2
 70
     0
 43
0.2
 10
3092.497783692
 20
22.294623607
 10
3092.3771373901
 20
22.294623607
  0
LWPOLYLINE
  5
248
330
213
100
AcDbEntity
  8
0
  6
Continuous
 62
     7
100
AcDbPolyline
 90
        2
 70
     0
 43
0.2
 10
3092.3771373901
 20
22.294623607
 10
3092.3771373901
 20
22.0878761483
  0
LWPOLYLINE
  5
249
330
213
100
AcDbEntity
  8
0
  6
Continuous
 62
     7
100
AcDbPolyline
 90
        2
 70
     0
 43
0.2
 10
3092.3771373901
 20
22.0878761483
 10
3092.497783692
 20
22.0878761483
  0
LWPOLYLINE
  5
24A
330
213
100
AcDbEntity
  8
0
  6
Continuous
 62
     7
100
AcDbPolyline
 90
        2
 70
     0
 43
0.2
 10
3092.497783692
 20
22.0878761483
 10
3092.497783692
 20
21.1420719511
  0
LWPOLYLINE
  5
24B
330
213
100
AcDbEntity
  8
0
  6
Continuous
 62
     7
100
AcDbPolyline
 90
        2
 70
     0
 43
0.2
 10
3092.497783692
 20
21.1420719511
 10
3092.7194483724
 20
21.1420719511
  0
LWPOLYLINE
  5
24C
330
213
100
AcDbEntity
  8
0
  6
Continuous
 62
     7
100
AcDbPolyline
 90
        2
 70
     0
 43
0.2
 10
3092.7194483724
 20
21.1420719511
 10
3092.7194483724
 20
22.0878761483
  0
SPLINE
  5
24D
330
213
100
AcDbEntity
  8
0
  6
Continuous
 62
     7
100
AcDbSpline
 70
     3
 71
     3
 72
    20
 73
    16
 74
     0
 42
0.000000001
 43
0.0000001
 40
0.0
 40
0.0
 40
0.0
 40
0.0
 40
1.0
 40
1.0
 40
1.0
 40
2.0
 40
2.0
 40
2.0
 40
3.0
 40
3.0
 40
3.0
 40
4.0
 40
4.0
 40
4.0
 40
5.0
 40
5.0
 40
5.0
 40
5.0
 10
3080.5014586796
 20
31.5029983945
 30
0.0
 10
3080.5014586796
 20
31.5029983945
 30
0.0
 10
3082.8178153341
 20
28.6734369723
 30
0.0
 10
3082.8178153341
 20
28.6734369723
 30
0.0
 10
3082.1661682807
 20
28.0212665076
 30
0.0
 10
3081.3892950767
 20
27.2853502368
 30
0.0
 10
3080.4181054321
 20
27.2853502368
 30
0.0
 10
3079.4195675476
 20
27.2853502368
 30
0.0
 10
3078.4762495541
 20
28.2149286841
 30
0.0
 10
3078.4762495541
 20
29.2141208326
 30
0.0
 10
3078.4762495541
 20
30.2133129812
 30
0.0
 10
3079.6551026272
 20
30.9199182198
 30
0.0
 10
3080.3766250875
 20
31.4197759997
 30
0.0
 10
3080.3766250875
 20
31.4197759997
 30
0.0
 10
3080.5014586796
 20
31.5029983945
 30
0.0
 10
3080.5014586796
 20
31.5029983945
 30
0.0
  0
SPLINE
  5
24E
330
213
100
AcDbEntity
  8
0
  6
Continuous
 62
     7
100
AcDbSpline
 70
     3
 71
     3
 72
    23
 73
    19
 74
     0
 42
0.000000001
 43
0.0000001
 40
0.0
 40
0.0
 40
0.0
 40
0.0
 40
1.0
 40
1.0
 40
1.0
 40
2.0
 40
2.0
 40
2.0
 40
3.0
 40
3.0
 40
3.0
 40
4.0
 40
4.0
 40
4.0
 40
5.0
 40
5.0
 40
5.0
 40
6.0
 40
6.0
 40
6.0
 40
6.0
 10
3080.7788666622
 20
33.1407523142
 30
0.0
 10
3080.7788666622
 20
33.1407523142
 30
0.0
 10
3080.4323683896
 20
33.5840816751
 30
0.0
 10
3080.4323683896
 20
33.5840816751
 30
0.0
 10
3080.1265653447
 20
33.972191145
 30
0.0
 10
3079.8076770176
 20
34.3606931735
 30
0.0
 10
3079.8076770176
 20
34.8876374875
 30
0.0
 10
3079.8076770176
 20
35.5538092042
 30
0.0
 10
3080.3490151421
 20
35.9975311234
 30
0.0
 10
3080.9729213972
 20
35.9975311234
 30
0.0
 10
3081.6667030593
 20
35.9975311234
 30
0.0
 10
3082.193909079
 20
35.5952895487
 30
0.0
 10
3082.193909079
 20
34.8602892477
 30
0.0
 10
3082.193909079
 20
34.0970247372
 30
0.0
 10
3081.4726483243
 20
33.6669115114
 30
0.0
 10
3080.9455731574
 20
33.251192096
 30
0.0
 10
3080.9455731574
 20
33.251192096
 30
0.0
 10
3080.7788666622
 20
33.1407523142
 30
0.0
 10
3080.7788666622
 20
33.1407523142
 30
0.0
  0
SPLINE
  5
24F
330
213
100
AcDbEntity
  8
0
  6
Continuous
 62
     7
100
AcDbSpline
 70
     3
 71
     3
 72
    50
 73
    46
 74
     0
 42
0.000000001
 43
0.0000001
 40
0.0
 40
0.0
 40
0.0
 40
0.0
 40
1.0
 40
1.0
 40
1.0
 40
2.0
 40
2.0
 40
2.0
 40
3.0
 40
3.0
 40
3.0
 40
4.0
 40
4.0
 40
4.0
 40
5.0
 40
5.0
 40
5.0
 40
6.0
 40
6.0
 40
6.0
 40
7.0
 40
7.0
 40
7.0
 40
8.0
 40
8.0
 40
8.0
 40
9.0
 40
9.0
 40
9.0
 40
10.0
 40
10.0
 40
10.0
 40
11.0
 40
11.0
 40
11.0
 40
12.0
 40
12.0
 40
12.0
 40
13.0
 40
13.0
 40
13.0
 40
14.0
 40
14.0
 40
14.0
 40
15.0
 40
15.0
 40
15.0
 40
15.0
 10
3084.7324538251
 20
26.3421630961
 30
0.0
 10
3084.7324538251
 20
26.3421630961
 30
0.0
 10
3086.3416818297
 20
26.3421630961
 30
0.0
 10
3086.3416818297
 20
26.3421630961
 30
0.0
 10
3086.3416818297
 20
26.3421630961
 30
0.0
 10
3084.4686545361
 20
28.6593048675
 30
0.0
 10
3084.4686545361
 20
28.6593048675
 30
0.0
 10
3084.4686545361
 20
28.6593048675
 30
0.0
 10
3085.7449929615
 20
30.1567845621
 30
0.0
 10
3085.7449929615
 20
30.1567845621
 30
0.0
 10
3085.7449929615
 20
30.1567845621
 30
0.0
 10
3084.9127690138
 20
31.0177961306
 30
0.0
 10
3084.9127690138
 20
31.0177961306
 30
0.0
 10
3084.9127690138
 20
31.0177961306
 30
0.0
 10
3083.6921738905
 20
29.6024920082
 30
0.0
 10
3083.6921738905
 20
29.6024920082
 30
0.0
 10
3083.6921738905
 20
29.6024920082
 30
0.0
 10
3081.5142595217
 20
32.2378678427
 30
0.0
 10
3081.5142595217
 20
32.2378678427
 30
0.0
 10
3082.3878329611
 20
32.8759062026
 30
0.0
 10
3083.4145042023
 20
33.6669115114
 30
0.0
 10
3083.4145042023
 20
34.8457645845
 30
0.0
 10
3083.4145042023
 20
36.2194575095
 30
0.0
 10
3082.2766080625
 20
37.023940659
 30
0.0
 10
3081.0013164596
 20
37.023940659
 30
0.0
 10
3079.6278852402
 20
37.023940659
 30
0.0
 10
3078.5869510414
 20
36.1777154593
 30
0.0
 10
3078.5869510414
 20
34.7350630971
 30
0.0
 10
3078.5869510414
 20
33.8474884057
 30
0.0
 10
3079.1422904179
 20
33.0706152017
 30
0.0
 10
3079.7384558748
 20
32.4461855352
 30
0.0
 10
3079.7384558748
 20
32.4461855352
 30
0.0
 10
3079.0865471157
 20
31.9745919649
 30
0.0
 10
3079.0865471157
 20
31.9745919649
 30
0.0
 10
3078.0880092313
 20
31.2533312102
 30
0.0
 10
3077.2551310195
 20
30.5320704555
 30
0.0
 10
3077.2551310195
 20
29.2005121392
 30
0.0
 10
3077.2551310195
 20
27.3968368412
 30
0.0
 10
3078.7121771921
 20
26.12023671
 30
0.0
 10
3080.4597166294
 20
26.12023671
 30
0.0
 10
3081.6945747103
 20
26.12023671
 30
0.0
 10
3082.803944935
 20
26.8284121825
 30
0.0
 10
3083.594819391
 20
27.7569438072
 30
0.0
 10
3083.594819391
 20
27.7569438072
 30
0.0
 10
3084.7324538251
 20
26.3421630961
 30
0.0
 10
3084.7324538251
 20
26.3421630961
 30
0.0
  0
LINE
  5
250
330
213
100
AcDbEntity
  8
0
  6
Continuous
 62
     7
100
AcDbLine
 10
3070.5353152001
 20
24.3160380008
 30
0.0
 11
3092.9492259278
 21
24.3160380008
 31
0.0
  0
LINE
  5
251
330
213
100
AcDbEntity
  8
0
  6
Continuous
 62
     7
100
AcDbLine
 10
3092.9492259278
 20
24.3160380008
 30
0.0
 11
3092.9492259278
 21
46.7299487284
 31
0.0
  0
LINE
  5
252
330
213
100
AcDbEntity
  8
0
  6
Continuous
 62
     7
100
AcDbLine
 10
3092.9492259278
 20
46.7299487284
 30
0.0
 11
3070.5353152001
 21
46.7299487284
 31
0.0
  0
LINE
  5
253
330
213
100
AcDbEntity
  8
0
  6
Continuous
 62
     7
100
AcDbLine
 10
3070.5353152001
 20
46.7299487284
 30
0.0
 11
3070.5353152001
 21
24.3160380008
 31
0.0
  0
ENDBLK
  5
254
330
213
100
AcDbEntity
  8
0
  6
ByBlock
 62
     0
100
AcDbBlockEnd
  0
BLOCK
  5
255
330
214
100
AcDbEntity
  8
0
100
AcDbBlockBegin
  2
PROIEZIONE_EU_BL0
 70
     0
 10
3082.9161580928
 20
59.2312612284
 30
0.0
  3
PROIEZIONE_EU_BL0
  1

  0
LWPOLYLINE
  5
256
330
214
100
AcDbEntity
  8
DEFAULT_1
  6
CENTER
 62
     7
100
AcDbPolyline
 90
        2
 70
     0
 43
0.25
 10
3089.0427787544
 20
64.2309553603
 10
3089.0428197368
 20
54.2315670965
  0
LWPOLYLINE
  5
257
330
214
100
AcDbEntity
  8
DEFAULT_1
  6
CENTER
 62
     7
100
AcDbPolyline
 90
        2
 70
     0
 43
0.25
 10
3095.0428085795
 20
59.2315323635
 10
3070.789507606
 20
59.2312617031
  0
LWPOLYLINE
  5
258
330
214
100
AcDbEntity
  8
0
  6
Continuous
 62
     7
100
AcDbPolyline
 90
        2
 70
     1
 43
0.25
 10
3085.4956685786
 20
59.2127134742
 42
1.0
 10
3092.6019976773
 20
59.2127134742
 42
1.0
  0
LWPOLYLINE
  5
259
330
214
100
AcDbEntity
  8
0
  6
Continuous
 62
     7
100
AcDbPolyline
 90
        2
 70
     1
 43
0.25
 10
3087.045412407
 20
59.2306115188
 42
1.0
 10
3091.0571641571
 20
59.2306115188
 42
1.0
  0
LWPOLYLINE
  5
25A
330
214
100
AcDbEntity
  8
0
  6
Continuous
 62
     7
100
AcDbPolyline
 90
        2
 70
     0
 43
0.25
 10
3083.0428063735
 20
62.8064647236
 10
3083.0428060189
 20
55.7062618153
  0
LWPOLYLINE
  5
25B
330
214
100
AcDbEntity
  8
0
  6
Continuous
 62
     7
100
AcDbPolyline
 90
        2
 70
     0
 43
0.25
 10
3083.0428344553
 20
55.7062333789
 10
3073.0482771841
 20
57.2263267918
  0
LWPOLYLINE
  5
25C
330
214
100
AcDbEntity
  8
0
  6
Continuous
 62
     7
100
AcDbPolyline
 90
        2
 70
     0
 43
0.25
 10
3073.0459671985
 20
57.2256492502
 10
3073.0433002944
 20
61.2312878617
  0
LWPOLYLINE
  5
25D
330
214
100
AcDbEntity
  8
0
  6
Continuous
 62
     7
100
AcDbPolyline
 90
        2
 70
     0
 43
0.25
 10
3073.0432920184
 20
61.2312795856
 10
3083.0430352556
 20
62.8064368057
  0
ENDBLK
  5
25E
330
214
100
AcDbEntity
  8
0
  6
ByBlock
 62
     0
100
AcDbBlockEnd
  0
ENDSEC
  0
SECTION
  2
ENTITIES
  0
LINE
  5
280
330
1B
100
AcDbEntity
 67
     1
  8
0
  6
Continuous
 62
     7
100
AcDbLine
 10
0.0
 20
0.0
 30
0.0
 11
3200.0
 21
0.0
 31
0.0
  0
LINE
  5
281
330
1B
100
AcDbEntity
 67
     1
  8
0
  6
Continuous
 62
     7
100
AcDbLine
 10
3200.0
 20
0.0
 30
0.0
 11
3200.0
 21
2500.0
 31
0.0
  0
LINE
  5
282
330
1B
100
AcDbEntity
 67
     1
  8
0
  6
Continuous
 62
     7
100
AcDbLine
 10
0.0
 20
2500.0
 30
0.0
 11
3200.0
 21
2500.0
 31
0.0
  0
LINE
  5
283
330
1B
100
AcDbEntity
 67
     1
  8
0
  6
Continuous
 62
     7
100
AcDbLine
 10
0.0
 20
0.0
 30
0.0
 11
0.0
 21
2500.0
 31
0.0
  0
VIEWPORT
  5
284
330
1B
100
AcDbEntity
 67
     1
  8
0
100
AcDbViewport
 10
0.0
 20
0.0
 30
0.0
 40
4167.315175097277
 41
2946.887159533074
 68
     1
 69
     1
 12
1969.844357976654
 22
1250.0
 13
0.0
 23
0.0
 14
1.0
 24
1.0
 15
0.0
 25
0.0
 16
0.0
 26
0.0
 36
1.0
 17
0.0
 27
0.0
 37
0.0
 42
50.0
 43
0.0
 44
0.0
 45
2946.887159533074
 50
0.0
 51
0.0
 72
   100
 90
   557216
  1

281
     0
 71
     1
 74
     0
110
0.0
120
0.0
130
0.0
111
1.0
121
0.0
131
0.0
112
0.0
122
1.0
132
0.0
 79
     0
146
0.0
170
     0
 61
     5
348
527
292
     1
282
     1
141
0.0
142
0.0
 63
   256
  0
LINE
  5
285
330
1B
100
AcDbEntity
 67
     1
  8
7_ALL_FEATURES
  6
Continuous
 62
     7
100
AcDbLine
 10
2182.5172578869
 20
471.8347238353
 30
0.0
 11
2182.5172578869
 21
471.742240528
 31
0.0
  0
LINE
  5
286
330
1B
100
AcDbEntity
 67
     1
  8
7_ALL_FEATURES
  6
Continuous
 62
     7
100
AcDbLine
 10
669.5172578869
 20
471.8347238353
 30
0.0
 11
669.5172578869
 21
471.742240528
 31
0.0
  0
LINE
  5
287
330
1B
100
AcDbEntity
 67
     1
  8
7_ALL_FEATURES
  6
Continuous
 62
     7
100
AcDbLine
 10
2182.5172578869
 20
475.3031374077
 30
0.0
 11
2182.5172578869
 21
471.8347238353
 31
0.0
  0
LINE
  5
288
330
1B
100
AcDbEntity
 67
     1
  8
7_ALL_FEATURES
  6
Continuous
 62
     7
100
AcDbLine
 10
669.5172578869
 20
475.3031374077
 30
0.0
 11
669.5172578869
 21
474.590029455
 31
0.0
  0
LINE
  5
289
330
1B
100
AcDbEntity
 67
     1
  8
7_ALL_FEATURES
  6
Continuous
 62
     7
100
AcDbLine
 10
669.5172578869
 20
474.590029455
 30
0.0
 11
669.5172578869
 21
471.8347238353
 31
0.0
  0
LINE
  5
28A
330
1B
100
AcDbEntity
 67
     1
  8
7_ALL_FEATURES
  6
Continuous
 62
     7
100
AcDbLine
 10
2182.5172578869
 20
475.3695255068
 30
0.0
 11
2182.5172578869
 21
475.3031374077
 31
0.0
  0
LINE
  5
28B
330
1B
100
AcDbEntity
 67
     1
  8
7_ALL_FEATURES
  6
Continuous
 62
     7
100
AcDbLine
 10
669.5172578869
 20
475.3695255068
 30
0.0
 11
669.5172578869
 21
475.3031374077
 31
0.0
  0
LINE
  5
28C
330
1B
100
AcDbEntity
 67
     1
  8
7_ALL_FEATURES
  6
Continuous
 62
     7
100
AcDbLine
 10
2182.5172578869
 20
477.6784473459
 30
0.0
 11
2182.5172578869
 21
475.3695255068
 31
0.0
  0
LINE
  5
28D
330
1B
100
AcDbEntity
 67
     1
  8
7_ALL_FEATURES
  6
Continuous
 62
     7
100
AcDbLine
 10
669.5172578869
 20
477.6784473459
 30
0.0
 11
669.5172578869
 21
476.9225748222
 31
0.0
  0
LINE
  5
28E
330
1B
100
AcDbEntity
 67
     1
  8
7_ALL_FEATURES
  6
Continuous
 62
     7
100
AcDbLine
 10
669.5172578869
 20
476.9225748222
 30
0.0
 11
669.5172578869
 21
475.3695255068
 31
0.0
  0
LINE
  5
28F
330
1B
100
AcDbEntity
 67
     1
  8
7_ALL_FEATURES
  6
Continuous
 62
     7
100
AcDbLine
 10
2182.5172578869
 20
477.7178198928
 30
0.0
 11
2182.5172578869
 21
477.6784473459
 31
0.0
  0
LINE
  5
290
330
1B
100
AcDbEntity
 67
     1
  8
7_ALL_FEATURES
  6
Continuous
 62
     7
100
AcDbLine
 10
669.5172578869
 20
478.8470105758
 30
0.0
 11
669.5172578869
 21
478.8352412206
 31
0.0
  0
LINE
  5
291
330
1B
100
AcDbEntity
 67
     1
  8
7_ALL_FEATURES
  6
Continuous
 62
     7
100
AcDbLine
 10
669.5172578869
 20
477.7178198928
 30
0.0
 11
669.5172578869
 21
477.6784473459
 31
0.0
  0
LINE
  5
292
330
1B
100
AcDbEntity
 67
     1
  8
7_ALL_FEATURES
  6
Continuous
 62
     7
100
AcDbLine
 10
2182.5172578869
 20
478.8470105758
 30
0.0
 11
2182.5172578869
 21
478.8352412206
 31
0.0
  0
LINE
  5
293
330
1B
100
AcDbEntity
 67
     1
  8
7_ALL_FEATURES
  6
Continuous
 62
     7
100
AcDbLine
 10
2182.5172578869
 20
478.8352412206
 30
0.0
 11
2182.5172578869
 21
478.0470821472
 31
0.0
  0
LINE
  5
294
330
1B
100
AcDbEntity
 67
     1
  8
7_ALL_FEATURES
  6
Continuous
 62
     7
100
AcDbLine
 10
2182.5172578869
 20
478.0470821472
 30
0.0
 11
2182.5172578869
 21
477.9567728754
 31
0.0
  0
LINE
  5
295
330
1B
100
AcDbEntity
 67
     1
  8
7_ALL_FEATURES
  6
Continuous
 62
     7
100
AcDbLine
 10
2182.5172578869
 20
477.9567728754
 30
0.0
 11
2182.5172578869
 21
477.7178198928
 31
0.0
  0
LINE
  5
296
330
1B
100
AcDbEntity
 67
     1
  8
7_ALL_FEATURES
  6
Continuous
 62
     7
100
AcDbLine
 10
2182.5172578869
 20
478.8471285442
 30
0.0
 11
1426.0172578869
 21
478.8471285442
 31
0.0
  0
LINE
  5
297
330
1B
100
AcDbEntity
 67
     1
  8
7_ALL_FEATURES
  6
Continuous
 62
     7
100
AcDbLine
 10
1426.0172578869
 20
478.8471285442
 30
0.0
 11
669.5172578869
 21
478.8471285442
 31
0.0
  0
LINE
  5
298
330
1B
100
AcDbEntity
 67
     1
  8
7_ALL_FEATURES
  6
Continuous
 62
     7
100
AcDbLine
 10
669.5172578869
 20
478.8352412206
 30
0.0
 11
669.5172578869
 21
478.0470821472
 31
0.0
  0
LINE
  5
299
330
1B
100
AcDbEntity
 67
     1
  8
7_ALL_FEATURES
  6
Continuous
 62
     7
100
AcDbLine
 10
669.5172578869
 20
478.0470821472
 30
0.0
 11
669.5172578869
 21
477.9567728754
 31
0.0
  0
LINE
  5
29A
330
1B
100
AcDbEntity
 67
     1
  8
7_ALL_FEATURES
  6
Continuous
 62
     7
100
AcDbLine
 10
669.5172578869
 20
477.9567728754
 30
0.0
 11
669.5172578869
 21
477.7178198928
 31
0.0
  0
LINE
  5
29B
330
1B
100
AcDbEntity
 67
     1
  8
7_ALL_FEATURES
  6
Continuous
 62
     7
100
AcDbLine
 10
2182.5172578869
 20
478.8470512159
 30
0.0
 11
2182.5172578869
 21
478.8470105758
 31
0.0
  0
LINE
  5
29C
330
1B
100
AcDbEntity
 67
     1
  8
7_ALL_FEATURES
  6
Continuous
 62
     7
100
AcDbLine
 10
669.5172578869
 20
478.8470512159
 30
0.0
 11
669.5172578869
 21
478.8470105758
 31
0.0
  0
LINE
  5
29D
330
1B
100
AcDbEntity
 67
     1
  8
7_ALL_FEATURES
  6
Continuous
 62
     7
100
AcDbLine
 10
2182.5172578869
 20
471.742240528
 30
0.0
 11
2182.5172578869
 21
469.3407798799
 31
0.0
  0
LINE
  5
29E
330
1B
100
AcDbEntity
 67
     1
  8
7_ALL_FEATURES
  6
Continuous
 62
     7
100
AcDbLine
 10
669.5172578869
 20
471.742240528
 30
0.0
 11
669.5172578869
 21
471.0817830231
 31
0.0
  0
LINE
  5
29F
330
1B
100
AcDbEntity
 67
     1
  8
7_ALL_FEATURES
  6
Continuous
 62
     7
100
AcDbLine
 10
669.5172578869
 20
471.0817830231
 30
0.0
 11
669.5172578869
 21
469.3407798799
 31
0.0
  0
LINE
  5
2A0
330
1B
100
AcDbEntity
 67
     1
  8
7_ALL_FEATURES
  6
Continuous
 62
     9
100
AcDbLine
 10
2182.5172578869
 20
477.7178198928
 30
0.0
 11
669.5172578869
 21
477.7178198928
 31
0.0
  0
LINE
  5
2A1
330
1B
100
AcDbEntity
 67
     1
  8
7_ALL_FEATURES
  6
Continuous
 62
     9
100
AcDbLine
 10
2182.5172578869
 20
478.8352412206
 30
0.0
 11
669.5172578869
 21
478.8352412206
 31
0.0
  0
LINE
  5
2A2
330
1B
100
AcDbEntity
 67
     1
  8
7_ALL_FEATURES
  6
Continuous
 62
     9
100
AcDbLine
 10
2182.5172578869
 20
475.3031374077
 30
0.0
 11
669.5172578869
 21
475.3031374077
 31
0.0
  0
LINE
  5
2A3
330
1B
100
AcDbEntity
 67
     1
  8
7_ALL_FEATURES
  6
Continuous
 62
     9
100
AcDbLine
 10
2182.5172578869
 20
471.8347238353
 30
0.0
 11
669.5172578869
 21
471.8347238353
 31
0.0
  0
LINE
  5
2A4
330
1B
100
AcDbEntity
 67
     1
  8
7_ALL_FEATURES
  6
Continuous
 62
     9
100
AcDbLine
 10
674.5172578869
 20
466.3938433251
 30
0.0
 11
674.5172578869
 21
467.1097908144
 31
0.0
  0
LINE
  5
2A5
330
1B
100
AcDbEntity
 67
     1
  8
7_ALL_FEATURES
  6
Continuous
 62
     7
100
AcDbLine
 10
2177.5172578869
 20
467.1097908144
 30
0.0
 11
674.5172578869
 21
467.1097908144
 31
0.0
  0
LINE
  5
2A6
330
1B
100
AcDbEntity
 67
     1
  8
7_ALL_FEATURES
  6
Continuous
 62
     9
100
AcDbLine
 10
2177.5172578869
 20
466.3938433251
 30
0.0
 11
2177.5172578869
 21
467.1097908144
 31
0.0
  0
LINE
  5
2A7
330
1B
100
AcDbEntity
 67
     1
  8
7_ALL_FEATURES
  6
Continuous
 62
     9
100
AcDbLine
 10
2182.5172578869
 20
471.742240528
 30
0.0
 11
669.5172578869
 21
471.742240528
 31
0.0
  0
SPLINE
  5
2A8
330
1B
100
AcDbEntity
 67
     1
  8
7_ALL_FEATURES
  6
Continuous
 62
     7
100
AcDbSpline
 70
     0
 71
     3
 72
     8
 73
     4
 74
     0
 42
0.000000001
 43
0.0000001
 40
0.0
 40
0.0
 40
0.0
 40
0.0
 40
1.0
 40
1.0
 40
1.0
 40
1.0
 10
2177.5172578869
 20
467.1097908144
 30
0.0
 10
2178.1575707794
 20
467.1097908144
 30
0.0
 10
2178.8009942172
 20
467.1634138384
 30
0.0
 10
2179.4306750488
 20
467.279614745
 30
0.0
  0
SPLINE
  5
2A9
330
1B
100
AcDbEntity
 67
     1
  8
7_ALL_FEATURES
  6
Continuous
 62
     7
100
AcDbSpline
 70
     0
 71
     3
 72
     8
 73
     4
 74
     0
 42
0.000000001
 43
0.0000001
 40
0.0
 40
0.0
 40
0.0
 40
0.0
 40
1.0
 40
1.0
 40
1.0
 40
1.0
 10
2179.4306750488
 20
467.279614745
 30
0.0
 10
2179.9855313968
 20
467.3820075882
 30
0.0
 10
2180.5375323124
 20
467.5333247296
 30
0.0
 10
2181.0527917929
 20
467.7632323829
 30
0.0
  0
SPLINE
  5
2AA
330
1B
100
AcDbEntity
 67
     1
  8
7_ALL_FEATURES
  6
Continuous
 62
     7
100
AcDbSpline
 70
     0
 71
     3
 72
     9
 73
     5
 74
     0
 42
0.000000001
 43
0.0000001
 40
0.0
 40
0.0
 40
0.0
 40
0.0
 40
0.2920022899
 40
1.0
 40
1.0
 40
1.0
 40
1.0
 10
2181.0527917929
 20
467.7632323829
 30
0.0
 10
2181.1962130111
 20
467.8272266168
 30
0.0
 10
2181.6741300392
 20
468.0673117146
 30
0.0
 10
2182.1247254258
 20
468.4119032397
 30
0.0
 10
2182.3281108046
 20
468.7338275856
 30
0.0
  0
SPLINE
  5
2AB
330
1B
100
AcDbEntity
 67
     1
  8
7_ALL_FEATURES
  6
Continuous
 62
     7
100
AcDbSpline
 70
     0
 71
     3
 72
     8
 73
     4
 74
     0
 42
0.000000001
 43
0.0000001
 40
0.0
 40
0.0
 40
0.0
 40
0.0
 40
1.0
 40
1.0
 40
1.0
 40
1.0
 10
2182.3281108046
 20
468.7338275856
 30
0.0
 10
2182.4412971231
 20
468.9129822121
 30
0.0
 10
2182.5172578869
 20
469.1288659282
 30
0.0
 10
2182.5172578869
 20
469.3407798799
 30
0.0
  0
LINE
  5
2AC
330
1B
100
AcDbEntity
 67
     1
  8
7_ALL_FEATURES
  6
Continuous
 62
     9
100
AcDbLine
 10
2182.5172578869
 20
475.3695255068
 30
0.0
 11
669.5172578869
 21
475.3695255068
 31
0.0
  0
LINE
  5
2AD
330
1B
100
AcDbEntity
 67
     1
  8
7_ALL_FEATURES
  6
Continuous
 62
     9
100
AcDbLine
 10
2182.5172578869
 20
477.6784473459
 30
0.0
 11
669.5172578869
 21
477.6784473459
 31
0.0
  0
SPLINE
  5
2AE
330
1B
100
AcDbEntity
 67
     1
  8
7_ALL_FEATURES
  6
Continuous
 62
     7
100
AcDbSpline
 70
     0
 71
     3
 72
     8
 73
     4
 74
     0
 42
0.000000001
 43
0.0000001
 40
0.0
 40
0.0
 40
0.0
 40
0.0
 40
1.0
 40
1.0
 40
1.0
 40
1.0
 10
669.5172578869
 20
469.3407798799
 30
0.0
 10
669.5172578869
 20
469.0291945721
 30
0.0
 10
669.68604651
 20
468.7155350601
 30
0.0
 10
669.8978602244
 20
468.4870173267
 30
0.0
  0
SPLINE
  5
2AF
330
1B
100
AcDbEntity
 67
     1
  8
7_ALL_FEATURES
  6
Continuous
 62
     7
100
AcDbSpline
 70
     0
 71
     3
 72
     8
 73
     4
 74
     0
 42
0.000000001
 43
0.0000001
 40
0.0
 40
0.0
 40
0.0
 40
0.0
 40
1.0
 40
1.0
 40
1.0
 40
1.0
 10
669.8978602244
 20
468.4870173267
 30
0.0
 10
670.193188237
 20
468.1683992041
 30
0.0
 10
670.5849883589
 20
467.9402549499
 30
0.0
 10
670.981723981
 20
467.7632323829
 30
0.0
  0
SPLINE
  5
2B0
330
1B
100
AcDbEntity
 67
     1
  8
7_ALL_FEATURES
  6
Continuous
 62
     7
100
AcDbSpline
 70
     0
 71
     3
 72
     8
 73
     4
 74
     0
 42
0.000000001
 43
0.0000001
 40
0.0
 40
0.0
 40
0.0
 40
0.0
 40
1.0
 40
1.0
 40
1.0
 40
1.0
 10
670.981723981
 20
467.7632323829
 30
0.0
 10
671.4969834614
 20
467.5333247296
 30
0.0
 10
672.0489843771
 20
467.3820075882
 30
0.0
 10
672.6038407251
 20
467.279614745
 30
0.0
  0
SPLINE
  5
2B1
330
1B
100
AcDbEntity
 67
     1
  8
7_ALL_FEATURES
  6
Continuous
 62
     7
100
AcDbSpline
 70
     0
 71
     3
 72
     8
 73
     4
 74
     0
 42
0.000000001
 43
0.0000001
 40
0.0
 40
0.0
 40
0.0
 40
0.0
 40
1.0
 40
1.0
 40
1.0
 40
1.0
 10
672.6038407251
 20
467.279614745
 30
0.0
 10
673.2335215566
 20
467.1634138384
 30
0.0
 10
673.8769449944
 20
467.1097908144
 30
0.0
 10
674.5172578869
 20
467.1097908144
 30
0.0
  0
LINE
  5
2B2
330
1B
100
AcDbEntity
 67
     1
  8
03___PRT_ALL_CURVES
  6
Continuous
 62
    40
100
AcDbLine
 10
1426.0172578869
 20
471.742240528
 30
0.0
 11
1426.0172578869
 21
471.8347238376
 31
0.0
  0
LINE
  5
2B3
330
1B
100
AcDbEntity
 67
     1
  8
03___PRT_ALL_CURVES
  6
Continuous
 62
    40
100
AcDbLine
 10
1426.0172578869
 20
471.742240528
 30
0.0
 11
1426.0172578869
 21
467.1097908144
 31
0.0
  0
LINE
  5
2B4
330
1B
100
AcDbEntity
 67
     1
  8
03___PRT_ALL_CURVES
  6
Continuous
 62
    40
100
AcDbLine
 10
1426.0172578869
 20
478.8480816476
 30
0.0
 11
1426.0172578869
 21
477.7049794617
 31
0.0
  0
LINE
  5
2B5
330
1B
100
AcDbEntity
 67
     1
  8
03___PRT_ALL_CURVES
  6
Continuous
 62
    40
100
AcDbLine
 10
1426.0172578869
 20
477.7049794617
 30
0.0
 11
1426.0172578869
 21
475.3429933911
 31
0.0
  0
LINE
  5
2B6
330
1B
100
AcDbEntity
 67
     1
  8
03___PRT_ALL_CURVES
  6
Continuous
 62
    40
100
AcDbLine
 10
1426.0172578869
 20
475.3429933911
 30
0.0
 11
1426.0172578869
 21
471.794867852
 31
0.0
  0
LINE
  5
2B7
330
1B
100
AcDbEntity
 67
     1
  8
03___PRT_ALL_CURVES
  6
Continuous
 62
    40
100
AcDbLine
 10
1426.0172578869
 20
471.794867852
 30
0.0
 11
1426.0172578869
 21
467.1097908144
 31
0.0
  0
LINE
  5
2B8
330
1B
100
AcDbEntity
 67
     1
  8
03___PRT_ALL_CURVES
  6
Continuous
 62
    40
100
AcDbLine
 10
1426.0172578869
 20
478.8352412206
 30
0.0
 11
1426.0172578869
 21
478.8470512158
 31
0.0
  0
LINE
  5
2B9
330
1B
100
AcDbEntity
 67
     1
  8
03___PRT_ALL_CURVES
  6
Continuous
 62
    40
100
AcDbLine
 10
1426.0172578869
 20
478.8352412206
 30
0.0
 11
1426.0172578869
 21
477.7178198928
 31
0.0
  0
LINE
  5
2BA
330
1B
100
AcDbEntity
 67
     1
  8
03___PRT_ALL_CURVES
  6
Continuous
 62
    40
100
AcDbLine
 10
1426.0172578869
 20
477.6784473459
 30
0.0
 11
1426.0172578869
 21
477.7178198935
 31
0.0
  0
LINE
  5
2BB
330
1B
100
AcDbEntity
 67
     1
  8
03___PRT_ALL_CURVES
  6
Continuous
 62
    40
100
AcDbLine
 10
1426.0172578869
 20
477.6784473459
 30
0.0
 11
1426.0172578869
 21
475.3695255068
 31
0.0
  0
LINE
  5
2BC
330
1B
100
AcDbEntity
 67
     1
  8
03___PRT_ALL_CURVES
  6
Continuous
 62
    40
100
AcDbLine
 10
1426.0172578869
 20
475.3031374077
 30
0.0
 11
1426.0172578869
 21
475.3695255083
 31
0.0
  0
LINE
  5
2BD
330
1B
100
AcDbEntity
 67
     1
  8
03___PRT_ALL_CURVES
  6
Continuous
 62
    40
100
AcDbLine
 10
1426.0172578869
 20
475.3031374077
 30
0.0
 11
1426.0172578869
 21
471.8347238353
 31
0.0
  0
ARC
  5
2BE
330
1B
100
AcDbEntity
 67
     1
  8
02___PRT_ALL_AXES
  6
Continuous
 62
     3
100
AcDbCircle
 10
697.5172578869
 20
467.407340154
 30
0.0
 40
1.75
100
AcDbArc
 50
216.3527923319
 51
323.6472076681
  0
ARC
  5
2BF
330
1B
100
AcDbEntity
 67
     1
  8
02___PRT_ALL_AXES
  6
Continuous
 62
     3
100
AcDbCircle
 10
940.2672578869
 20
467.407340154
 30
0.0
 40
1.75
100
AcDbArc
 50
216.3527923319
 51
323.6472076681
  0
ARC
  5
2C0
330
1B
100
AcDbEntity
 67
     1
  8
02___PRT_ALL_AXES
  6
Continuous
 62
     3
100
AcDbCircle
 10
1183.0172578869
 20
467.407340154
 30
0.0
 40
1.75
100
AcDbArc
 50
216.3527923319
 51
323.6472076681
  0
ARC
  5
2C1
330
1B
100
AcDbEntity
 67
     1
  8
02___PRT_ALL_AXES
  6
Continuous
 62
     3
100
AcDbCircle
 10
1426.2672578869
 20
467.407340154
 30
0.0
 40
1.75
100
AcDbArc
 50
216.3527923319
 51
323.6472076681
  0
ARC
  5
2C2
330
1B
100
AcDbEntity
 67
     1
  8
02___PRT_ALL_AXES
  6
Continuous
 62
     3
100
AcDbCircle
 10
1669.0172578869
 20
467.407340154
 30
0.0
 40
1.75
100
AcDbArc
 50
216.3527923319
 51
323.6472076681
  0
ARC
  5
2C3
330
1B
100
AcDbEntity
 67
     1
  8
02___PRT_ALL_AXES
  6
Continuous
 62
     3
100
AcDbCircle
 10
1911.7672578869
 20
467.407340154
 30
0.0
 40
1.75
100
AcDbArc
 50
216.3527923319
 51
323.6472076681
  0
ARC
  5
2C4
330
1B
100
AcDbEntity
 67
     1
  8
02___PRT_ALL_AXES
  6
Continuous
 62
     3
100
AcDbCircle
 10
2154.5172578869
 20
467.407340154
 30
0.0
 40
1.75
100
AcDbArc
 50
216.3527923319
 51
323.6472076681
  0
ARC
  5
2C5
330
1B
100
AcDbEntity
 67
     1
  8
7_ALL_FEATURES
  6
Continuous
 62
     3
100
AcDbCircle
 10
694.0172578869
 20
464.907340154
 30
0.0
 40
3.0
100
AcDbArc
 50
180.0
 51
270.0
  0
LINE
  5
2C6
330
1B
100
AcDbEntity
 67
     1
  8
7_ALL_FEATURES
  6
Continuous
 62
     3
100
AcDbLine
 10
691.0172578869
 20
464.907340154
 30
0.0
 11
691.0172578869
 21
466.3938433251
 31
0.0
  0
LINE
  5
2C7
330
1B
100
AcDbEntity
 67
     1
  8
7_ALL_FEATURES
  6
Continuous
 62
     3
100
AcDbLine
 10
704.0172578869
 20
464.907340154
 30
0.0
 11
704.0172578869
 21
466.3938433251
 31
0.0
  0
ARC
  5
2C8
330
1B
100
AcDbEntity
 67
     1
  8
7_ALL_FEATURES
  6
Continuous
 62
     3
100
AcDbCircle
 10
701.0172578869
 20
464.907340154
 30
0.0
 40
3.0
100
AcDbArc
 50
270.0
 51
360.0
  0
LINE
  5
2C9
330
1B
100
AcDbEntity
 67
     1
  8
7_ALL_FEATURES
  6
Continuous
 62
     3
100
AcDbLine
 10
694.0172578869
 20
461.907340154
 30
0.0
 11
701.0172578869
 21
461.907340154
 31
0.0
  0
ARC
  5
2CA
330
1B
100
AcDbEntity
 67
     1
  8
7_ALL_FEATURES
  6
Continuous
 62
     3
100
AcDbCircle
 10
936.7672578869
 20
464.907340154
 30
0.0
 40
3.0
100
AcDbArc
 50
180.0
 51
270.0
  0
LINE
  5
2CB
330
1B
100
AcDbEntity
 67
     1
  8
7_ALL_FEATURES
  6
Continuous
 62
     3
100
AcDbLine
 10
933.7672578869
 20
464.907340154
 30
0.0
 11
933.7672578869
 21
466.3938433251
 31
0.0
  0
LINE
  5
2CC
330
1B
100
AcDbEntity
 67
     1
  8
7_ALL_FEATURES
  6
Continuous
 62
     3
100
AcDbLine
 10
946.7672578869
 20
464.907340154
 30
0.0
 11
946.7672578869
 21
466.3938433251
 31
0.0
  0
ARC
  5
2CD
330
1B
100
AcDbEntity
 67
     1
  8
7_ALL_FEATURES
  6
Continuous
 62
     3
100
AcDbCircle
 10
943.7672578869
 20
464.907340154
 30
0.0
 40
3.0
100
AcDbArc
 50
270.0
 51
360.0
  0
LINE
  5
2CE
330
1B
100
AcDbEntity
 67
     1
  8
7_ALL_FEATURES
  6
Continuous
 62
     3
100
AcDbLine
 10
936.7672578869
 20
461.907340154
 30
0.0
 11
943.7672578869
 21
461.907340154
 31
0.0
  0
ARC
  5
2CF
330
1B
100
AcDbEntity
 67
     1
  8
7_ALL_FEATURES
  6
Continuous
 62
     3
100
AcDbCircle
 10
1179.5172578869
 20
464.907340154
 30
0.0
 40
3.0
100
AcDbArc
 50
180.0
 51
270.0
  0
LINE
  5
2D0
330
1B
100
AcDbEntity
 67
     1
  8
7_ALL_FEATURES
  6
Continuous
 62
     3
100
AcDbLine
 10
1176.5172578869
 20
464.907340154
 30
0.0
 11
1176.5172578869
 21
466.3938433251
 31
0.0
  0
LINE
  5
2D1
330
1B
100
AcDbEntity
 67
     1
  8
7_ALL_FEATURES
  6
Continuous
 62
     3
100
AcDbLine
 10
1189.5172578869
 20
464.907340154
 30
0.0
 11
1189.5172578869
 21
466.3938433251
 31
0.0
  0
ARC
  5
2D2
330
1B
100
AcDbEntity
 67
     1
  8
7_ALL_FEATURES
  6
Continuous
 62
     3
100
AcDbCircle
 10
1186.5172578869
 20
464.907340154
 30
0.0
 40
3.0
100
AcDbArc
 50
270.0
 51
360.0
  0
LINE
  5
2D3
330
1B
100
AcDbEntity
 67
     1
  8
7_ALL_FEATURES
  6
Continuous
 62
     3
100
AcDbLine
 10
1179.5172578869
 20
461.907340154
 30
0.0
 11
1186.5172578869
 21
461.907340154
 31
0.0
  0
ARC
  5
2D4
330
1B
100
AcDbEntity
 67
     1
  8
7_ALL_FEATURES
  6
Continuous
 62
     3
100
AcDbCircle
 10
1422.5172578869
 20
464.907340154
 30
0.0
 40
3.0
100
AcDbArc
 50
180.0
 51
270.0
  0
LINE
  5
2D5
330
1B
100
AcDbEntity
 67
     1
  8
7_ALL_FEATURES
  6
Continuous
 62
     3
100
AcDbLine
 10
1419.5172578869
 20
464.907340154
 30
0.0
 11
1419.5172578869
 21
466.3938433251
 31
0.0
  0
LINE
  5
2D6
330
1B
100
AcDbEntity
 67
     1
  8
7_ALL_FEATURES
  6
Continuous
 62
     3
100
AcDbLine
 10
1432.5172578869
 20
464.907340154
 30
0.0
 11
1432.5172578869
 21
466.3938433251
 31
0.0
  0
ARC
  5
2D7
330
1B
100
AcDbEntity
 67
     1
  8
7_ALL_FEATURES
  6
Continuous
 62
     3
100
AcDbCircle
 10
1429.5172578869
 20
464.907340154
 30
0.0
 40
3.0
100
AcDbArc
 50
270.0
 51
360.0
  0
LINE
  5
2D8
330
1B
100
AcDbEntity
 67
     1
  8
7_ALL_FEATURES
  6
Continuous
 62
     3
100
AcDbLine
 10
1422.5172578869
 20
461.907340154
 30
0.0
 11
1429.5172578869
 21
461.907340154
 31
0.0
  0
ARC
  5
2D9
330
1B
100
AcDbEntity
 67
     1
  8
7_ALL_FEATURES
  6
Continuous
 62
     3
100
AcDbCircle
 10
1665.5172578869
 20
464.907340154
 30
0.0
 40
3.0
100
AcDbArc
 50
180.0
 51
270.0
  0
LINE
  5
2DA
330
1B
100
AcDbEntity
 67
     1
  8
7_ALL_FEATURES
  6
Continuous
 62
     3
100
AcDbLine
 10
1662.5172578869
 20
464.907340154
 30
0.0
 11
1662.5172578869
 21
466.3938433251
 31
0.0
  0
LINE
  5
2DB
330
1B
100
AcDbEntity
 67
     1
  8
7_ALL_FEATURES
  6
Continuous
 62
     3
100
AcDbLine
 10
1675.5172578869
 20
464.907340154
 30
0.0
 11
1675.5172578869
 21
466.3938433251
 31
0.0
  0
ARC
  5
2DC
330
1B
100
AcDbEntity
 67
     1
  8
7_ALL_FEATURES
  6
Continuous
 62
     3
100
AcDbCircle
 10
1672.5172578869
 20
464.907340154
 30
0.0
 40
3.0
100
AcDbArc
 50
270.0
 51
360.0
  0
LINE
  5
2DD
330
1B
100
AcDbEntity
 67
     1
  8
7_ALL_FEATURES
  6
Continuous
 62
     3
100
AcDbLine
 10
1665.5172578869
 20
461.907340154
 30
0.0
 11
1672.5172578869
 21
461.907340154
 31
0.0
  0
ARC
  5
2DE
330
1B
100
AcDbEntity
 67
     1
  8
7_ALL_FEATURES
  6
Continuous
 62
     3
100
AcDbCircle
 10
1908.2672578869
 20
464.907340154
 30
0.0
 40
3.0
100
AcDbArc
 50
180.0
 51
270.0
  0
LINE
  5
2DF
330
1B
100
AcDbEntity
 67
     1
  8
7_ALL_FEATURES
  6
Continuous
 62
     3
100
AcDbLine
 10
1905.2672578869
 20
464.907340154
 30
0.0
 11
1905.2672578869
 21
466.3938433251
 31
0.0
  0
LINE
  5
2E0
330
1B
100
AcDbEntity
 67
     1
  8
7_ALL_FEATURES
  6
Continuous
 62
     3
100
AcDbLine
 10
1918.2672578869
 20
464.907340154
 30
0.0
 11
1918.2672578869
 21
466.3938433251
 31
0.0
  0
ARC
  5
2E1
330
1B
100
AcDbEntity
 67
     1
  8
7_ALL_FEATURES
  6
Continuous
 62
     3
100
AcDbCircle
 10
1915.2672578869
 20
464.907340154
 30
0.0
 40
3.0
100
AcDbArc
 50
270.0
 51
360.0
  0
LINE
  5
2E2
330
1B
100
AcDbEntity
 67
     1
  8
7_ALL_FEATURES
  6
Continuous
 62
     3
100
AcDbLine
 10
1908.2672578869
 20
461.907340154
 30
0.0
 11
1915.2672578869
 21
461.907340154
 31
0.0
  0
ARC
  5
2E3
330
1B
100
AcDbEntity
 67
     1
  8
7_ALL_FEATURES
  6
Continuous
 62
     3
100
AcDbCircle
 10
2151.0172578869
 20
464.907340154
 30
0.0
 40
3.0
100
AcDbArc
 50
180.0
 51
270.0
  0
LINE
  5
2E4
330
1B
100
AcDbEntity
 67
     1
  8
7_ALL_FEATURES
  6
Continuous
 62
     3
100
AcDbLine
 10
2148.0172578869
 20
464.907340154
 30
0.0
 11
2148.0172578869
 21
466.3938433251
 31
0.0
  0
LINE
  5
2E5
330
1B
100
AcDbEntity
 67
     1
  8
7_ALL_FEATURES
  6
Continuous
 62
     3
100
AcDbLine
 10
2161.0172578869
 20
464.907340154
 30
0.0
 11
2161.0172578869
 21
466.3938433251
 31
0.0
  0
ARC
  5
2E6
330
1B
100
AcDbEntity
 67
     1
  8
7_ALL_FEATURES
  6
Continuous
 62
     3
100
AcDbCircle
 10
2158.0172578869
 20
464.907340154
 30
0.0
 40
3.0
100
AcDbArc
 50
270.0
 51
360.0
  0
LINE
  5
2E7
330
1B
100
AcDbEntity
 67
     1
  8
7_ALL_FEATURES
  6
Continuous
 62
     3
100
AcDbLine
 10
2151.0172578869
 20
461.907340154
 30
0.0
 11
2158.0172578869
 21
461.907340154
 31
0.0
  0
SPLINE
  5
2E8
330
1B
100
AcDbEntity
 67
     1
  8
7_ALL_FEATURES
  6
Continuous
 62
     3
100
AcDbSpline
 70
     0
 71
     3
 72
     8
 73
     4
 74
     0
 42
0.000000001
 43
0.0000001
 40
0.0
 40
0.0
 40
0.0
 40
0.0
 40
1.0
 40
1.0
 40
1.0
 40
1.0
 10
674.5172578869
 20
466.3938433251
 30
0.0
 10
673.8769449944
 20
466.3938433251
 30
0.0
 10
673.2335215566
 20
466.4474663492
 30
0.0
 10
672.6038407251
 20
466.5636672557
 30
0.0
  0
SPLINE
  5
2E9
330
1B
100
AcDbEntity
 67
     1
  8
7_ALL_FEATURES
  6
Continuous
 62
     3
100
AcDbSpline
 70
     0
 71
     3
 72
     8
 73
     4
 74
     0
 42
0.000000001
 43
0.0000001
 40
0.0
 40
0.0
 40
0.0
 40
0.0
 40
1.0
 40
1.0
 40
1.0
 40
1.0
 10
672.6038407251
 20
466.5636672557
 30
0.0
 10
672.0489843771
 20
466.6660600989
 30
0.0
 10
671.4969834614
 20
466.8173772403
 30
0.0
 10
670.981723981
 20
467.0472848936
 30
0.0
  0
SPLINE
  5
2EA
330
1B
100
AcDbEntity
 67
     1
  8
7_ALL_FEATURES
  6
Continuous
 62
     3
100
AcDbSpline
 70
     0
 71
     3
 72
     9
 73
     5
 74
     0
 42
0.000000001
 43
0.0000001
 40
0.0
 40
0.0
 40
0.0
 40
0.0
 40
0.3205766837
 40
1.0
 40
1.0
 40
1.0
 40
1.0
 10
670.981723981
 20
467.0472848936
 30
0.0
 10
670.7664034344
 20
467.1433604506
 30
0.0
 10
670.1288798528
 20
467.4669319917
 30
0.0
 10
669.5172578869
 20
468.1251197565
 30
0.0
 10
669.5172578869
 20
468.6248323906
 30
0.0
  0
SPLINE
  5
2EB
330
1B
100
AcDbEntity
 67
     1
  8
7_ALL_FEATURES
  6
Continuous
 62
     3
100
AcDbSpline
 70
     0
 71
     3
 72
     8
 73
     4
 74
     0
 42
0.000000001
 43
0.0000001
 40
0.0
 40
0.0
 40
0.0
 40
0.0
 40
1.0
 40
1.0
 40
1.0
 40
1.0
 10
2182.5172578869
 20
468.6248323906
 30
0.0
 10
2182.5172578869
 20
468.3132470828
 30
0.0
 10
2182.3484692639
 20
467.9995875708
 30
0.0
 10
2182.1366555495
 20
467.7710698375
 30
0.0
  0
SPLINE
  5
2EC
330
1B
100
AcDbEntity
 67
     1
  8
7_ALL_FEATURES
  6
Continuous
 62
     3
100
AcDbSpline
 70
     0
 71
     3
 72
     8
 73
     4
 74
     0
 42
0.000000001
 43
0.0000001
 40
0.0
 40
0.0
 40
0.0
 40
0.0
 40
1.0
 40
1.0
 40
1.0
 40
1.0
 10
2182.1366555495
 20
467.7710698375
 30
0.0
 10
2181.8413275369
 20
467.4524517148
 30
0.0
 10
2181.449527415
 20
467.2243074606
 30
0.0
 10
2181.0527917929
 20
467.0472848936
 30
0.0
  0
SPLINE
  5
2ED
330
1B
100
AcDbEntity
 67
     1
  8
7_ALL_FEATURES
  6
Continuous
 62
     3
100
AcDbSpline
 70
     0
 71
     3
 72
     8
 73
     4
 74
     0
 42
0.000000001
 43
0.0000001
 40
0.0
 40
0.0
 40
0.0
 40
0.0
 40
1.0
 40
1.0
 40
1.0
 40
1.0
 10
2181.0527917929
 20
467.0472848936
 30
0.0
 10
2180.5375323124
 20
466.8173772403
 30
0.0
 10
2179.9855313968
 20
466.6660600989
 30
0.0
 10
2179.4306750488
 20
466.5636672557
 30
0.0
  0
SPLINE
  5
2EE
330
1B
100
AcDbEntity
 67
     1
  8
7_ALL_FEATURES
  6
Continuous
 62
     3
100
AcDbSpline
 70
     0
 71
     3
 72
     8
 73
     4
 74
     0
 42
0.000000001
 43
0.0000001
 40
0.0
 40
0.0
 40
0.0
 40
0.0
 40
1.0
 40
1.0
 40
1.0
 40
1.0
 10
2179.4306750488
 20
466.5636672557
 30
0.0
 10
2178.8009942172
 20
466.4474663492
 30
0.0
 10
2178.1575707794
 20
466.3938433251
 30
0.0
 10
2177.5172578869
 20
466.3938433251
 30
0.0
  0
LINE
  5
2EF
330
1B
100
AcDbEntity
 67
     1
  8
7_ALL_FEATURES
  6
Continuous
 62
     3
100
AcDbLine
 10
2177.5172578869
 20
466.3938433251
 30
0.0
 11
1426.0172578869
 21
466.3938433251
 31
0.0
  0
LINE
  5
2F0
330
1B
100
AcDbEntity
 67
     1
  8
7_ALL_FEATURES
  6
Continuous
 62
     3
100
AcDbLine
 10
1426.0172578869
 20
466.3938433251
 30
0.0
 11
674.5172578869
 21
466.3938433251
 31
0.0
  0
LINE
  5
2F1
330
1B
100
AcDbEntity
 67
     1
  8
7_ALL_FEATURES
  6
Continuous
 62
     7
100
AcDbLine
 10
2148.0172578869
 20
602.6991330977
 30
0.0
 11
2148.0172578869
 21
603.4991330977
 31
0.0
  0
LINE
  5
2F2
330
1B
100
AcDbEntity
 67
     1
  8
7_ALL_FEATURES
  6
Continuous
 62
     7
100
AcDbLine
 10
1905.2672578869
 20
602.6991330977
 30
0.0
 11
1905.2672578869
 21
603.4991330977
 31
0.0
  0
LINE
  5
2F3
330
1B
100
AcDbEntity
 67
     1
  8
7_ALL_FEATURES
  6
Continuous
 62
     7
100
AcDbLine
 10
1662.5172578869
 20
602.6991330977
 30
0.0
 11
1662.5172578869
 21
603.4991330977
 31
0.0
  0
LINE
  5
2F4
330
1B
100
AcDbEntity
 67
     1
  8
7_ALL_FEATURES
  6
Continuous
 62
     7
100
AcDbLine
 10
1419.5172578869
 20
602.6991330977
 30
0.0
 11
1419.5172578869
 21
603.4991330977
 31
0.0
  0
LINE
  5
2F5
330
1B
100
AcDbEntity
 67
     1
  8
7_ALL_FEATURES
  6
Continuous
 62
     7
100
AcDbLine
 10
1176.5172578869
 20
602.6991330977
 30
0.0
 11
1176.5172578869
 21
603.4991330977
 31
0.0
  0
LINE
  5
2F6
330
1B
100
AcDbEntity
 67
     1
  8
7_ALL_FEATURES
  6
Continuous
 62
     7
100
AcDbLine
 10
933.7672578869
 20
602.6991330977
 30
0.0
 11
933.7672578869
 21
603.4991330977
 31
0.0
  0
LINE
  5
2F7
330
1B
100
AcDbEntity
 67
     1
  8
7_ALL_FEATURES
  6
Continuous
 62
     7
100
AcDbLine
 10
691.0172578869
 20
602.6991330977
 30
0.0
 11
691.0172578869
 21
603.4991330977
 31
0.0
  0
SPLINE
  5
2F8
330
1B
100
AcDbEntity
 67
     1
  8
7_ALL_FEATURES
  6
Continuous
 62
     7
100
AcDbSpline
 70
     0
 71
     3
 72
     8
 73
     4
 74
     0
 42
0.000000001
 43
0.0000001
 40
0.0
 40
0.0
 40
0.0
 40
0.0
 40
1.0
 40
1.0
 40
1.0
 40
1.0
 10
2147.8832832907
 20
605.3273001136
 30
0.0
 10
2147.7966626003
 20
605.4735798577
 30
0.0
 10
2147.6657441562
 20
605.5996717483
 30
0.0
 10
2147.5172578869
 20
605.6824529986
 30
0.0
  0
SPLINE
  5
2F9
330
1B
100
AcDbEntity
 67
     1
  8
7_ALL_FEATURES
  6
Continuous
 62
     7
100
AcDbSpline
 70
     0
 71
     3
 72
     8
 73
     4
 74
     0
 42
0.000000001
 43
0.0000001
 40
0.0
 40
0.0
 40
0.0
 40
0.0
 40
1.0
 40
1.0
 40
1.0
 40
1.0
 10
2147.5172578869
 20
605.6824529986
 30
0.0
 10
2147.3668458734
 20
605.7663078533
 30
0.0
 10
2147.1894653504
 20
605.8124479767
 30
0.0
 10
2147.0172578869
 20
605.8124479767
 30
0.0
  0
SPLINE
  5
2FA
330
1B
100
AcDbEntity
 67
     1
  8
7_ALL_FEATURES
  6
Continuous
 62
     7
100
AcDbSpline
 70
     0
 71
     3
 72
     8
 73
     4
 74
     0
 42
0.000000001
 43
0.0000001
 40
0.0
 40
0.0
 40
0.0
 40
0.0
 40
1.0
 40
1.0
 40
1.0
 40
1.0
 10
1905.1332832907
 20
605.3273001136
 30
0.0
 10
1905.0466626003
 20
605.4735798577
 30
0.0
 10
1904.9157441562
 20
605.5996717483
 30
0.0
 10
1904.7672578869
 20
605.6824529986
 30
0.0
  0
SPLINE
  5
2FB
330
1B
100
AcDbEntity
 67
     1
  8
7_ALL_FEATURES
  6
Continuous
 62
     7
100
AcDbSpline
 70
     0
 71
     3
 72
     8
 73
     4
 74
     0
 42
0.000000001
 43
0.0000001
 40
0.0
 40
0.0
 40
0.0
 40
0.0
 40
1.0
 40
1.0
 40
1.0
 40
1.0
 10
1904.7672578869
 20
605.6824529986
 30
0.0
 10
1904.6168458734
 20
605.7663078533
 30
0.0
 10
1904.4394653504
 20
605.8124479767
 30
0.0
 10
1904.2672578869
 20
605.8124479767
 30
0.0
  0
SPLINE
  5
2FC
330
1B
100
AcDbEntity
 67
     1
  8
7_ALL_FEATURES
  6
Continuous
 62
     7
100
AcDbSpline
 70
     0
 71
     3
 72
     8
 73
     4
 74
     0
 42
0.000000001
 43
0.0000001
 40
0.0
 40
0.0
 40
0.0
 40
0.0
 40
1.0
 40
1.0
 40
1.0
 40
1.0
 10
1662.3832832907
 20
605.3273001136
 30
0.0
 10
1662.2966626003
 20
605.4735798577
 30
0.0
 10
1662.1657441562
 20
605.5996717483
 30
0.0
 10
1662.0172578869
 20
605.6824529986
 30
0.0
  0
SPLINE
  5
2FD
330
1B
100
AcDbEntity
 67
     1
  8
7_ALL_FEATURES
  6
Continuous
 62
     7
100
AcDbSpline
 70
     0
 71
     3
 72
     8
 73
     4
 74
     0
 42
0.000000001
 43
0.0000001
 40
0.0
 40
0.0
 40
0.0
 40
0.0
 40
1.0
 40
1.0
 40
1.0
 40
1.0
 10
1662.0172578869
 20
605.6824529986
 30
0.0
 10
1661.8668458734
 20
605.7663078533
 30
0.0
 10
1661.6894653504
 20
605.8124479767
 30
0.0
 10
1661.5172578869
 20
605.8124479767
 30
0.0
  0
SPLINE
  5
2FE
330
1B
100
AcDbEntity
 67
     1
  8
7_ALL_FEATURES
  6
Continuous
 62
     7
100
AcDbSpline
 70
     0
 71
     3
 72
     8
 73
     4
 74
     0
 42
0.000000001
 43
0.0000001
 40
0.0
 40
0.0
 40
0.0
 40
0.0
 40
1.0
 40
1.0
 40
1.0
 40
1.0
 10
1419.3832832907
 20
605.3273001136
 30
0.0
 10
1419.2966626003
 20
605.4735798577
 30
0.0
 10
1419.1657441562
 20
605.5996717483
 30
0.0
 10
1419.0172578869
 20
605.6824529986
 30
0.0
  0
SPLINE
  5
2FF
330
1B
100
AcDbEntity
 67
     1
  8
7_ALL_FEATURES
  6
Continuous
 62
     7
100
AcDbSpline
 70
     0
 71
     3
 72
     8
 73
     4
 74
     0
 42
0.000000001
 43
0.0000001
 40
0.0
 40
0.0
 40
0.0
 40
0.0
 40
1.0
 40
1.0
 40
1.0
 40
1.0
 10
1419.0172578869
 20
605.6824529986
 30
0.0
 10
1418.8668458734
 20
605.7663078533
 30
0.0
 10
1418.6894653504
 20
605.8124479767
 30
0.0
 10
1418.5172578869
 20
605.8124479767
 30
0.0
  0
SPLINE
  5
300
330
1B
100
AcDbEntity
 67
     1
  8
7_ALL_FEATURES
  6
Continuous
 62
     7
100
AcDbSpline
 70
     0
 71
     3
 72
     8
 73
     4
 74
     0
 42
0.000000001
 43
0.0000001
 40
0.0
 40
0.0
 40
0.0
 40
0.0
 40
1.0
 40
1.0
 40
1.0
 40
1.0
 10
690.8832832907
 20
605.3273001136
 30
0.0
 10
690.7966626003
 20
605.4735798577
 30
0.0
 10
690.6657441562
 20
605.5996717483
 30
0.0
 10
690.5172578869
 20
605.6824529986
 30
0.0
  0
SPLINE
  5
301
330
1B
100
AcDbEntity
 67
     1
  8
7_ALL_FEATURES
  6
Continuous
 62
     7
100
AcDbSpline
 70
     0
 71
     3
 72
     8
 73
     4
 74
     0
 42
0.000000001
 43
0.0000001
 40
0.0
 40
0.0
 40
0.0
 40
0.0
 40
1.0
 40
1.0
 40
1.0
 40
1.0
 10
690.5172578869
 20
605.6824529986
 30
0.0
 10
690.3668458734
 20
605.7663078533
 30
0.0
 10
690.1894653504
 20
605.8124479767
 30
0.0
 10
690.0172578869
 20
605.8124479767
 30
0.0
  0
LINE
  5
302
330
1B
100
AcDbEntity
 67
     1
  8
7_ALL_FEATURES
  6
Continuous
 62
     7
100
AcDbLine
 10
2182.5172578869
 20
670.85948797
 30
0.0
 11
2182.5172578869
 21
671.2164462205
 31
0.0
  0
SPLINE
  5
303
330
1B
100
AcDbEntity
 67
     1
  8
7_ALL_FEATURES
  6
Continuous
 62
     7
100
AcDbSpline
 70
     0
 71
     3
 72
     8
 73
     4
 74
     0
 42
0.000000001
 43
0.0000001
 40
0.0
 40
0.0
 40
0.0
 40
0.0
 40
1.0
 40
1.0
 40
1.0
 40
1.0
 10
669.8978602244
 20
672.9288289867
 30
0.0
 10
670.4056536418
 20
674.0276239101
 30
0.0
 10
671.4686475187
 20
674.9303363062
 30
0.0
 10
672.6038407251
 20
675.3505039186
 30
0.0
  0
SPLINE
  5
304
330
1B
100
AcDbEntity
 67
     1
  8
7_ALL_FEATURES
  6
Continuous
 62
     7
100
AcDbSpline
 70
     0
 71
     3
 72
     8
 73
     4
 74
     0
 42
0.000000001
 43
0.0000001
 40
0.0
 40
0.0
 40
0.0
 40
0.0
 40
1.0
 40
1.0
 40
1.0
 40
1.0
 10
672.6038407251
 20
675.3505039186
 30
0.0
 10
673.2113927057
 20
675.5753763576
 30
0.0
 10
673.8694253291
 20
675.6911180285
 30
0.0
 10
674.5172578869
 20
675.6911180285
 30
0.0
  0
LINE
  5
305
330
1B
100
AcDbEntity
 67
     1
  8
7_ALL_FEATURES
  6
Continuous
 62
     7
100
AcDbLine
 10
669.5172578869
 20
670.85948797
 30
0.0
 11
669.5172578869
 21
671.2164462205
 31
0.0
  0
LINE
  5
306
330
1B
100
AcDbEntity
 67
     1
  8
7_ALL_FEATURES
  6
Continuous
 62
     7
100
AcDbLine
 10
669.5172578869
 20
666.3998613138
 30
0.0
 11
669.5172578869
 21
666.0429030633
 31
0.0
  0
LINE
  5
307
330
1B
100
AcDbEntity
 67
     1
  8
7_ALL_FEATURES
  6
Continuous
 62
     7
100
AcDbLine
 10
669.5172578869
 20
666.1832991236
 30
0.0
 11
669.5172578869
 21
665.9129657492
 31
0.0
  0
LINE
  5
308
330
1B
100
AcDbEntity
 67
     1
  8
7_ALL_FEATURES
  6
Continuous
 62
     7
100
AcDbLine
 10
669.5172578869
 20
656.5229671796
 30
0.0
 11
669.5172578869
 21
656.2526338052
 31
0.0
  0
LINE
  5
309
330
1B
100
AcDbEntity
 67
     1
  8
7_ALL_FEATURES
  6
Continuous
 62
     7
100
AcDbLine
 10
669.5172578869
 20
656.2970358523
 30
0.0
 11
669.5172578869
 21
656.1170750088
 31
0.0
  0
SPLINE
  5
30A
330
1B
100
AcDbEntity
 67
     1
  8
7_ALL_FEATURES
  6
Continuous
 62
     7
100
AcDbSpline
 70
     0
 71
     3
 72
     8
 73
     4
 74
     0
 42
0.000000001
 43
0.0000001
 40
0.0
 40
0.0
 40
0.0
 40
0.0
 40
1.0
 40
1.0
 40
1.0
 40
1.0
 10
2162.0172578869
 20
605.8124479767
 30
0.0
 10
2161.6863721314
 20
605.8124479767
 30
0.0
 10
2161.3198272042
 20
605.6120126059
 30
0.0
 10
2161.1512324832
 20
605.3273001136
 30
0.0
  0
SPLINE
  5
30B
330
1B
100
AcDbEntity
 67
     1
  8
7_ALL_FEATURES
  6
Continuous
 62
     7
100
AcDbSpline
 70
     0
 71
     3
 72
     8
 73
     4
 74
     0
 42
0.000000001
 43
0.0000001
 40
0.0
 40
0.0
 40
0.0
 40
0.0
 40
1.0
 40
1.0
 40
1.0
 40
1.0
 10
1919.2672578869
 20
605.8124479767
 30
0.0
 10
1918.9363721314
 20
605.8124479767
 30
0.0
 10
1918.5698272042
 20
605.6120126059
 30
0.0
 10
1918.4012324832
 20
605.3273001136
 30
0.0
  0
LINE
  5
30C
330
1B
100
AcDbEntity
 67
     1
  8
7_ALL_FEATURES
  6
Continuous
 62
     7
100
AcDbLine
 10
669.5172578869
 20
646.2959966104
 30
0.0
 11
669.5172578869
 21
646.116035767
 31
0.0
  0
SPLINE
  5
30D
330
1B
100
AcDbEntity
 67
     1
  8
7_ALL_FEATURES
  6
Continuous
 62
     7
100
AcDbSpline
 70
     0
 71
     3
 72
     8
 73
     4
 74
     0
 42
0.000000001
 43
0.0000001
 40
0.0
 40
0.0
 40
0.0
 40
0.0
 40
1.0
 40
1.0
 40
1.0
 40
1.0
 10
1676.5172578869
 20
605.8124479767
 30
0.0
 10
1676.1863721314
 20
605.8124479767
 30
0.0
 10
1675.8198272042
 20
605.6120126059
 30
0.0
 10
1675.6512324832
 20
605.3273001136
 30
0.0
  0
LINE
  5
30E
330
1B
100
AcDbEntity
 67
     1
  8
7_ALL_FEATURES
  6
Continuous
 62
     7
100
AcDbLine
 10
669.5172578869
 20
646.0638282515
 30
0.0
 11
669.5172578869
 21
645.9767347516
 31
0.0
  0
LINE
  5
30F
330
1B
100
AcDbEntity
 67
     1
  8
7_ALL_FEATURES
  6
Continuous
 62
     7
100
AcDbLine
 10
2182.5172578869
 20
635.625406057
 30
0.0
 11
2182.5172578869
 21
635.632440911
 31
0.0
  0
LINE
  5
310
330
1B
100
AcDbEntity
 67
     1
  8
7_ALL_FEATURES
  6
Continuous
 62
     7
100
AcDbLine
 10
669.5172578869
 20
635.8607269417
 30
0.0
 11
669.5172578869
 21
635.7736334418
 31
0.0
  0
SPLINE
  5
311
330
1B
100
AcDbEntity
 67
     1
  8
7_ALL_FEATURES
  6
Continuous
 62
     7
100
AcDbSpline
 70
     0
 71
     3
 72
     8
 73
     4
 74
     0
 42
0.000000001
 43
0.0000001
 40
0.0
 40
0.0
 40
0.0
 40
0.0
 40
1.0
 40
1.0
 40
1.0
 40
1.0
 10
1433.5172578869
 20
605.8124479767
 30
0.0
 10
1433.1863721314
 20
605.8124479767
 30
0.0
 10
1432.8198272042
 20
605.6120126059
 30
0.0
 10
1432.6512324832
 20
605.3273001136
 30
0.0
  0
LINE
  5
312
330
1B
100
AcDbEntity
 67
     1
  8
7_ALL_FEATURES
  6
Continuous
 62
     7
100
AcDbLine
 10
2182.5172578869
 20
625.3558789305
 30
0.0
 11
2182.5172578869
 21
625.3629137845
 31
0.0
  0
SPLINE
  5
313
330
1B
100
AcDbEntity
 67
     1
  8
7_ALL_FEATURES
  6
Continuous
 62
     7
100
AcDbSpline
 70
     0
 71
     3
 72
     8
 73
     4
 74
     0
 42
0.000000001
 43
0.0000001
 40
0.0
 40
0.0
 40
0.0
 40
0.0
 40
1.0
 40
1.0
 40
1.0
 40
1.0
 10
1190.5172578869
 20
605.8124479767
 30
0.0
 10
1190.1863721314
 20
605.8124479767
 30
0.0
 10
1189.8198272042
 20
605.6120126059
 30
0.0
 10
1189.6512324832
 20
605.3273001136
 30
0.0
  0
LINE
  5
314
330
1B
100
AcDbEntity
 67
     1
  8
7_ALL_FEATURES
  6
Continuous
 62
     7
100
AcDbLine
 10
2182.5172578869
 20
625.1210681273
 30
0.0
 11
2182.5172578869
 21
625.2220273026
 31
0.0
  0
SPLINE
  5
315
330
1B
100
AcDbEntity
 67
     1
  8
7_ALL_FEATURES
  6
Continuous
 62
     7
100
AcDbSpline
 70
     0
 71
     3
 72
     8
 73
     4
 74
     0
 42
0.000000001
 43
0.0000001
 40
0.0
 40
0.0
 40
0.0
 40
0.0
 40
1.0
 40
1.0
 40
1.0
 40
1.0
 10
1176.3832832907
 20
605.3273001136
 30
0.0
 10
1176.2966626003
 20
605.4735798577
 30
0.0
 10
1176.1657441562
 20
605.5996717483
 30
0.0
 10
1176.0172578869
 20
605.6824529986
 30
0.0
  0
SPLINE
  5
316
330
1B
100
AcDbEntity
 67
     1
  8
7_ALL_FEATURES
  6
Continuous
 62
     7
100
AcDbSpline
 70
     0
 71
     3
 72
     8
 73
     4
 74
     0
 42
0.000000001
 43
0.0000001
 40
0.0
 40
0.0
 40
0.0
 40
0.0
 40
1.0
 40
1.0
 40
1.0
 40
1.0
 10
1176.0172578869
 20
605.6824529986
 30
0.0
 10
1175.8668458734
 20
605.7663078533
 30
0.0
 10
1175.6894653504
 20
605.8124479767
 30
0.0
 10
1175.5172578869
 20
605.8124479767
 30
0.0
  0
SPLINE
  5
317
330
1B
100
AcDbEntity
 67
     1
  8
7_ALL_FEATURES
  6
Continuous
 62
     7
100
AcDbSpline
 70
     0
 71
     3
 72
     8
 73
     4
 74
     0
 42
0.000000001
 43
0.0000001
 40
0.0
 40
0.0
 40
0.0
 40
0.0
 40
1.0
 40
1.0
 40
1.0
 40
1.0
 10
933.6332832907
 20
605.3273001136
 30
0.0
 10
933.5466626003
 20
605.4735798577
 30
0.0
 10
933.4157441562
 20
605.5996717483
 30
0.0
 10
933.2672578869
 20
605.6824529986
 30
0.0
  0
SPLINE
  5
318
330
1B
100
AcDbEntity
 67
     1
  8
7_ALL_FEATURES
  6
Continuous
 62
     7
100
AcDbSpline
 70
     0
 71
     3
 72
     8
 73
     4
 74
     0
 42
0.000000001
 43
0.0000001
 40
0.0
 40
0.0
 40
0.0
 40
0.0
 40
1.0
 40
1.0
 40
1.0
 40
1.0
 10
933.2672578869
 20
605.6824529986
 30
0.0
 10
933.1168458734
 20
605.7663078533
 30
0.0
 10
932.9394653504
 20
605.8124479767
 30
0.0
 10
932.7672578869
 20
605.8124479767
 30
0.0
  0
LINE
  5
319
330
1B
100
AcDbEntity
 67
     1
  8
7_ALL_FEATURES
  6
Continuous
 62
     7
100
AcDbLine
 10
2182.5172578869
 20
614.9448328625
 30
0.0
 11
2182.5172578869
 21
615.0457920378
 31
0.0
  0
SPLINE
  5
31A
330
1B
100
AcDbEntity
 67
     1
  8
7_ALL_FEATURES
  6
Continuous
 62
     7
100
AcDbSpline
 70
     0
 71
     3
 72
     8
 73
     4
 74
     0
 42
0.000000001
 43
0.0000001
 40
0.0
 40
0.0
 40
0.0
 40
0.0
 40
1.0
 40
1.0
 40
1.0
 40
1.0
 10
947.7672578869
 20
605.8124479767
 30
0.0
 10
947.4363721314
 20
605.8124479767
 30
0.0
 10
947.0698272042
 20
605.6120126059
 30
0.0
 10
946.9012324832
 20
605.3273001136
 30
0.0
  0
LINE
  5
31B
330
1B
100
AcDbEntity
 67
     1
  8
7_ALL_FEATURES
  6
Continuous
 62
     7
100
AcDbLine
 10
2182.5172578869
 20
614.7133870095
 30
0.0
 11
2182.5172578869
 21
614.906924526
 31
0.0
  0
SPLINE
  5
31C
330
1B
100
AcDbEntity
 67
     1
  8
7_ALL_FEATURES
  6
Continuous
 62
     7
100
AcDbSpline
 70
     0
 71
     3
 72
     8
 73
     4
 74
     0
 42
0.000000001
 43
0.0000001
 40
0.0
 40
0.0
 40
0.0
 40
0.0
 40
1.0
 40
1.0
 40
1.0
 40
1.0
 10
705.0172578869
 20
605.8124479767
 30
0.0
 10
704.6863721314
 20
605.8124479767
 30
0.0
 10
704.3198272042
 20
605.6120126059
 30
0.0
 10
704.1512324832
 20
605.3273001136
 30
0.0
  0
LINE
  5
31D
330
1B
100
AcDbEntity
 67
     1
  8
7_ALL_FEATURES
  6
Continuous
 62
     7
100
AcDbLine
 10
2182.5172578869
 20
670.85948797
 30
0.0
 11
2182.5172578869
 21
671.2164462205
 31
0.0
  0
LINE
  5
31E
330
1B
100
AcDbEntity
 67
     1
  8
7_ALL_FEATURES
  6
Continuous
 62
     7
100
AcDbLine
 10
669.5172578869
 20
670.85948797
 30
0.0
 11
669.5172578869
 21
671.2164462205
 31
0.0
  0
LINE
  5
31F
330
1B
100
AcDbEntity
 67
     1
  8
7_ALL_FEATURES
  6
Continuous
 62
     7
100
AcDbLine
 10
2177.5172578869
 20
675.6911180285
 30
0.0
 11
1426.0172578869
 21
675.6911180285
 31
0.0
  0
LINE
  5
320
330
1B
100
AcDbEntity
 67
     1
  8
7_ALL_FEATURES
  6
Continuous
 62
     7
100
AcDbLine
 10
1426.0172578869
 20
675.6911180285
 30
0.0
 11
674.5172578869
 21
675.6911180285
 31
0.0
  0
SPLINE
  5
321
330
1B
100
AcDbEntity
 67
     1
  8
7_ALL_FEATURES
  6
Continuous
 62
     7
100
AcDbSpline
 70
     0
 71
     3
 72
     8
 73
     4
 74
     0
 42
0.000000001
 43
0.0000001
 40
0.0
 40
0.0
 40
0.0
 40
0.0
 40
1.0
 40
1.0
 40
1.0
 40
1.0
 10
2177.5172578869
 20
675.6911180285
 30
0.0
 10
2178.1650904448
 20
675.6911180285
 30
0.0
 10
2178.8231230681
 20
675.5753763576
 30
0.0
 10
2179.4306750488
 20
675.3505039186
 30
0.0
  0
SPLINE
  5
322
330
1B
100
AcDbEntity
 67
     1
  8
7_ALL_FEATURES
  6
Continuous
 62
     7
100
AcDbSpline
 70
     0
 71
     3
 72
     8
 73
     4
 74
     0
 42
0.000000001
 43
0.0000001
 40
0.0
 40
0.0
 40
0.0
 40
0.0
 40
1.0
 40
1.0
 40
1.0
 40
1.0
 10
2179.4306750488
 20
675.3505039186
 30
0.0
 10
2180.5658682552
 20
674.9303363062
 30
0.0
 10
2181.6288621321
 20
674.0276239101
 30
0.0
 10
2182.1366555495
 20
672.9288289867
 30
0.0
  0
LINE
  5
323
330
1B
100
AcDbEntity
 67
     1
  8
7_ALL_FEATURES
  6
Continuous
 62
     7
100
AcDbLine
 10
694.0172578869
 20
602.6991330977
 30
0.0
 11
692.8692075898
 21
602.6991330977
 31
0.0
  0
LINE
  5
324
330
1B
100
AcDbEntity
 67
     1
  8
7_ALL_FEATURES
  6
Continuous
 62
     7
100
AcDbLine
 10
692.8692075898
 20
602.6991330977
 30
0.0
 11
691.2456192894
 21
602.6991330977
 31
0.0
  0
LINE
  5
325
330
1B
100
AcDbEntity
 67
     1
  8
7_ALL_FEATURES
  6
Continuous
 62
     7
100
AcDbLine
 10
691.2456192894
 20
602.6991330977
 30
0.0
 11
691.0172578869
 21
602.6991330977
 31
0.0
  0
LINE
  5
326
330
1B
100
AcDbEntity
 67
     1
  8
7_ALL_FEATURES
  6
Continuous
 62
     7
100
AcDbLine
 10
694.0172578869
 20
602.6991330977
 30
0.0
 11
701.0172578869
 21
602.6991330977
 31
0.0
  0
LINE
  5
327
330
1B
100
AcDbEntity
 67
     1
  8
7_ALL_FEATURES
  6
Continuous
 62
     7
100
AcDbLine
 10
704.0172578869
 20
602.6991330977
 30
0.0
 11
702.165308184
 21
602.6991330977
 31
0.0
  0
LINE
  5
328
330
1B
100
AcDbEntity
 67
     1
  8
7_ALL_FEATURES
  6
Continuous
 62
     7
100
AcDbLine
 10
702.165308184
 20
602.6991330977
 30
0.0
 11
701.0172578869
 21
602.6991330977
 31
0.0
  0
LINE
  5
329
330
1B
100
AcDbEntity
 67
     1
  8
7_ALL_FEATURES
  6
Continuous
 62
     7
100
AcDbLine
 10
936.7672578869
 20
602.6991330977
 30
0.0
 11
935.6192075898
 21
602.6991330977
 31
0.0
  0
LINE
  5
32A
330
1B
100
AcDbEntity
 67
     1
  8
7_ALL_FEATURES
  6
Continuous
 62
     7
100
AcDbLine
 10
935.6192075898
 20
602.6991330977
 30
0.0
 11
933.9956192894
 21
602.6991330977
 31
0.0
  0
LINE
  5
32B
330
1B
100
AcDbEntity
 67
     1
  8
7_ALL_FEATURES
  6
Continuous
 62
     7
100
AcDbLine
 10
933.9956192894
 20
602.6991330977
 30
0.0
 11
933.7672578869
 21
602.6991330977
 31
0.0
  0
LINE
  5
32C
330
1B
100
AcDbEntity
 67
     1
  8
7_ALL_FEATURES
  6
Continuous
 62
     7
100
AcDbLine
 10
936.7672578869
 20
602.6991330977
 30
0.0
 11
943.7672578869
 21
602.6991330977
 31
0.0
  0
LINE
  5
32D
330
1B
100
AcDbEntity
 67
     1
  8
7_ALL_FEATURES
  6
Continuous
 62
     7
100
AcDbLine
 10
946.7672578869
 20
602.6991330977
 30
0.0
 11
944.915308184
 21
602.6991330977
 31
0.0
  0
LINE
  5
32E
330
1B
100
AcDbEntity
 67
     1
  8
7_ALL_FEATURES
  6
Continuous
 62
     7
100
AcDbLine
 10
944.915308184
 20
602.6991330977
 30
0.0
 11
943.7672578869
 21
602.6991330977
 31
0.0
  0
LINE
  5
32F
330
1B
100
AcDbEntity
 67
     1
  8
7_ALL_FEATURES
  6
Continuous
 62
     7
100
AcDbLine
 10
1179.5172578869
 20
602.6991330977
 30
0.0
 11
1178.3692075898
 21
602.6991330977
 31
0.0
  0
LINE
  5
330
330
1B
100
AcDbEntity
 67
     1
  8
7_ALL_FEATURES
  6
Continuous
 62
     7
100
AcDbLine
 10
1178.3692075898
 20
602.6991330977
 30
0.0
 11
1176.7456192894
 21
602.6991330977
 31
0.0
  0
LINE
  5
331
330
1B
100
AcDbEntity
 67
     1
  8
7_ALL_FEATURES
  6
Continuous
 62
     7
100
AcDbLine
 10
1176.7456192894
 20
602.6991330977
 30
0.0
 11
1176.5172578869
 21
602.6991330977
 31
0.0
  0
LINE
  5
332
330
1B
100
AcDbEntity
 67
     1
  8
7_ALL_FEATURES
  6
Continuous
 62
     7
100
AcDbLine
 10
1179.5172578869
 20
602.6991330977
 30
0.0
 11
1186.5172578869
 21
602.6991330977
 31
0.0
  0
LINE
  5
333
330
1B
100
AcDbEntity
 67
     1
  8
7_ALL_FEATURES
  6
Continuous
 62
     7
100
AcDbLine
 10
1189.5172578869
 20
602.6991330977
 30
0.0
 11
1187.665308184
 21
602.6991330977
 31
0.0
  0
LINE
  5
334
330
1B
100
AcDbEntity
 67
     1
  8
7_ALL_FEATURES
  6
Continuous
 62
     7
100
AcDbLine
 10
1187.665308184
 20
602.6991330977
 30
0.0
 11
1186.5172578869
 21
602.6991330977
 31
0.0
  0
LINE
  5
335
330
1B
100
AcDbEntity
 67
     1
  8
7_ALL_FEATURES
  6
Continuous
 62
     7
100
AcDbLine
 10
1422.5172578869
 20
602.6991330977
 30
0.0
 11
1421.3692075898
 21
602.6991330977
 31
0.0
  0
LINE
  5
336
330
1B
100
AcDbEntity
 67
     1
  8
7_ALL_FEATURES
  6
Continuous
 62
     7
100
AcDbLine
 10
1421.3692075898
 20
602.6991330977
 30
0.0
 11
1419.7456192894
 21
602.6991330977
 31
0.0
  0
LINE
  5
337
330
1B
100
AcDbEntity
 67
     1
  8
7_ALL_FEATURES
  6
Continuous
 62
     7
100
AcDbLine
 10
1419.7456192894
 20
602.6991330977
 30
0.0
 11
1419.5172578869
 21
602.6991330977
 31
0.0
  0
LINE
  5
338
330
1B
100
AcDbEntity
 67
     1
  8
7_ALL_FEATURES
  6
Continuous
 62
     7
100
AcDbLine
 10
1422.5172578869
 20
602.6991330977
 30
0.0
 11
1429.5172578869
 21
602.6991330977
 31
0.0
  0
LINE
  5
339
330
1B
100
AcDbEntity
 67
     1
  8
7_ALL_FEATURES
  6
Continuous
 62
     7
100
AcDbLine
 10
1432.5172578869
 20
602.6991330977
 30
0.0
 11
1430.665308184
 21
602.6991330977
 31
0.0
  0
LINE
  5
33A
330
1B
100
AcDbEntity
 67
     1
  8
7_ALL_FEATURES
  6
Continuous
 62
     7
100
AcDbLine
 10
1430.665308184
 20
602.6991330977
 30
0.0
 11
1429.5172578869
 21
602.6991330977
 31
0.0
  0
LINE
  5
33B
330
1B
100
AcDbEntity
 67
     1
  8
7_ALL_FEATURES
  6
Continuous
 62
     7
100
AcDbLine
 10
1665.5172578869
 20
602.6991330977
 30
0.0
 11
1664.3692075898
 21
602.6991330977
 31
0.0
  0
LINE
  5
33C
330
1B
100
AcDbEntity
 67
     1
  8
7_ALL_FEATURES
  6
Continuous
 62
     7
100
AcDbLine
 10
1664.3692075898
 20
602.6991330977
 30
0.0
 11
1662.7456192894
 21
602.6991330977
 31
0.0
  0
LINE
  5
33D
330
1B
100
AcDbEntity
 67
     1
  8
7_ALL_FEATURES
  6
Continuous
 62
     7
100
AcDbLine
 10
1662.7456192894
 20
602.6991330977
 30
0.0
 11
1662.5172578869
 21
602.6991330977
 31
0.0
  0
LINE
  5
33E
330
1B
100
AcDbEntity
 67
     1
  8
7_ALL_FEATURES
  6
Continuous
 62
     7
100
AcDbLine
 10
1665.5172578869
 20
602.6991330977
 30
0.0
 11
1672.5172578869
 21
602.6991330977
 31
0.0
  0
LINE
  5
33F
330
1B
100
AcDbEntity
 67
     1
  8
7_ALL_FEATURES
  6
Continuous
 62
     7
100
AcDbLine
 10
1675.5172578869
 20
602.6991330977
 30
0.0
 11
1673.665308184
 21
602.6991330977
 31
0.0
  0
LINE
  5
340
330
1B
100
AcDbEntity
 67
     1
  8
7_ALL_FEATURES
  6
Continuous
 62
     7
100
AcDbLine
 10
1673.665308184
 20
602.6991330977
 30
0.0
 11
1672.5172578869
 21
602.6991330977
 31
0.0
  0
LINE
  5
341
330
1B
100
AcDbEntity
 67
     1
  8
7_ALL_FEATURES
  6
Continuous
 62
     7
100
AcDbLine
 10
1908.2672578869
 20
602.6991330977
 30
0.0
 11
1907.1192075898
 21
602.6991330977
 31
0.0
  0
LINE
  5
342
330
1B
100
AcDbEntity
 67
     1
  8
7_ALL_FEATURES
  6
Continuous
 62
     7
100
AcDbLine
 10
1907.1192075898
 20
602.6991330977
 30
0.0
 11
1905.4956192894
 21
602.6991330977
 31
0.0
  0
LINE
  5
343
330
1B
100
AcDbEntity
 67
     1
  8
7_ALL_FEATURES
  6
Continuous
 62
     7
100
AcDbLine
 10
1905.4956192894
 20
602.6991330977
 30
0.0
 11
1905.2672578869
 21
602.6991330977
 31
0.0
  0
LINE
  5
344
330
1B
100
AcDbEntity
 67
     1
  8
7_ALL_FEATURES
  6
Continuous
 62
     7
100
AcDbLine
 10
1908.2672578869
 20
602.6991330977
 30
0.0
 11
1915.2672578869
 21
602.6991330977
 31
0.0
  0
LINE
  5
345
330
1B
100
AcDbEntity
 67
     1
  8
7_ALL_FEATURES
  6
Continuous
 62
     7
100
AcDbLine
 10
1918.2672578869
 20
602.6991330977
 30
0.0
 11
1916.415308184
 21
602.6991330977
 31
0.0
  0
LINE
  5
346
330
1B
100
AcDbEntity
 67
     1
  8
7_ALL_FEATURES
  6
Continuous
 62
     7
100
AcDbLine
 10
1916.415308184
 20
602.6991330977
 30
0.0
 11
1915.2672578869
 21
602.6991330977
 31
0.0
  0
LINE
  5
347
330
1B
100
AcDbEntity
 67
     1
  8
7_ALL_FEATURES
  6
Continuous
 62
     7
100
AcDbLine
 10
2151.0172578869
 20
602.6991330977
 30
0.0
 11
2149.8692075898
 21
602.6991330977
 31
0.0
  0
LINE
  5
348
330
1B
100
AcDbEntity
 67
     1
  8
7_ALL_FEATURES
  6
Continuous
 62
     7
100
AcDbLine
 10
2149.8692075898
 20
602.6991330977
 30
0.0
 11
2148.2456192894
 21
602.6991330977
 31
0.0
  0
LINE
  5
349
330
1B
100
AcDbEntity
 67
     1
  8
7_ALL_FEATURES
  6
Continuous
 62
     7
100
AcDbLine
 10
2148.2456192894
 20
602.6991330977
 30
0.0
 11
2148.0172578869
 21
602.6991330977
 31
0.0
  0
LINE
  5
34A
330
1B
100
AcDbEntity
 67
     1
  8
7_ALL_FEATURES
  6
Continuous
 62
     7
100
AcDbLine
 10
2151.0172578869
 20
602.6991330977
 30
0.0
 11
2158.0172578869
 21
602.6991330977
 31
0.0
  0
LINE
  5
34B
330
1B
100
AcDbEntity
 67
     1
  8
7_ALL_FEATURES
  6
Continuous
 62
     7
100
AcDbLine
 10
2161.0172578869
 20
602.6991330977
 30
0.0
 11
2159.165308184
 21
602.6991330977
 31
0.0
  0
LINE
  5
34C
330
1B
100
AcDbEntity
 67
     1
  8
7_ALL_FEATURES
  6
Continuous
 62
     7
100
AcDbLine
 10
2159.165308184
 20
602.6991330977
 30
0.0
 11
2158.0172578869
 21
602.6991330977
 31
0.0
  0
LINE
  5
34D
330
1B
100
AcDbEntity
 67
     1
  8
7_ALL_FEATURES
  6
Continuous
 62
     7
100
AcDbLine
 10
932.7672578869
 20
605.8124479767
 30
0.0
 11
705.0172578869
 21
605.8124479767
 31
0.0
  0
LINE
  5
34E
330
1B
100
AcDbEntity
 67
     1
  8
7_ALL_FEATURES
  6
Continuous
 62
     7
100
AcDbLine
 10
1175.5172578869
 20
605.8124479767
 30
0.0
 11
947.7672578869
 21
605.8124479767
 31
0.0
  0
LINE
  5
34F
330
1B
100
AcDbEntity
 67
     1
  8
7_ALL_FEATURES
  6
Continuous
 62
     7
100
AcDbLine
 10
1418.5172578869
 20
605.8124479767
 30
0.0
 11
1190.5172578869
 21
605.8124479767
 31
0.0
  0
LINE
  5
350
330
1B
100
AcDbEntity
 67
     1
  8
7_ALL_FEATURES
  6
Continuous
 62
     7
100
AcDbLine
 10
704.0172578869
 20
605.0356897669
 30
0.0
 11
704.0172578869
 21
604.8421522504
 31
0.0
  0
LINE
  5
351
330
1B
100
AcDbEntity
 67
     1
  8
7_ALL_FEATURES
  6
Continuous
 62
     7
100
AcDbLine
 10
1661.5172578869
 20
605.8124479767
 30
0.0
 11
1433.5172578869
 21
605.8124479767
 31
0.0
  0
LINE
  5
352
330
1B
100
AcDbEntity
 67
     1
  8
7_ALL_FEATURES
  6
Continuous
 62
     7
100
AcDbLine
 10
933.7672578869
 20
604.1055955812
 30
0.0
 11
933.7672578869
 21
603.9120580647
 31
0.0
  0
LINE
  5
353
330
1B
100
AcDbEntity
 67
     1
  8
7_ALL_FEATURES
  6
Continuous
 62
     7
100
AcDbLine
 10
1904.2672578869
 20
605.8124479767
 30
0.0
 11
1676.5172578869
 21
605.8124479767
 31
0.0
  0
LINE
  5
354
330
1B
100
AcDbEntity
 67
     1
  8
7_ALL_FEATURES
  6
Continuous
 62
     7
100
AcDbLine
 10
933.7672578869
 20
605.0356897669
 30
0.0
 11
933.7672578869
 21
604.8421522504
 31
0.0
  0
LINE
  5
355
330
1B
100
AcDbEntity
 67
     1
  8
7_ALL_FEATURES
  6
Continuous
 62
     7
100
AcDbLine
 10
946.7672578869
 20
605.0356897669
 30
0.0
 11
946.7672578869
 21
604.8421522504
 31
0.0
  0
LINE
  5
356
330
1B
100
AcDbEntity
 67
     1
  8
7_ALL_FEATURES
  6
Continuous
 62
     7
100
AcDbLine
 10
2147.0172578869
 20
605.8124479767
 30
0.0
 11
1919.2672578869
 21
605.8124479767
 31
0.0
  0
LINE
  5
357
330
1B
100
AcDbEntity
 67
     1
  8
7_ALL_FEATURES
  6
Continuous
 62
     7
100
AcDbLine
 10
1176.5172578869
 20
604.1055955812
 30
0.0
 11
1176.5172578869
 21
603.9120580647
 31
0.0
  0
LINE
  5
358
330
1B
100
AcDbEntity
 67
     1
  8
7_ALL_FEATURES
  6
Continuous
 62
     7
100
AcDbLine
 10
1176.5172578869
 20
605.0356897669
 30
0.0
 11
1176.5172578869
 21
604.8421522504
 31
0.0
  0
LINE
  5
359
330
1B
100
AcDbEntity
 67
     1
  8
7_ALL_FEATURES
  6
Continuous
 62
     7
100
AcDbLine
 10
2177.5172578869
 20
605.8124479767
 30
0.0
 11
2162.0172578869
 21
605.8124479767
 31
0.0
  0
SPLINE
  5
35A
330
1B
100
AcDbEntity
 67
     1
  8
7_ALL_FEATURES
  6
Continuous
 62
     7
100
AcDbSpline
 70
     0
 71
     3
 72
     8
 73
     4
 74
     0
 42
0.000000001
 43
0.0000001
 40
0.0
 40
0.0
 40
0.0
 40
0.0
 40
1.0
 40
1.0
 40
1.0
 40
1.0
 10
2182.1366555495
 20
608.8073461134
 30
0.0
 10
2181.6438494031
 20
607.6511842805
 30
0.0
 10
2180.5970703031
 20
606.6498155113
 30
0.0
 10
2179.4306750488
 20
606.1817447982
 30
0.0
  0
SPLINE
  5
35B
330
1B
100
AcDbEntity
 67
     1
  8
7_ALL_FEATURES
  6
Continuous
 62
     7
100
AcDbSpline
 70
     0
 71
     3
 72
     8
 73
     4
 74
     0
 42
0.000000001
 43
0.0000001
 40
0.0
 40
0.0
 40
0.0
 40
0.0
 40
1.0
 40
1.0
 40
1.0
 40
1.0
 10
2179.4306750488
 20
606.1817447982
 30
0.0
 10
2178.82782847
 20
605.9398243797
 30
0.0
 10
2178.1668342769
 20
605.8124479767
 30
0.0
 10
2177.5172578869
 20
605.8124479767
 30
0.0
  0
SPLINE
  5
35C
330
1B
100
AcDbEntity
 67
     1
  8
7_ALL_FEATURES
  6
Continuous
 62
     7
100
AcDbSpline
 70
     0
 71
     3
 72
     8
 73
     4
 74
     0
 42
0.000000001
 43
0.0000001
 40
0.0
 40
0.0
 40
0.0
 40
0.0
 40
1.0
 40
1.0
 40
1.0
 40
1.0
 10
674.5172578869
 20
605.8124479767
 30
0.0
 10
673.867681497
 20
605.8124479767
 30
0.0
 10
673.2066873039
 20
605.9398243797
 30
0.0
 10
672.6038407251
 20
606.1817447982
 30
0.0
  0
SPLINE
  5
35D
330
1B
100
AcDbEntity
 67
     1
  8
7_ALL_FEATURES
  6
Continuous
 62
     7
100
AcDbSpline
 70
     0
 71
     3
 72
     8
 73
     4
 74
     0
 42
0.000000001
 43
0.0000001
 40
0.0
 40
0.0
 40
0.0
 40
0.0
 40
1.0
 40
1.0
 40
1.0
 40
1.0
 10
672.6038407251
 20
606.1817447982
 30
0.0
 10
671.4374454707
 20
606.6498155113
 30
0.0
 10
670.3906663708
 20
607.6511842805
 30
0.0
 10
669.8978602244
 20
608.8073461134
 30
0.0
  0
LINE
  5
35E
330
1B
100
AcDbEntity
 67
     1
  8
7_ALL_FEATURES
  6
Continuous
 62
     7
100
AcDbLine
 10
674.5172578869
 20
605.8124479767
 30
0.0
 11
690.0172578869
 21
605.8124479767
 31
0.0
  0
LINE
  5
35F
330
1B
100
AcDbEntity
 67
     1
  8
7_ALL_FEATURES
  6
Continuous
 62
     7
100
AcDbLine
 10
1189.5172578869
 20
605.0356897669
 30
0.0
 11
1189.5172578869
 21
604.8421522504
 31
0.0
  0
LINE
  5
360
330
1B
100
AcDbEntity
 67
     1
  8
7_ALL_FEATURES
  6
Continuous
 62
     7
100
AcDbLine
 10
669.5172578869
 20
610.6639266081
 30
0.0
 11
669.5172578869
 21
610.8574641246
 31
0.0
  0
LINE
  5
361
330
1B
100
AcDbEntity
 67
     1
  8
7_ALL_FEATURES
  6
Continuous
 62
     7
100
AcDbLine
 10
1419.5172578869
 20
604.1055955812
 30
0.0
 11
1419.5172578869
 21
603.9120580647
 31
0.0
  0
LINE
  5
362
330
1B
100
AcDbEntity
 67
     1
  8
7_ALL_FEATURES
  6
Continuous
 62
     7
100
AcDbLine
 10
2182.5172578869
 20
610.6639266081
 30
0.0
 11
2182.5172578869
 21
610.8574641246
 31
0.0
  0
LINE
  5
363
330
1B
100
AcDbEntity
 67
     1
  8
7_ALL_FEATURES
  6
Continuous
 62
     7
100
AcDbLine
 10
1432.5172578869
 20
605.0356897669
 30
0.0
 11
1432.5172578869
 21
604.8421522504
 31
0.0
  0
LINE
  5
364
330
1B
100
AcDbEntity
 67
     1
  8
7_ALL_FEATURES
  6
Continuous
 62
     7
100
AcDbLine
 10
691.0172578869
 20
602.6991330977
 30
0.0
 11
691.0172578869
 21
603.4991330977
 31
0.0
  0
LINE
  5
365
330
1B
100
AcDbEntity
 67
     1
  8
7_ALL_FEATURES
  6
Continuous
 62
     7
100
AcDbLine
 10
704.0172578869
 20
602.6991330977
 30
0.0
 11
704.0172578869
 21
603.4991330977
 31
0.0
  0
LINE
  5
366
330
1B
100
AcDbEntity
 67
     1
  8
7_ALL_FEATURES
  6
Continuous
 62
     7
100
AcDbLine
 10
933.7672578869
 20
602.6991330977
 30
0.0
 11
933.7672578869
 21
603.4991330977
 31
0.0
  0
LINE
  5
367
330
1B
100
AcDbEntity
 67
     1
  8
7_ALL_FEATURES
  6
Continuous
 62
     7
100
AcDbLine
 10
946.7672578869
 20
602.6991330977
 30
0.0
 11
946.7672578869
 21
603.4991330977
 31
0.0
  0
LINE
  5
368
330
1B
100
AcDbEntity
 67
     1
  8
7_ALL_FEATURES
  6
Continuous
 62
     7
100
AcDbLine
 10
1176.5172578869
 20
602.6991330977
 30
0.0
 11
1176.5172578869
 21
603.4991330977
 31
0.0
  0
LINE
  5
369
330
1B
100
AcDbEntity
 67
     1
  8
7_ALL_FEATURES
  6
Continuous
 62
     7
100
AcDbLine
 10
1189.5172578869
 20
602.6991330977
 30
0.0
 11
1189.5172578869
 21
603.4991330977
 31
0.0
  0
LINE
  5
36A
330
1B
100
AcDbEntity
 67
     1
  8
7_ALL_FEATURES
  6
Continuous
 62
     7
100
AcDbLine
 10
1662.5172578869
 20
604.1055955812
 30
0.0
 11
1662.5172578869
 21
603.9120580647
 31
0.0
  0
LINE
  5
36B
330
1B
100
AcDbEntity
 67
     1
  8
7_ALL_FEATURES
  6
Continuous
 62
     7
100
AcDbLine
 10
1419.5172578869
 20
602.6991330977
 30
0.0
 11
1419.5172578869
 21
603.4991330977
 31
0.0
  0
LINE
  5
36C
330
1B
100
AcDbEntity
 67
     1
  8
7_ALL_FEATURES
  6
Continuous
 62
     7
100
AcDbLine
 10
1432.5172578869
 20
602.6991330977
 30
0.0
 11
1432.5172578869
 21
603.4991330977
 31
0.0
  0
LINE
  5
36D
330
1B
100
AcDbEntity
 67
     1
  8
7_ALL_FEATURES
  6
Continuous
 62
     7
100
AcDbLine
 10
1662.5172578869
 20
602.6991330977
 30
0.0
 11
1662.5172578869
 21
603.4991330977
 31
0.0
  0
LINE
  5
36E
330
1B
100
AcDbEntity
 67
     1
  8
7_ALL_FEATURES
  6
Continuous
 62
     7
100
AcDbLine
 10
1675.5172578869
 20
602.6991330977
 30
0.0
 11
1675.5172578869
 21
603.4991330977
 31
0.0
  0
LINE
  5
36F
330
1B
100
AcDbEntity
 67
     1
  8
7_ALL_FEATURES
  6
Continuous
 62
     7
100
AcDbLine
 10
1905.2672578869
 20
602.6991330977
 30
0.0
 11
1905.2672578869
 21
603.4991330977
 31
0.0
  0
LINE
  5
370
330
1B
100
AcDbEntity
 67
     1
  8
7_ALL_FEATURES
  6
Continuous
 62
     7
100
AcDbLine
 10
1918.2672578869
 20
602.6991330977
 30
0.0
 11
1918.2672578869
 21
603.4991330977
 31
0.0
  0
LINE
  5
371
330
1B
100
AcDbEntity
 67
     1
  8
7_ALL_FEATURES
  6
Continuous
 62
     7
100
AcDbLine
 10
1905.2672578869
 20
604.1055955812
 30
0.0
 11
1905.2672578869
 21
603.9120580647
 31
0.0
  0
LINE
  5
372
330
1B
100
AcDbEntity
 67
     1
  8
7_ALL_FEATURES
  6
Continuous
 62
     7
100
AcDbLine
 10
2148.0172578869
 20
602.6991330977
 30
0.0
 11
2148.0172578869
 21
603.4991330977
 31
0.0
  0
LINE
  5
373
330
1B
100
AcDbEntity
 67
     1
  8
7_ALL_FEATURES
  6
Continuous
 62
     7
100
AcDbLine
 10
2161.0172578869
 20
602.6991330977
 30
0.0
 11
2161.0172578869
 21
603.4991330977
 31
0.0
  0
LINE
  5
374
330
1B
100
AcDbEntity
 67
     1
  8
7_ALL_FEATURES
  6
Continuous
 62
     7
100
AcDbLine
 10
1918.2672578869
 20
605.0356897669
 30
0.0
 11
1918.2672578869
 21
604.8421522504
 31
0.0
  0
LINE
  5
375
330
1B
100
AcDbEntity
 67
     1
  8
7_ALL_FEATURES
  6
Continuous
 62
     7
100
AcDbLine
 10
691.0172578869
 20
604.1055955812
 30
0.0
 11
691.0172578869
 21
603.9120580647
 31
0.0
  0
LINE
  5
376
330
1B
100
AcDbEntity
 67
     1
  8
7_ALL_FEATURES
  6
Continuous
 62
     7
100
AcDbLine
 10
2161.0172578869
 20
605.0356897669
 30
0.0
 11
2161.0172578869
 21
604.8421522504
 31
0.0
  0
LINE
  5
377
330
1B
100
AcDbEntity
 67
     1
  8
7_ALL_FEATURES
  6
Continuous
 62
     7
100
AcDbLine
 10
2148.0172578869
 20
604.1055955812
 30
0.0
 11
2148.0172578869
 21
603.9120580647
 31
0.0
  0
LINE
  5
378
330
1B
100
AcDbEntity
 67
     1
  8
7_ALL_FEATURES
  6
Continuous
 62
     9
100
AcDbLine
 10
2158.0172578869
 20
602.6991330977
 30
0.0
 11
2158.0172578869
 21
603.4991330977
 31
0.0
  0
LINE
  5
379
330
1B
100
AcDbEntity
 67
     1
  8
7_ALL_FEATURES
  6
Continuous
 62
     9
100
AcDbLine
 10
2151.0172578869
 20
602.6991330977
 30
0.0
 11
2151.0172578869
 21
603.4991330977
 31
0.0
  0
LINE
  5
37A
330
1B
100
AcDbEntity
 67
     1
  8
7_ALL_FEATURES
  6
Continuous
 62
     9
100
AcDbLine
 10
674.5172578869
 20
675.334159778
 30
0.0
 11
674.5172578869
 21
675.6911180285
 31
0.0
  0
LINE
  5
37B
330
1B
100
AcDbEntity
 67
     1
  8
7_ALL_FEATURES
  6
Continuous
 62
     9
100
AcDbLine
 10
2177.5172578869
 20
675.334159778
 30
0.0
 11
2177.5172578869
 21
675.6911180285
 31
0.0
  0
LINE
  5
37C
330
1B
100
AcDbEntity
 67
     1
  8
7_ALL_FEATURES
  6
Continuous
 62
     9
100
AcDbLine
 10
1915.2672578869
 20
602.6991330977
 30
0.0
 11
1915.2672578869
 21
603.4991330977
 31
0.0
  0
LINE
  5
37D
330
1B
100
AcDbEntity
 67
     1
  8
7_ALL_FEATURES
  6
Continuous
 62
     9
100
AcDbLine
 10
1908.2672578869
 20
602.6991330977
 30
0.0
 11
1908.2672578869
 21
603.4991330977
 31
0.0
  0
LINE
  5
37E
330
1B
100
AcDbEntity
 67
     1
  8
7_ALL_FEATURES
  6
Continuous
 62
     9
100
AcDbLine
 10
932.7672578869
 20
606.0059854932
 30
0.0
 11
932.7672578869
 21
605.8124479767
 31
0.0
  0
LINE
  5
37F
330
1B
100
AcDbEntity
 67
     1
  8
7_ALL_FEATURES
  6
Continuous
 62
     9
100
AcDbLine
 10
705.0172578869
 20
606.0059854932
 30
0.0
 11
705.0172578869
 21
605.8124479767
 31
0.0
  0
LINE
  5
380
330
1B
100
AcDbEntity
 67
     1
  8
7_ALL_FEATURES
  6
Continuous
 62
     9
100
AcDbLine
 10
1175.5172578869
 20
606.0059854932
 30
0.0
 11
1175.5172578869
 21
605.8124479767
 31
0.0
  0
LINE
  5
381
330
1B
100
AcDbEntity
 67
     1
  8
7_ALL_FEATURES
  6
Continuous
 62
     9
100
AcDbLine
 10
947.7672578869
 20
606.0059854932
 30
0.0
 11
947.7672578869
 21
605.8124479767
 31
0.0
  0
LINE
  5
382
330
1B
100
AcDbEntity
 67
     1
  8
7_ALL_FEATURES
  6
Continuous
 62
     9
100
AcDbLine
 10
1418.5172578869
 20
606.0059854932
 30
0.0
 11
1418.5172578869
 21
605.8124479767
 31
0.0
  0
LINE
  5
383
330
1B
100
AcDbEntity
 67
     1
  8
7_ALL_FEATURES
  6
Continuous
 62
     9
100
AcDbLine
 10
694.0172578869
 20
602.6991330977
 30
0.0
 11
694.0172578869
 21
603.4991330977
 31
0.0
  0
LINE
  5
384
330
1B
100
AcDbEntity
 67
     1
  8
7_ALL_FEATURES
  6
Continuous
 62
     9
100
AcDbLine
 10
701.0172578869
 20
602.6991330977
 30
0.0
 11
701.0172578869
 21
603.4991330977
 31
0.0
  0
LINE
  5
385
330
1B
100
AcDbEntity
 67
     1
  8
7_ALL_FEATURES
  6
Continuous
 62
     9
100
AcDbLine
 10
1190.5172578869
 20
606.0059854932
 30
0.0
 11
1190.5172578869
 21
605.8124479767
 31
0.0
  0
LINE
  5
386
330
1B
100
AcDbEntity
 67
     1
  8
7_ALL_FEATURES
  6
Continuous
 62
     9
100
AcDbLine
 10
1672.5172578869
 20
602.6991330977
 30
0.0
 11
1672.5172578869
 21
603.4991330977
 31
0.0
  0
LINE
  5
387
330
1B
100
AcDbEntity
 67
     1
  8
7_ALL_FEATURES
  6
Continuous
 62
     9
100
AcDbLine
 10
1665.5172578869
 20
602.6991330977
 30
0.0
 11
1665.5172578869
 21
603.4991330977
 31
0.0
  0
LINE
  5
388
330
1B
100
AcDbEntity
 67
     1
  8
7_ALL_FEATURES
  6
Continuous
 62
     9
100
AcDbLine
 10
1429.5172578869
 20
602.6991330977
 30
0.0
 11
1429.5172578869
 21
603.4991330977
 31
0.0
  0
LINE
  5
389
330
1B
100
AcDbEntity
 67
     1
  8
7_ALL_FEATURES
  6
Continuous
 62
     9
100
AcDbLine
 10
1422.5172578869
 20
602.6991330977
 30
0.0
 11
1422.5172578869
 21
603.4991330977
 31
0.0
  0
LINE
  5
38A
330
1B
100
AcDbEntity
 67
     1
  8
7_ALL_FEATURES
  6
Continuous
 62
     9
100
AcDbLine
 10
1186.5172578869
 20
602.6991330977
 30
0.0
 11
1186.5172578869
 21
603.4991330977
 31
0.0
  0
LINE
  5
38B
330
1B
100
AcDbEntity
 67
     1
  8
7_ALL_FEATURES
  6
Continuous
 62
     9
100
AcDbLine
 10
1179.5172578869
 20
602.6991330977
 30
0.0
 11
1179.5172578869
 21
603.4991330977
 31
0.0
  0
LINE
  5
38C
330
1B
100
AcDbEntity
 67
     1
  8
7_ALL_FEATURES
  6
Continuous
 62
     9
100
AcDbLine
 10
1661.5172578869
 20
606.0059854932
 30
0.0
 11
1661.5172578869
 21
605.8124479767
 31
0.0
  0
LINE
  5
38D
330
1B
100
AcDbEntity
 67
     1
  8
7_ALL_FEATURES
  6
Continuous
 62
     9
100
AcDbLine
 10
943.7672578869
 20
602.6991330977
 30
0.0
 11
943.7672578869
 21
603.4991330977
 31
0.0
  0
LINE
  5
38E
330
1B
100
AcDbEntity
 67
     1
  8
7_ALL_FEATURES
  6
Continuous
 62
     9
100
AcDbLine
 10
936.7672578869
 20
602.6991330977
 30
0.0
 11
936.7672578869
 21
603.4991330977
 31
0.0
  0
LINE
  5
38F
330
1B
100
AcDbEntity
 67
     1
  8
7_ALL_FEATURES
  6
Continuous
 62
     9
100
AcDbLine
 10
1433.5172578869
 20
606.0059854932
 30
0.0
 11
1433.5172578869
 21
605.8124479767
 31
0.0
  0
LINE
  5
390
330
1B
100
AcDbEntity
 67
     1
  8
7_ALL_FEATURES
  6
Continuous
 62
     9
100
AcDbLine
 10
1904.2672578869
 20
606.0059854932
 30
0.0
 11
1904.2672578869
 21
605.8124479767
 31
0.0
  0
LINE
  5
391
330
1B
100
AcDbEntity
 67
     1
  8
7_ALL_FEATURES
  6
Continuous
 62
     9
100
AcDbLine
 10
1676.5172578869
 20
606.0059854932
 30
0.0
 11
1676.5172578869
 21
605.8124479767
 31
0.0
  0
LINE
  5
392
330
1B
100
AcDbEntity
 67
     1
  8
7_ALL_FEATURES
  6
Continuous
 62
     9
100
AcDbLine
 10
2147.0172578869
 20
606.0059854932
 30
0.0
 11
2147.0172578869
 21
605.8124479767
 31
0.0
  0
LINE
  5
393
330
1B
100
AcDbEntity
 67
     1
  8
7_ALL_FEATURES
  6
Continuous
 62
     9
100
AcDbLine
 10
690.0172578869
 20
606.0059854932
 30
0.0
 11
690.0172578869
 21
605.8124479767
 31
0.0
  0
LINE
  5
394
330
1B
100
AcDbEntity
 67
     1
  8
7_ALL_FEATURES
  6
Continuous
 62
     9
100
AcDbLine
 10
674.5172578869
 20
605.8124479767
 30
0.0
 11
674.5172578869
 21
606.0059854932
 31
0.0
  0
LINE
  5
395
330
1B
100
AcDbEntity
 67
     1
  8
7_ALL_FEATURES
  6
Continuous
 62
     9
100
AcDbLine
 10
2162.0172578869
 20
606.0059854932
 30
0.0
 11
2162.0172578869
 21
605.8124479767
 31
0.0
  0
LINE
  5
396
330
1B
100
AcDbEntity
 67
     1
  8
7_ALL_FEATURES
  6
Continuous
 62
     9
100
AcDbLine
 10
2177.5172578869
 20
605.8124479767
 30
0.0
 11
2177.5172578869
 21
606.0059854932
 31
0.0
  0
LINE
  5
397
330
1B
100
AcDbEntity
 67
     1
  8
7_ALL_FEATURES
  6
Continuous
 62
     9
100
AcDbLine
 10
1919.2672578869
 20
606.0059854932
 30
0.0
 11
1919.2672578869
 21
605.8124479767
 31
0.0
  0
LINE
  5
398
330
1B
100
AcDbEntity
 67
     1
  8
7_ALL_FEATURES
  6
Continuous
 62
     3
100
AcDbLine
 10
2148.0172578869
 20
603.4991330977
 30
0.0
 11
2148.8959375434
 21
603.4991330977
 31
0.0
  0
LINE
  5
399
330
1B
100
AcDbEntity
 67
     1
  8
7_ALL_FEATURES
  6
Continuous
 62
     3
100
AcDbLine
 10
2148.8959375434
 20
603.4991330977
 30
0.0
 11
2149.8692075898
 21
603.4991330977
 31
0.0
  0
LINE
  5
39A
330
1B
100
AcDbEntity
 67
     1
  8
7_ALL_FEATURES
  6
Continuous
 62
     3
100
AcDbLine
 10
2149.8692075898
 20
603.4991330977
 30
0.0
 11
2151.0172578869
 21
603.4991330977
 31
0.0
  0
LINE
  5
39B
330
1B
100
AcDbEntity
 67
     1
  8
7_ALL_FEATURES
  6
Continuous
 62
     3
100
AcDbLine
 10
1905.2672578869
 20
603.4991330977
 30
0.0
 11
1906.1459375434
 21
603.4991330977
 31
0.0
  0
LINE
  5
39C
330
1B
100
AcDbEntity
 67
     1
  8
7_ALL_FEATURES
  6
Continuous
 62
     3
100
AcDbLine
 10
1906.1459375434
 20
603.4991330977
 30
0.0
 11
1907.1192075898
 21
603.4991330977
 31
0.0
  0
LINE
  5
39D
330
1B
100
AcDbEntity
 67
     1
  8
7_ALL_FEATURES
  6
Continuous
 62
     3
100
AcDbLine
 10
1907.1192075898
 20
603.4991330977
 30
0.0
 11
1908.2672578869
 21
603.4991330977
 31
0.0
  0
LINE
  5
39E
330
1B
100
AcDbEntity
 67
     1
  8
7_ALL_FEATURES
  6
Continuous
 62
     3
100
AcDbLine
 10
1662.5172578869
 20
603.4991330977
 30
0.0
 11
1663.3959375434
 21
603.4991330977
 31
0.0
  0
LINE
  5
39F
330
1B
100
AcDbEntity
 67
     1
  8
7_ALL_FEATURES
  6
Continuous
 62
     3
100
AcDbLine
 10
1663.3959375434
 20
603.4991330977
 30
0.0
 11
1664.3692075898
 21
603.4991330977
 31
0.0
  0
LINE
  5
3A0
330
1B
100
AcDbEntity
 67
     1
  8
7_ALL_FEATURES
  6
Continuous
 62
     3
100
AcDbLine
 10
1664.3692075898
 20
603.4991330977
 30
0.0
 11
1665.5172578869
 21
603.4991330977
 31
0.0
  0
LINE
  5
3A1
330
1B
100
AcDbEntity
 67
     1
  8
7_ALL_FEATURES
  6
Continuous
 62
     3
100
AcDbLine
 10
1419.5172578869
 20
603.4991330977
 30
0.0
 11
1420.3959375434
 21
603.4991330977
 31
0.0
  0
LINE
  5
3A2
330
1B
100
AcDbEntity
 67
     1
  8
7_ALL_FEATURES
  6
Continuous
 62
     3
100
AcDbLine
 10
1420.3959375434
 20
603.4991330977
 30
0.0
 11
1421.3692075898
 21
603.4991330977
 31
0.0
  0
LINE
  5
3A3
330
1B
100
AcDbEntity
 67
     1
  8
7_ALL_FEATURES
  6
Continuous
 62
     3
100
AcDbLine
 10
1421.3692075898
 20
603.4991330977
 30
0.0
 11
1422.5172578869
 21
603.4991330977
 31
0.0
  0
LINE
  5
3A4
330
1B
100
AcDbEntity
 67
     1
  8
7_ALL_FEATURES
  6
Continuous
 62
     3
100
AcDbLine
 10
701.0172578869
 20
603.4991330977
 30
0.0
 11
702.165308184
 21
603.4991330977
 31
0.0
  0
LINE
  5
3A5
330
1B
100
AcDbEntity
 67
     1
  8
7_ALL_FEATURES
  6
Continuous
 62
     3
100
AcDbLine
 10
702.165308184
 20
603.4991330977
 30
0.0
 11
703.7888964845
 21
603.4991330977
 31
0.0
  0
LINE
  5
3A6
330
1B
100
AcDbEntity
 67
     1
  8
7_ALL_FEATURES
  6
Continuous
 62
     3
100
AcDbLine
 10
703.7888964845
 20
603.4991330977
 30
0.0
 11
704.0172578869
 21
603.4991330977
 31
0.0
  0
LINE
  5
3A7
330
1B
100
AcDbEntity
 67
     1
  8
7_ALL_FEATURES
  6
Continuous
 62
     3
100
AcDbLine
 10
694.0172578869
 20
603.4991330977
 30
0.0
 11
701.0172578869
 21
603.4991330977
 31
0.0
  0
LINE
  5
3A8
330
1B
100
AcDbEntity
 67
     1
  8
7_ALL_FEATURES
  6
Continuous
 62
     3
100
AcDbLine
 10
1176.5172578869
 20
603.4991330977
 30
0.0
 11
1177.3959375434
 21
603.4991330977
 31
0.0
  0
LINE
  5
3A9
330
1B
100
AcDbEntity
 67
     1
  8
7_ALL_FEATURES
  6
Continuous
 62
     3
100
AcDbLine
 10
1177.3959375434
 20
603.4991330977
 30
0.0
 11
1178.3692075898
 21
603.4991330977
 31
0.0
  0
LINE
  5
3AA
330
1B
100
AcDbEntity
 67
     1
  8
7_ALL_FEATURES
  6
Continuous
 62
     3
100
AcDbLine
 10
1178.3692075898
 20
603.4991330977
 30
0.0
 11
1179.5172578869
 21
603.4991330977
 31
0.0
  0
LINE
  5
3AB
330
1B
100
AcDbEntity
 67
     1
  8
7_ALL_FEATURES
  6
Continuous
 62
     3
100
AcDbLine
 10
933.7672578869
 20
603.4991330977
 30
0.0
 11
934.6459375434
 21
603.4991330977
 31
0.0
  0
LINE
  5
3AC
330
1B
100
AcDbEntity
 67
     1
  8
7_ALL_FEATURES
  6
Continuous
 62
     3
100
AcDbLine
 10
934.6459375434
 20
603.4991330977
 30
0.0
 11
935.6192075898
 21
603.4991330977
 31
0.0
  0
LINE
  5
3AD
330
1B
100
AcDbEntity
 67
     1
  8
7_ALL_FEATURES
  6
Continuous
 62
     3
100
AcDbLine
 10
935.6192075898
 20
603.4991330977
 30
0.0
 11
936.7672578869
 21
603.4991330977
 31
0.0
  0
LINE
  5
3AE
330
1B
100
AcDbEntity
 67
     1
  8
7_ALL_FEATURES
  6
Continuous
 62
     3
100
AcDbLine
 10
943.7672578869
 20
603.4991330977
 30
0.0
 11
944.915308184
 21
603.4991330977
 31
0.0
  0
LINE
  5
3AF
330
1B
100
AcDbEntity
 67
     1
  8
7_ALL_FEATURES
  6
Continuous
 62
     3
100
AcDbLine
 10
944.915308184
 20
603.4991330977
 30
0.0
 11
946.5388964845
 21
603.4991330977
 31
0.0
  0
LINE
  5
3B0
330
1B
100
AcDbEntity
 67
     1
  8
7_ALL_FEATURES
  6
Continuous
 62
     3
100
AcDbLine
 10
946.5388964845
 20
603.4991330977
 30
0.0
 11
946.7672578869
 21
603.4991330977
 31
0.0
  0
LINE
  5
3B1
330
1B
100
AcDbEntity
 67
     1
  8
7_ALL_FEATURES
  6
Continuous
 62
     3
100
AcDbLine
 10
936.7672578869
 20
603.4991330977
 30
0.0
 11
943.7672578869
 21
603.4991330977
 31
0.0
  0
LINE
  5
3B2
330
1B
100
AcDbEntity
 67
     1
  8
7_ALL_FEATURES
  6
Continuous
 62
     3
100
AcDbLine
 10
691.0172578869
 20
603.4991330977
 30
0.0
 11
691.8959375434
 21
603.4991330977
 31
0.0
  0
LINE
  5
3B3
330
1B
100
AcDbEntity
 67
     1
  8
7_ALL_FEATURES
  6
Continuous
 62
     3
100
AcDbLine
 10
691.8959375434
 20
603.4991330977
 30
0.0
 11
692.8692075898
 21
603.4991330977
 31
0.0
  0
LINE
  5
3B4
330
1B
100
AcDbEntity
 67
     1
  8
7_ALL_FEATURES
  6
Continuous
 62
     3
100
AcDbLine
 10
692.8692075898
 20
603.4991330977
 30
0.0
 11
694.0172578869
 21
603.4991330977
 31
0.0
  0
LINE
  5
3B5
330
1B
100
AcDbEntity
 67
     1
  8
7_ALL_FEATURES
  6
Continuous
 62
     3
100
AcDbLine
 10
1186.5172578869
 20
603.4991330977
 30
0.0
 11
1187.665308184
 21
603.4991330977
 31
0.0
  0
LINE
  5
3B6
330
1B
100
AcDbEntity
 67
     1
  8
7_ALL_FEATURES
  6
Continuous
 62
     3
100
AcDbLine
 10
1187.665308184
 20
603.4991330977
 30
0.0
 11
1189.2888964845
 21
603.4991330977
 31
0.0
  0
LINE
  5
3B7
330
1B
100
AcDbEntity
 67
     1
  8
7_ALL_FEATURES
  6
Continuous
 62
     3
100
AcDbLine
 10
1189.2888964845
 20
603.4991330977
 30
0.0
 11
1189.5172578869
 21
603.4991330977
 31
0.0
  0
LINE
  5
3B8
330
1B
100
AcDbEntity
 67
     1
  8
7_ALL_FEATURES
  6
Continuous
 62
     3
100
AcDbLine
 10
1179.5172578869
 20
603.4991330977
 30
0.0
 11
1186.5172578869
 21
603.4991330977
 31
0.0
  0
LINE
  5
3B9
330
1B
100
AcDbEntity
 67
     1
  8
7_ALL_FEATURES
  6
Continuous
 62
     3
100
AcDbLine
 10
1429.5172578869
 20
603.4991330977
 30
0.0
 11
1430.665308184
 21
603.4991330977
 31
0.0
  0
LINE
  5
3BA
330
1B
100
AcDbEntity
 67
     1
  8
7_ALL_FEATURES
  6
Continuous
 62
     3
100
AcDbLine
 10
1430.665308184
 20
603.4991330977
 30
0.0
 11
1432.2888964845
 21
603.4991330977
 31
0.0
  0
LINE
  5
3BB
330
1B
100
AcDbEntity
 67
     1
  8
7_ALL_FEATURES
  6
Continuous
 62
     3
100
AcDbLine
 10
1432.2888964845
 20
603.4991330977
 30
0.0
 11
1432.5172578869
 21
603.4991330977
 31
0.0
  0
LINE
  5
3BC
330
1B
100
AcDbEntity
 67
     1
  8
7_ALL_FEATURES
  6
Continuous
 62
     3
100
AcDbLine
 10
1422.5172578869
 20
603.4991330977
 30
0.0
 11
1429.5172578869
 21
603.4991330977
 31
0.0
  0
LINE
  5
3BD
330
1B
100
AcDbEntity
 67
     1
  8
7_ALL_FEATURES
  6
Continuous
 62
     3
100
AcDbLine
 10
1672.5172578869
 20
603.4991330977
 30
0.0
 11
1673.665308184
 21
603.4991330977
 31
0.0
  0
LINE
  5
3BE
330
1B
100
AcDbEntity
 67
     1
  8
7_ALL_FEATURES
  6
Continuous
 62
     3
100
AcDbLine
 10
1673.665308184
 20
603.4991330977
 30
0.0
 11
1675.2888964845
 21
603.4991330977
 31
0.0
  0
LINE
  5
3BF
330
1B
100
AcDbEntity
 67
     1
  8
7_ALL_FEATURES
  6
Continuous
 62
     3
100
AcDbLine
 10
1675.2888964845
 20
603.4991330977
 30
0.0
 11
1675.5172578869
 21
603.4991330977
 31
0.0
  0
LINE
  5
3C0
330
1B
100
AcDbEntity
 67
     1
  8
7_ALL_FEATURES
  6
Continuous
 62
     3
100
AcDbLine
 10
1665.5172578869
 20
603.4991330977
 30
0.0
 11
1672.5172578869
 21
603.4991330977
 31
0.0
  0
LINE
  5
3C1
330
1B
100
AcDbEntity
 67
     1
  8
7_ALL_FEATURES
  6
Continuous
 62
     3
100
AcDbLine
 10
1915.2672578869
 20
603.4991330977
 30
0.0
 11
1916.415308184
 21
603.4991330977
 31
0.0
  0
LINE
  5
3C2
330
1B
100
AcDbEntity
 67
     1
  8
7_ALL_FEATURES
  6
Continuous
 62
     3
100
AcDbLine
 10
1916.415308184
 20
603.4991330977
 30
0.0
 11
1918.0388964845
 21
603.4991330977
 31
0.0
  0
LINE
  5
3C3
330
1B
100
AcDbEntity
 67
     1
  8
7_ALL_FEATURES
  6
Continuous
 62
     3
100
AcDbLine
 10
1918.0388964845
 20
603.4991330977
 30
0.0
 11
1918.2672578869
 21
603.4991330977
 31
0.0
  0
LINE
  5
3C4
330
1B
100
AcDbEntity
 67
     1
  8
7_ALL_FEATURES
  6
Continuous
 62
     3
100
AcDbLine
 10
1908.2672578869
 20
603.4991330977
 30
0.0
 11
1915.2672578869
 21
603.4991330977
 31
0.0
  0
LINE
  5
3C5
330
1B
100
AcDbEntity
 67
     1
  8
7_ALL_FEATURES
  6
Continuous
 62
     3
100
AcDbLine
 10
2158.0172578869
 20
603.4991330977
 30
0.0
 11
2159.165308184
 21
603.4991330977
 31
0.0
  0
LINE
  5
3C6
330
1B
100
AcDbEntity
 67
     1
  8
7_ALL_FEATURES
  6
Continuous
 62
     3
100
AcDbLine
 10
2159.165308184
 20
603.4991330977
 30
0.0
 11
2160.7888964845
 21
603.4991330977
 31
0.0
  0
LINE
  5
3C7
330
1B
100
AcDbEntity
 67
     1
  8
7_ALL_FEATURES
  6
Continuous
 62
     3
100
AcDbLine
 10
2160.7888964845
 20
603.4991330977
 30
0.0
 11
2161.0172578869
 21
603.4991330977
 31
0.0
  0
LINE
  5
3C8
330
1B
100
AcDbEntity
 67
     1
  8
7_ALL_FEATURES
  6
Continuous
 62
     3
100
AcDbLine
 10
2151.0172578869
 20
603.4991330977
 30
0.0
 11
2158.0172578869
 21
603.4991330977
 31
0.0
  0
LINE
  5
3C9
330
1B
100
AcDbEntity
 67
     1
  8
7_ALL_FEATURES
  6
Continuous
 62
     3
100
AcDbLine
 10
704.0172578869
 20
604.1055955812
 30
0.0
 11
704.0172578869
 21
604.8421522504
 31
0.0
  0
LINE
  5
3CA
330
1B
100
AcDbEntity
 67
     1
  8
7_ALL_FEATURES
  6
Continuous
 62
     3
100
AcDbLine
 10
704.0172578869
 20
604.8421522504
 30
0.0
 11
704.0172578869
 21
605.0356897669
 31
0.0
  0
LINE
  5
3CB
330
1B
100
AcDbEntity
 67
     1
  8
7_ALL_FEATURES
  6
Continuous
 62
     3
100
AcDbLine
 10
691.0172578869
 20
604.1055955812
 30
0.0
 11
691.0172578869
 21
604.8421522505
 31
0.0
  0
LINE
  5
3CC
330
1B
100
AcDbEntity
 67
     1
  8
7_ALL_FEATURES
  6
Continuous
 62
     3
100
AcDbLine
 10
691.0172578869
 20
604.8421522505
 30
0.0
 11
691.0172578869
 21
605.0356897669
 31
0.0
  0
LINE
  5
3CD
330
1B
100
AcDbEntity
 67
     1
  8
7_ALL_FEATURES
  6
Continuous
 62
     3
100
AcDbLine
 10
2161.0172578869
 20
604.1055955812
 30
0.0
 11
2161.0172578869
 21
604.8421522504
 31
0.0
  0
LINE
  5
3CE
330
1B
100
AcDbEntity
 67
     1
  8
7_ALL_FEATURES
  6
Continuous
 62
     3
100
AcDbLine
 10
2161.0172578869
 20
604.8421522504
 30
0.0
 11
2161.0172578869
 21
605.0356897669
 31
0.0
  0
LINE
  5
3CF
330
1B
100
AcDbEntity
 67
     1
  8
7_ALL_FEATURES
  6
Continuous
 62
     3
100
AcDbLine
 10
2148.0172578869
 20
604.1055955812
 30
0.0
 11
2148.0172578869
 21
604.8421522505
 31
0.0
  0
LINE
  5
3D0
330
1B
100
AcDbEntity
 67
     1
  8
7_ALL_FEATURES
  6
Continuous
 62
     3
100
AcDbLine
 10
2148.0172578869
 20
604.8421522505
 30
0.0
 11
2148.0172578869
 21
605.0356897669
 31
0.0
  0
LINE
  5
3D1
330
1B
100
AcDbEntity
 67
     1
  8
7_ALL_FEATURES
  6
Continuous
 62
     3
100
AcDbLine
 10
1918.2672578869
 20
604.1055955812
 30
0.0
 11
1918.2672578869
 21
604.8421522504
 31
0.0
  0
LINE
  5
3D2
330
1B
100
AcDbEntity
 67
     1
  8
7_ALL_FEATURES
  6
Continuous
 62
     3
100
AcDbLine
 10
1918.2672578869
 20
604.8421522504
 30
0.0
 11
1918.2672578869
 21
605.0356897669
 31
0.0
  0
LINE
  5
3D3
330
1B
100
AcDbEntity
 67
     1
  8
7_ALL_FEATURES
  6
Continuous
 62
     3
100
AcDbLine
 10
1905.2672578869
 20
604.1055955812
 30
0.0
 11
1905.2672578869
 21
604.8421522505
 31
0.0
  0
LINE
  5
3D4
330
1B
100
AcDbEntity
 67
     1
  8
7_ALL_FEATURES
  6
Continuous
 62
     3
100
AcDbLine
 10
1905.2672578869
 20
604.8421522505
 30
0.0
 11
1905.2672578869
 21
605.0356897669
 31
0.0
  0
LINE
  5
3D5
330
1B
100
AcDbEntity
 67
     1
  8
7_ALL_FEATURES
  6
Continuous
 62
     3
100
AcDbLine
 10
1675.5172578869
 20
604.1055955812
 30
0.0
 11
1675.5172578869
 21
604.8421522504
 31
0.0
  0
LINE
  5
3D6
330
1B
100
AcDbEntity
 67
     1
  8
7_ALL_FEATURES
  6
Continuous
 62
     3
100
AcDbLine
 10
1675.5172578869
 20
604.8421522504
 30
0.0
 11
1675.5172578869
 21
605.0356897669
 31
0.0
  0
LINE
  5
3D7
330
1B
100
AcDbEntity
 67
     1
  8
7_ALL_FEATURES
  6
Continuous
 62
     3
100
AcDbLine
 10
1662.5172578869
 20
604.1055955812
 30
0.0
 11
1662.5172578869
 21
604.8421522505
 31
0.0
  0
LINE
  5
3D8
330
1B
100
AcDbEntity
 67
     1
  8
7_ALL_FEATURES
  6
Continuous
 62
     3
100
AcDbLine
 10
1662.5172578869
 20
604.8421522505
 30
0.0
 11
1662.5172578869
 21
605.0356897669
 31
0.0
  0
LINE
  5
3D9
330
1B
100
AcDbEntity
 67
     1
  8
7_ALL_FEATURES
  6
Continuous
 62
     3
100
AcDbLine
 10
1432.5172578869
 20
604.1055955812
 30
0.0
 11
1432.5172578869
 21
604.8421522504
 31
0.0
  0
LINE
  5
3DA
330
1B
100
AcDbEntity
 67
     1
  8
7_ALL_FEATURES
  6
Continuous
 62
     3
100
AcDbLine
 10
1432.5172578869
 20
604.8421522504
 30
0.0
 11
1432.5172578869
 21
605.0356897669
 31
0.0
  0
LINE
  5
3DB
330
1B
100
AcDbEntity
 67
     1
  8
7_ALL_FEATURES
  6
Continuous
 62
     3
100
AcDbLine
 10
1419.5172578869
 20
604.1055955812
 30
0.0
 11
1419.5172578869
 21
604.8421522505
 31
0.0
  0
LINE
  5
3DC
330
1B
100
AcDbEntity
 67
     1
  8
7_ALL_FEATURES
  6
Continuous
 62
     3
100
AcDbLine
 10
1419.5172578869
 20
604.8421522505
 30
0.0
 11
1419.5172578869
 21
605.0356897669
 31
0.0
  0
LINE
  5
3DD
330
1B
100
AcDbEntity
 67
     1
  8
7_ALL_FEATURES
  6
Continuous
 62
     3
100
AcDbLine
 10
1189.5172578869
 20
604.1055955812
 30
0.0
 11
1189.5172578869
 21
604.8421522504
 31
0.0
  0
LINE
  5
3DE
330
1B
100
AcDbEntity
 67
     1
  8
7_ALL_FEATURES
  6
Continuous
 62
     3
100
AcDbLine
 10
1189.5172578869
 20
604.8421522504
 30
0.0
 11
1189.5172578869
 21
605.0356897669
 31
0.0
  0
LINE
  5
3DF
330
1B
100
AcDbEntity
 67
     1
  8
7_ALL_FEATURES
  6
Continuous
 62
     3
100
AcDbLine
 10
1176.5172578869
 20
604.1055955812
 30
0.0
 11
1176.5172578869
 21
604.8421522505
 31
0.0
  0
LINE
  5
3E0
330
1B
100
AcDbEntity
 67
     1
  8
7_ALL_FEATURES
  6
Continuous
 62
     3
100
AcDbLine
 10
1176.5172578869
 20
604.8421522505
 30
0.0
 11
1176.5172578869
 21
605.0356897669
 31
0.0
  0
LINE
  5
3E1
330
1B
100
AcDbEntity
 67
     1
  8
7_ALL_FEATURES
  6
Continuous
 62
     3
100
AcDbLine
 10
946.7672578869
 20
604.1055955812
 30
0.0
 11
946.7672578869
 21
604.8421522504
 31
0.0
  0
LINE
  5
3E2
330
1B
100
AcDbEntity
 67
     1
  8
7_ALL_FEATURES
  6
Continuous
 62
     3
100
AcDbLine
 10
946.7672578869
 20
604.8421522504
 30
0.0
 11
946.7672578869
 21
605.0356897669
 31
0.0
  0
LINE
  5
3E3
330
1B
100
AcDbEntity
 67
     1
  8
7_ALL_FEATURES
  6
Continuous
 62
     3
100
AcDbLine
 10
933.7672578869
 20
604.1055955812
 30
0.0
 11
933.7672578869
 21
604.8421522505
 31
0.0
  0
LINE
  5
3E4
330
1B
100
AcDbEntity
 67
     1
  8
7_ALL_FEATURES
  6
Continuous
 62
     3
100
AcDbLine
 10
933.7672578869
 20
604.8421522505
 30
0.0
 11
933.7672578869
 21
605.0356897669
 31
0.0
  0
LINE
  5
3E5
330
1B
100
AcDbEntity
 67
     1
  8
7_ALL_FEATURES
  6
Continuous
 62
     3
100
AcDbLine
 10
691.0172578869
 20
604.1055955812
 30
0.0
 11
691.0172578869
 21
603.7920683237
 31
0.0
  0
LINE
  5
3E6
330
1B
100
AcDbEntity
 67
     1
  8
7_ALL_FEATURES
  6
Continuous
 62
     3
100
AcDbLine
 10
691.0172578869
 20
603.7920683237
 30
0.0
 11
691.0172578869
 21
603.5760660817
 31
0.0
  0
LINE
  5
3E7
330
1B
100
AcDbEntity
 67
     1
  8
7_ALL_FEATURES
  6
Continuous
 62
     3
100
AcDbLine
 10
704.0172578869
 20
604.1055955812
 30
0.0
 11
704.0172578869
 21
603.7920683237
 31
0.0
  0
LINE
  5
3E8
330
1B
100
AcDbEntity
 67
     1
  8
7_ALL_FEATURES
  6
Continuous
 62
     3
100
AcDbLine
 10
704.0172578869
 20
603.7920683237
 30
0.0
 11
704.0172578869
 21
603.5760660817
 31
0.0
  0
LINE
  5
3E9
330
1B
100
AcDbEntity
 67
     1
  8
7_ALL_FEATURES
  6
Continuous
 62
     3
100
AcDbLine
 10
2182.5172578869
 20
665.9129657492
 30
0.0
 11
2182.5172578869
 21
666.0429030633
 31
0.0
  0
LINE
  5
3EA
330
1B
100
AcDbEntity
 67
     1
  8
7_ALL_FEATURES
  6
Continuous
 62
     3
100
AcDbLine
 10
669.5172578869
 20
665.9129657492
 30
0.0
 11
669.5172578869
 21
666.0429030633
 31
0.0
  0
LINE
  5
3EB
330
1B
100
AcDbEntity
 67
     1
  8
7_ALL_FEATURES
  6
Continuous
 62
     3
100
AcDbLine
 10
2182.5172578869
 20
656.2526338052
 30
0.0
 11
2182.5172578869
 21
665.9129657492
 31
0.0
  0
LINE
  5
3EC
330
1B
100
AcDbEntity
 67
     1
  8
7_ALL_FEATURES
  6
Continuous
 62
     3
100
AcDbLine
 10
669.5172578869
 20
656.2526338052
 30
0.0
 11
669.5172578869
 21
665.9129657492
 31
0.0
  0
LINE
  5
3ED
330
1B
100
AcDbEntity
 67
     1
  8
7_ALL_FEATURES
  6
Continuous
 62
     3
100
AcDbLine
 10
2182.5172578869
 20
656.1170750088
 30
0.0
 11
2182.5172578869
 21
656.2526338052
 31
0.0
  0
LINE
  5
3EE
330
1B
100
AcDbEntity
 67
     1
  8
7_ALL_FEATURES
  6
Continuous
 62
     3
100
AcDbLine
 10
669.5172578869
 20
656.1170750088
 30
0.0
 11
669.5172578869
 21
656.2526338052
 31
0.0
  0
LINE
  5
3EF
330
1B
100
AcDbEntity
 67
     1
  8
7_ALL_FEATURES
  6
Continuous
 62
     3
100
AcDbLine
 10
2182.5172578869
 20
646.116035767
 30
0.0
 11
2182.5172578869
 21
656.1170750088
 31
0.0
  0
LINE
  5
3F0
330
1B
100
AcDbEntity
 67
     1
  8
7_ALL_FEATURES
  6
Continuous
 62
     3
100
AcDbLine
 10
669.5172578869
 20
646.116035767
 30
0.0
 11
669.5172578869
 21
656.1170750088
 31
0.0
  0
LINE
  5
3F1
330
1B
100
AcDbEntity
 67
     1
  8
7_ALL_FEATURES
  6
Continuous
 62
     3
100
AcDbLine
 10
2182.5172578869
 20
645.9767347516
 30
0.0
 11
2182.5172578869
 21
646.116035767
 31
0.0
  0
LINE
  5
3F2
330
1B
100
AcDbEntity
 67
     1
  8
7_ALL_FEATURES
  6
Continuous
 62
     3
100
AcDbLine
 10
669.5172578869
 20
645.9767347516
 30
0.0
 11
669.5172578869
 21
646.116035767
 31
0.0
  0
LINE
  5
3F3
330
1B
100
AcDbEntity
 67
     1
  8
7_ALL_FEATURES
  6
Continuous
 62
     3
100
AcDbLine
 10
2182.5172578869
 20
635.7736334418
 30
0.0
 11
2182.5172578869
 21
645.9767347516
 31
0.0
  0
LINE
  5
3F4
330
1B
100
AcDbEntity
 67
     1
  8
7_ALL_FEATURES
  6
Continuous
 62
     3
100
AcDbLine
 10
669.5172578869
 20
635.7736334418
 30
0.0
 11
669.5172578869
 21
645.9767347516
 31
0.0
  0
LINE
  5
3F5
330
1B
100
AcDbEntity
 67
     1
  8
7_ALL_FEATURES
  6
Continuous
 62
     3
100
AcDbLine
 10
2182.5172578869
 20
635.632440911
 30
0.0
 11
2182.5172578869
 21
635.7736334418
 31
0.0
  0
LINE
  5
3F6
330
1B
100
AcDbEntity
 67
     1
  8
7_ALL_FEATURES
  6
Continuous
 62
     3
100
AcDbLine
 10
669.5172578869
 20
635.632440911
 30
0.0
 11
669.5172578869
 21
635.7736334418
 31
0.0
  0
LINE
  5
3F7
330
1B
100
AcDbEntity
 67
     1
  8
7_ALL_FEATURES
  6
Continuous
 62
     3
100
AcDbLine
 10
2182.5172578869
 20
625.3629137845
 30
0.0
 11
2182.5172578869
 21
635.632440911
 31
0.0
  0
LINE
  5
3F8
330
1B
100
AcDbEntity
 67
     1
  8
7_ALL_FEATURES
  6
Continuous
 62
     3
100
AcDbLine
 10
669.5172578869
 20
625.3629137845
 30
0.0
 11
669.5172578869
 21
635.632440911
 31
0.0
  0
LINE
  5
3F9
330
1B
100
AcDbEntity
 67
     1
  8
7_ALL_FEATURES
  6
Continuous
 62
     3
100
AcDbLine
 10
2182.5172578869
 20
625.2220273026
 30
0.0
 11
2182.5172578869
 21
625.3629137845
 31
0.0
  0
LINE
  5
3FA
330
1B
100
AcDbEntity
 67
     1
  8
7_ALL_FEATURES
  6
Continuous
 62
     3
100
AcDbLine
 10
669.5172578869
 20
625.2220273026
 30
0.0
 11
669.5172578869
 21
625.3629137845
 31
0.0
  0
LINE
  5
3FB
330
1B
100
AcDbEntity
 67
     1
  8
7_ALL_FEATURES
  6
Continuous
 62
     3
100
AcDbLine
 10
2182.5172578869
 20
615.0457920378
 30
0.0
 11
2182.5172578869
 21
625.2220273026
 31
0.0
  0
LINE
  5
3FC
330
1B
100
AcDbEntity
 67
     1
  8
7_ALL_FEATURES
  6
Continuous
 62
     3
100
AcDbLine
 10
669.5172578869
 20
615.0457920378
 30
0.0
 11
669.5172578869
 21
625.2220273026
 31
0.0
  0
LINE
  5
3FD
330
1B
100
AcDbEntity
 67
     1
  8
7_ALL_FEATURES
  6
Continuous
 62
     3
100
AcDbLine
 10
2182.5172578869
 20
614.906924526
 30
0.0
 11
2182.5172578869
 21
615.0457920378
 31
0.0
  0
LINE
  5
3FE
330
1B
100
AcDbEntity
 67
     1
  8
7_ALL_FEATURES
  6
Continuous
 62
     3
100
AcDbLine
 10
669.5172578869
 20
614.906924526
 30
0.0
 11
669.5172578869
 21
615.0457920378
 31
0.0
  0
LINE
  5
3FF
330
1B
100
AcDbEntity
 67
     1
  8
7_ALL_FEATURES
  6
Continuous
 62
     3
100
AcDbLine
 10
2182.5172578869
 20
666.0429030633
 30
0.0
 11
2182.5172578869
 21
670.85948797
 31
0.0
  0
LINE
  5
400
330
1B
100
AcDbEntity
 67
     1
  8
7_ALL_FEATURES
  6
Continuous
 62
     3
100
AcDbLine
 10
669.5172578869
 20
666.0429030633
 30
0.0
 11
669.5172578869
 21
670.85948797
 31
0.0
  0
LINE
  5
401
330
1B
100
AcDbEntity
 67
     1
  8
7_ALL_FEATURES
  6
Continuous
 62
     3
100
AcDbLine
 10
2161.0172578869
 20
604.1055955812
 30
0.0
 11
2161.0172578869
 21
603.7920683237
 31
0.0
  0
LINE
  5
402
330
1B
100
AcDbEntity
 67
     1
  8
7_ALL_FEATURES
  6
Continuous
 62
     3
100
AcDbLine
 10
2161.0172578869
 20
603.7920683237
 30
0.0
 11
2161.0172578869
 21
603.5760660817
 31
0.0
  0
LINE
  5
403
330
1B
100
AcDbEntity
 67
     1
  8
7_ALL_FEATURES
  6
Continuous
 62
     3
100
AcDbLine
 10
2148.0172578869
 20
604.1055955812
 30
0.0
 11
2148.0172578869
 21
603.7920683237
 31
0.0
  0
LINE
  5
404
330
1B
100
AcDbEntity
 67
     1
  8
7_ALL_FEATURES
  6
Continuous
 62
     3
100
AcDbLine
 10
2148.0172578869
 20
603.7920683237
 30
0.0
 11
2148.0172578869
 21
603.5760660817
 31
0.0
  0
LINE
  5
405
330
1B
100
AcDbEntity
 67
     1
  8
7_ALL_FEATURES
  6
Continuous
 62
     3
100
AcDbLine
 10
1918.2672578869
 20
604.1055955812
 30
0.0
 11
1918.2672578869
 21
603.7920683237
 31
0.0
  0
LINE
  5
406
330
1B
100
AcDbEntity
 67
     1
  8
7_ALL_FEATURES
  6
Continuous
 62
     3
100
AcDbLine
 10
1918.2672578869
 20
603.7920683237
 30
0.0
 11
1918.2672578869
 21
603.5760660817
 31
0.0
  0
LINE
  5
407
330
1B
100
AcDbEntity
 67
     1
  8
7_ALL_FEATURES
  6
Continuous
 62
     3
100
AcDbLine
 10
1905.2672578869
 20
604.1055955812
 30
0.0
 11
1905.2672578869
 21
603.7920683237
 31
0.0
  0
LINE
  5
408
330
1B
100
AcDbEntity
 67
     1
  8
7_ALL_FEATURES
  6
Continuous
 62
     3
100
AcDbLine
 10
1905.2672578869
 20
603.7920683237
 30
0.0
 11
1905.2672578869
 21
603.5760660817
 31
0.0
  0
LINE
  5
409
330
1B
100
AcDbEntity
 67
     1
  8
7_ALL_FEATURES
  6
Continuous
 62
     3
100
AcDbLine
 10
1675.5172578869
 20
604.1055955812
 30
0.0
 11
1675.5172578869
 21
603.7920683237
 31
0.0
  0
LINE
  5
40A
330
1B
100
AcDbEntity
 67
     1
  8
7_ALL_FEATURES
  6
Continuous
 62
     3
100
AcDbLine
 10
1675.5172578869
 20
603.7920683237
 30
0.0
 11
1675.5172578869
 21
603.5760660817
 31
0.0
  0
LINE
  5
40B
330
1B
100
AcDbEntity
 67
     1
  8
7_ALL_FEATURES
  6
Continuous
 62
     3
100
AcDbLine
 10
1662.5172578869
 20
604.1055955812
 30
0.0
 11
1662.5172578869
 21
603.7920683237
 31
0.0
  0
LINE
  5
40C
330
1B
100
AcDbEntity
 67
     1
  8
7_ALL_FEATURES
  6
Continuous
 62
     3
100
AcDbLine
 10
1662.5172578869
 20
603.7920683237
 30
0.0
 11
1662.5172578869
 21
603.5760660817
 31
0.0
  0
LINE
  5
40D
330
1B
100
AcDbEntity
 67
     1
  8
7_ALL_FEATURES
  6
Continuous
 62
     3
100
AcDbLine
 10
1432.5172578869
 20
604.1055955812
 30
0.0
 11
1432.5172578869
 21
603.7920683237
 31
0.0
  0
LINE
  5
40E
330
1B
100
AcDbEntity
 67
     1
  8
7_ALL_FEATURES
  6
Continuous
 62
     3
100
AcDbLine
 10
1432.5172578869
 20
603.7920683237
 30
0.0
 11
1432.5172578869
 21
603.5760660817
 31
0.0
  0
LINE
  5
40F
330
1B
100
AcDbEntity
 67
     1
  8
7_ALL_FEATURES
  6
Continuous
 62
     3
100
AcDbLine
 10
1419.5172578869
 20
604.1055955812
 30
0.0
 11
1419.5172578869
 21
603.7920683237
 31
0.0
  0
LINE
  5
410
330
1B
100
AcDbEntity
 67
     1
  8
7_ALL_FEATURES
  6
Continuous
 62
     3
100
AcDbLine
 10
1419.5172578869
 20
603.7920683237
 30
0.0
 11
1419.5172578869
 21
603.5760660817
 31
0.0
  0
LINE
  5
411
330
1B
100
AcDbEntity
 67
     1
  8
7_ALL_FEATURES
  6
Continuous
 62
     3
100
AcDbLine
 10
1189.5172578869
 20
604.1055955812
 30
0.0
 11
1189.5172578869
 21
603.7920683237
 31
0.0
  0
LINE
  5
412
330
1B
100
AcDbEntity
 67
     1
  8
7_ALL_FEATURES
  6
Continuous
 62
     3
100
AcDbLine
 10
1189.5172578869
 20
603.7920683237
 30
0.0
 11
1189.5172578869
 21
603.5760660817
 31
0.0
  0
LINE
  5
413
330
1B
100
AcDbEntity
 67
     1
  8
7_ALL_FEATURES
  6
Continuous
 62
     3
100
AcDbLine
 10
1176.5172578869
 20
604.1055955812
 30
0.0
 11
1176.5172578869
 21
603.7920683237
 31
0.0
  0
LINE
  5
414
330
1B
100
AcDbEntity
 67
     1
  8
7_ALL_FEATURES
  6
Continuous
 62
     3
100
AcDbLine
 10
1176.5172578869
 20
603.7920683237
 30
0.0
 11
1176.5172578869
 21
603.5760660817
 31
0.0
  0
LINE
  5
415
330
1B
100
AcDbEntity
 67
     1
  8
7_ALL_FEATURES
  6
Continuous
 62
     3
100
AcDbLine
 10
946.7672578869
 20
604.1055955812
 30
0.0
 11
946.7672578869
 21
603.7920683237
 31
0.0
  0
LINE
  5
416
330
1B
100
AcDbEntity
 67
     1
  8
7_ALL_FEATURES
  6
Continuous
 62
     3
100
AcDbLine
 10
946.7672578869
 20
603.7920683237
 30
0.0
 11
946.7672578869
 21
603.5760660817
 31
0.0
  0
LINE
  5
417
330
1B
100
AcDbEntity
 67
     1
  8
7_ALL_FEATURES
  6
Continuous
 62
     3
100
AcDbLine
 10
933.7672578869
 20
604.1055955812
 30
0.0
 11
933.7672578869
 21
603.7920683237
 31
0.0
  0
LINE
  5
418
330
1B
100
AcDbEntity
 67
     1
  8
7_ALL_FEATURES
  6
Continuous
 62
     3
100
AcDbLine
 10
933.7672578869
 20
603.7920683237
 30
0.0
 11
933.7672578869
 21
603.5760660817
 31
0.0
  0
LINE
  5
419
330
1B
100
AcDbEntity
 67
     1
  8
7_ALL_FEATURES
  6
Continuous
 62
     3
100
AcDbLine
 10
669.5172578869
 20
610.8574641246
 30
0.0
 11
669.5172578869
 21
614.906924526
 31
0.0
  0
LINE
  5
41A
330
1B
100
AcDbEntity
 67
     1
  8
7_ALL_FEATURES
  6
Continuous
 62
     3
100
AcDbLine
 10
2182.5172578869
 20
610.8574641246
 30
0.0
 11
2182.5172578869
 21
614.906924526
 31
0.0
  0
LINE
  5
41B
330
1B
100
AcDbEntity
 67
     1
  8
7_ALL_FEATURES
  6
Continuous
 62
     3
100
AcDbLine
 10
1904.2672578869
 20
606.0059854932
 30
0.0
 11
1676.5172578869
 21
606.0059854932
 31
0.0
  0
SPLINE
  5
41C
330
1B
100
AcDbEntity
 67
     1
  8
7_ALL_FEATURES
  6
Continuous
 62
     3
100
AcDbSpline
 70
     0
 71
     3
 72
     8
 73
     4
 74
     0
 42
0.000000001
 43
0.0000001
 40
0.0
 40
0.0
 40
0.0
 40
0.0
 40
1.0
 40
1.0
 40
1.0
 40
1.0
 10
1432.5172578869
 20
605.0356897669
 30
0.0
 10
1432.5172578869
 20
605.3616252321
 30
0.0
 10
1432.7325744672
 20
605.717279211
 30
0.0
 10
1433.0172578869
 20
605.8759905151
 30
0.0
  0
SPLINE
  5
41D
330
1B
100
AcDbEntity
 67
     1
  8
7_ALL_FEATURES
  6
Continuous
 62
     3
100
AcDbSpline
 70
     0
 71
     3
 72
     8
 73
     4
 74
     0
 42
0.000000001
 43
0.0000001
 40
0.0
 40
0.0
 40
0.0
 40
0.0
 40
1.0
 40
1.0
 40
1.0
 40
1.0
 10
1433.0172578869
 20
605.8759905151
 30
0.0
 10
1433.1676699005
 20
605.9598453698
 30
0.0
 10
1433.3450504234
 20
606.0059854932
 30
0.0
 10
1433.5172578869
 20
606.0059854932
 30
0.0
  0
SPLINE
  5
41E
330
1B
100
AcDbEntity
 67
     1
  8
7_ALL_FEATURES
  6
Continuous
 62
     3
100
AcDbSpline
 70
     0
 71
     3
 72
     8
 73
     4
 74
     0
 42
0.000000001
 43
0.0000001
 40
0.0
 40
0.0
 40
0.0
 40
0.0
 40
1.0
 40
1.0
 40
1.0
 40
1.0
 10
946.7672578869
 20
605.0356897669
 30
0.0
 10
946.7672578869
 20
605.3616252321
 30
0.0
 10
946.9825744672
 20
605.717279211
 30
0.0
 10
947.2672578869
 20
605.8759905151
 30
0.0
  0
SPLINE
  5
41F
330
1B
100
AcDbEntity
 67
     1
  8
7_ALL_FEATURES
  6
Continuous
 62
     3
100
AcDbSpline
 70
     0
 71
     3
 72
     8
 73
     4
 74
     0
 42
0.000000001
 43
0.0000001
 40
0.0
 40
0.0
 40
0.0
 40
0.0
 40
1.0
 40
1.0
 40
1.0
 40
1.0
 10
947.2672578869
 20
605.8759905151
 30
0.0
 10
947.4176699005
 20
605.9598453698
 30
0.0
 10
947.5950504234
 20
606.0059854932
 30
0.0
 10
947.7672578869
 20
606.0059854932
 30
0.0
  0
LINE
  5
420
330
1B
100
AcDbEntity
 67
     1
  8
7_ALL_FEATURES
  6
Continuous
 62
     9
100
AcDbLine
 10
1432.5172578869
 20
604.1055955812
 30
0.0
 11
1429.5172578869
 21
604.1055955812
 31
0.0
  0
LINE
  5
421
330
1B
100
AcDbEntity
 67
     1
  8
7_ALL_FEATURES
  6
Continuous
 62
     9
100
AcDbLine
 10
1429.5172578869
 20
604.1055955812
 30
0.0
 11
1428.0172578869
 21
604.1055955812
 31
0.0
  0
LINE
  5
422
330
1B
100
AcDbEntity
 67
     1
  8
7_ALL_FEATURES
  6
Continuous
 62
     9
100
AcDbLine
 10
1428.0172578869
 20
604.1055955812
 30
0.0
 11
1424.5172578869
 21
604.1055955812
 31
0.0
  0
LINE
  5
423
330
1B
100
AcDbEntity
 67
     1
  8
7_ALL_FEATURES
  6
Continuous
 62
     9
100
AcDbLine
 10
1424.5172578869
 20
604.1055955812
 30
0.0
 11
1422.5172578869
 21
604.1055955812
 31
0.0
  0
LINE
  5
424
330
1B
100
AcDbEntity
 67
     1
  8
7_ALL_FEATURES
  6
Continuous
 62
     9
100
AcDbLine
 10
1422.5172578869
 20
604.1055955812
 30
0.0
 11
1419.5172578869
 21
604.1055955812
 31
0.0
  0
LINE
  5
425
330
1B
100
AcDbEntity
 67
     1
  8
7_ALL_FEATURES
  6
Continuous
 62
     9
100
AcDbLine
 10
1675.5172578869
 20
604.1055955812
 30
0.0
 11
1672.5172578869
 21
604.1055955812
 31
0.0
  0
LINE
  5
426
330
1B
100
AcDbEntity
 67
     1
  8
7_ALL_FEATURES
  6
Continuous
 62
     9
100
AcDbLine
 10
1672.5172578869
 20
604.1055955812
 30
0.0
 11
1670.7672578869
 21
604.1055955812
 31
0.0
  0
LINE
  5
427
330
1B
100
AcDbEntity
 67
     1
  8
7_ALL_FEATURES
  6
Continuous
 62
     9
100
AcDbLine
 10
1670.7672578869
 20
604.1055955812
 30
0.0
 11
1667.2672578869
 21
604.1055955812
 31
0.0
  0
LINE
  5
428
330
1B
100
AcDbEntity
 67
     1
  8
7_ALL_FEATURES
  6
Continuous
 62
     9
100
AcDbLine
 10
1667.2672578869
 20
604.1055955812
 30
0.0
 11
1665.5172578869
 21
604.1055955812
 31
0.0
  0
LINE
  5
429
330
1B
100
AcDbEntity
 67
     1
  8
7_ALL_FEATURES
  6
Continuous
 62
     9
100
AcDbLine
 10
1665.5172578869
 20
604.1055955812
 30
0.0
 11
1662.5172578869
 21
604.1055955812
 31
0.0
  0
SPLINE
  5
42A
330
1B
100
AcDbEntity
 67
     1
  8
7_ALL_FEATURES
  6
Continuous
 62
     3
100
AcDbSpline
 70
     0
 71
     3
 72
     8
 73
     4
 74
     0
 42
0.000000001
 43
0.0000001
 40
0.0
 40
0.0
 40
0.0
 40
0.0
 40
1.0
 40
1.0
 40
1.0
 40
1.0
 10
1189.5172578869
 20
605.0356897669
 30
0.0
 10
1189.5172578869
 20
605.3616252321
 30
0.0
 10
1189.7325744672
 20
605.717279211
 30
0.0
 10
1190.0172578869
 20
605.8759905151
 30
0.0
  0
SPLINE
  5
42B
330
1B
100
AcDbEntity
 67
     1
  8
7_ALL_FEATURES
  6
Continuous
 62
     3
100
AcDbSpline
 70
     0
 71
     3
 72
     8
 73
     4
 74
     0
 42
0.000000001
 43
0.0000001
 40
0.0
 40
0.0
 40
0.0
 40
0.0
 40
1.0
 40
1.0
 40
1.0
 40
1.0
 10
1190.0172578869
 20
605.8759905151
 30
0.0
 10
1190.1676699005
 20
605.9598453698
 30
0.0
 10
1190.3450504234
 20
606.0059854932
 30
0.0
 10
1190.5172578869
 20
606.0059854932
 30
0.0
  0
SPLINE
  5
42C
330
1B
100
AcDbEntity
 67
     1
  8
7_ALL_FEATURES
  6
Continuous
 62
     3
100
AcDbSpline
 70
     0
 71
     3
 72
     8
 73
     4
 74
     0
 42
0.000000001
 43
0.0000001
 40
0.0
 40
0.0
 40
0.0
 40
0.0
 40
1.0
 40
1.0
 40
1.0
 40
1.0
 10
704.0172578869
 20
605.0356897669
 30
0.0
 10
704.0172578869
 20
605.3616252321
 30
0.0
 10
704.2325744672
 20
605.717279211
 30
0.0
 10
704.5172578869
 20
605.8759905151
 30
0.0
  0
SPLINE
  5
42D
330
1B
100
AcDbEntity
 67
     1
  8
7_ALL_FEATURES
  6
Continuous
 62
     3
100
AcDbSpline
 70
     0
 71
     3
 72
     8
 73
     4
 74
     0
 42
0.000000001
 43
0.0000001
 40
0.0
 40
0.0
 40
0.0
 40
0.0
 40
1.0
 40
1.0
 40
1.0
 40
1.0
 10
704.5172578869
 20
605.8759905151
 30
0.0
 10
704.6676699005
 20
605.9598453698
 30
0.0
 10
704.8450504234
 20
606.0059854932
 30
0.0
 10
705.0172578869
 20
606.0059854932
 30
0.0
  0
LINE
  5
42E
330
1B
100
AcDbEntity
 67
     1
  8
7_ALL_FEATURES
  6
Continuous
 62
     3
100
AcDbLine
 10
1418.5172578869
 20
606.0059854932
 30
0.0
 11
1190.5172578869
 21
606.0059854932
 31
0.0
  0
SPLINE
  5
42F
330
1B
100
AcDbEntity
 67
     1
  8
7_ALL_FEATURES
  6
Continuous
 62
     3
100
AcDbSpline
 70
     0
 71
     3
 72
     8
 73
     4
 74
     0
 42
0.000000001
 43
0.0000001
 40
0.0
 40
0.0
 40
0.0
 40
0.0
 40
1.0
 40
1.0
 40
1.0
 40
1.0
 10
1418.5172578869
 20
606.0059854932
 30
0.0
 10
1418.8481436425
 20
606.0059854932
 30
0.0
 10
1419.2146885697
 20
605.8055501224
 30
0.0
 10
1419.3832832907
 20
605.5208376301
 30
0.0
  0
SPLINE
  5
430
330
1B
100
AcDbEntity
 67
     1
  8
7_ALL_FEATURES
  6
Continuous
 62
     3
100
AcDbSpline
 70
     0
 71
     3
 72
     8
 73
     4
 74
     0
 42
0.000000001
 43
0.0000001
 40
0.0
 40
0.0
 40
0.0
 40
0.0
 40
1.0
 40
1.0
 40
1.0
 40
1.0
 10
1419.3832832907
 20
605.5208376301
 30
0.0
 10
1419.46876582
 20
605.3764799431
 30
0.0
 10
1419.5172578869
 20
605.2034586693
 30
0.0
 10
1419.5172578869
 20
605.0356897669
 30
0.0
  0
SPLINE
  5
431
330
1B
100
AcDbEntity
 67
     1
  8
7_ALL_FEATURES
  6
Continuous
 62
     3
100
AcDbSpline
 70
     0
 71
     3
 72
     8
 73
     4
 74
     0
 42
0.000000001
 43
0.0000001
 40
0.0
 40
0.0
 40
0.0
 40
0.0
 40
1.0
 40
1.0
 40
1.0
 40
1.0
 10
690.0172578869
 20
606.0059854932
 30
0.0
 10
690.3481436425
 20
606.0059854932
 30
0.0
 10
690.7146885697
 20
605.8055501224
 30
0.0
 10
690.8832832907
 20
605.5208376301
 30
0.0
  0
SPLINE
  5
432
330
1B
100
AcDbEntity
 67
     1
  8
7_ALL_FEATURES
  6
Continuous
 62
     3
100
AcDbSpline
 70
     0
 71
     3
 72
     8
 73
     4
 74
     0
 42
0.000000001
 43
0.0000001
 40
0.0
 40
0.0
 40
0.0
 40
0.0
 40
1.0
 40
1.0
 40
1.0
 40
1.0
 10
690.8832832907
 20
605.5208376301
 30
0.0
 10
690.96876582
 20
605.3764799431
 30
0.0
 10
691.0172578869
 20
605.2034586693
 30
0.0
 10
691.0172578869
 20
605.0356897669
 30
0.0
  0
LINE
  5
433
330
1B
100
AcDbEntity
 67
     1
  8
7_ALL_FEATURES
  6
Continuous
 62
     9
100
AcDbLine
 10
1189.5172578869
 20
604.1055955812
 30
0.0
 11
1186.5172578869
 21
604.1055955812
 31
0.0
  0
LINE
  5
434
330
1B
100
AcDbEntity
 67
     1
  8
7_ALL_FEATURES
  6
Continuous
 62
     9
100
AcDbLine
 10
1186.5172578869
 20
604.1055955812
 30
0.0
 11
1184.7672578869
 21
604.1055955812
 31
0.0
  0
LINE
  5
435
330
1B
100
AcDbEntity
 67
     1
  8
7_ALL_FEATURES
  6
Continuous
 62
     9
100
AcDbLine
 10
1184.7672578869
 20
604.1055955812
 30
0.0
 11
1181.2672578869
 21
604.1055955812
 31
0.0
  0
LINE
  5
436
330
1B
100
AcDbEntity
 67
     1
  8
7_ALL_FEATURES
  6
Continuous
 62
     9
100
AcDbLine
 10
1181.2672578869
 20
604.1055955812
 30
0.0
 11
1179.5172578869
 21
604.1055955812
 31
0.0
  0
LINE
  5
437
330
1B
100
AcDbEntity
 67
     1
  8
7_ALL_FEATURES
  6
Continuous
 62
     9
100
AcDbLine
 10
1179.5172578869
 20
604.1055955812
 30
0.0
 11
1176.5172578869
 21
604.1055955812
 31
0.0
  0
SPLINE
  5
438
330
1B
100
AcDbEntity
 67
     1
  8
7_ALL_FEATURES
  6
Continuous
 62
     3
100
AcDbSpline
 70
     0
 71
     3
 72
     8
 73
     4
 74
     0
 42
0.000000001
 43
0.0000001
 40
0.0
 40
0.0
 40
0.0
 40
0.0
 40
1.0
 40
1.0
 40
1.0
 40
1.0
 10
674.5172578869
 20
675.334159778
 30
0.0
 10
673.8694253291
 20
675.334159778
 30
0.0
 10
673.2113927057
 20
675.2184181072
 30
0.0
 10
672.6038407251
 20
674.9935456681
 30
0.0
  0
SPLINE
  5
439
330
1B
100
AcDbEntity
 67
     1
  8
7_ALL_FEATURES
  6
Continuous
 62
     3
100
AcDbSpline
 70
     0
 71
     3
 72
     8
 73
     4
 74
     0
 42
0.000000001
 43
0.0000001
 40
0.0
 40
0.0
 40
0.0
 40
0.0
 40
1.0
 40
1.0
 40
1.0
 40
1.0
 10
672.6038407251
 20
674.9935456681
 30
0.0
 10
672.0130094301
 20
674.7748620351
 30
0.0
 10
671.4511823823
 20
674.4436932037
 30
0.0
 10
670.981723981
 20
674.023558749
 30
0.0
  0
SPLINE
  5
43A
330
1B
100
AcDbEntity
 67
     1
  8
7_ALL_FEATURES
  6
Continuous
 62
     3
100
AcDbSpline
 70
     0
 71
     3
 72
     8
 73
     4
 74
     0
 42
0.000000001
 43
0.0000001
 40
0.0
 40
0.0
 40
0.0
 40
0.0
 40
1.0
 40
1.0
 40
1.0
 40
1.0
 10
670.981723981
 20
674.023558749
 30
0.0
 10
670.1942349989
 20
673.3188077995
 30
0.0
 10
669.6243378177
 20
672.2566595226
 30
0.0
 10
669.5323395763
 20
671.2038779112
 30
0.0
  0
ARC
  5
43B
330
1B
100
AcDbEntity
 67
     1
  8
7_ALL_FEATURES
  6
Continuous
 62
     3
100
AcDbCircle
 10
673.4738155151
 20
670.8587457052
 30
0.0
 40
3.9565576978
100
AcDbArc
 50
174.995704714
 51
179.9892511002
  0
SPLINE
  5
43C
330
1B
100
AcDbEntity
 67
     1
  8
7_ALL_FEATURES
  6
Continuous
 62
     3
100
AcDbSpline
 70
     0
 71
     3
 72
     8
 73
     4
 74
     0
 42
0.000000001
 43
0.0000001
 40
0.0
 40
0.0
 40
0.0
 40
0.0
 40
1.0
 40
1.0
 40
1.0
 40
1.0
 10
1175.5172578869
 20
606.0059854932
 30
0.0
 10
1175.8481436425
 20
606.0059854932
 30
0.0
 10
1176.2146885697
 20
605.8055501224
 30
0.0
 10
1176.3832832907
 20
605.5208376301
 30
0.0
  0
SPLINE
  5
43D
330
1B
100
AcDbEntity
 67
     1
  8
7_ALL_FEATURES
  6
Continuous
 62
     3
100
AcDbSpline
 70
     0
 71
     3
 72
     8
 73
     4
 74
     0
 42
0.000000001
 43
0.0000001
 40
0.0
 40
0.0
 40
0.0
 40
0.0
 40
1.0
 40
1.0
 40
1.0
 40
1.0
 10
1176.3832832907
 20
605.5208376301
 30
0.0
 10
1176.46876582
 20
605.3764799431
 30
0.0
 10
1176.5172578869
 20
605.2034586693
 30
0.0
 10
1176.5172578869
 20
605.0356897669
 30
0.0
  0
LINE
  5
43E
330
1B
100
AcDbEntity
 67
     1
  8
7_ALL_FEATURES
  6
Continuous
 62
     9
100
AcDbLine
 10
2182.5172578869
 20
666.0429030633
 30
0.0
 11
669.5172578869
 21
666.0429030633
 31
0.0
  0
LINE
  5
43F
330
1B
100
AcDbEntity
 67
     1
  8
7_ALL_FEATURES
  6
Continuous
 62
     3
100
AcDbLine
 10
2177.5172578869
 20
675.334159778
 30
0.0
 11
674.5172578869
 21
675.334159778
 31
0.0
  0
LINE
  5
440
330
1B
100
AcDbEntity
 67
     1
  8
7_ALL_FEATURES
  6
Continuous
 62
     9
100
AcDbLine
 10
2182.5172578869
 20
665.9129657492
 30
0.0
 11
669.5172578869
 21
665.9129657492
 31
0.0
  0
LINE
  5
441
330
1B
100
AcDbEntity
 67
     1
  8
7_ALL_FEATURES
  6
Continuous
 62
     9
100
AcDbLine
 10
2182.5172578869
 20
656.2526338052
 30
0.0
 11
669.5172578869
 21
656.2526338052
 31
0.0
  0
LINE
  5
442
330
1B
100
AcDbEntity
 67
     1
  8
7_ALL_FEATURES
  6
Continuous
 62
     9
100
AcDbLine
 10
2182.5172578869
 20
656.1170750088
 30
0.0
 11
669.5172578869
 21
656.1170750088
 31
0.0
  0
LINE
  5
443
330
1B
100
AcDbEntity
 67
     1
  8
7_ALL_FEATURES
  6
Continuous
 62
     9
100
AcDbLine
 10
2182.5172578869
 20
646.116035767
 30
0.0
 11
669.5172578869
 21
646.116035767
 31
0.0
  0
LINE
  5
444
330
1B
100
AcDbEntity
 67
     1
  8
7_ALL_FEATURES
  6
Continuous
 62
     9
100
AcDbLine
 10
2182.5172578869
 20
645.9767347516
 30
0.0
 11
669.5172578869
 21
645.9767347516
 31
0.0
  0
LINE
  5
445
330
1B
100
AcDbEntity
 67
     1
  8
7_ALL_FEATURES
  6
Continuous
 62
     9
100
AcDbLine
 10
2182.5172578869
 20
635.7736334418
 30
0.0
 11
669.5172578869
 21
635.7736334418
 31
0.0
  0
LINE
  5
446
330
1B
100
AcDbEntity
 67
     1
  8
7_ALL_FEATURES
  6
Continuous
 62
     9
100
AcDbLine
 10
2182.5172578869
 20
635.632440911
 30
0.0
 11
669.5172578869
 21
635.632440911
 31
0.0
  0
LINE
  5
447
330
1B
100
AcDbEntity
 67
     1
  8
7_ALL_FEATURES
  6
Continuous
 62
     9
100
AcDbLine
 10
2182.5172578869
 20
625.3629137845
 30
0.0
 11
669.5172578869
 21
625.3629137845
 31
0.0
  0
LINE
  5
448
330
1B
100
AcDbEntity
 67
     1
  8
7_ALL_FEATURES
  6
Continuous
 62
     9
100
AcDbLine
 10
2182.5172578869
 20
625.2220273026
 30
0.0
 11
669.5172578869
 21
625.2220273026
 31
0.0
  0
LINE
  5
449
330
1B
100
AcDbEntity
 67
     1
  8
7_ALL_FEATURES
  6
Continuous
 62
     9
100
AcDbLine
 10
2182.5172578869
 20
615.0457920378
 30
0.0
 11
669.5172578869
 21
615.0457920378
 31
0.0
  0
LINE
  5
44A
330
1B
100
AcDbEntity
 67
     1
  8
7_ALL_FEATURES
  6
Continuous
 62
     9
100
AcDbLine
 10
2182.5172578869
 20
614.906924526
 30
0.0
 11
669.5172578869
 21
614.906924526
 31
0.0
  0
LINE
  5
44B
330
1B
100
AcDbEntity
 67
     1
  8
7_ALL_FEATURES
  6
Continuous
 62
     3
100
AcDbLine
 10
932.7672578869
 20
606.0059854932
 30
0.0
 11
705.0172578869
 21
606.0059854932
 31
0.0
  0
SPLINE
  5
44C
330
1B
100
AcDbEntity
 67
     1
  8
7_ALL_FEATURES
  6
Continuous
 62
     3
100
AcDbSpline
 70
     0
 71
     3
 72
     8
 73
     4
 74
     0
 42
0.000000001
 43
0.0000001
 40
0.0
 40
0.0
 40
0.0
 40
0.0
 40
1.0
 40
1.0
 40
1.0
 40
1.0
 10
2182.5172578869
 20
670.85948797
 30
0.0
 10
2182.5172578869
 20
671.4442113497
 30
0.0
 10
2182.3819503898
 20
672.0410865314
 30
0.0
 10
2182.1366555495
 20
672.5718707362
 30
0.0
  0
SPLINE
  5
44D
330
1B
100
AcDbEntity
 67
     1
  8
7_ALL_FEATURES
  6
Continuous
 62
     3
100
AcDbSpline
 70
     0
 71
     3
 72
     8
 73
     4
 74
     0
 42
0.000000001
 43
0.0000001
 40
0.0
 40
0.0
 40
0.0
 40
0.0
 40
1.0
 40
1.0
 40
1.0
 40
1.0
 10
2182.1366555495
 20
672.5718707362
 30
0.0
 10
2181.8833197943
 20
673.1200543719
 30
0.0
 10
2181.5027921212
 20
673.6208379925
 30
0.0
 10
2181.0527917929
 20
674.023558749
 30
0.0
  0
SPLINE
  5
44E
330
1B
100
AcDbEntity
 67
     1
  8
7_ALL_FEATURES
  6
Continuous
 62
     3
100
AcDbSpline
 70
     0
 71
     3
 72
     8
 73
     4
 74
     0
 42
0.000000001
 43
0.0000001
 40
0.0
 40
0.0
 40
0.0
 40
0.0
 40
1.0
 40
1.0
 40
1.0
 40
1.0
 10
2181.0527917929
 20
674.023558749
 30
0.0
 10
2180.5833333916
 20
674.4436932037
 30
0.0
 10
2180.0215063438
 20
674.7748620351
 30
0.0
 10
2179.4306750488
 20
674.9935456681
 30
0.0
  0
SPLINE
  5
44F
330
1B
100
AcDbEntity
 67
     1
  8
7_ALL_FEATURES
  6
Continuous
 62
     3
100
AcDbSpline
 70
     0
 71
     3
 72
     8
 73
     4
 74
     0
 42
0.000000001
 43
0.0000001
 40
0.0
 40
0.0
 40
0.0
 40
0.0
 40
1.0
 40
1.0
 40
1.0
 40
1.0
 10
2179.4306750488
 20
674.9935456681
 30
0.0
 10
2178.8231230681
 20
675.2184181072
 30
0.0
 10
2178.1650904448
 20
675.334159778
 30
0.0
 10
2177.5172578869
 20
675.334159778
 30
0.0
  0
LINE
  5
450
330
1B
100
AcDbEntity
 67
     1
  8
7_ALL_FEATURES
  6
Continuous
 62
     9
100
AcDbLine
 10
704.0172578869
 20
604.1055955812
 30
0.0
 11
701.0172578869
 21
604.1055955812
 31
0.0
  0
LINE
  5
451
330
1B
100
AcDbEntity
 67
     1
  8
7_ALL_FEATURES
  6
Continuous
 62
     9
100
AcDbLine
 10
701.0172578869
 20
604.1055955812
 30
0.0
 11
699.2672578869
 21
604.1055955812
 31
0.0
  0
LINE
  5
452
330
1B
100
AcDbEntity
 67
     1
  8
7_ALL_FEATURES
  6
Continuous
 62
     9
100
AcDbLine
 10
699.2672578869
 20
604.1055955812
 30
0.0
 11
695.7672578869
 21
604.1055955812
 31
0.0
  0
LINE
  5
453
330
1B
100
AcDbEntity
 67
     1
  8
7_ALL_FEATURES
  6
Continuous
 62
     9
100
AcDbLine
 10
695.7672578869
 20
604.1055955812
 30
0.0
 11
694.0172578869
 21
604.1055955812
 31
0.0
  0
LINE
  5
454
330
1B
100
AcDbEntity
 67
     1
  8
7_ALL_FEATURES
  6
Continuous
 62
     9
100
AcDbLine
 10
694.0172578869
 20
604.1055955812
 30
0.0
 11
691.0172578869
 21
604.1055955812
 31
0.0
  0
SPLINE
  5
455
330
1B
100
AcDbEntity
 67
     1
  8
7_ALL_FEATURES
  6
Continuous
 62
     3
100
AcDbSpline
 70
     0
 71
     3
 72
     8
 73
     4
 74
     0
 42
0.000000001
 43
0.0000001
 40
0.0
 40
0.0
 40
0.0
 40
0.0
 40
1.0
 40
1.0
 40
1.0
 40
1.0
 10
2147.0172578869
 20
606.0059854932
 30
0.0
 10
2147.3481436425
 20
606.0059854932
 30
0.0
 10
2147.7146885697
 20
605.8055501224
 30
0.0
 10
2147.8832832907
 20
605.5208376301
 30
0.0
  0
SPLINE
  5
456
330
1B
100
AcDbEntity
 67
     1
  8
7_ALL_FEATURES
  6
Continuous
 62
     3
100
AcDbSpline
 70
     0
 71
     3
 72
     8
 73
     4
 74
     0
 42
0.000000001
 43
0.0000001
 40
0.0
 40
0.0
 40
0.0
 40
0.0
 40
1.0
 40
1.0
 40
1.0
 40
1.0
 10
2147.8832832907
 20
605.5208376301
 30
0.0
 10
2147.96876582
 20
605.3764799431
 30
0.0
 10
2148.0172578869
 20
605.2034586693
 30
0.0
 10
2148.0172578869
 20
605.0356897669
 30
0.0
  0
LINE
  5
457
330
1B
100
AcDbEntity
 67
     1
  8
7_ALL_FEATURES
  6
Continuous
 62
     3
100
AcDbLine
 10
1175.5172578869
 20
606.0059854932
 30
0.0
 11
947.7672578869
 21
606.0059854932
 31
0.0
  0
LINE
  5
458
330
1B
100
AcDbEntity
 67
     1
  8
7_ALL_FEATURES
  6
Continuous
 62
     3
100
AcDbLine
 10
674.5172578869
 20
606.0059854932
 30
0.0
 11
690.0172578869
 21
606.0059854932
 31
0.0
  0
SPLINE
  5
459
330
1B
100
AcDbEntity
 67
     1
  8
7_ALL_FEATURES
  6
Continuous
 62
     3
100
AcDbSpline
 70
     0
 71
     3
 72
     8
 73
     4
 74
     0
 42
0.000000001
 43
0.0000001
 40
0.0
 40
0.0
 40
0.0
 40
0.0
 40
1.0
 40
1.0
 40
1.0
 40
1.0
 10
669.5172578869
 20
610.8574641246
 30
0.0
 10
669.5172578869
 20
610.2257337608
 30
0.0
 10
669.6501529888
 20
609.5820242135
 30
0.0
 10
669.8978602244
 20
609.0008836299
 30
0.0
  0
SPLINE
  5
45A
330
1B
100
AcDbEntity
 67
     1
  8
7_ALL_FEATURES
  6
Continuous
 62
     3
100
AcDbSpline
 70
     0
 71
     3
 72
     8
 73
     4
 74
     0
 42
0.000000001
 43
0.0000001
 40
0.0
 40
0.0
 40
0.0
 40
0.0
 40
1.0
 40
1.0
 40
1.0
 40
1.0
 10
669.8978602244
 20
609.0008836299
 30
0.0
 10
670.3906663708
 20
607.844721797
 30
0.0
 10
671.4374454707
 20
606.8433530278
 30
0.0
 10
672.6038407251
 20
606.3752823146
 30
0.0
  0
SPLINE
  5
45B
330
1B
100
AcDbEntity
 67
     1
  8
7_ALL_FEATURES
  6
Continuous
 62
     3
100
AcDbSpline
 70
     0
 71
     3
 72
     8
 73
     4
 74
     0
 42
0.000000001
 43
0.0000001
 40
0.0
 40
0.0
 40
0.0
 40
0.0
 40
1.0
 40
1.0
 40
1.0
 40
1.0
 10
672.6038407251
 20
606.3752823146
 30
0.0
 10
673.2066873039
 20
606.1333618962
 30
0.0
 10
673.867681497
 20
606.0059854932
 30
0.0
 10
674.5172578869
 20
606.0059854932
 30
0.0
  0
SPLINE
  5
45C
330
1B
100
AcDbEntity
 67
     1
  8
7_ALL_FEATURES
  6
Continuous
 62
     3
100
AcDbSpline
 70
     0
 71
     3
 72
     8
 73
     4
 74
     0
 42
0.000000001
 43
0.0000001
 40
0.0
 40
0.0
 40
0.0
 40
0.0
 40
1.0
 40
1.0
 40
1.0
 40
1.0
 10
2161.0172578869
 20
605.0356897669
 30
0.0
 10
2161.0172578869
 20
605.3616252321
 30
0.0
 10
2161.2325744672
 20
605.717279211
 30
0.0
 10
2161.5172578869
 20
605.8759905151
 30
0.0
  0
SPLINE
  5
45D
330
1B
100
AcDbEntity
 67
     1
  8
7_ALL_FEATURES
  6
Continuous
 62
     3
100
AcDbSpline
 70
     0
 71
     3
 72
     8
 73
     4
 74
     0
 42
0.000000001
 43
0.0000001
 40
0.0
 40
0.0
 40
0.0
 40
0.0
 40
1.0
 40
1.0
 40
1.0
 40
1.0
 10
2161.5172578869
 20
605.8759905151
 30
0.0
 10
2161.6676699005
 20
605.9598453698
 30
0.0
 10
2161.8450504234
 20
606.0059854932
 30
0.0
 10
2162.0172578869
 20
606.0059854932
 30
0.0
  0
SPLINE
  5
45E
330
1B
100
AcDbEntity
 67
     1
  8
7_ALL_FEATURES
  6
Continuous
 62
     3
100
AcDbSpline
 70
     0
 71
     3
 72
     8
 73
     4
 74
     0
 42
0.000000001
 43
0.0000001
 40
0.0
 40
0.0
 40
0.0
 40
0.0
 40
1.0
 40
1.0
 40
1.0
 40
1.0
 10
2177.5172578869
 20
606.0059854932
 30
0.0
 10
2178.1668342769
 20
606.0059854932
 30
0.0
 10
2178.82782847
 20
606.1333618962
 30
0.0
 10
2179.4306750488
 20
606.3752823146
 30
0.0
  0
SPLINE
  5
45F
330
1B
100
AcDbEntity
 67
     1
  8
7_ALL_FEATURES
  6
Continuous
 62
     3
100
AcDbSpline
 70
     0
 71
     3
 72
     8
 73
     4
 74
     0
 42
0.000000001
 43
0.0000001
 40
0.0
 40
0.0
 40
0.0
 40
0.0
 40
1.0
 40
1.0
 40
1.0
 40
1.0
 10
2179.4306750488
 20
606.3752823146
 30
0.0
 10
2180.5970703031
 20
606.8433530278
 30
0.0
 10
2181.6438494031
 20
607.844721797
 30
0.0
 10
2182.1366555495
 20
609.0008836299
 30
0.0
  0
SPLINE
  5
460
330
1B
100
AcDbEntity
 67
     1
  8
7_ALL_FEATURES
  6
Continuous
 62
     3
100
AcDbSpline
 70
     0
 71
     3
 72
     8
 73
     4
 74
     0
 42
0.000000001
 43
0.0000001
 40
0.0
 40
0.0
 40
0.0
 40
0.0
 40
1.0
 40
1.0
 40
1.0
 40
1.0
 10
2182.1366555495
 20
609.0008836299
 30
0.0
 10
2182.3843627851
 20
609.5820242135
 30
0.0
 10
2182.5172578869
 20
610.2257337608
 30
0.0
 10
2182.5172578869
 20
610.8574641246
 30
0.0
  0
LINE
  5
461
330
1B
100
AcDbEntity
 67
     1
  8
7_ALL_FEATURES
  6
Continuous
 62
     3
100
AcDbLine
 10
2177.5172578869
 20
606.0059854932
 30
0.0
 11
2162.0172578869
 21
606.0059854932
 31
0.0
  0
LINE
  5
462
330
1B
100
AcDbEntity
 67
     1
  8
7_ALL_FEATURES
  6
Continuous
 62
     3
100
AcDbLine
 10
1661.5172578869
 20
606.0059854932
 30
0.0
 11
1433.5172578869
 21
606.0059854932
 31
0.0
  0
LINE
  5
463
330
1B
100
AcDbEntity
 67
     1
  8
7_ALL_FEATURES
  6
Continuous
 62
     9
100
AcDbLine
 10
2161.0172578869
 20
604.1055955812
 30
0.0
 11
2158.0172578869
 21
604.1055955812
 31
0.0
  0
LINE
  5
464
330
1B
100
AcDbEntity
 67
     1
  8
7_ALL_FEATURES
  6
Continuous
 62
     9
100
AcDbLine
 10
2158.0172578869
 20
604.1055955812
 30
0.0
 11
2156.2672578869
 21
604.1055955812
 31
0.0
  0
LINE
  5
465
330
1B
100
AcDbEntity
 67
     1
  8
7_ALL_FEATURES
  6
Continuous
 62
     9
100
AcDbLine
 10
2156.2672578869
 20
604.1055955812
 30
0.0
 11
2152.7672578869
 21
604.1055955812
 31
0.0
  0
LINE
  5
466
330
1B
100
AcDbEntity
 67
     1
  8
7_ALL_FEATURES
  6
Continuous
 62
     9
100
AcDbLine
 10
2152.7672578869
 20
604.1055955812
 30
0.0
 11
2151.0172578869
 21
604.1055955812
 31
0.0
  0
LINE
  5
467
330
1B
100
AcDbEntity
 67
     1
  8
7_ALL_FEATURES
  6
Continuous
 62
     9
100
AcDbLine
 10
2151.0172578869
 20
604.1055955812
 30
0.0
 11
2148.0172578869
 21
604.1055955812
 31
0.0
  0
SPLINE
  5
468
330
1B
100
AcDbEntity
 67
     1
  8
7_ALL_FEATURES
  6
Continuous
 62
     3
100
AcDbSpline
 70
     0
 71
     3
 72
     8
 73
     4
 74
     0
 42
0.000000001
 43
0.0000001
 40
0.0
 40
0.0
 40
0.0
 40
0.0
 40
1.0
 40
1.0
 40
1.0
 40
1.0
 10
1918.2672578869
 20
605.0356897669
 30
0.0
 10
1918.2672578869
 20
605.3616252321
 30
0.0
 10
1918.4825744672
 20
605.717279211
 30
0.0
 10
1918.7672578869
 20
605.8759905151
 30
0.0
  0
SPLINE
  5
469
330
1B
100
AcDbEntity
 67
     1
  8
7_ALL_FEATURES
  6
Continuous
 62
     3
100
AcDbSpline
 70
     0
 71
     3
 72
     8
 73
     4
 74
     0
 42
0.000000001
 43
0.0000001
 40
0.0
 40
0.0
 40
0.0
 40
0.0
 40
1.0
 40
1.0
 40
1.0
 40
1.0
 10
1918.7672578869
 20
605.8759905151
 30
0.0
 10
1918.9176699005
 20
605.9598453698
 30
0.0
 10
1919.0950504234
 20
606.0059854932
 30
0.0
 10
1919.2672578869
 20
606.0059854932
 30
0.0
  0
SPLINE
  5
46A
330
1B
100
AcDbEntity
 67
     1
  8
7_ALL_FEATURES
  6
Continuous
 62
     3
100
AcDbSpline
 70
     0
 71
     3
 72
     8
 73
     4
 74
     0
 42
0.000000001
 43
0.0000001
 40
0.0
 40
0.0
 40
0.0
 40
0.0
 40
1.0
 40
1.0
 40
1.0
 40
1.0
 10
1904.2672578869
 20
606.0059854932
 30
0.0
 10
1904.5981436425
 20
606.0059854932
 30
0.0
 10
1904.9646885697
 20
605.8055501224
 30
0.0
 10
1905.1332832907
 20
605.5208376301
 30
0.0
  0
SPLINE
  5
46B
330
1B
100
AcDbEntity
 67
     1
  8
7_ALL_FEATURES
  6
Continuous
 62
     3
100
AcDbSpline
 70
     0
 71
     3
 72
     8
 73
     4
 74
     0
 42
0.000000001
 43
0.0000001
 40
0.0
 40
0.0
 40
0.0
 40
0.0
 40
1.0
 40
1.0
 40
1.0
 40
1.0
 10
1905.1332832907
 20
605.5208376301
 30
0.0
 10
1905.21876582
 20
605.3764799431
 30
0.0
 10
1905.2672578869
 20
605.2034586693
 30
0.0
 10
1905.2672578869
 20
605.0356897669
 30
0.0
  0
SPLINE
  5
46C
330
1B
100
AcDbEntity
 67
     1
  8
7_ALL_FEATURES
  6
Continuous
 62
     3
100
AcDbSpline
 70
     0
 71
     3
 72
     8
 73
     4
 74
     0
 42
0.000000001
 43
0.0000001
 40
0.0
 40
0.0
 40
0.0
 40
0.0
 40
1.0
 40
1.0
 40
1.0
 40
1.0
 10
1675.5172578869
 20
605.0356897669
 30
0.0
 10
1675.5172578869
 20
605.3616252321
 30
0.0
 10
1675.7325744672
 20
605.717279211
 30
0.0
 10
1676.0172578869
 20
605.8759905151
 30
0.0
  0
SPLINE
  5
46D
330
1B
100
AcDbEntity
 67
     1
  8
7_ALL_FEATURES
  6
Continuous
 62
     3
100
AcDbSpline
 70
     0
 71
     3
 72
     8
 73
     4
 74
     0
 42
0.000000001
 43
0.0000001
 40
0.0
 40
0.0
 40
0.0
 40
0.0
 40
1.0
 40
1.0
 40
1.0
 40
1.0
 10
1676.0172578869
 20
605.8759905151
 30
0.0
 10
1676.1676699005
 20
605.9598453698
 30
0.0
 10
1676.3450504234
 20
606.0059854932
 30
0.0
 10
1676.5172578869
 20
606.0059854932
 30
0.0
  0
LINE
  5
46E
330
1B
100
AcDbEntity
 67
     1
  8
7_ALL_FEATURES
  6
Continuous
 62
     3
100
AcDbLine
 10
2147.0172578869
 20
606.0059854932
 30
0.0
 11
1919.2672578869
 21
606.0059854932
 31
0.0
  0
LINE
  5
46F
330
1B
100
AcDbEntity
 67
     1
  8
7_ALL_FEATURES
  6
Continuous
 62
     9
100
AcDbLine
 10
946.7672578869
 20
604.1055955812
 30
0.0
 11
943.7672578869
 21
604.1055955812
 31
0.0
  0
LINE
  5
470
330
1B
100
AcDbEntity
 67
     1
  8
7_ALL_FEATURES
  6
Continuous
 62
     9
100
AcDbLine
 10
943.7672578869
 20
604.1055955812
 30
0.0
 11
942.0172578869
 21
604.1055955812
 31
0.0
  0
LINE
  5
471
330
1B
100
AcDbEntity
 67
     1
  8
7_ALL_FEATURES
  6
Continuous
 62
     9
100
AcDbLine
 10
942.0172578869
 20
604.1055955812
 30
0.0
 11
938.5172578869
 21
604.1055955812
 31
0.0
  0
LINE
  5
472
330
1B
100
AcDbEntity
 67
     1
  8
7_ALL_FEATURES
  6
Continuous
 62
     9
100
AcDbLine
 10
938.5172578869
 20
604.1055955812
 30
0.0
 11
936.7672578869
 21
604.1055955812
 31
0.0
  0
LINE
  5
473
330
1B
100
AcDbEntity
 67
     1
  8
7_ALL_FEATURES
  6
Continuous
 62
     9
100
AcDbLine
 10
936.7672578869
 20
604.1055955812
 30
0.0
 11
933.7672578869
 21
604.1055955812
 31
0.0
  0
LINE
  5
474
330
1B
100
AcDbEntity
 67
     1
  8
7_ALL_FEATURES
  6
Continuous
 62
     9
100
AcDbLine
 10
1918.2672578869
 20
604.1055955812
 30
0.0
 11
1915.2672578869
 21
604.1055955812
 31
0.0
  0
LINE
  5
475
330
1B
100
AcDbEntity
 67
     1
  8
7_ALL_FEATURES
  6
Continuous
 62
     9
100
AcDbLine
 10
1915.2672578869
 20
604.1055955812
 30
0.0
 11
1913.5172578869
 21
604.1055955812
 31
0.0
  0
LINE
  5
476
330
1B
100
AcDbEntity
 67
     1
  8
7_ALL_FEATURES
  6
Continuous
 62
     9
100
AcDbLine
 10
1913.5172578869
 20
604.1055955812
 30
0.0
 11
1910.0172578869
 21
604.1055955812
 31
0.0
  0
LINE
  5
477
330
1B
100
AcDbEntity
 67
     1
  8
7_ALL_FEATURES
  6
Continuous
 62
     9
100
AcDbLine
 10
1910.0172578869
 20
604.1055955812
 30
0.0
 11
1908.2672578869
 21
604.1055955812
 31
0.0
  0
LINE
  5
478
330
1B
100
AcDbEntity
 67
     1
  8
7_ALL_FEATURES
  6
Continuous
 62
     9
100
AcDbLine
 10
1908.2672578869
 20
604.1055955812
 30
0.0
 11
1905.2672578869
 21
604.1055955812
 31
0.0
  0
SPLINE
  5
479
330
1B
100
AcDbEntity
 67
     1
  8
7_ALL_FEATURES
  6
Continuous
 62
     3
100
AcDbSpline
 70
     0
 71
     3
 72
     8
 73
     4
 74
     0
 42
0.000000001
 43
0.0000001
 40
0.0
 40
0.0
 40
0.0
 40
0.0
 40
1.0
 40
1.0
 40
1.0
 40
1.0
 10
1661.5172578869
 20
606.0059854932
 30
0.0
 10
1661.8481436425
 20
606.0059854932
 30
0.0
 10
1662.2146885697
 20
605.8055501224
 30
0.0
 10
1662.3832832907
 20
605.5208376301
 30
0.0
  0
SPLINE
  5
47A
330
1B
100
AcDbEntity
 67
     1
  8
7_ALL_FEATURES
  6
Continuous
 62
     3
100
AcDbSpline
 70
     0
 71
     3
 72
     8
 73
     4
 74
     0
 42
0.000000001
 43
0.0000001
 40
0.0
 40
0.0
 40
0.0
 40
0.0
 40
1.0
 40
1.0
 40
1.0
 40
1.0
 10
1662.3832832907
 20
605.5208376301
 30
0.0
 10
1662.46876582
 20
605.3764799431
 30
0.0
 10
1662.5172578869
 20
605.2034586693
 30
0.0
 10
1662.5172578869
 20
605.0356897669
 30
0.0
  0
SPLINE
  5
47B
330
1B
100
AcDbEntity
 67
     1
  8
7_ALL_FEATURES
  6
Continuous
 62
     3
100
AcDbSpline
 70
     0
 71
     3
 72
     8
 73
     4
 74
     0
 42
0.000000001
 43
0.0000001
 40
0.0
 40
0.0
 40
0.0
 40
0.0
 40
1.0
 40
1.0
 40
1.0
 40
1.0
 10
932.7672578869
 20
606.0059854932
 30
0.0
 10
933.0981436425
 20
606.0059854932
 30
0.0
 10
933.4646885697
 20
605.8055501224
 30
0.0
 10
933.6332832907
 20
605.5208376301
 30
0.0
  0
SPLINE
  5
47C
330
1B
100
AcDbEntity
 67
     1
  8
7_ALL_FEATURES
  6
Continuous
 62
     3
100
AcDbSpline
 70
     0
 71
     3
 72
     8
 73
     4
 74
     0
 42
0.000000001
 43
0.0000001
 40
0.0
 40
0.0
 40
0.0
 40
0.0
 40
1.0
 40
1.0
 40
1.0
 40
1.0
 10
933.6332832907
 20
605.5208376301
 30
0.0
 10
933.71876582
 20
605.3764799431
 30
0.0
 10
933.7672578869
 20
605.2034586693
 30
0.0
 10
933.7672578869
 20
605.0356897669
 30
0.0
  0
LINE
  5
47D
330
1B
100
AcDbEntity
 67
     1
  8
7_ALL_FEATURES
  6
Continuous
 62
     7
100
AcDbLine
 10
2550.4419244623
 20
604.8421522505
 30
0.0
 11
2550.3209635145
 21
605.3273001136
 31
0.0
  0
LINE
  5
47E
330
1B
100
AcDbEntity
 67
     1
  8
7_ALL_FEATURES
  6
Continuous
 62
     7
100
AcDbLine
 10
2550.3209635145
 20
605.3273001136
 30
0.0
 11
2550.232413955
 21
605.6824529986
 31
0.0
  0
ARC
  5
47F
330
1B
100
AcDbEntity
 67
     1
  8
7_ALL_FEATURES
  6
Continuous
 62
     7
100
AcDbCircle
 10
2555.4312074968
 20
665.5074656876
 30
0.0
 40
2.0
100
AcDbArc
 50
153.5
 51
160.25
  0
LINE
  5
480
330
1B
100
AcDbEntity
 67
     1
  8
7_ALL_FEATURES
  6
Continuous
 62
     7
100
AcDbLine
 10
2550.0804418939
 20
656.5229671796
 30
0.0
 11
2553.5488554663
 21
666.1832991236
 31
0.0
  0
ARC
  5
481
330
1B
100
AcDbEntity
 67
     1
  8
7_ALL_FEATURES
  6
Continuous
 62
     7
100
AcDbCircle
 10
2551.9627939245
 20
655.8471337436
 30
0.0
 40
2.0
100
AcDbArc
 50
160.25
 51
167.0
  0
LINE
  5
482
330
1B
100
AcDbEntity
 67
     1
  8
7_ALL_FEATURES
  6
Continuous
 62
     7
100
AcDbLine
 10
2547.7051319557
 20
646.2959966104
 30
0.0
 11
2550.0140537949
 21
656.2970358523
 31
0.0
  0
ARC
  5
483
330
1B
100
AcDbEntity
 67
     1
  8
7_ALL_FEATURES
  6
Continuous
 62
     7
100
AcDbCircle
 10
2549.6538720853
 20
645.8460945018
 30
0.0
 40
2.0
100
AcDbArc
 50
167.0
 51
173.75
  0
LINE
  5
484
330
1B
100
AcDbEntity
 67
     1
  8
7_ALL_FEATURES
  6
Continuous
 62
     7
100
AcDbLine
 10
2546.548338081
 20
635.8607269417
 30
0.0
 11
2547.6657594089
 21
646.0638282515
 31
0.0
  0
ARC
  5
485
330
1B
100
AcDbEntity
 67
     1
  8
7_ALL_FEATURES
  6
Continuous
 62
     7
100
AcDbCircle
 10
2548.5364507575
 20
635.642993192
 30
0.0
 40
2.0
100
AcDbArc
 50
173.75
 51
180.5038407989
  0
LINE
  5
486
330
1B
100
AcDbEntity
 67
     1
  8
7_ALL_FEATURES
  6
Continuous
 62
     7
100
AcDbLine
 10
2546.6268373577
 20
625.3558789305
 30
0.0
 11
2546.5365280858
 21
635.625406057
 31
0.0
  0
LINE
  5
487
330
1B
100
AcDbEntity
 67
     1
  8
7_ALL_FEATURES
  6
Continuous
 62
     7
100
AcDbLine
 10
2550.2000025667
 20
605.8124479767
 30
0.0
 11
2550.9762391477
 21
606.0059854932
 31
0.0
  0
ARC
  5
488
330
1B
100
AcDbEntity
 67
     1
  8
7_ALL_FEATURES
  6
Continuous
 62
     7
100
AcDbCircle
 10
2548.6267600293
 20
625.3734660656
 30
0.0
 40
2.0
100
AcDbArc
 50
180.5038407989
 51
187.25
  0
LINE
  5
489
330
1B
100
AcDbEntity
 67
     1
  8
7_ALL_FEATURES
  6
Continuous
 62
     7
100
AcDbLine
 10
2547.9373307674
 20
614.9448328625
 30
0.0
 11
2546.64275013
 21
625.1210681273
 31
0.0
  0
ARC
  5
48A
330
1B
100
AcDbEntity
 67
     1
  8
7_ALL_FEATURES
  6
Continuous
 62
     7
100
AcDbCircle
 10
2549.9213406668
 20
615.1972308007
 30
0.0
 40
2.0
100
AcDbArc
 50
187.25
 51
194.0
  0
LINE
  5
48B
330
1B
100
AcDbEntity
 67
     1
  8
7_ALL_FEATURES
  6
Continuous
 62
     7
100
AcDbLine
 10
2548.9903930887
 20
610.6639266081
 30
0.0
 11
2547.9807492142
 21
614.7133870095
 31
0.0
  0
LINE
  5
48C
330
1B
100
AcDbEntity
 67
     1
  8
7_ALL_FEATURES
  6
Continuous
 62
     7
100
AcDbLine
 10
2553.6413387736
 20
666.3998613138
 30
0.0
 11
2556.0427994218
 21
671.2164462205
 31
0.0
  0
LINE
  5
48D
330
1B
100
AcDbEntity
 67
     1
  8
7_ALL_FEATURES
  6
Continuous
 62
     7
100
AcDbLine
 10
2558.9897359766
 20
675.334159778
 30
0.0
 11
2558.2737884873
 21
675.6911180285
 31
0.0
  0
LINE
  5
48E
330
1B
100
AcDbEntity
 67
     1
  8
7_ALL_FEATURES
  6
Continuous
 62
     7
100
AcDbLine
 10
2563.4762391477
 20
602.6991330977
 30
0.0
 11
2563.4762391477
 21
603.4991330977
 31
0.0
  0
LINE
  5
48F
330
1B
100
AcDbEntity
 67
     1
  8
7_ALL_FEATURES
  6
Continuous
 62
     7
100
AcDbLine
 10
2550.6738229881
 20
603.9120580647
 30
0.0
 11
2550.4419244623
 21
604.8421522505
 31
0.0
  0
LINE
  5
490
330
1B
100
AcDbEntity
 67
     1
  8
7_ALL_FEATURES
  6
Continuous
 62
     7
100
AcDbLine
 10
2556.0427994218
 20
671.2164462205
 30
0.0
 11
2556.8965619749
 21
672.9288289867
 31
0.0
  0
LINE
  5
491
330
1B
100
AcDbEntity
 67
     1
  8
7_ALL_FEATURES
  6
Continuous
 62
     7
100
AcDbLine
 10
2556.8965619749
 20
672.9288289867
 30
0.0
 11
2558.2737884873
 21
675.6911180285
 31
0.0
  0
LINE
  5
492
330
1B
100
AcDbEntity
 67
     1
  8
7_ALL_FEATURES
  6
Continuous
 62
     7
100
AcDbLine
 10
2550.2000025667
 20
605.8124479767
 30
0.0
 11
2549.4532905956
 21
608.8073461134
 31
0.0
  0
LINE
  5
493
330
1B
100
AcDbEntity
 67
     1
  8
7_ALL_FEATURES
  6
Continuous
 62
     7
100
AcDbLine
 10
2549.4532905956
 20
608.8073461134
 30
0.0
 11
2548.9903930887
 21
610.6639266081
 31
0.0
  0
ARC
  5
494
330
1B
100
AcDbEntity
 67
     1
  8
7_ALL_FEATURES
  6
Continuous
 62
     7
100
AcDbCircle
 10
2552.2262961501
 20
604.2991330977
 30
0.0
 40
1.6
100
AcDbArc
 50
194.0
 51
244.6666666667
  0
ARC
  5
495
330
1B
100
AcDbEntity
 67
     1
  8
7_ALL_FEATURES
  6
Continuous
 62
     7
100
AcDbCircle
 10
2552.2262961501
 20
604.2991330977
 30
0.0
 40
1.6
100
AcDbArc
 50
244.6666666667
 51
263.4069349871
  0
ARC
  5
496
330
1B
100
AcDbEntity
 67
     1
  8
7_ALL_FEATURES
  6
Continuous
 62
     7
100
AcDbCircle
 10
2552.2262961501
 20
604.2991330977
 30
0.0
 40
1.6
100
AcDbArc
 50
263.4069349871
 51
270.0
  0
LINE
  5
497
330
1B
100
AcDbEntity
 67
     1
  8
7_ALL_FEATURES
  6
Continuous
 62
     7
100
AcDbLine
 10
2563.4762391477
 20
602.6991330977
 30
0.0
 11
2561.6242894448
 21
602.6991330977
 31
0.0
  0
LINE
  5
498
330
1B
100
AcDbEntity
 67
     1
  8
7_ALL_FEATURES
  6
Continuous
 62
     7
100
AcDbLine
 10
2561.6242894448
 20
602.6991330977
 30
0.0
 11
2560.4762391477
 21
602.6991330977
 31
0.0
  0
LINE
  5
499
330
1B
100
AcDbEntity
 67
     1
  8
7_ALL_FEATURES
  6
Continuous
 62
     7
100
AcDbLine
 10
2560.4762391477
 20
602.6991330977
 30
0.0
 11
2552.2262961501
 21
602.6991330977
 31
0.0
  0
LINE
  5
49A
330
1B
100
AcDbEntity
 67
     1
  8
7_ALL_FEATURES
  6
Continuous
 62
     9
100
AcDbLine
 10
2552.2262961501
 20
603.4991330977
 30
0.0
 11
2552.2262961501
 21
602.6991330977
 31
0.0
  0
LINE
  5
49B
330
1B
100
AcDbEntity
 67
     1
  8
7_ALL_FEATURES
  6
Continuous
 62
     9
100
AcDbLine
 10
2560.4762391477
 20
602.6991330977
 30
0.0
 11
2560.4762391477
 21
603.4991330977
 31
0.0
  0
LINE
  5
49C
330
1B
100
AcDbEntity
 67
     1
  8
7_ALL_FEATURES
  6
Continuous
 62
     9
100
AcDbLine
 10
2547.9807492142
 20
614.7133870095
 30
0.0
 11
2548.7569857952
 21
614.906924526
 31
0.0
  0
LINE
  5
49D
330
1B
100
AcDbEntity
 67
     1
  8
7_ALL_FEATURES
  6
Continuous
 62
     9
100
AcDbLine
 10
2556.758746911
 20
670.85948797
 30
0.0
 11
2556.0427994218
 21
671.2164462205
 31
0.0
  0
LINE
  5
49E
330
1B
100
AcDbEntity
 67
     1
  8
7_ALL_FEATURES
  6
Continuous
 62
     9
100
AcDbLine
 10
2553.5488554663
 20
666.1832991236
 30
0.0
 11
2554.3017962785
 21
665.9129657492
 31
0.0
  0
LINE
  5
49F
330
1B
100
AcDbEntity
 67
     1
  8
7_ALL_FEATURES
  6
Continuous
 62
     9
100
AcDbLine
 10
2551.4500595691
 20
604.1055955812
 30
0.0
 11
2550.6738229881
 21
603.9120580647
 31
0.0
  0
LINE
  5
4A0
330
1B
100
AcDbEntity
 67
     1
  8
7_ALL_FEATURES
  6
Continuous
 62
     9
100
AcDbLine
 10
2548.9903930887
 20
610.6639266081
 30
0.0
 11
2549.7666296697
 21
610.8574641246
 31
0.0
  0
LINE
  5
4A1
330
1B
100
AcDbEntity
 67
     1
  8
7_ALL_FEATURES
  6
Continuous
 62
     9
100
AcDbLine
 10
2551.2181610433
 20
605.0356897669
 30
0.0
 11
2550.4419244623
 21
604.8421522504
 31
0.0
  0
LINE
  5
4A2
330
1B
100
AcDbEntity
 67
     1
  8
7_ALL_FEATURES
  6
Continuous
 62
     9
100
AcDbLine
 10
2550.0804418939
 20
656.5229671796
 30
0.0
 11
2550.8333827062
 21
656.2526338052
 31
0.0
  0
LINE
  5
4A3
330
1B
100
AcDbEntity
 67
     1
  8
7_ALL_FEATURES
  6
Continuous
 62
     9
100
AcDbLine
 10
2546.6268373577
 20
625.3558789305
 30
0.0
 11
2547.4268064263
 21
625.3629137845
 31
0.0
  0
LINE
  5
4A4
330
1B
100
AcDbEntity
 67
     1
  8
7_ALL_FEATURES
  6
Continuous
 62
     9
100
AcDbLine
 10
2550.0140537949
 20
656.2970358523
 30
0.0
 11
2550.7935498467
 21
656.1170750088
 31
0.0
  0
LINE
  5
4A5
330
1B
100
AcDbEntity
 67
     1
  8
7_ALL_FEATURES
  6
Continuous
 62
     9
100
AcDbLine
 10
2553.6413387736
 20
666.3998613138
 30
0.0
 11
2554.3572862629
 21
666.0429030633
 31
0.0
  0
LINE
  5
4A6
330
1B
100
AcDbEntity
 67
     1
  8
7_ALL_FEATURES
  6
Continuous
 62
     9
100
AcDbLine
 10
2547.7051319557
 20
646.2959966104
 30
0.0
 11
2548.4846280076
 21
646.116035767
 31
0.0
  0
LINE
  5
4A7
330
1B
100
AcDbEntity
 67
     1
  8
7_ALL_FEATURES
  6
Continuous
 62
     9
100
AcDbLine
 10
2546.64275013
 20
625.1210681273
 30
0.0
 11
2547.4363540897
 21
625.2220273026
 31
0.0
  0
LINE
  5
4A8
330
1B
100
AcDbEntity
 67
     1
  8
7_ALL_FEATURES
  6
Continuous
 62
     9
100
AcDbLine
 10
2546.5365280858
 20
635.625406057
 30
0.0
 11
2547.3364971545
 21
635.632440911
 31
0.0
  0
LINE
  5
4A9
330
1B
100
AcDbEntity
 67
     1
  8
7_ALL_FEATURES
  6
Continuous
 62
     9
100
AcDbLine
 10
2547.6657594089
 20
646.0638282515
 30
0.0
 11
2548.4610044794
 21
645.9767347516
 31
0.0
  0
LINE
  5
4AA
330
1B
100
AcDbEntity
 67
     1
  8
7_ALL_FEATURES
  6
Continuous
 62
     9
100
AcDbLine
 10
2546.548338081
 20
635.8607269417
 30
0.0
 11
2547.3435831516
 21
635.7736334418
 31
0.0
  0
LINE
  5
4AB
330
1B
100
AcDbEntity
 67
     1
  8
7_ALL_FEATURES
  6
Continuous
 62
     9
100
AcDbLine
 10
2547.9373307674
 20
614.9448328625
 30
0.0
 11
2548.7309347272
 21
615.0457920378
 31
0.0
  0
LINE
  5
4AC
330
1B
100
AcDbEntity
 67
     1
  8
03___PRT_ALL_CURVES
  6
Continuous
 62
    40
100
AcDbLine
 10
2550.9762391477
 20
602.6991330977
 30
0.0
 11
2550.8616116132
 21
603.1588790276
 31
0.0
  0
LINE
  5
4AD
330
1B
100
AcDbEntity
 67
     1
  8
03___PRT_ALL_CURVES
  6
Continuous
 62
    40
100
AcDbLine
 10
2550.9762391477
 20
602.6991330977
 30
0.0
 11
2550.8616116132
 21
603.1588790276
 31
0.0
  0
LINE
  5
4AE
330
1B
100
AcDbEntity
 67
     1
  8
7_ALL_FEATURES
  6
Continuous
 62
     3
100
AcDbLine
 10
2560.4762391477
 20
603.4991330977
 30
0.0
 11
2561.6242894448
 21
603.4991330977
 31
0.0
  0
LINE
  5
4AF
330
1B
100
AcDbEntity
 67
     1
  8
7_ALL_FEATURES
  6
Continuous
 62
     3
100
AcDbLine
 10
2561.6242894448
 20
603.4991330977
 30
0.0
 11
2563.2478777453
 21
603.4991330977
 31
0.0
  0
LINE
  5
4B0
330
1B
100
AcDbEntity
 67
     1
  8
7_ALL_FEATURES
  6
Continuous
 62
     3
100
AcDbLine
 10
2563.2478777453
 20
603.4991330977
 30
0.0
 11
2563.4762391477
 21
603.4991330977
 31
0.0
  0
LINE
  5
4B1
330
1B
100
AcDbEntity
 67
     1
  8
7_ALL_FEATURES
  6
Continuous
 62
     3
100
AcDbLine
 10
2560.4762391477
 20
603.4991330977
 30
0.0
 11
2552.2262961501
 21
603.4991330977
 31
0.0
  0
LINE
  5
4B2
330
1B
100
AcDbEntity
 67
     1
  8
7_ALL_FEATURES
  6
Continuous
 62
     3
100
AcDbLine
 10
2551.0972000955
 20
605.5208376301
 30
0.0
 11
2551.2181610433
 21
605.0356897669
 31
0.0
  0
LINE
  5
4B3
330
1B
100
AcDbEntity
 67
     1
  8
7_ALL_FEATURES
  6
Continuous
 62
     3
100
AcDbLine
 10
2558.9897359766
 20
675.334159778
 30
0.0
 11
2558.336294408
 21
674.023558749
 31
0.0
  0
LINE
  5
4B4
330
1B
100
AcDbEntity
 67
     1
  8
7_ALL_FEATURES
  6
Continuous
 62
     3
100
AcDbLine
 10
2558.336294408
 20
674.023558749
 30
0.0
 11
2556.758746911
 21
670.85948797
 31
0.0
  0
LINE
  5
4B5
330
1B
100
AcDbEntity
 67
     1
  8
7_ALL_FEATURES
  6
Continuous
 62
     3
100
AcDbLine
 10
2551.4500595691
 20
604.1055955812
 30
0.0
 11
2551.2181610433
 21
605.0356897669
 31
0.0
  0
LINE
  5
4B6
330
1B
100
AcDbEntity
 67
     1
  8
7_ALL_FEATURES
  6
Continuous
 62
     3
100
AcDbLine
 10
2549.7666296697
 20
610.8574641246
 30
0.0
 11
2550.2295271766
 21
609.0008836299
 31
0.0
  0
LINE
  5
4B7
330
1B
100
AcDbEntity
 67
     1
  8
7_ALL_FEATURES
  6
Continuous
 62
     3
100
AcDbLine
 10
2550.2295271766
 20
609.0008836299
 30
0.0
 11
2550.6219527342
 21
607.4269506856
 31
0.0
  0
LINE
  5
4B8
330
1B
100
AcDbEntity
 67
     1
  8
7_ALL_FEATURES
  6
Continuous
 62
     3
100
AcDbLine
 10
2550.6219527342
 20
607.4269506856
 30
0.0
 11
2550.9762391477
 21
606.0059854932
 31
0.0
  0
ARC
  5
4B9
330
1B
100
AcDbEntity
 67
     1
  8
7_ALL_FEATURES
  6
Continuous
 62
     3
100
AcDbCircle
 10
2552.2262961501
 20
604.2991330977
 30
0.0
 40
0.8
100
AcDbArc
 50
194.0
 51
219.3333333333
  0
ARC
  5
4BA
330
1B
100
AcDbEntity
 67
     1
  8
7_ALL_FEATURES
  6
Continuous
 62
     3
100
AcDbCircle
 10
2552.2262961501
 20
604.2991330977
 30
0.0
 40
0.8
100
AcDbArc
 50
219.3333333333
 51
244.6666666667
  0
ARC
  5
4BB
330
1B
100
AcDbEntity
 67
     1
  8
7_ALL_FEATURES
  6
Continuous
 62
     3
100
AcDbCircle
 10
2552.2262961501
 20
604.2991330977
 30
0.0
 40
0.8
100
AcDbArc
 50
244.6666666667
 51
270.0
  0
ARC
  5
4BC
330
1B
100
AcDbEntity
 67
     1
  8
7_ALL_FEATURES
  6
Continuous
 62
     3
100
AcDbCircle
 10
2555.4312074968
 20
665.5074656876
 30
0.0
 40
1.2
100
AcDbArc
 50
153.5
 51
160.25
  0
LINE
  5
4BD
330
1B
100
AcDbEntity
 67
     1
  8
7_ALL_FEATURES
  6
Continuous
 62
     3
100
AcDbLine
 10
2550.8333827062
 20
656.2526338052
 30
0.0
 11
2554.3017962785
 21
665.9129657492
 31
0.0
  0
ARC
  5
4BE
330
1B
100
AcDbEntity
 67
     1
  8
7_ALL_FEATURES
  6
Continuous
 62
     3
100
AcDbCircle
 10
2551.9627939245
 20
655.8471337436
 30
0.0
 40
1.2
100
AcDbArc
 50
160.25
 51
167.0
  0
LINE
  5
4BF
330
1B
100
AcDbEntity
 67
     1
  8
7_ALL_FEATURES
  6
Continuous
 62
     3
100
AcDbLine
 10
2548.4846280076
 20
646.116035767
 30
0.0
 11
2550.7935498467
 21
656.1170750088
 31
0.0
  0
ARC
  5
4C0
330
1B
100
AcDbEntity
 67
     1
  8
7_ALL_FEATURES
  6
Continuous
 62
     3
100
AcDbCircle
 10
2549.6538720853
 20
645.8460945018
 30
0.0
 40
1.2
100
AcDbArc
 50
167.0
 51
173.75
  0
LINE
  5
4C1
330
1B
100
AcDbEntity
 67
     1
  8
7_ALL_FEATURES
  6
Continuous
 62
     3
100
AcDbLine
 10
2547.3435831516
 20
635.7736334418
 30
0.0
 11
2548.4610044794
 21
645.9767347516
 31
0.0
  0
ARC
  5
4C2
330
1B
100
AcDbEntity
 67
     1
  8
7_ALL_FEATURES
  6
Continuous
 62
     3
100
AcDbCircle
 10
2548.5364507575
 20
635.642993192
 30
0.0
 40
1.2
100
AcDbArc
 50
173.75
 51
180.5038407989
  0
LINE
  5
4C3
330
1B
100
AcDbEntity
 67
     1
  8
7_ALL_FEATURES
  6
Continuous
 62
     3
100
AcDbLine
 10
2547.4268064263
 20
625.3629137845
 30
0.0
 11
2547.3364971545
 21
635.632440911
 31
0.0
  0
ARC
  5
4C4
330
1B
100
AcDbEntity
 67
     1
  8
7_ALL_FEATURES
  6
Continuous
 62
     3
100
AcDbCircle
 10
2548.6267600293
 20
625.3734660656
 30
0.0
 40
1.2
100
AcDbArc
 50
180.5038407989
 51
187.25
  0
LINE
  5
4C5
330
1B
100
AcDbEntity
 67
     1
  8
7_ALL_FEATURES
  6
Continuous
 62
     3
100
AcDbLine
 10
2548.7309347272
 20
615.0457920378
 30
0.0
 11
2547.4363540897
 21
625.2220273026
 31
0.0
  0
ARC
  5
4C6
330
1B
100
AcDbEntity
 67
     1
  8
7_ALL_FEATURES
  6
Continuous
 62
     3
100
AcDbCircle
 10
2549.9213406668
 20
615.1972308007
 30
0.0
 40
1.2
100
AcDbArc
 50
187.25
 51
194.0
  0
LINE
  5
4C7
330
1B
100
AcDbEntity
 67
     1
  8
7_ALL_FEATURES
  6
Continuous
 62
     3
100
AcDbLine
 10
2549.7666296697
 20
610.8574641246
 30
0.0
 11
2548.7569857952
 21
614.906924526
 31
0.0
  0
LINE
  5
4C8
330
1B
100
AcDbEntity
 67
     1
  8
7_ALL_FEATURES
  6
Continuous
 62
     3
100
AcDbLine
 10
2554.3572862629
 20
666.0429030633
 30
0.0
 11
2556.758746911
 21
670.85948797
 31
0.0
  0
DIMENSION
  5
4C9
330
1B
100
AcDbEntity
 67
     1
  8
0
  6
Continuous
 62
     2
100
AcDbDimension
280
     0
  2
*D1
 10
2223.6353022545
 20
461.907340154
 30
0.0
 11
2223.6353022545
 21
469.9427546158
 31
0.0
 70
   160
 71
     5
 42
-1.0
 73
     0
 74
     0
 75
     0
  3
DIMSTYLE_1
100
AcDbAlignedDimension
 13
2182.5172578869
 23
478.8352412206
 33
0.0
 14
2158.0172578869
 24
461.907340154
 34
0.0
 50
270.0
100
AcDbRotatedDimension
  0
DIMENSION
  5
4CA
330
1B
100
AcDbEntity
 67
     1
  8
0
  6
Continuous
 62
     2
100
AcDbDimension
280
     0
  2
*D2
 10
2247.7128744059
 20
602.6991330977
 30
0.0
 11
2247.7128744059
 21
638.766528501
 31
0.0
 70
   160
 71
     5
 42
-1.0
 73
     0
 74
     0
 75
     0
  3
DIMSTYLE_2
100
AcDbAlignedDimension
 13
2177.5172578869
 23
675.6911180285
 33
0.0
 14
2161.0172578869
 24
602.6991330977
 34
0.0
 50
270.0
100
AcDbRotatedDimension
  0
DIMENSION
  5
4CB
330
1B
100
AcDbEntity
 67
     1
  8
0
  6
Continuous
 62
     2
100
AcDbDimension
280
     0
  2
*D3
 10
669.5172578869
 20
728.5514423528
 30
0.0
 11
1425.5887207031
 21
728.5514423528
 31
0.0
 70
   160
  1
1513
 71
     5
 42
-1.0
 73
     0
 74
     0
 75
     0
  3
DIMSTYLE_3
100
AcDbAlignedDimension
 13
2182.5172578869
 23
670.85948797
 33
0.0
 14
669.5172578869
 24
670.85948797
 34
0.0
 50
180.0
100
AcDbRotatedDimension
  0
LINE
  5
4CC
330
1B
100
AcDbEntity
 67
     1
  8
0
  6
Continuous
 62
     2
100
AcDbLine
 10
3067.9161580928
 20
67.6062612284
 30
0.0
 11
3197.9161580928
 21
67.6062612284
 31
0.0
  0
LINE
  5
4CD
330
1B
100
AcDbEntity
 67
     1
  8
0
  6
Continuous
 62
     2
100
AcDbLine
 10
3067.9161580928
 20
67.6062612284
 30
0.0
 11
3067.9161580928
 21
1.6062612284
 31
0.0
  0
LINE
  5
4CE
330
1B
100
AcDbEntity
 67
     1
  8
0
  6
Continuous
 62
     2
100
AcDbLine
 10
3097.9161580928
 20
59.6062612284
 30
0.0
 11
3197.9161580928
 21
59.6062612284
 31
0.0
  0
LINE
  5
4CF
330
1B
100
AcDbEntity
 67
     1
  8
0
  6
Continuous
 62
     2
100
AcDbLine
 10
3067.9161580928
 20
51.6062612284
 30
0.0
 11
3197.9161580928
 21
51.6062612284
 31
0.0
  0
LINE
  5
4D0
330
1B
100
AcDbEntity
 67
     1
  8
0
  6
Continuous
 62
     2
100
AcDbLine
 10
3097.9161580928
 20
45.6062612284
 30
0.0
 11
3197.9161580928
 21
45.6062612284
 31
0.0
  0
LINE
  5
4D1
330
1B
100
AcDbEntity
 67
     1
  8
0
  6
Continuous
 62
     2
100
AcDbLine
 10
3097.9161580928
 20
39.6062612284
 30
0.0
 11
3197.9161580928
 21
39.6062612284
 31
0.0
  0
LINE
  5
4D2
330
1B
100
AcDbEntity
 67
     1
  8
0
  6
Continuous
 62
     2
100
AcDbLine
 10
3097.9161580928
 20
33.6062612284
 30
0.0
 11
3197.9161580928
 21
33.6062612284
 31
0.0
  0
LINE
  5
4D3
330
1B
100
AcDbEntity
 67
     1
  8
0
  6
Continuous
 62
     2
100
AcDbLine
 10
3097.9161580928
 20
27.6062612284
 30
0.0
 11
3197.9161580928
 21
27.6062612284
 31
0.0
  0
LINE
  5
4D4
330
1B
100
AcDbEntity
 67
     1
  8
0
  6
Continuous
 62
     2
100
AcDbLine
 10
3097.9161580928
 20
21.6062612284
 30
0.0
 11
3197.9161580928
 21
21.6062612284
 31
0.0
  0
LINE
  5
4D5
330
1B
100
AcDbEntity
 67
     1
  8
0
  6
Continuous
 62
     2
100
AcDbLine
 10
3067.9161580928
 20
15.6062612284
 30
0.0
 11
3197.9161580928
 21
15.6062612284
 31
0.0
  0
LINE
  5
4D6
330
1B
100
AcDbEntity
 67
     1
  8
0
  6
Continuous
 62
     2
100
AcDbLine
 10
3067.9161580928
 20
9.6062612284
 30
0.0
 11
3197.9161580928
 21
9.6062612284
 31
0.0
  0
LINE
  5
4D7
330
1B
100
AcDbEntity
 67
     1
  8
0
  6
Continuous
 62
     2
100
AcDbLine
 10
3067.9161580928
 20
5.6062612284
 30
0.0
 11
3197.9161580928
 21
5.6062612284
 31
0.0
  0
LINE
  5
4D8
330
1B
100
AcDbEntity
 67
     1
  8
0
  6
Continuous
 62
     2
100
AcDbLine
 10
3067.9161580928
 20
1.6062612284
 30
0.0
 11
3197.9161580928
 21
1.6062612284
 31
0.0
  0
LINE
  5
4D9
330
1B
100
AcDbEntity
 67
     1
  8
0
  6
Continuous
 62
     2
100
AcDbLine
 10
3097.9161580928
 20
67.6062612284
 30
0.0
 11
3097.9161580928
 21
9.6062612284
 31
0.0
  0
LINE
  5
4DA
330
1B
100
AcDbEntity
 67
     1
  8
0
  6
Continuous
 62
     2
100
AcDbLine
 10
3117.9161580928
 20
51.6062612284
 30
0.0
 11
3117.9161580928
 21
45.6062612284
 31
0.0
  0
LINE
  5
4DB
330
1B
100
AcDbEntity
 67
     1
  8
0
  6
Continuous
 62
     2
100
AcDbLine
 10
3147.9161580928
 20
21.6062612284
 30
0.0
 11
3147.9161580928
 21
9.6062612284
 31
0.0
  0
LINE
  5
4DC
330
1B
100
AcDbEntity
 67
     1
  8
0
  6
Continuous
 62
     2
100
AcDbLine
 10
3157.9161580928
 20
51.6062612284
 30
0.0
 11
3157.9161580928
 21
45.6062612284
 31
0.0
  0
LINE
  5
4DD
330
1B
100
AcDbEntity
 67
     1
  8
0
  6
Continuous
 62
     2
100
AcDbLine
 10
3157.9161580928
 20
39.6062612284
 30
0.0
 11
3157.9161580928
 21
33.6062612284
 31
0.0
  0
LINE
  5
4DE
330
1B
100
AcDbEntity
 67
     1
  8
0
  6
Continuous
 62
     2
100
AcDbLine
 10
3177.9161580928
 20
51.6062612284
 30
0.0
 11
3177.9161580928
 21
45.6062612284
 31
0.0
  0
LINE
  5
4DF
330
1B
100
AcDbEntity
 67
     1
  8
0
  6
Continuous
 62
     2
100
AcDbLine
 10
3187.9161580928
 20
39.6062612284
 30
0.0
 11
3187.9161580928
 21
33.6062612284
 31
0.0
  0
LINE
  5
4E0
330
1B
100
AcDbEntity
 67
     1
  8
0
  6
Continuous
 62
     2
100
AcDbLine
 10
3197.9161580928
 20
67.6062612284
 30
0.0
 11
3197.9161580928
 21
1.6062612284
 31
0.0
  0
INSERT
  5
4E1
330
1B
100
AcDbEntity
 67
     1
  8
0
  6
Continuous
 62
     2
100
AcDbBlockReference
  2
PROIEZIONE_EU_BL0
 10
3082.9161580928
 20
59.2312612284
 30
0.0
  0
MTEXT
  5
4E2
330
1B
100
AcDbEntity
 67
     1
  8
9_SOLID
  6
Continuous
 62
     2
100
AcDbMText
 10
3099.4036580928
 20
65.9812612284
 30
0.0
 40
1.9
 41
142.3642857143
 46
0.0
 71
     1
 72
     1
  1
EN: Chamfer/radii unlisted 0.3x45°. Remove sharp edges.\PGen. tol.: hole H11, shaft h11, lenght Js12. UNI EN 22768 Medium Grande.
 73
     1
 44
1.0
  0
MTEXT
  5
4E3
330
1B
100
AcDbEntity
 67
     1
  8
9_SOLID
  6
Continuous
 62
     2
100
AcDbMText
 10
3099.4036580928
 20
57.9812612284
 30
0.0
 40
1.9
 41
148.2678571429
 46
0.0
 71
     1
 72
     1
  1
IT: Sm./rac. non quotati 0.3x45°. Eliminare spigoli taglienti.\PToll. gen.: foro H11, albero h11, lunghezza Js12. UNI EN 22768 Grado Medio.
 73
     1
 44
1.0
  0
INSERT
  5
4E4
330
1B
100
AcDbEntity
 67
     1
  8
0
  6
Continuous
 62
     2
100
AcDbBlockReference
  2
LOGO2_BL1
 10
3081.7422051375
 20
33.6062612284
 30
0.0
  0
MTEXT
  5
4E5
330
1B
100
AcDbEntity
 67
     1
  8
9_SOLID
  6
Continuous
 62
     2
100
AcDbMText
 10
3099.4036580928
 20
49.8562612284
 30
0.0
 40
3.0
 41
21.75
 46
0.0
 71
     1
 72
     1
  1
Pj: 565
 73
     1
 44
1.0
  0
MTEXT
  5
4E6
330
1B
100
AcDbEntity
 67
     1
  8
0
  6
Continuous
 62
     2
100
AcDbMText
 10
3119.4036580928
 20
49.8562612284
 30
0.0
 40
3.0
 41
41.25
 46
0.0
 71
     1
 72
     1
  1
% Check: -%
 73
     1
 44
1.0
  0
MTEXT
  5
4E7
330
1B
100
AcDbEntity
 67
     1
  8
9_SOLID
  6
Continuous
 62
     2
100
AcDbMText
 10
3159.4036580928
 20
49.8562612284
 30
0.0
 40
3.0
 41
19.5
 46
0.0
 71
     1
 72
     1
  1
Rev:00
 73
     1
 44
1.0
  0
MTEXT
  5
4E8
330
1B
100
AcDbEntity
 67
     1
  8
9_SOLID
  6
Continuous
 62
     2
100
AcDbMText
 10
3179.4036580928
 20
50.1062612284
 30
0.0
 40
3.0
 41
19.7142857143
 46
0.0
 71
     1
 72
     1
  1
Ver: A
 73
     1
 44
1.0
  0
MTEXT
  5
4E9
330
1B
100
AcDbEntity
 67
     1
  8
9_SOLID
  6
Continuous
 62
     2
100
AcDbMText
 10
3099.4036580928
 20
43.8562612284
 30
0.0
 40
3.0
 41
74.3571428571
 46
0.0
 71
     1
 72
     1
  1
Neutral code: 565_C_282
 73
     1
 44
1.0
  0
MTEXT
  5
4EA
330
1B
100
AcDbEntity
 67
     1
  8
0
  6
Continuous
 62
     2
100
AcDbMText
 10
3099.4036580928
 20
37.8562612284
 30
0.0
 40
3.0
 41
22.6071428571
 46
0.0
 71
     1
 72
     1
  1
Code: -
 73
     1
 44
1.0
  0
MTEXT
  5
4EB
330
1B
100
AcDbEntity
 67
     1
  8
9_SOLID
  6
Continuous
 62
     2
100
AcDbMText
 10
3159.4036580928
 20
38.1062612284
 30
0.0
 40
3.0
 41
27.8571428571
 46
0.0
 71
     1
 72
     1
  1
Scale: 1:1
 73
     1
 44
1.0
  0
MTEXT
  5
4EC
330
1B
100
AcDbEntity
 67
     1
  8
9_SOLID
  6
Continuous
 62
     2
100
AcDbMText
 10
3192.9161580928
 20
38.1062612284
 30
0.0
 40
3.0
 41
41.5714285714
 46
0.0
 71
     2
 72
     1
  1
3200 by 2500
 73
     1
 44
1.0
  0
MTEXT
  5
4ED
330
1B
100
AcDbEntity
 67
     1
  8
9_SOLID
  6
Continuous
 62
     2
100
AcDbMText
 10
3099.4036580928
 20
32.1062612284
 30
0.0
 40
3.0
 41
144.4285714286
 46
0.0
 71
     1
 72
     1
  1
It descr.: ANTIABBAGLIAMENTO NEVA 1.2 L=1513
 73
     1
 44
1.0
  0
MTEXT
  5
4EE
330
1B
100
AcDbEntity
 67
     1
  8
0
  6
Continuous
 62
     2
100
AcDbMText
 10
3099.4036580928
 20
26.1062612284
 30
0.0
 40
3.0
 41
37.1785714286
 46
0.0
 71
     1
 72
     1
  1
En descr.: -
 73
     1
 44
1.0
  0
MTEXT
  5
4EF
330
1B
100
AcDbEntity
 67
     1
  8
9_SOLID
  6
Continuous
 62
     2
100
AcDbMText
 10
3099.4036580928
 20
20.1062612284
 30
0.0
 40
3.0
 41
31.2857142857
 46
0.0
 71
     1
 72
     1
  1
Des.: A.F.
 73
     1
 44
1.0
  0
MTEXT
  5
4F0
330
1B
100
AcDbEntity
 67
     1
  8
9_SOLID
  6
Continuous
 62
     2
100
AcDbMText
 10
3149.4036580928
 20
20.1062612284
 30
0.0
 40
3.0
 41
22.2857142857
 46
0.0
 71
     1
 72
     1
  1
Check: 
 73
     1
 44
1.0
  0
MTEXT
  5
4F1
330
1B
100
AcDbEntity
 67
     1
  8
9_SOLID
  6
Continuous
 62
     2
100
AcDbMText
 10
3069.4036580928
 20
14.1062612284
 30
0.0
 40
3.0
 41
41.25
 46
0.0
 71
     1
 72
     1
  1
Date: 14.11.13
 73
     1
 44
1.0
  0
MTEXT
  5
4F2
330
1B
100
AcDbEntity
 67
     1
  8
0
  6
Continuous
 62
     2
100
AcDbMText
 10
3099.4036580928
 20
14.1062612284
 30
0.0
 40
3.0
 41
21.4285714286
 46
0.0
 71
     1
 72
     1
  1
Mat.: -
 73
     1
 44
1.0
  0
MTEXT
  5
4F3
330
1B
100
AcDbEntity
 67
     1
  8
9_SOLID
  6
Continuous
 62
     2
100
AcDbMText
 10
3149.4036580928
 20
13.6062612284
 30
0.0
 40
2.0
 41
42.3571428571
 46
0.0
 71
     1
 72
     1
  1
Disegno per catalogo
 73
     1
 44
1.0
  0
MTEXT
  5
4F4
330
1B
100
AcDbEntity
 67
     1
  8
9_SOLID
  6
Continuous
 62
     2
100
AcDbMText
 10
3069.4036580928
 20
8.5062612284
 30
0.0
 40
1.8
 41
176.2071428571
 46
0.0
 71
     1
 72
     1
  1
It: A norma di legge si diffida da qualsiasi riproduzione senza nostra autorizzazione esplicita.
 73
     1
 44
1.0
  0
MTEXT
  5
4F5
330
1B
100
AcDbEntity
 67
     1
  8
9_SOLID
  6
Continuous
 62
     2
100
AcDbMText
 10
3069.4036580928
 20
4.5062612284
 30
0.0
 40
1.8
 41
158.1428571429
 46
0.0
 71
     1
 72
     1
  1
En: According to the law, beware of any reproduction made without our authorization.
 73
     1
 44
1.0
  0
ENDSEC
  0
SECTION
  2
OBJECTS
  0
DICTIONARY
  5
4F6
330
0
100
AcDbDictionary
281
     1
  3
ACAD_DETAILVIEWSTYLE
350
54C
  3
ACAD_GROUP
350
4F7
  3
ACAD_LAYOUT
350
51F
  3
ACAD_MATERIAL
350
53B
  3
ACAD_MLEADERSTYLE
350
541
  3
ACAD_MLINESTYLE
350
4F8
  3
ACAD_PLOTSETTINGS
350
4FA
  3
ACAD_PLOTSTYLENAME
350
4FB
  3
ACAD_SCALELIST
350
4FD
  3
ACAD_SECTIONVIEWSTYLE
350
54D
  3
ACAD_TABLESTYLE
350
53F
  3
ACAD_VISUALSTYLE
350
522
  3
ACDB_RECOMPOSE_DATA
350
548
  3
AcDbVariableDictionary
350
544
  3
APPDATA
350
543
  0
DICTIONARY
  5
54C
102
{ACAD_REACTORS
330
4F6
102
}
330
4F6
100
AcDbDictionary
281
     1
  0
DICTIONARY
  5
4F7
102
{ACAD_REACTORS
330
4F6
102
}
330
4F6
100
AcDbDictionary
281
     1
  0
DICTIONARY
  5
51F
102
{ACAD_REACTORS
330
4F6
102
}
330
4F6
100
AcDbDictionary
281
     1
  3
Foglio 1
350
521
  3
Model
350
520
  0
DICTIONARY
  5
53B
102
{ACAD_REACTORS
330
4F6
102
}
330
4F6
100
AcDbDictionary
281
     1
  3
ByBlock
350
53D
  3
ByLayer
350
53C
  3
Global
350
53E
  0
DICTIONARY
  5
541
102
{ACAD_REACTORS
330
4F6
102
}
330
4F6
100
AcDbDictionary
281
     1
  3
Standard
350
542
  0
DICTIONARY
  5
4F8
102
{ACAD_REACTORS
330
4F6
102
}
330
4F6
100
AcDbDictionary
281
     1
  3
STANDARD
350
4F9
  0
DICTIONARY
  5
4FA
102
{ACAD_REACTORS
330
4F6
102
}
330
4F6
100
AcDbDictionary
281
     1
  0
ACDBDICTIONARYWDFLT
  5
4FB
102
{ACAD_REACTORS
330
4F6
102
}
330
4F6
100
AcDbDictionary
281
     1
  3
Normal
350
4FC
100
AcDbDictionaryWithDefault
340
4FC
  0
DICTIONARY
  5
4FD
102
{ACAD_REACTORS
330
4F6
102
}
330
4F6
100
AcDbDictionary
281
     1
  3
A0
350
4FE
  3
A1
350
4FF
  3
A2
350
500
  3
A3
350
501
  3
A4
350
502
  3
A5
350
503
  3
A6
350
504
  3
A7
350
505
  3
A8
350
506
  3
A9
350
507
  3
B0
350
508
  3
B1
350
509
  3
B2
350
50A
  3
B3
350
50B
  3
B4
350
50C
  3
B5
350
50D
  3
B6
350
50E
  3
B7
350
50F
  3
B8
350
510
  3
B9
350
511
  3
C0
350
512
  3
C1
350
513
  3
C2
350
514
  3
C3
350
515
  3
C4
350
516
  3
C5
350
517
  3
C6
350
518
  3
C7
350
519
  3
C8
350
51A
  3
C9
350
51B
  3
D0
350
51C
  3
D1
350
51D
  3
D2
350
51E
  0
DICTIONARY
  5
54D
102
{ACAD_REACTORS
330
4F6
102
}
330
4F6
100
AcDbDictionary
281
     1
  0
DICTIONARY
  5
53F
102
{ACAD_REACTORS
330
4F6
102
}
330
4F6
100
AcDbDictionary
281
     1
  3
Standard
350
540
  0
DICTIONARY
  5
522
102
{ACAD_REACTORS
330
4F6
102
}
330
4F6
100
AcDbDictionary
281
     1
  3
2dWireframe
350
527
  3
Basic
350
52A
  3
Brighten
350
52E
  3
ColorChange
350
532
  3
Conceptual
350
52C
  3
Dim
350
52D
  3
EdgeColorOff
350
535
  3
Facepattern
350
531
  3
Flat
350
523
  3
FlatWithEdges
350
524
  3
Gouraud
350
525
  3
GouraudWithEdges
350
526
  3
Hidden
350
529
  3
JitterOff
350
533
  3
Linepattern
350
530
  3
OverhangOff
350
534
  3
Realistic
350
52B
  3
Shaded
350
53A
  3
Shaded with edges
350
539
  3
Shades of Gray
350
536
  3
Sketchy
350
537
  3
Thicken
350
52F
  3
Wireframe
350
528
  3
X-Ray
350
538
  0
XRECORD
  5
548
102
{ACAD_REACTORS
330
4F6
102
}
330
4F6
100
AcDbXrecord
280
     1
 90
        1
330
540
  0
DICTIONARY
  5
544
102
{ACAD_REACTORS
330
4F6
102
}
330
4F6
100
AcDbDictionary
281
     1
  3
CANNOSCALE
350
545
  3
CMLEADERSTYLE
350
54A
  3
CTABLESTYLE
350
549
  3
MSLTSCALE
350
54B
  0
DICTIONARY
  5
543
102
{ACAD_REACTORS
330
4F6
102
}
330
4F6
100
AcDbDictionary
281
     1
  0
LAYOUT
  5
521
102
{ACAD_REACTORS
330
51F
102
}
330
51F
100
AcDbPlotSettings
  1

  2
none_device
  4
ISO_A3_(420.00_x_297.00_MM)
  6

 40
7.5
 41
20.0
 42
7.5
 43
20.0
 44
420.0
 45
297.0
 46
0.0
 47
0.0
 48
0.0
 49
0.0
140
0.0
141
0.0
142
1.0
143
9.727626459143968
 70
   688
 72
     1
 73
     0
 74
     1
  7

 75
     0
 76
     0
 77
     2
 78
   300
147
0.1028
148
0.0
149
0.0
100
AcDbLayout
  1
Foglio 1
 70
     1
 71
     1
 10
0.0
 20
0.0
 11
412.5
 21
277.0
 12
0.0
 22
0.0
 32
0.0
 14
0.0
 24
0.0
 34
0.0
 15
3206.9411580928
 25
2500.0
 35
0.0
146
0.0
 13
0.0
 23
0.0
 33
0.0
 16
1.0
 26
0.0
 36
0.0
 17
0.0
 27
1.0
 37
0.0
 76
     0
330
1B
331
284
  0
LAYOUT
  5
520
102
{ACAD_REACTORS
330
51F
102
}
330
51F
100
AcDbPlotSettings
  1

  2
none_device
  4
Letter_(8.50_x_11.00_Inches)
  6

 40
6.35
 41
6.35
 42
6.35
 43
6.35
 44
215.9
 45
279.4
 46
0.0
 47
0.0
 48
0.0
 49
0.0
140
0.0
141
0.0
142
1.0
143
400.0
 70
  1712
 72
     0
 73
     0
 74
     0
  7

 75
     0
 76
     0
 77
     2
 78
   300
147
0.0025
148
0.0
149
0.0
100
AcDbLayout
  1
Model
 70
     1
 71
     0
 10
0.0
 20
0.0
 11
3200.0
 21
2500.0
 12
0.0
 22
0.0
 32
0.0
 14
0.0
 24
0.0
 34
0.0
 15
3200.0
 25
2500.0
 35
0.0
146
0.0
 13
0.0
 23
0.0
 33
0.0
 16
1.0
 26
0.0
 36
0.0
 17
0.0
 27
1.0
 37
0.0
 76
     0
330
1F
331
1F4
  0
MATERIAL
  5
53D
102
{ACAD_REACTORS
330
53B
102
}
330
53B
100
AcDbMaterial
  1
ByBlock
 72
     1
 94
      127
  0
MATERIAL
  5
53C
102
{ACAD_REACTORS
330
53B
102
}
330
53B
100
AcDbMaterial
  1
ByLayer
 72
     1
 94
      127
  0
MATERIAL
  5
53E
102
{ACAD_REACTORS
330
53B
102
}
330
53B
100
AcDbMaterial
  1
Global
 72
     1
 94
      127
  0
MLEADERSTYLE
  5
542
102
{ACAD_REACTORS
330
541
102
}
330
541
100
AcDbMLeaderStyle
179
     2
170
     2
171
     1
172
     0
 90
        2
 40
0.0
 41
0.0
173
     1
 91
-1056964608
340
14
 92
       -2
290
     1
 42
2.0
291
     1
 43
8.0
  3
Standard
341
0
 44
4.0
300

342
11
174
     1
178
     1
175
     1
176
     0
 93
-1056964608
 45
4.0
292
     0
297
     0
 46
4.0
343
0
 94
-1056964608
 47
1.0
 49
1.0
140
1.0
293
     1
141
0.0
294
     1
177
     0
142
1.0
295
     0
296
     0
143
3.75
271
     0
272
     9
273
     9
298
     0
  0
MLINESTYLE
  5
4F9
102
{ACAD_REACTORS
330
4F8
102
}
330
4F8
100
AcDbMlineStyle
  2
STANDARD
 70
     0
  3

 62
   256
 51
90.0
 52
90.0
 71
     2
 49
0.5
 62
   256
  6
BYLAYER
 49
-0.5
 62
   256
  6
BYLAYER
  0
ACDBPLACEHOLDER
  5
4FC
102
{ACAD_REACTORS
330
4FB
102
}
330
4FB
  0
SCALE
  5
4FE
102
{ACAD_REACTORS
330
4FD
102
}
330
4FD
100
AcDbScale
 70
     0
300
1:1
140
1.0
141
1.0
290
     1
  0
SCALE
  5
4FF
102
{ACAD_REACTORS
330
4FD
102
}
330
4FD
100
AcDbScale
 70
     0
300
1:2
140
1.0
141
2.0
290
     0
  0
SCALE
  5
500
102
{ACAD_REACTORS
330
4FD
102
}
330
4FD
100
AcDbScale
 70
     0
300
1:4
140
1.0
141
4.0
290
     0
  0
SCALE
  5
501
102
{ACAD_REACTORS
330
4FD
102
}
330
4FD
100
AcDbScale
 70
     0
300
1:5
140
1.0
141
5.0
290
     0
  0
SCALE
  5
502
102
{ACAD_REACTORS
330
4FD
102
}
330
4FD
100
AcDbScale
 70
     0
300
1:8
140
1.0
141
8.0
290
     0
  0
SCALE
  5
503
102
{ACAD_REACTORS
330
4FD
102
}
330
4FD
100
AcDbScale
 70
     0
300
1:10
140
1.0
141
10.0
290
     0
  0
SCALE
  5
504
102
{ACAD_REACTORS
330
4FD
102
}
330
4FD
100
AcDbScale
 70
     0
300
1:16
140
1.0
141
16.0
290
     0
  0
SCALE
  5
505
102
{ACAD_REACTORS
330
4FD
102
}
330
4FD
100
AcDbScale
 70
     0
300
1:20
140
1.0
141
20.0
290
     0
  0
SCALE
  5
506
102
{ACAD_REACTORS
330
4FD
102
}
330
4FD
100
AcDbScale
 70
     0
300
1:30
140
1.0
141
30.0
290
     0
  0
SCALE
  5
507
102
{ACAD_REACTORS
330
4FD
102
}
330
4FD
100
AcDbScale
 70
     0
300
1:40
140
1.0
141
40.0
290
     0
  0
SCALE
  5
508
102
{ACAD_REACTORS
330
4FD
102
}
330
4FD
100
AcDbScale
 70
     0
300
1:50
140
1.0
141
50.0
290
     0
  0
SCALE
  5
509
102
{ACAD_REACTORS
330
4FD
102
}
330
4FD
100
AcDbScale
 70
     0
300
1:100
140
1.0
141
100.0
290
     0
  0
SCALE
  5
50A
102
{ACAD_REACTORS
330
4FD
102
}
330
4FD
100
AcDbScale
 70
     0
300
2:1
140
2.0
141
1.0
290
     0
  0
SCALE
  5
50B
102
{ACAD_REACTORS
330
4FD
102
}
330
4FD
100
AcDbScale
 70
     0
300
4:1
140
4.0
141
1.0
290
     0
  0
SCALE
  5
50C
102
{ACAD_REACTORS
330
4FD
102
}
330
4FD
100
AcDbScale
 70
     0
300
8:1
140
8.0
141
1.0
290
     0
  0
SCALE
  5
50D
102
{ACAD_REACTORS
330
4FD
102
}
330
4FD
100
AcDbScale
 70
     0
300
10:1
140
10.0
141
1.0
290
     0
  0
SCALE
  5
50E
102
{ACAD_REACTORS
330
4FD
102
}
330
4FD
100
AcDbScale
 70
     0
300
100:1
140
100.0
141
1.0
290
     0
  0
SCALE
  5
50F
102
{ACAD_REACTORS
330
4FD
102
}
330
4FD
100
AcDbScale
 70
     0
300
1/128" = 1'-0"
140
0.0078125
141
12.0
290
     0
  0
SCALE
  5
510
102
{ACAD_REACTORS
330
4FD
102
}
330
4FD
100
AcDbScale
 70
     0
300
1/64" = 1'-0"
140
0.015625
141
12.0
290
     0
  0
SCALE
  5
511
102
{ACAD_REACTORS
330
4FD
102
}
330
4FD
100
AcDbScale
 70
     0
300
1/32" = 1'-0"
140
0.03125
141
12.0
290
     0
  0
SCALE
  5
512
102
{ACAD_REACTORS
330
4FD
102
}
330
4FD
100
AcDbScale
 70
     0
300
1/16" = 1'-0"
140
0.0625
141
12.0
290
     0
  0
SCALE
  5
513
102
{ACAD_REACTORS
330
4FD
102
}
330
4FD
100
AcDbScale
 70
     0
300
3/32" = 1'-0"
140
0.09375
141
12.0
290
     0
  0
SCALE
  5
514
102
{ACAD_REACTORS
330
4FD
102
}
330
4FD
100
AcDbScale
 70
     0
300
1/8" = 1'-0"
140
0.125
141
12.0
290
     0
  0
SCALE
  5
515
102
{ACAD_REACTORS
330
4FD
102
}
330
4FD
100
AcDbScale
 70
     0
300
3/16" = 1'-0"
140
0.1875
141
12.0
290
     0
  0
SCALE
  5
516
102
{ACAD_REACTORS
330
4FD
102
}
330
4FD
100
AcDbScale
 70
     0
300
1/4" = 1'-0"
140
0.25
141
12.0
290
     0
  0
SCALE
  5
517
102
{ACAD_REACTORS
330
4FD
102
}
330
4FD
100
AcDbScale
 70
     0
300
3/8" = 1'-0"
140
0.375
141
12.0
290
     0
  0
SCALE
  5
518
102
{ACAD_REACTORS
330
4FD
102
}
330
4FD
100
AcDbScale
 70
     0
300
1/2" = 1'-0"
140
0.5
141
12.0
290
     0
  0
SCALE
  5
519
102
{ACAD_REACTORS
330
4FD
102
}
330
4FD
100
AcDbScale
 70
     0
300
3/4" = 1'-0"
140
0.75
141
12.0
290
     0
  0
SCALE
  5
51A
102
{ACAD_REACTORS
330
4FD
102
}
330
4FD
100
AcDbScale
 70
     0
300
1" = 1'-0"
140
1.0
141
12.0
290
     0
  0
SCALE
  5
51B
102
{ACAD_REACTORS
330
4FD
102
}
330
4FD
100
AcDbScale
 70
     0
300
1-1/2" = 1'-0"
140
1.5
141
12.0
290
     0
  0
SCALE
  5
51C
102
{ACAD_REACTORS
330
4FD
102
}
330
4FD
100
AcDbScale
 70
     0
300
3" = 1'-0"
140
3.0
141
12.0
290
     0
  0
SCALE
  5
51D
102
{ACAD_REACTORS
330
4FD
102
}
330
4FD
100
AcDbScale
 70
     0
300
6" = 1'-0"
140
6.0
141
12.0
290
     0
  0
SCALE
  5
51E
102
{ACAD_REACTORS
330
4FD
102
}
330
4FD
100
AcDbScale
 70
     0
300
1'-0" = 1'-0"
140
12.0
141
12.0
290
     0
  0
TABLESTYLE
  5
540
102
{ACAD_REACTORS
330
53F
102
}
102
{ACAD_XDICTIONARY
360
546
102
}
330
53F
100
AcDbTableStyle
  3
Standard
 70
     0
 71
     0
 40
0.06
 41
0.06
280
     0
281
     0
  7
STANDARD
140
4.5
170
     2
 62
     0
 63
   257
283
     0
 90
        4
 91
        0
  1

274
    -2
284
     1
 64
     0
275
    -2
285
     1
 65
     0
276
    -2
286
     1
 66
     0
277
    -2
287
     1
 67
     0
278
    -2
288
     1
 68
     0
279
    -2
289
     1
 69
     0
  7
STANDARD
140
6.0
170
     5
 62
     0
 63
   257
283
     0
 90
        4
 91
        0
  1

274
    -2
284
     1
 64
     0
275
    -2
285
     1
 65
     0
276
    -2
286
     1
 66
     0
277
    -2
287
     1
 67
     0
278
    -2
288
     1
 68
     0
279
    -2
289
     1
 69
     0
  7
STANDARD
140
4.5
170
     5
 62
     0
 63
   257
283
     0
 90
        4
 91
        0
  1

274
    -2
284
     1
 64
     0
275
    -2
285
     1
 65
     0
276
    -2
286
     1
 66
     0
277
    -2
287
     1
 67
     0
278
    -2
288
     1
 68
     0
279
    -2
289
     1
 69
     0
  0
VISUALSTYLE
  5
527
102
{ACAD_REACTORS
330
522
102
}
330
522
100
AcDbVisualStyle
  2
2dWireframe
 70
     4
177
     3
291
     0
 70
    58
 90
        0
176
     1
 90
        2
176
     1
 90
        0
176
     1
 90
        0
176
     1
 40
0.6
176
     1
 40
30.0
176
     1
 62
     7
420
 16777215
176
     1
 90
        1
176
     1
 90
        4
176
     1
 62
     7
176
     1
 62
   257
176
     1
 90
        1
176
     1
 90
        1
176
     1
 40
1.0
176
     1
 90
        0
176
     1
 62
   257
176
     1
 40
1.0
176
     1
 90
        1
176
     1
 90
        6
176
     1
 90
        2
176
     1
 62
     7
176
     1
 90
        5
176
     1
 90
        0
176
     1
 90
        0
176
     1
290
     0
176
     1
 90
        1
176
     1
 40
0.0
176
     1
 90
        0
176
     1
290
     1
176
     1
290
     1
176
     1
290
     0
176
     1
290
     0
176
     1
290
     0
176
     1
290
     0
176
     1
290
     0
176
     1
290
     0
176
     1
290
     0
176
     1
 90
       50
176
     1
 40
0.0
176
     1
 40
1.0
176
     1
 90
        0
176
     1
 62
    18
420
        0
176
     1
 90
       50
176
     1
 90
        3
176
     1
 62
     5
420
      255
176
     1
290
     0
176
     1
 90
       50
176
     1
 90
       50
176
     1
 90
       50
176
     1
290
     0
176
     1
 90
       50
176
     1
 62
   256
176
     0
 40
1.0
176
     0
 90
        2
176
     1
  1
strokes_ogs.tif
176
     1
290
     0
176
     1
 40
1.0
176
     1
 40
1.0
176
     1
  0
VISUALSTYLE
  5
52A
102
{ACAD_REACTORS
330
522
102
}
330
522
100
AcDbVisualStyle
  2
Basic
 70
     7
177
     3
291
     1
 70
    58
 90
        1
176
     1
 90
        0
176
     1
 90
        1
176
     1
 90
        0
176
     1
 40
0.6
176
     1
 40
30.0
176
     1
 62
     7
420
 16777215
176
     1
 90
        0
176
     1
 90
        4
176
     1
 62
     7
176
     1
 62
   257
176
     1
 90
        1
176
     1
 90
        1
176
     1
 40
1.0
176
     1
 90
        8
176
     1
 62
     7
176
     1
 40
1.0
176
     1
 90
        1
176
     1
 90
        6
176
     1
 90
        2
176
     1
 62
     7
176
     1
 90
        5
176
     1
 90
        0
176
     1
 90
        0
176
     1
290
     0
176
     1
 90
        1
176
     1
 40
0.0
176
     1
 90
        0
176
     1
290
     0
176
     1
290
     1
176
     1
290
     1
176
     1
290
     0
176
     1
290
     0
176
     1
290
     0
176
     1
290
     0
176
     1
290
     0
176
     1
290
     0
176
     1
 90
       50
176
     1
 40
0.0
176
     1
 40
1.0
176
     1
 90
        0
176
     1
 62
    18
420
        0
176
     1
 90
       50
176
     1
 90
        3
176
     1
 62
     5
420
      255
176
     1
290
     0
176
     1
 90
       50
176
     1
 90
       50
176
     1
 90
       50
176
     1
290
     0
176
     1
 90
       50
176
     1
 62
   256
176
     0
 40
1.0
176
     0
 90
        2
176
     1
  1
strokes_ogs.tif
176
     1
290
     0
176
     1
 40
1.0
176
     1
 40
1.0
176
     1
  0
VISUALSTYLE
  5
52E
102
{ACAD_REACTORS
330
522
102
}
330
522
100
AcDbVisualStyle
  2
Brighten
 70
    12
177
     3
291
     1
 70
    58
 90
        2
176
     1
 90
        2
176
     1
 90
        0
176
     1
 90
        0
176
     1
 40
0.6
176
     1
 40
30.0
176
     1
 62
     7
420
 16777215
176
     1
 90
        1
176
     1
 90
        4
176
     1
 62
     7
176
     1
 62
   257
176
     1
 90
        1
176
     1
 90
        1
176
     1
 40
1.0
176
     1
 90
        8
176
     1
 62
     7
176
     1
 40
1.0
176
     1
 90
        1
176
     1
 90
        6
176
     1
 90
        2
176
     1
 62
     7
176
     1
 90
        5
176
     1
 90
        0
176
     1
 90
        0
176
     1
290
     0
176
     1
 90
        1
176
     1
 40
50.0
176
     1
 90
        0
176
     1
290
     0
176
     1
290
     1
176
     1
290
     1
176
     1
290
     0
176
     1
290
     0
176
     1
290
     0
176
     1
290
     0
176
     1
290
     0
176
     1
290
     0
176
     1
 90
       50
176
     1
 40
0.0
176
     1
 40
1.0
176
     1
 90
        0
176
     1
 62
    18
420
        0
176
     1
 90
       50
176
     1
 90
        3
176
     1
 62
     5
420
      255
176
     1
290
     0
176
     1
 90
       50
176
     1
 90
       50
176
     1
 90
       50
176
     1
290
     0
176
     1
 90
       50
176
     1
 62
   256
176
     0
 40
1.0
176
     0
 90
        2
176
     1
  1
strokes_ogs.tif
176
     1
290
     0
176
     1
 40
1.0
176
     1
 40
1.0
176
     1
  0
VISUALSTYLE
  5
532
102
{ACAD_REACTORS
330
522
102
}
330
522
100
AcDbVisualStyle
  2
ColorChange
 70
    16
177
     3
291
     1
 70
    58
 90
        2
176
     1
 90
        2
176
     1
 90
        3
176
     1
 90
        0
176
     1
 40
0.6
176
     1
 40
30.0
176
     1
 62
     8
420
  8421504
176
     1
 90
        1
176
     1
 90
        4
176
     1
 62
     7
176
     1
 62
   257
176
     1
 90
        1
176
     1
 90
        1
176
     1
 40
1.0
176
     1
 90
        8
176
     1
 62
     8
420
  8421504
176
     1
 40
1.0
176
     1
 90
        1
176
     1
 90
        6
176
     1
 90
        2
176
     1
 62
     7
176
     1
 90
        5
176
     1
 90
        0
176
     1
 90
        0
176
     1
290
     0
176
     1
 90
        1
176
     1
 40
0.0
176
     1
 90
        0
176
     1
290
     0
176
     1
290
     1
176
     1
290
     1
176
     1
290
     0
176
     1
290
     0
176
     1
290
     0
176
     1
290
     0
176
     1
290
     0
176
     1
290
     0
176
     1
 90
       50
176
     1
 40
0.0
176
     1
 40
1.0
176
     1
 90
        0
176
     1
 62
    18
420
        0
176
     1
 90
       50
176
     1
 90
        3
176
     1
 62
     5
420
      255
176
     1
290
     0
176
     1
 90
       50
176
     1
 90
       50
176
     1
 90
       50
176
     1
290
     0
176
     1
 90
       50
176
     1
 62
   256
176
     0
 40
1.0
176
     0
 90
        2
176
     1
  1
strokes_ogs.tif
176
     1
290
     0
176
     1
 40
1.0
176
     1
 40
1.0
176
     1
  0
VISUALSTYLE
  5
52C
102
{ACAD_REACTORS
330
522
102
}
330
522
100
AcDbVisualStyle
  2
Conceptual
 70
     9
177
     3
291
     0
 70
    58
 90
        3
176
     1
 90
        2
176
     1
 90
        0
176
     1
 90
        0
176
     1
 40
0.6
176
     1
 40
30.0
176
     1
 62
     7
420
 16777215
176
     1
 90
        2
176
     1
 90
        2
176
     1
 62
     7
176
     1
 62
   257
176
     1
 90
        1
176
     1
 90
        1
176
     1
 40
179.0
176
     1
 90
        8
176
     1
 62
     7
176
     1
 40
1.0
176
     1
 90
        1
176
     1
 90
        6
176
     1
 90
        2
176
     1
 62
     7
176
     1
 90
        3
176
     1
 90
        0
176
     1
 90
        0
176
     1
290
     0
176
     1
 90
        1
176
     1
 40
0.0
176
     1
 90
        0
176
     1
290
     0
176
     1
290
     1
176
     1
290
     1
176
     1
290
     0
176
     1
290
     0
176
     1
290
     0
176
     1
290
     0
176
     1
290
     0
176
     1
290
     0
176
     1
 90
       50
176
     1
 40
0.0
176
     1
 40
1.0
176
     1
 90
        0
176
     1
 62
    18
420
        0
176
     1
 90
       50
176
     1
 90
        3
176
     1
 62
     5
420
      255
176
     1
290
     0
176
     1
 90
       50
176
     1
 90
       50
176
     1
 90
       50
176
     1
290
     0
176
     1
 90
       50
176
     1
 62
   256
176
     0
 40
1.0
176
     0
 90
        2
176
     1
  1
strokes_ogs.tif
176
     1
290
     0
176
     1
 40
1.0
176
     1
 40
1.0
176
     1
  0
VISUALSTYLE
  5
52D
102
{ACAD_REACTORS
330
522
102
}
330
522
100
AcDbVisualStyle
  2
Dim
 70
    11
177
     3
291
     1
 70
    58
 90
        2
176
     1
 90
        2
176
     1
 90
        0
176
     1
 90
        0
176
     1
 40
0.6
176
     1
 40
30.0
176
     1
 62
     7
420
 16777215
176
     1
 90
        1
176
     1
 90
        4
176
     1
 62
     7
176
     1
 62
   257
176
     1
 90
        1
176
     1
 90
        1
176
     1
 40
1.0
176
     1
 90
        8
176
     1
 62
     7
176
     1
 40
1.0
176
     1
 90
        1
176
     1
 90
        6
176
     1
 90
        2
176
     1
 62
     7
176
     1
 90
        5
176
     1
 90
        0
176
     1
 90
        0
176
     1
290
     0
176
     1
 90
        1
176
     1
 40
-50.0
176
     1
 90
        0
176
     1
290
     0
176
     1
290
     1
176
     1
290
     1
176
     1
290
     0
176
     1
290
     0
176
     1
290
     0
176
     1
290
     0
176
     1
290
     0
176
     1
290
     0
176
     1
 90
       50
176
     1
 40
0.0
176
     1
 40
1.0
176
     1
 90
        0
176
     1
 62
    18
420
        0
176
     1
 90
       50
176
     1
 90
        3
176
     1
 62
     5
420
      255
176
     1
290
     0
176
     1
 90
       50
176
     1
 90
       50
176
     1
 90
       50
176
     1
290
     0
176
     1
 90
       50
176
     1
 62
   256
176
     0
 40
1.0
176
     0
 90
        2
176
     1
  1
strokes_ogs.tif
176
     1
290
     0
176
     1
 40
1.0
176
     1
 40
1.0
176
     1
  0
VISUALSTYLE
  5
535
102
{ACAD_REACTORS
330
522
102
}
330
522
100
AcDbVisualStyle
  2
EdgeColorOff
 70
    22
177
     3
291
     1
 70
    58
 90
        2
176
     0
 90
        2
176
     0
 90
        0
176
     0
 90
        0
176
     0
 40
0.6
176
     0
 40
30.0
176
     0
 62
     7
420
 16777215
176
     0
 90
        1
176
     0
 90
        4
176
     0
 62
     7
176
     0
 62
   257
176
     0
 90
        1
176
     0
 90
        1
176
     0
 40
1.0
176
     0
 90
        8
176
     2
 62
     7
176
     0
 40
1.0
176
     0
 90
        1
176
     0
 90
        6
176
     0
 90
        2
176
     0
 62
     7
176
     0
 90
        5
176
     0
 90
        0
176
     0
 90
        0
176
     0
290
     0
176
     0
 90
        1
176
     0
 40
0.0
176
     0
 90
        0
176
     0
290
     0
176
     0
290
     1
176
     0
290
     1
176
     0
290
     0
176
     0
290
     0
176
     0
290
     0
176
     0
290
     0
176
     0
290
     0
176
     0
290
     0
176
     0
 90
       50
176
     0
 40
0.0
176
     0
 40
1.0
176
     0
 90
        0
176
     0
 62
    18
420
        0
176
     0
 90
       50
176
     0
 90
        3
176
     0
 62
     5
420
      255
176
     0
290
     0
176
     0
 90
       50
176
     0
 90
       50
176
     0
 90
       50
176
     0
290
     0
176
     0
 90
       50
176
     0
 62
   256
176
     0
 40
1.0
176
     0
 90
        2
176
     0
  1
strokes_ogs.tif
176
     0
290
     0
176
     0
 40
1.0
176
     0
 40
1.0
176
     0
  0
VISUALSTYLE
  5
531
102
{ACAD_REACTORS
330
522
102
}
330
522
100
AcDbVisualStyle
  2
Facepattern
 70
    15
177
     3
291
     1
 70
    58
 90
        2
176
     1
 90
        2
176
     1
 90
        0
176
     1
 90
        0
176
     1
 40
0.6
176
     1
 40
30.0
176
     1
 62
     7
420
 16777215
176
     1
 90
        1
176
     1
 90
        4
176
     1
 62
     7
176
     1
 62
   257
176
     1
 90
        1
176
     1
 90
        1
176
     1
 40
1.0
176
     1
 90
        8
176
     1
 62
     7
176
     1
 40
1.0
176
     1
 90
        1
176
     1
 90
        6
176
     1
 90
        2
176
     1
 62
     7
176
     1
 90
        5
176
     1
 90
        0
176
     1
 90
        0
176
     1
290
     0
176
     1
 90
        1
176
     1
 40
0.0
176
     1
 90
        0
176
     1
290
     0
176
     1
290
     1
176
     1
290
     1
176
     1
290
     0
176
     1
290
     0
176
     1
290
     0
176
     1
290
     0
176
     1
290
     0
176
     1
290
     0
176
     1
 90
       50
176
     1
 40
0.0
176
     1
 40
1.0
176
     1
 90
        0
176
     1
 62
    18
420
        0
176
     1
 90
       50
176
     1
 90
        3
176
     1
 62
     5
420
      255
176
     1
290
     0
176
     1
 90
       50
176
     1
 90
       50
176
     1
 90
       50
176
     1
290
     0
176
     1
 90
       50
176
     1
 62
   256
176
     0
 40
1.0
176
     0
 90
        2
176
     1
  1
strokes_ogs.tif
176
     1
290
     0
176
     1
 40
1.0
176
     1
 40
1.0
176
     1
  0
VISUALSTYLE
  5
523
102
{ACAD_REACTORS
330
522
102
}
330
522
100
AcDbVisualStyle
  2
Flat
 70
     0
177
     3
291
     1
 70
    58
 90
        2
176
     1
 90
        1
176
     1
 90
        1
176
     1
 90
        2
176
     1
 40
0.6
176
     1
 40
30.0
176
     1
 62
     7
420
 16777215
176
     1
 90
        0
176
     1
 90
        0
176
     1
 62
     7
176
     1
 62
   257
176
     1
 90
        1
176
     1
 90
        1
176
     1
 40
1.0
176
     1
 90
        8
176
     1
 62
     7
176
     1
 40
1.0
176
     1
 90
        1
176
     1
 90
        6
176
     1
 90
        2
176
     1
 62
     7
176
     1
 90
        5
176
     1
 90
        0
176
     1
 90
        0
176
     1
290
     0
176
     1
 90
       13
176
     1
 40
0.0
176
     1
 90
        0
176
     1
290
     0
176
     1
290
     1
176
     1
290
     1
176
     1
290
     0
176
     1
290
     0
176
     1
290
     0
176
     1
290
     0
176
     1
290
     0
176
     1
290
     0
176
     1
 90
       50
176
     1
 40
0.0
176
     1
 40
1.0
176
     1
 90
        0
176
     1
 62
    18
420
        0
176
     1
 90
       50
176
     1
 90
        3
176
     1
 62
     5
420
      255
176
     1
290
     0
176
     1
 90
       50
176
     1
 90
       50
176
     1
 90
       50
176
     1
290
     0
176
     1
 90
       50
176
     1
 62
   256
176
     0
 40
1.0
176
     0
 90
        2
176
     1
  1
strokes_ogs.tif
176
     1
290
     0
176
     1
 40
1.0
176
     1
 40
1.0
176
     1
  0
VISUALSTYLE
  5
524
102
{ACAD_REACTORS
330
522
102
}
330
522
100
AcDbVisualStyle
  2
FlatWithEdges
 70
     1
177
     3
291
     1
 70
    58
 90
        2
176
     1
 90
        1
176
     1
 90
        1
176
     1
 90
        2
176
     1
 40
0.6
176
     1
 40
30.0
176
     1
 62
     7
420
 16777215
176
     1
 90
        1
176
     1
 90
        0
176
     1
 62
     7
176
     1
 62
   257
176
     1
 90
        1
176
     1
 90
        1
176
     1
 40
1.0
176
     1
 90
        0
176
     1
 62
   257
176
     1
 40
1.0
176
     1
 90
        1
176
     1
 90
        6
176
     1
 90
        2
176
     1
 62
     7
176
     1
 90
        5
176
     1
 90
        0
176
     1
 90
        0
176
     1
290
     0
176
     1
 90
       13
176
     1
 40
0.0
176
     1
 90
        0
176
     1
290
     0
176
     1
290
     1
176
     1
290
     1
176
     1
290
     0
176
     1
290
     0
176
     1
290
     0
176
     1
290
     0
176
     1
290
     0
176
     1
290
     0
176
     1
 90
       50
176
     1
 40
0.0
176
     1
 40
1.0
176
     1
 90
        0
176
     1
 62
    18
420
        0
176
     1
 90
       50
176
     1
 90
        3
176
     1
 62
     5
420
      255
176
     1
290
     0
176
     1
 90
       50
176
     1
 90
       50
176
     1
 90
       50
176
     1
290
     0
176
     1
 90
       50
176
     1
 62
   256
176
     0
 40
1.0
176
     0
 90
        2
176
     1
  1
strokes_ogs.tif
176
     1
290
     0
176
     1
 40
1.0
176
     1
 40
1.0
176
     1
  0
VISUALSTYLE
  5
525
102
{ACAD_REACTORS
330
522
102
}
330
522
100
AcDbVisualStyle
  2
Gouraud
 70
     2
177
     3
291
     1
 70
    58
 90
        2
176
     1
 90
        2
176
     1
 90
        1
176
     1
 90
        2
176
     1
 40
0.6
176
     1
 40
30.0
176
     1
 62
     7
420
 16777215
176
     1
 90
        0
176
     1
 90
        0
176
     1
 62
     7
176
     1
 62
   257
176
     1
 90
        1
176
     1
 90
        1
176
     1
 40
1.0
176
     1
 90
        0
176
     1
 62
     7
176
     1
 40
1.0
176
     1
 90
        1
176
     1
 90
        6
176
     1
 90
        2
176
     1
 62
     7
176
     1
 90
        5
176
     1
 90
        0
176
     1
 90
        0
176
     1
290
     0
176
     1
 90
       13
176
     1
 40
0.0
176
     1
 90
        0
176
     1
290
     0
176
     1
290
     1
176
     1
290
     1
176
     1
290
     0
176
     1
290
     0
176
     1
290
     0
176
     1
290
     0
176
     1
290
     0
176
     1
290
     0
176
     1
 90
       50
176
     1
 40
0.0
176
     1
 40
1.0
176
     1
 90
        0
176
     1
 62
    18
420
        0
176
     1
 90
       50
176
     1
 90
        3
176
     1
 62
     5
420
      255
176
     1
290
     0
176
     1
 90
       50
176
     1
 90
       50
176
     1
 90
       50
176
     1
290
     0
176
     1
 90
       50
176
     1
 62
   256
176
     0
 40
1.0
176
     0
 90
        2
176
     1
  1
strokes_ogs.tif
176
     1
290
     0
176
     1
 40
1.0
176
     1
 40
1.0
176
     1
  0
VISUALSTYLE
  5
526
102
{ACAD_REACTORS
330
522
102
}
330
522
100
AcDbVisualStyle
  2
GouraudWithEdges
 70
     3
177
     3
291
     1
 70
    58
 90
        2
176
     1
 90
        2
176
     1
 90
        1
176
     1
 90
        2
176
     1
 40
0.6
176
     1
 40
30.0
176
     1
 62
     7
420
 16777215
176
     1
 90
        1
176
     1
 90
        0
176
     1
 62
     7
176
     1
 62
   257
176
     1
 90
        1
176
     1
 90
        1
176
     1
 40
1.0
176
     1
 90
        0
176
     1
 62
   257
176
     1
 40
1.0
176
     1
 90
        1
176
     1
 90
        6
176
     1
 90
        2
176
     1
 62
     7
176
     1
 90
        5
176
     1
 90
        0
176
     1
 90
        0
176
     1
290
     0
176
     1
 90
       13
176
     1
 40
0.0
176
     1
 90
        0
176
     1
290
     0
176
     1
290
     1
176
     1
290
     1
176
     1
290
     0
176
     1
290
     0
176
     1
290
     0
176
     1
290
     0
176
     1
290
     0
176
     1
290
     0
176
     1
 90
       50
176
     1
 40
0.0
176
     1
 40
1.0
176
     1
 90
        0
176
     1
 62
    18
420
        0
176
     1
 90
       50
176
     1
 90
        3
176
     1
 62
     5
420
      255
176
     1
290
     0
176
     1
 90
       50
176
     1
 90
       50
176
     1
 90
       50
176
     1
290
     0
176
     1
 90
       50
176
     1
 62
   256
176
     0
 40
1.0
176
     0
 90
        2
176
     1
  1
strokes_ogs.tif
176
     1
290
     0
176
     1
 40
1.0
176
     1
 40
1.0
176
     1
  0
VISUALSTYLE
  5
529
102
{ACAD_REACTORS
330
522
102
}
330
522
100
AcDbVisualStyle
  2
Hidden
 70
     6
177
     3
291
     0
 70
    58
 90
        1
176
     1
 90
        2
176
     1
 90
        2
176
     1
 90
        0
176
     1
 40
0.6
176
     1
 40
30.0
176
     1
 62
     7
420
 16777215
176
     1
 90
        2
176
     1
 90
        2
176
     1
 62
     7
176
     1
 62
   257
176
     1
 90
        2
176
     1
 90
        1
176
     1
 40
40.0
176
     1
 90
        0
176
     1
 62
   257
176
     1
 40
1.0
176
     1
 90
        1
176
     1
 90
        6
176
     1
 90
        2
176
     1
 62
     7
176
     1
 90
        3
176
     1
 90
        0
176
     1
 90
        0
176
     1
290
     0
176
     1
 90
        1
176
     1
 40
0.0
176
     1
 90
        0
176
     1
290
     0
176
     1
290
     1
176
     1
290
     1
176
     1
290
     0
176
     1
290
     0
176
     1
290
     0
176
     1
290
     0
176
     1
290
     0
176
     1
290
     0
176
     1
 90
       50
176
     1
 40
0.0
176
     1
 40
1.0
176
     1
 90
        0
176
     1
 62
    18
420
        0
176
     1
 90
       50
176
     1
 90
        3
176
     1
 62
     5
420
      255
176
     1
290
     0
176
     1
 90
       50
176
     1
 90
       50
176
     1
 90
       50
176
     1
290
     0
176
     1
 90
       50
176
     1
 62
   256
176
     0
 40
1.0
176
     0
 90
        2
176
     1
  1
strokes_ogs.tif
176
     1
290
     0
176
     1
 40
1.0
176
     1
 40
1.0
176
     1
  0
VISUALSTYLE
  5
533
102
{ACAD_REACTORS
330
522
102
}
330
522
100
AcDbVisualStyle
  2
JitterOff
 70
    20
177
     3
291
     1
 70
    58
 90
        2
176
     0
 90
        2
176
     0
 90
        0
176
     0
 90
        0
176
     0
 40
0.6
176
     0
 40
30.0
176
     0
 62
     7
420
 16777215
176
     0
 90
        1
176
     0
 90
        4
176
     0
 62
     7
176
     0
 62
   257
176
     0
 90
        1
176
     0
 90
        1
176
     0
 40
1.0
176
     0
 90
       10
176
     2
 62
     7
176
     0
 40
1.0
176
     0
 90
        1
176
     0
 90
        6
176
     0
 90
        2
176
     0
 62
     7
176
     0
 90
        5
176
     0
 90
        0
176
     0
 90
        0
176
     0
290
     0
176
     0
 90
        1
176
     0
 40
0.0
176
     0
 90
        0
176
     0
290
     0
176
     0
290
     1
176
     0
290
     1
176
     0
290
     0
176
     0
290
     0
176
     0
290
     0
176
     0
290
     0
176
     0
290
     0
176
     0
290
     0
176
     0
 90
       50
176
     0
 40
0.0
176
     0
 40
1.0
176
     0
 90
        0
176
     0
 62
    18
420
        0
176
     0
 90
       50
176
     0
 90
        3
176
     0
 62
     5
420
      255
176
     0
290
     0
176
     0
 90
       50
176
     0
 90
       50
176
     0
 90
       50
176
     0
290
     0
176
     0
 90
       50
176
     0
 62
   256
176
     0
 40
1.0
176
     0
 90
        2
176
     0
  1
strokes_ogs.tif
176
     0
290
     0
176
     0
 40
1.0
176
     0
 40
1.0
176
     0
  0
VISUALSTYLE
  5
530
102
{ACAD_REACTORS
330
522
102
}
330
522
100
AcDbVisualStyle
  2
Linepattern
 70
    14
177
     3
291
     1
 70
    58
 90
        2
176
     1
 90
        2
176
     1
 90
        0
176
     1
 90
        0
176
     1
 40
0.6
176
     1
 40
30.0
176
     1
 62
     7
420
 16777215
176
     1
 90
        1
176
     1
 90
        4
176
     1
 62
     7
176
     1
 62
   257
176
     1
 90
        7
176
     1
 90
        7
176
     1
 40
1.0
176
     1
 90
        8
176
     1
 62
     7
176
     1
 40
1.0
176
     1
 90
        1
176
     1
 90
        6
176
     1
 90
        2
176
     1
 62
     7
176
     1
 90
        5
176
     1
 90
        0
176
     1
 90
        0
176
     1
290
     0
176
     1
 90
        1
176
     1
 40
0.0
176
     1
 90
        0
176
     1
290
     0
176
     1
290
     1
176
     1
290
     1
176
     1
290
     0
176
     1
290
     0
176
     1
290
     0
176
     1
290
     0
176
     1
290
     0
176
     1
290
     0
176
     1
 90
       50
176
     1
 40
0.0
176
     1
 40
1.0
176
     1
 90
        0
176
     1
 62
    18
420
        0
176
     1
 90
       50
176
     1
 90
        3
176
     1
 62
     5
420
      255
176
     1
290
     0
176
     1
 90
       50
176
     1
 90
       50
176
     1
 90
       50
176
     1
290
     0
176
     1
 90
       50
176
     1
 62
   256
176
     0
 40
1.0
176
     0
 90
        2
176
     1
  1
strokes_ogs.tif
176
     1
290
     0
176
     1
 40
1.0
176
     1
 40
1.0
176
     1
  0
VISUALSTYLE
  5
534
102
{ACAD_REACTORS
330
522
102
}
330
522
100
AcDbVisualStyle
  2
OverhangOff
 70
    21
177
     3
291
     1
 70
    58
 90
        2
176
     0
 90
        2
176
     0
 90
        0
176
     0
 90
        0
176
     0
 40
0.6
176
     0
 40
30.0
176
     0
 62
     7
420
 16777215
176
     0
 90
        1
176
     0
 90
        4
176
     0
 62
     7
176
     0
 62
   257
176
     0
 90
        1
176
     0
 90
        1
176
     0
 40
1.0
176
     0
 90
        9
176
     2
 62
     7
176
     0
 40
1.0
176
     0
 90
        1
176
     0
 90
        6
176
     0
 90
        2
176
     0
 62
     7
176
     0
 90
        5
176
     0
 90
        0
176
     0
 90
        0
176
     0
290
     0
176
     0
 90
        1
176
     0
 40
0.0
176
     0
 90
        0
176
     0
290
     0
176
     0
290
     1
176
     0
290
     1
176
     0
290
     0
176
     0
290
     0
176
     0
290
     0
176
     0
290
     0
176
     0
290
     0
176
     0
290
     0
176
     0
 90
       50
176
     0
 40
0.0
176
     0
 40
1.0
176
     0
 90
        0
176
     0
 62
    18
420
        0
176
     0
 90
       50
176
     0
 90
        3
176
     0
 62
     5
420
      255
176
     0
290
     0
176
     0
 90
       50
176
     0
 90
       50
176
     0
 90
       50
176
     0
290
     0
176
     0
 90
       50
176
     0
 62
   256
176
     0
 40
1.0
176
     0
 90
        2
176
     0
  1
strokes_ogs.tif
176
     0
290
     0
176
     0
 40
1.0
176
     0
 40
1.0
176
     0
  0
VISUALSTYLE
  5
52B
102
{ACAD_REACTORS
330
522
102
}
330
522
100
AcDbVisualStyle
  2
Realistic
 70
     8
177
     3
291
     0
 70
    58
 90
        2
176
     1
 90
        3
176
     1
 90
        0
176
     1
 90
        2
176
     1
 40
0.6
176
     1
 40
30.0
176
     1
 62
     7
420
 16777215
176
     1
 90
        0
176
     1
 90
        0
176
     1
 62
     7
176
     1
 62
   257
176
     1
 90
        1
176
     1
 90
        1
176
     1
 40
1.0
176
     1
 90
        8
176
     1
 62
   257
176
     1
 40
1.0
176
     1
 90
        1
176
     1
 90
        6
176
     1
 90
        2
176
     1
 62
     7
176
     1
 90
        3
176
     1
 90
        0
176
     1
 90
        0
176
     1
290
     0
176
     1
 90
       13
176
     1
 40
0.0
176
     1
 90
        0
176
     1
290
     0
176
     1
290
     1
176
     1
290
     1
176
     1
290
     0
176
     1
290
     0
176
     1
290
     0
176
     1
290
     0
176
     1
290
     0
176
     1
290
     0
176
     1
 90
       50
176
     1
 40
0.0
176
     1
 40
1.0
176
     1
 90
        0
176
     1
 62
    18
420
        0
176
     1
 90
       50
176
     1
 90
        3
176
     1
 62
     5
420
      255
176
     1
290
     0
176
     1
 90
       50
176
     1
 90
       50
176
     1
 90
       50
176
     1
290
     0
176
     1
 90
       50
176
     1
 62
   256
176
     0
 40
1.0
176
     0
 90
        2
176
     1
  1
strokes_ogs.tif
176
     1
290
     0
176
     1
 40
1.0
176
     1
 40
1.0
176
     1
  0
VISUALSTYLE
  5
53A
102
{ACAD_REACTORS
330
522
102
}
330
522
100
AcDbVisualStyle
  2
Shaded
 70
    27
177
     3
291
     0
 70
    58
 90
        2
176
     1
 90
        2
176
     1
 90
        1
176
     1
 90
        2
176
     1
 40
0.6
176
     1
 40
30.0
176
     1
 62
     7
420
 16777215
176
     1
 90
        0
176
     1
 90
        4
176
     1
 62
     7
176
     1
 62
   257
176
     1
 90
        1
176
     1
 90
        1
176
     1
 40
1.0
176
     1
 90
        8
176
     1
 62
   257
176
     1
 40
1.0
176
     1
 90
        1
176
     1
 90
        6
176
     1
 90
        2
176
     1
 62
     8
420
  7895160
176
     1
 90
        3
176
     1
 90
        0
176
     1
 90
        0
176
     1
290
     0
176
     1
 90
        5
176
     1
 40
0.0
176
     1
 90
        0
176
     1
290
     0
176
     1
290
     1
176
     1
290
     1
176
     1
290
     0
176
     1
290
     0
176
     1
290
     0
176
     1
290
     0
176
     1
290
     0
176
     1
290
     0
176
     1
 90
       50
176
     1
 40
0.0
176
     1
 40
1.0
176
     1
 90
        0
176
     1
 62
    18
420
        0
176
     1
 90
       50
176
     1
 90
        3
176
     1
 62
     5
420
      255
176
     1
290
     0
176
     1
 90
       50
176
     1
 90
       50
176
     1
 90
       50
176
     1
290
     0
176
     1
 90
       50
176
     1
 62
   256
176
     0
 40
1.0
176
     0
 90
        2
176
     1
  1
strokes_ogs.tif
176
     1
290
     0
176
     1
 40
1.0
176
     1
 40
1.0
176
     1
  0
VISUALSTYLE
  5
539
102
{ACAD_REACTORS
330
522
102
}
330
522
100
AcDbVisualStyle
  2
Shaded with edges
 70
    26
177
     3
291
     0
 70
    58
 90
        2
176
     1
 90
        2
176
     1
 90
        1
176
     1
 90
        2
176
     1
 40
0.6
176
     1
 40
30.0
176
     1
 62
     7
420
 16777215
176
     1
 90
        1
176
     1
 90
       10
176
     1
 62
     7
176
     1
 62
   257
176
     1
 90
        2
176
     1
 90
        1
176
     1
 40
1.0
176
     1
 90
        8
176
     1
 62
   257
176
     1
 40
1.0
176
     1
 90
        1
176
     1
 90
        6
176
     1
 90
        2
176
     1
 62
     7
176
     1
 90
        3
176
     1
 90
        0
176
     1
 90
        0
176
     1
290
     0
176
     1
 90
        5
176
     1
 40
0.0
176
     1
 90
        0
176
     1
290
     0
176
     1
290
     1
176
     1
290
     1
176
     1
290
     0
176
     1
290
     0
176
     1
290
     0
176
     1
290
     0
176
     1
290
     0
176
     1
290
     0
176
     1
 90
       50
176
     1
 40
0.0
176
     1
 40
1.0
176
     1
 90
        0
176
     1
 62
    18
420
        0
176
     1
 90
       50
176
     1
 90
        3
176
     1
 62
     5
420
      255
176
     1
290
     0
176
     1
 90
       50
176
     1
 90
       50
176
     1
 90
       50
176
     1
290
     0
176
     1
 90
       50
176
     1
 62
   256
176
     0
 40
1.0
176
     0
 90
        2
176
     1
  1
strokes_ogs.tif
176
     1
290
     0
176
     1
 40
1.0
176
     1
 40
1.0
176
     1
  0
VISUALSTYLE
  5
536
102
{ACAD_REACTORS
330
522
102
}
330
522
100
AcDbVisualStyle
  2
Shades of Gray
 70
    23
177
     3
291
     0
 70
    58
 90
        2
176
     1
 90
        2
176
     1
 90
        3
176
     1
 90
        0
176
     1
 40
0.6
176
     1
 40
30.0
176
     1
 62
     7
420
 16777215
176
     1
 90
        2
176
     1
 90
        2
176
     1
 62
     7
176
     1
 62
     7
176
     1
 90
        1
176
     1
 90
        1
176
     1
 40
40.0
176
     1
 90
        8
176
     1
 62
     7
176
     1
 40
1.0
176
     1
 90
        1
176
     1
 90
        6
176
     1
 90
        2
176
     1
 62
     7
176
     1
 90
        3
176
     1
 90
        0
176
     1
 90
        0
176
     1
290
     0
176
     1
 90
        1
176
     1
 40
0.0
176
     1
 90
        0
176
     1
290
     0
176
     1
290
     1
176
     1
290
     1
176
     1
290
     0
176
     1
290
     0
176
     1
290
     0
176
     1
290
     0
176
     1
290
     0
176
     1
290
     0
176
     1
 90
       50
176
     1
 40
0.0
176
     1
 40
1.0
176
     1
 90
        0
176
     1
 62
    18
420
        0
176
     1
 90
       50
176
     1
 90
        3
176
     1
 62
     5
420
      255
176
     1
290
     0
176
     1
 90
       50
176
     1
 90
       50
176
     1
 90
       50
176
     1
290
     0
176
     1
 90
       50
176
     1
 62
   256
176
     0
 40
1.0
176
     0
 90
        2
176
     1
  1
strokes_ogs.tif
176
     1
290
     0
176
     1
 40
1.0
176
     1
 40
1.0
176
     1
  0
VISUALSTYLE
  5
537
102
{ACAD_REACTORS
330
522
102
}
330
522
100
AcDbVisualStyle
  2
Sketchy
 70
    24
177
     3
291
     0
 70
    58
 90
        1
176
     1
 90
        2
176
     1
 90
        2
176
     1
 90
        0
176
     1
 40
0.6
176
     1
 40
30.0
176
     1
 62
     7
420
 16777215
176
     1
 90
        2
176
     1
 90
        2
176
     1
 62
     7
176
     1
 62
     7
176
     1
 90
        1
176
     1
 90
        1
176
     1
 40
40.0
176
     1
 90
       11
176
     1
 62
     7
176
     1
 40
1.0
176
     1
 90
        1
176
     1
 90
        6
176
     1
 90
        2
176
     1
 62
     7
176
     1
 90
        6
176
     1
 90
        0
176
     1
 90
        0
176
     1
290
     0
176
     1
 90
        1
176
     1
 40
0.0
176
     1
 90
        0
176
     1
290
     0
176
     1
290
     1
176
     1
290
     1
176
     1
290
     0
176
     1
290
     0
176
     1
290
     0
176
     1
290
     0
176
     1
290
     0
176
     1
290
     0
176
     1
 90
       50
176
     1
 40
0.0
176
     1
 40
1.0
176
     1
 90
        0
176
     1
 62
    18
420
        0
176
     1
 90
       50
176
     1
 90
        3
176
     1
 62
     5
420
      255
176
     1
290
     0
176
     1
 90
       50
176
     1
 90
       50
176
     1
 90
       50
176
     1
290
     0
176
     1
 90
       50
176
     1
 62
   256
176
     0
 40
1.0
176
     0
 90
        2
176
     1
  1
strokes_ogs.tif
176
     1
290
     0
176
     1
 40
1.0
176
     1
 40
1.0
176
     1
  0
VISUALSTYLE
  5
52F
102
{ACAD_REACTORS
330
522
102
}
330
522
100
AcDbVisualStyle
  2
Thicken
 70
    13
177
     3
291
     1
 70
    58
 90
        2
176
     1
 90
        2
176
     1
 90
        0
176
     1
 90
        0
176
     1
 40
0.6
176
     1
 40
30.0
176
     1
 62
     7
420
 16777215
176
     1
 90
        1
176
     1
 90
        4
176
     1
 62
     7
176
     1
 62
   257
176
     1
 90
        1
176
     1
 90
        1
176
     1
 40
1.0
176
     1
 90
       12
176
     1
 62
     7
176
     1
 40
1.0
176
     1
 90
        1
176
     1
 90
        6
176
     1
 90
        2
176
     1
 62
     7
176
     1
 90
        5
176
     1
 90
        0
176
     1
 90
        0
176
     1
290
     0
176
     1
 90
        1
176
     1
 40
0.0
176
     1
 90
        0
176
     1
290
     0
176
     1
290
     1
176
     1
290
     1
176
     1
290
     0
176
     1
290
     0
176
     1
290
     0
176
     1
290
     0
176
     1
290
     0
176
     1
290
     0
176
     1
 90
       50
176
     1
 40
0.0
176
     1
 40
1.0
176
     1
 90
        0
176
     1
 62
    18
420
        0
176
     1
 90
       50
176
     1
 90
        3
176
     1
 62
     5
420
      255
176
     1
290
     0
176
     1
 90
       50
176
     1
 90
       50
176
     1
 90
       50
176
     1
290
     0
176
     1
 90
       50
176
     1
 62
   256
176
     0
 40
1.0
176
     0
 90
        2
176
     1
  1
strokes_ogs.tif
176
     1
290
     0
176
     1
 40
1.0
176
     1
 40
1.0
176
     1
  0
VISUALSTYLE
  5
528
102
{ACAD_REACTORS
330
522
102
}
330
522
100
AcDbVisualStyle
  2
Wireframe
 70
     5
177
     3
291
     0
 70
    58
 90
        0
176
     1
 90
        2
176
     1
 90
        0
176
     1
 90
        0
176
     1
 40
0.6
176
     1
 40
30.0
176
     1
 62
     7
420
 16777215
176
     1
 90
        1
176
     1
 90
        4
176
     1
 62
     7
176
     1
 62
   257
176
     1
 90
        1
176
     1
 90
        1
176
     1
 40
1.0
176
     1
 90
        0
176
     1
 62
   257
176
     1
 40
1.0
176
     1
 90
        1
176
     1
 90
        6
176
     1
 90
        2
176
     1
 62
     7
176
     1
 90
        3
176
     1
 90
        0
176
     1
 90
        0
176
     1
290
     0
176
     1
 90
        1
176
     1
 40
0.0
176
     1
 90
        0
176
     1
290
     0
176
     1
290
     1
176
     1
290
     1
176
     1
290
     0
176
     1
290
     0
176
     1
290
     0
176
     1
290
     0
176
     1
290
     0
176
     1
290
     0
176
     1
 90
       50
176
     1
 40
0.0
176
     1
 40
1.0
176
     1
 90
        0
176
     1
 62
    18
420
        0
176
     1
 90
       50
176
     1
 90
        3
176
     1
 62
     5
420
      255
176
     1
290
     0
176
     1
 90
       50
176
     1
 90
       50
176
     1
 90
       50
176
     1
290
     0
176
     1
 90
       50
176
     1
 62
   256
176
     0
 40
1.0
176
     0
 90
        2
176
     1
  1
strokes_ogs.tif
176
     1
290
     0
176
     1
 40
1.0
176
     1
 40
1.0
176
     1
  0
VISUALSTYLE
  5
538
102
{ACAD_REACTORS
330
522
102
}
330
522
100
AcDbVisualStyle
  2
X-Ray
 70
    25
177
     3
291
     0
 70
    58
 90
        2
176
     1
 90
        2
176
     1
 90
        1
176
     1
 90
        1
176
     1
 40
0.5
176
     1
 40
30.0
176
     1
 62
     7
420
 16777215
176
     1
 90
        1
176
     1
 90
        0
176
     1
 62
     7
176
     1
 62
   257
176
     1
 90
        1
176
     1
 90
        1
176
     1
 40
1.0
176
     1
 90
        8
176
     1
 62
     7
176
     1
 40
1.0
176
     1
 90
        1
176
     1
 90
        6
176
     1
 90
        2
176
     1
 62
     7
176
     1
 90
        3
176
     1
 90
        0
176
     1
 90
        0
176
     1
290
     0
176
     1
 90
       13
176
     1
 40
0.0
176
     1
 90
        0
176
     1
290
     0
176
     1
290
     1
176
     1
290
     1
176
     1
290
     0
176
     1
290
     0
176
     1
290
     0
176
     1
290
     0
176
     1
290
     0
176
     1
290
     0
176
     1
 90
       50
176
     1
 40
0.0
176
     1
 40
1.0
176
     1
 90
        0
176
     1
 62
    18
420
        0
176
     1
 90
       50
176
     1
 90
        3
176
     1
 62
     5
420
      255
176
     1
290
     0
176
     1
 90
       50
176
     1
 90
       50
176
     1
 90
       50
176
     1
290
     0
176
     1
 90
       50
176
     1
 62
   256
176
     0
 40
1.0
176
     0
 90
        2
176
     1
  1
strokes_ogs.tif
176
     1
290
     0
176
     1
 40
1.0
176
     1
 40
1.0
176
     1
  0
DICTIONARYVAR
  5
545
102
{ACAD_REACTORS
330
544
102
}
330
544
100
DictionaryVariables
280
     0
  1
1:1
  0
DICTIONARYVAR
  5
54A
102
{ACAD_REACTORS
330
544
102
}
330
544
100
DictionaryVariables
280
     0
  1
Standard
  0
DICTIONARYVAR
  5
549
102
{ACAD_REACTORS
330
544
102
}
330
544
100
DictionaryVariables
280
     0
  1
Standard
  0
DICTIONARYVAR
  5
54B
102
{ACAD_REACTORS
330
544
102
}
330
544
100
DictionaryVariables
280
     0
  1
0
  0
DICTIONARY
  5
546
330
540
100
AcDbDictionary
280
     1
281
     1
  3
ACAD_ROUNDTRIP_2008_TABLESTYLE_CELLSTYLEMAP
360
547
  0
CELLSTYLEMAP
  5
547
102
{ACAD_REACTORS
330
546
102
}
330
546
100
AcDbCellStyleMap
 90
        3
300
CELLSTYLE
  1
TABLEFORMAT_BEGIN
 90
        5
170
     1
 91
        0
 92
    32768
 62
   257
 93
        1
300
CONTENTFORMAT
  1
CONTENTFORMAT_BEGIN
 90
        0
 91
        0
 92
        4
 93
        0
300

 40
0.0
140
1.0
 94
        5
 62
     0
340
11
144
6.0
309
CONTENTFORMAT_END
171
     1
301
MARGIN
  1
CELLMARGIN_BEGIN
 40
1.5
 40
1.5
 40
1.5
 40
1.5
 40
1.5
 40
1.5
309
CELLMARGIN_END
 94
        6
 95
        1
302
GRIDFORMAT
  1
GRIDFORMAT_BEGIN
 90
        0
 91
        1
 62
     0
 92
       -2
340
14
 93
        0
 40
0.045
309
GRIDFORMAT_END
 95
        2
302
GRIDFORMAT
  1
GRIDFORMAT_BEGIN
 90
        0
 91
        1
 62
     0
 92
       -2
340
14
 93
        0
 40
0.045
309
GRIDFORMAT_END
 95
        4
302
GRIDFORMAT
  1
GRIDFORMAT_BEGIN
 90
        0
 91
        1
 62
     0
 92
       -2
340
14
 93
        0
 40
0.045
309
GRIDFORMAT_END
 95
        8
302
GRIDFORMAT
  1
GRIDFORMAT_BEGIN
 90
        0
 91
        1
 62
     0
 92
       -2
340
14
 93
        0
 40
0.045
309
GRIDFORMAT_END
 95
       16
302
GRIDFORMAT
  1
GRIDFORMAT_BEGIN
 90
        0
 91
        1
 62
     0
 92
       -2
340
14
 93
        0
 40
0.045
309
GRIDFORMAT_END
 95
       32
302
GRIDFORMAT
  1
GRIDFORMAT_BEGIN
 90
        0
 91
        1
 62
     0
 92
       -2
340
14
 93
        0
 40
0.045
309
GRIDFORMAT_END
309
TABLEFORMAT_END
  1
CELLSTYLE_BEGIN
 90
        1
 91
        1
300
_TITLE
309
CELLSTYLE_END
300
CELLSTYLE
  1
TABLEFORMAT_BEGIN
 90
        5
170
     1
 91
        0
 92
        0
 62
   257
 93
        1
300
CONTENTFORMAT
  1
CONTENTFORMAT_BEGIN
 90
        0
 91
        0
 92
        4
 93
        0
300

 40
0.0
140
1.0
 94
        5
 62
     0
340
11
144
4.5
309
CONTENTFORMAT_END
171
     1
301
MARGIN
  1
CELLMARGIN_BEGIN
 40
1.5
 40
1.5
 40
1.5
 40
1.5
 40
1.5
 40
1.5
309
CELLMARGIN_END
 94
        6
 95
        1
302
GRIDFORMAT
  1
GRIDFORMAT_BEGIN
 90
        0
 91
        1
 62
     0
 92
       -2
340
14
 93
        0
 40
0.045
309
GRIDFORMAT_END
 95
        2
302
GRIDFORMAT
  1
GRIDFORMAT_BEGIN
 90
        0
 91
        1
 62
     0
 92
       -2
340
14
 93
        0
 40
0.045
309
GRIDFORMAT_END
 95
        4
302
GRIDFORMAT
  1
GRIDFORMAT_BEGIN
 90
        0
 91
        1
 62
     0
 92
       -2
340
14
 93
        0
 40
0.045
309
GRIDFORMAT_END
 95
        8
302
GRIDFORMAT
  1
GRIDFORMAT_BEGIN
 90
        0
 91
        1
 62
     0
 92
       -2
340
14
 93
        0
 40
0.045
309
GRIDFORMAT_END
 95
       16
302
GRIDFORMAT
  1
GRIDFORMAT_BEGIN
 90
        0
 91
        1
 62
     0
 92
       -2
340
14
 93
        0
 40
0.045
309
GRIDFORMAT_END
 95
       32
302
GRIDFORMAT
  1
GRIDFORMAT_BEGIN
 90
        0
 91
        1
 62
     0
 92
       -2
340
14
 93
        0
 40
0.045
309
GRIDFORMAT_END
309
TABLEFORMAT_END
  1
CELLSTYLE_BEGIN
 90
        2
 91
        1
300
_HEADER
309
CELLSTYLE_END
300
CELLSTYLE
  1
TABLEFORMAT_BEGIN
 90
        5
170
     1
 91
        0
 92
        0
 62
   257
 93
        1
300
CONTENTFORMAT
  1
CONTENTFORMAT_BEGIN
 90
        0
 91
        0
 92
        4
 93
        0
300

 40
0.0
140
1.0
 94
        2
 62
     0
340
11
144
4.5
309
CONTENTFORMAT_END
171
     1
301
MARGIN
  1
CELLMARGIN_BEGIN
 40
1.5
 40
1.5
 40
1.5
 40
1.5
 40
1.5
 40
1.5
309
CELLMARGIN_END
 94
        6
 95
        1
302
GRIDFORMAT
  1
GRIDFORMAT_BEGIN
 90
        0
 91
        1
 62
     0
 92
       -2
340
14
 93
        0
 40
0.045
309
GRIDFORMAT_END
 95
        2
302
GRIDFORMAT
  1
GRIDFORMAT_BEGIN
 90
        0
 91
        1
 62
     0
 92
       -2
340
14
 93
        0
 40
0.045
309
GRIDFORMAT_END
 95
        4
302
GRIDFORMAT
  1
GRIDFORMAT_BEGIN
 90
        0
 91
        1
 62
     0
 92
       -2
340
14
 93
        0
 40
0.045
309
GRIDFORMAT_END
 95
        8
302
GRIDFORMAT
  1
GRIDFORMAT_BEGIN
 90
        0
 91
        1
 62
     0
 92
       -2
340
14
 93
        0
 40
0.045
309
GRIDFORMAT_END
 95
       16
302
GRIDFORMAT
  1
GRIDFORMAT_BEGIN
 90
        0
 91
        1
 62
     0
 92
       -2
340
14
 93
        0
 40
0.045
309
GRIDFORMAT_END
 95
       32
302
GRIDFORMAT
  1
GRIDFORMAT_BEGIN
 90
        0
 91
        1
 62
     0
 92
       -2
340
14
 93
        0
 40
0.045
309
GRIDFORMAT_END
309
TABLEFORMAT_END
  1
CELLSTYLE_BEGIN
 90
        3
 91
        2
300
_DATA
309
CELLSTYLE_END
  0
ENDSEC
  0
EOF
