  0
SECTION
  2
HEADER
  9
$ACADVER
  1
AC1027
  9
$ACADMAINTVER
 70
   105
  9
$DWGCODEPAGE
  3
ANSI_1252
  9
$REQUIREDVERSIONS
160
                 0
  9
$LASTSAVEDBY
  1
andrea.zolin
  9
$INSBASE
 10
0.0
 20
0.0
 30
0.0
  9
$EXTMIN
 10
0.0
 20
0.0
 30
0.0
  9
$EXTMAX
 10
297.0
 20
210.0
 30
0.0
  9
$LIMMIN
 10
0.0
 20
0.0
  9
$LIMMAX
 10
297.0
 20
210.0
  9
$ORTHOMODE
 70
     0
  9
$REGENMODE
 70
     1
  9
$FILLMODE
 70
     1
  9
$QTEXTMODE
 70
     0
  9
$MIRRTEXT
 70
     1
  9
$LTSCALE
 40
16.335
  9
$ATTMODE
 70
     1
  9
$TEXTSIZE
 40
0.2
  9
$TRACEWID
 40
0.05
  9
$TEXTSTYLE
  7
STANDARD
  9
$CLAYER
  8
0
  9
$CELTYPE
  6
BYLAYER
  9
$CECOLOR
 62
   256
  9
$CELTSCALE
 40
1.0
  9
$DISPSILH
 70
     0
  9
$DIMSCALE
 40
1.0
  9
$DIMASZ
 40
2.5
  9
$DIMEXO
 40
0.75
  9
$DIMDLI
 40
11.286
  9
$DIMRND
 40
0.0
  9
$DIMDLE
 40
0.0
  9
$DIMEXE
 40
0.75
  9
$DIMTP
 40
0.01
  9
$DIMTM
 40
0.01
  9
$DIMTXT
 40
3.0
  9
$DIMCEN
 40
2.673
  9
$DIMTSZ
 40
0.0
  9
$DIMTOL
 70
     1
  9
$DIMLIM
 70
     0
  9
$DIMTIH
 70
     1
  9
$DIMTOH
 70
     1
  9
$DIMSE1
 70
     0
  9
$DIMSE2
 70
     0
  9
$DIMTAD
 70
     0
  9
$DIMZIN
 70
     0
  9
$DIMBLK
  1
CLOSED
  9
$DIMASO
 70
     1
  9
$DIMSHO
 70
     1
  9
$DIMPOST
  1

  9
$DIMAPOST
  1

  9
$DIMALT
 70
     0
  9
$DIMALTD
 70
     2
  9
$DIMALTF
 40
25.4
  9
$DIMLFAC
 40
1.0
  9
$DIMTOFL
 70
     0
  9
$DIMTVP
 40
0.0
  9
$DIMTIX
 70
     0
  9
$DIMSOXD
 70
     0
  9
$DIMSAH
 70
     0
  9
$DIMBLK1
  1

  9
$DIMBLK2
  1

  9
$DIMSTYLE
  2
STANDARD
  9
$DIMCLRD
 70
     0
  9
$DIMCLRE
 70
     0
  9
$DIMCLRT
 70
     0
  9
$DIMTFAC
 40
1.0
  9
$DIMGAP
 40
0.625
  9
$DIMJUST
 70
     0
  9
$DIMSD1
 70
     0
  9
$DIMSD2
 70
     0
  9
$DIMTOLJ
 70
     1
  9
$DIMTZIN
 70
     0
  9
$DIMALTZ
 70
     0
  9
$DIMALTTZ
 70
     0
  9
$DIMUPT
 70
     0
  9
$DIMDEC
 70
     4
  9
$DIMTDEC
 70
     4
  9
$DIMALTU
 70
     2
  9
$DIMALTTD
 70
     2
  9
$DIMTXSTY
  7
STANDARD
  9
$DIMAUNIT
 70
     0
  9
$DIMADEC
 70
     0
  9
$DIMALTRND
 40
0.0
  9
$DIMAZIN
 70
     0
  9
$DIMDSEP
 70
    46
  9
$DIMATFIT
 70
     3
  9
$DIMFRAC
 70
     0
  9
$DIMLDRBLK
  1

  9
$DIMLUNIT
 70
     2
  9
$DIMLWD
 70
    -2
  9
$DIMLWE
 70
    -2
  9
$DIMTMOVE
 70
     2
  9
$DIMFXL
 40
1.0
  9
$DIMFXLON
 70
     0
  9
$DIMJOGANG
 40
0.7853981633974483
  9
$DIMTFILL
 70
     0
  9
$DIMTFILLCLR
 70
     0
  9
$DIMARCSYM
 70
     0
  9
$DIMLTYPE
  6

  9
$DIMLTEX1
  6

  9
$DIMLTEX2
  6

  9
$DIMTXTDIRECTION
 70
     0
  9
$LUNITS
 70
     2
  9
$LUPREC
 70
     4
  9
$SKETCHINC
 40
0.1
  9
$FILLETRAD
 40
0.5
  9
$AUNITS
 70
     0
  9
$AUPREC
 70
     0
  9
$MENU
  1
.
  9
$ELEVATION
 40
0.0
  9
$PELEVATION
 40
0.0
  9
$THICKNESS
 40
0.0
  9
$LIMCHECK
 70
     0
  9
$CHAMFERA
 40
0.0
  9
$CHAMFERB
 40
0.0
  9
$CHAMFERC
 40
0.0
  9
$CHAMFERD
 40
0.0
  9
$SKPOLY
 70
     0
  9
$TDCREATE
 40
2447893.041666667
  9
$TDUCREATE
 40
0.0
  9
$TDUPDATE
 40
2458470.433262269
  9
$TDUUPDATE
 40
2458470.391595602
  9
$TDINDWG
 40
0.0001877315
  9
$TDUSRTIMER
 40
0.0001877315
  9
$USRTIMER
 70
     1
  9
$ANGBASE
 50
0.0
  9
$ANGDIR
 70
     0
  9
$PDMODE
 70
     3
  9
$PDSIZE
 40
0.3125
  9
$PLINEWID
 40
0.0
  9
$SPLFRAME
 70
     0
  9
$SPLINETYPE
 70
     6
  9
$SPLINESEGS
 70
     8
  9
$HANDSEED
  5
383
  9
$SURFTAB1
 70
     6
  9
$SURFTAB2
 70
     6
  9
$SURFTYPE
 70
     6
  9
$SURFU
 70
     6
  9
$SURFV
 70
     6
  9
$UCSBASE
  2

  9
$UCSNAME
  2

  9
$UCSORG
 10
0.0
 20
0.0
 30
0.0
  9
$UCSXDIR
 10
1.0
 20
0.0
 30
0.0
  9
$UCSYDIR
 10
0.0
 20
1.0
 30
0.0
  9
$UCSORTHOREF
  2

  9
$UCSORTHOVIEW
 70
     0
  9
$UCSORGTOP
 10
0.0
 20
0.0
 30
0.0
  9
$UCSORGBOTTOM
 10
0.0
 20
0.0
 30
0.0
  9
$UCSORGLEFT
 10
0.0
 20
0.0
 30
0.0
  9
$UCSORGRIGHT
 10
0.0
 20
0.0
 30
0.0
  9
$UCSORGFRONT
 10
0.0
 20
0.0
 30
0.0
  9
$UCSORGBACK
 10
0.0
 20
0.0
 30
0.0
  9
$PUCSBASE
  2

  9
$PUCSNAME
  2

  9
$PUCSORG
 10
0.0
 20
0.0
 30
0.0
  9
$PUCSXDIR
 10
1.0
 20
0.0
 30
0.0
  9
$PUCSYDIR
 10
0.0
 20
1.0
 30
0.0
  9
$PUCSORTHOREF
  2

  9
$PUCSORTHOVIEW
 70
     0
  9
$PUCSORGTOP
 10
0.0
 20
0.0
 30
0.0
  9
$PUCSORGBOTTOM
 10
0.0
 20
0.0
 30
0.0
  9
$PUCSORGLEFT
 10
0.0
 20
0.0
 30
0.0
  9
$PUCSORGRIGHT
 10
0.0
 20
0.0
 30
0.0
  9
$PUCSORGFRONT
 10
0.0
 20
0.0
 30
0.0
  9
$PUCSORGBACK
 10
0.0
 20
0.0
 30
0.0
  9
$USERI1
 70
     0
  9
$USERI2
 70
     0
  9
$USERI3
 70
     0
  9
$USERI4
 70
     0
  9
$USERI5
 70
     0
  9
$USERR1
 40
0.0
  9
$USERR2
 40
0.0
  9
$USERR3
 40
0.0
  9
$USERR4
 40
0.0
  9
$USERR5
 40
0.0
  9
$WORLDVIEW
 70
     1
  9
$SHADEDGE
 70
     3
  9
$SHADEDIF
 70
    70
  9
$TILEMODE
 70
     0
  9
$MAXACTVP
 70
    64
  9
$PINSBASE
 10
0.0
 20
0.0
 30
0.0
  9
$PLIMCHECK
 70
     0
  9
$PEXTMIN
 10
9.949999999999989
 20
9.950000000000003
 30
0.0
  9
$PEXTMAX
 10
291.5463968142667
 20
200.05
 30
0.0
  9
$PLIMMIN
 10
4.402334630350183
 20
-4.843774319066146
  9
$PLIMMAX
 10
315.0715953307393
 20
214.8437743190662
  9
$UNITMODE
 70
     0
  9
$VISRETAIN
 70
     1
  9
$PLINEGEN
 70
     0
  9
$PSLTSCALE
 70
     1
  9
$TREEDEPTH
 70
  3020
  9
$CMLSTYLE
  2
STANDARD
  9
$CMLJUST
 70
     0
  9
$CMLSCALE
 40
1.0
  9
$PROXYGRAPHICS
 70
     1
  9
$MEASUREMENT
 70
     1
  9
$CELWEIGHT
370
    -1
  9
$ENDCAPS
280
     0
  9
$JOINSTYLE
280
     0
  9
$LWDISPLAY
290
     0
  9
$INSUNITS
 70
     0
  9
$HYPERLINKBASE
  1

  9
$STYLESHEET
  1

  9
$XEDIT
290
     1
  9
$CEPSNTYPE
380
     0
  9
$PSTYLEMODE
290
     1
  9
$FINGERPRINTGUID
  2
{EBA1C007-7F34-4B42-844D-A2CBC2AE584E}
  9
$VERSIONGUID
  2
{FAEB1C32-E019-11D5-929B-00C0DF256EC4}
  9
$EXTNAMES
290
     1
  9
$PSVPSCALE
 40
0.0
  9
$OLESTARTUP
290
     0
  9
$SORTENTS
280
   127
  9
$INDEXCTL
280
     0
  9
$HIDETEXT
280
     1
  9
$XCLIPFRAME
280
     2
  9
$HALOGAP
280
     0
  9
$OBSCOLOR
 70
   257
  9
$OBSLTYPE
280
     0
  9
$INTERSECTIONDISPLAY
280
     0
  9
$INTERSECTIONCOLOR
 70
   257
  9
$DIMASSOC
280
     2
  9
$PROJECTNAME
  1

  9
$CAMERADISPLAY
290
     0
  9
$LENSLENGTH
 40
50.0
  9
$CAMERAHEIGHT
 40
0.0
  9
$STEPSPERSEC
 40
2.0
  9
$STEPSIZE
 40
6.0
  9
$3DDWFPREC
 40
2.0
  9
$PSOLWIDTH
 40
0.25
  9
$PSOLHEIGHT
 40
4.0
  9
$LOFTANG1
 40
1.570796326794897
  9
$LOFTANG2
 40
1.570796326794897
  9
$LOFTMAG1
 40
0.0
  9
$LOFTMAG2
 40
0.0
  9
$LOFTPARAM
 70
     7
  9
$LOFTNORMALS
280
     1
  9
$LATITUDE
 40
37.795
  9
$LONGITUDE
 40
-122.394
  9
$NORTHDIRECTION
 40
0.0
  9
$TIMEZONE
 70
 -8000
  9
$LIGHTGLYPHDISPLAY
280
     1
  9
$TILEMODELIGHTSYNCH
280
     1
  9
$SOLIDHIST
280
     0
  9
$SHOWHIST
280
     1
  9
$DWFFRAME
280
     2
  9
$DGNFRAME
280
     2
  9
$REALWORLDSCALE
290
     1
  9
$INTERFERECOLOR
 62
   256
  9
$CSHADOW
280
     0
  9
$SHADOWPLANELOCATION
 40
0.0
  0
ENDSEC
  0
SECTION
  2
CLASSES
  0
CLASS
  1
ACDBDICTIONARYWDFLT
  2
AcDbDictionaryWithDefault
  3
ObjectDBX Classes
 90
        0
 91
        4
280
     0
281
     0
  0
CLASS
  1
SCALE
  2
AcDbScale
  3
ObjectDBX Classes
 90
     1153
 91
        4
280
     0
281
     0
  0
CLASS
  1
VISUALSTYLE
  2
AcDbVisualStyle
  3
ObjectDBX Classes
 90
     4095
 91
        4
280
     0
281
     0
  0
CLASS
  1
MATERIAL
  2
AcDbMaterial
  3
ObjectDBX Classes
 90
     1153
 91
        4
280
     0
281
     0
  0
CLASS
  1
TABLESTYLE
  2
AcDbTableStyle
  3
ObjectDBX Classes
 90
     4095
 91
        4
280
     0
281
     0
  0
CLASS
  1
MLEADERSTYLE
  2
AcDbMLeaderStyle
  3
ACDB_MLEADERSTYLE_CLASS
 90
     4095
 91
        4
280
     0
281
     0
  0
CLASS
  1
DICTIONARYVAR
  2
AcDbDictionaryVar
  3
ObjectDBX Classes
 90
        0
 91
        4
280
     0
281
     0
  0
CLASS
  1
CELLSTYLEMAP
  2
AcDbCellStyleMap
  3
ObjectDBX Classes
 90
     1152
 91
        4
280
     0
281
     0
  0
ENDSEC
  0
SECTION
  2
TABLES
  0
TABLE
  2
VPORT
  5
8
330
0
100
AcDbSymbolTable
 70
     1
  0
VPORT
  5
1F4
330
8
100
AcDbSymbolTableRecord
100
AcDbViewportTableRecord
  2
*ACTIVE
 70
     0
 10
0.0
 20
0.0
 11
1.0
 21
1.0
 12
148.5
 22
105.0
 13
0.0
 23
0.0
 14
1.0
 24
1.0
 15
0.0
 25
0.0
 16
0.0
 26
0.0
 36
1.0
 17
0.0
 27
0.0
 37
0.0
 40
210.0
 41
1.4142857143
 42
50.0
 43
0.0
 44
0.0
 50
0.0
 51
0.0
 71
     0
 72
   100
 73
     1
 74
     1
 75
     0
 76
     0
 77
     0
 78
     0
281
     0
 65
     1
110
0.0
120
0.0
130
0.0
111
1.0
121
0.0
131
0.0
112
0.0
122
1.0
132
0.0
 79
     0
146
0.0
348
35C
 60
     3
 61
     5
292
     1
282
     1
141
0.0
142
0.0
 63
   256
  0
ENDTAB
  0
TABLE
  2
LTYPE
  5
5
330
0
100
AcDbSymbolTable
 70
     6
  0
LTYPE
  5
14
330
5
100
AcDbSymbolTableRecord
100
AcDbLinetypeTableRecord
  2
BYBLOCK
 70
     0
  3

 72
    65
 73
     0
 40
0.0
  0
LTYPE
  5
15
330
5
100
AcDbSymbolTableRecord
100
AcDbLinetypeTableRecord
  2
BYLAYER
 70
     0
  3

 72
    65
 73
     0
 40
0.0
  0
LTYPE
  5
16
330
5
100
AcDbSymbolTableRecord
100
AcDbLinetypeTableRecord
  2
CONTINUOUS
 70
     0
  3
Solid line
 72
    65
 73
     0
 40
0.0
  0
LTYPE
  5
1F5
330
5
100
AcDbSymbolTableRecord
100
AcDbLinetypeTableRecord
  2
CENTER
 70
     0
  3
____ _ ____ _ ____ _ ____ _ ____ _ ____ _ ____
 72
    65
 73
     4
 40
0.6
 49
0.375
 74
     0
 49
-0.075
 74
     0
 49
0.075
 74
     0
 49
-0.075
 74
     0
  0
LTYPE
  5
1F6
330
5
100
AcDbSymbolTableRecord
100
AcDbLinetypeTableRecord
  2
HIDDEN
 70
     0
  3
- - - - - - - - - - - - - - - - - - - -
 72
    65
 73
     2
 40
0.2
 49
0.1
 74
     0
 49
-0.1
 74
     0
  0
LTYPE
  5
1F7
330
5
100
AcDbSymbolTableRecord
100
AcDbLinetypeTableRecord
  2
PHANTOM
 70
     0
  3
_____ _ _ _____ _ _ _____ _ _ _____
 72
    65
 73
     6
 40
0.8
 49
0.45
 74
     0
 49
-0.05
 74
     0
 49
0.1
 74
     0
 49
-0.05
 74
     0
 49
0.1
 74
     0
 49
-0.05
 74
     0
  0
LTYPE
  5
1F8
330
5
100
AcDbSymbolTableRecord
100
AcDbLinetypeTableRecord
  2
DOT
 70
     0
  3
. . . . . . . . . . . . . . . . . . . .
 72
    65
 73
     2
 40
0.2
 49
0.1
 74
     0
 49
-0.1
 74
     0
  0
LTYPE
  5
1F9
330
5
100
AcDbSymbolTableRecord
100
AcDbLinetypeTableRecord
  2
DASHED
 70
     0
  3
- - - - - - - - - - - - - - - - - - - -
 72
    65
 73
     2
 40
0.2
 49
0.1
 74
     0
 49
-0.1
 74
     0
  0
ENDTAB
  0
TABLE
  2
LAYER
  5
2
330
0
100
AcDbSymbolTable
 70
    31
  0
LAYER
  5
10
330
2
100
AcDbSymbolTableRecord
100
AcDbLayerTableRecord
  2
0
 70
     0
 62
     7
  6
CONTINUOUS
370
    -3
390
331
347
373
348
0
  0
LAYER
  5
1FA
330
2
100
AcDbSymbolTableRecord
100
AcDbLayerTableRecord
  2
DEFAULT_1
 70
     0
 62
     7
  6
CENTER
370
    -3
390
331
347
373
348
0
  0
LAYER
  5
1FB
330
2
100
AcDbSymbolTableRecord
100
AcDbLayerTableRecord
  2
DEFAULT_2
 70
     0
 62
     8
  6
HIDDEN
370
    -3
390
331
347
373
348
0
  0
LAYER
  5
1FC
330
2
100
AcDbSymbolTableRecord
100
AcDbLayerTableRecord
  2
DEFAULT_3
 70
     0
 62
     7
  6
PHANTOM
370
    -3
390
331
347
373
348
0
  0
LAYER
  5
1FD
330
2
100
AcDbSymbolTableRecord
100
AcDbLayerTableRecord
  2
01_ALL_DTM_PLN
 70
     0
 62
     7
  6
CONTINUOUS
370
    -3
390
331
347
373
348
0
  0
LAYER
  5
1FE
330
2
100
AcDbSymbolTableRecord
100
AcDbLayerTableRecord
  2
01__ASM_ALL_DTM_PLN
 70
     0
 62
     7
  6
CONTINUOUS
370
    -3
390
331
347
373
348
0
  0
LAYER
  5
1FF
330
2
100
AcDbSymbolTableRecord
100
AcDbLayerTableRecord
  2
01__ASM_DEF_DTM_PLN
 70
     0
 62
     7
  6
CONTINUOUS
370
    -3
390
331
347
373
348
0
  0
LAYER
  5
200
330
2
100
AcDbSymbolTableRecord
100
AcDbLayerTableRecord
  2
01___PRT_ALL_DTM_PLN
 70
     0
 62
     7
  6
CONTINUOUS
370
    -3
390
331
347
373
348
0
  0
LAYER
  5
201
330
2
100
AcDbSymbolTableRecord
100
AcDbLayerTableRecord
  2
01___PRT_DEF_DTM_PLN
 70
     0
 62
     7
  6
CONTINUOUS
370
    -3
390
331
347
373
348
0
  0
LAYER
  5
202
330
2
100
AcDbSymbolTableRecord
100
AcDbLayerTableRecord
  2
02_ALL_AXES
 70
     0
 62
     7
  6
CONTINUOUS
370
    -3
390
331
347
373
348
0
  0
LAYER
  5
203
330
2
100
AcDbSymbolTableRecord
100
AcDbLayerTableRecord
  2
02__ASM_ALL_AXES
 70
     0
 62
     7
  6
CONTINUOUS
370
    -3
390
331
347
373
348
0
  0
LAYER
  5
204
330
2
100
AcDbSymbolTableRecord
100
AcDbLayerTableRecord
  2
02___PRT_ALL_AXES
 70
     0
 62
     7
  6
CONTINUOUS
370
    -3
390
331
347
373
348
0
  0
LAYER
  5
205
330
2
100
AcDbSymbolTableRecord
100
AcDbLayerTableRecord
  2
03_ALL_CURVES
 70
     0
 62
     7
  6
CONTINUOUS
370
    -3
390
331
347
373
348
0
  0
LAYER
  5
206
330
2
100
AcDbSymbolTableRecord
100
AcDbLayerTableRecord
  2
03__ASM_ALL_CURVES
 70
     0
 62
     7
  6
CONTINUOUS
370
    -3
390
331
347
373
348
0
  0
LAYER
  5
207
330
2
100
AcDbSymbolTableRecord
100
AcDbLayerTableRecord
  2
03___PRT_ALL_CURVES
 70
     0
 62
     7
  6
CONTINUOUS
370
    -3
390
331
347
373
348
0
  0
LAYER
  5
208
330
2
100
AcDbSymbolTableRecord
100
AcDbLayerTableRecord
  2
04_ALL_DTM_PNT
 70
     0
 62
     7
  6
CONTINUOUS
370
    -3
390
331
347
373
348
0
  0
LAYER
  5
209
330
2
100
AcDbSymbolTableRecord
100
AcDbLayerTableRecord
  2
04__ASM_ALL_DTM_PNT
 70
     0
 62
     7
  6
CONTINUOUS
370
    -3
390
331
347
373
348
0
  0
LAYER
  5
20A
330
2
100
AcDbSymbolTableRecord
100
AcDbLayerTableRecord
  2
04___PRT_ALL_DTM_PNT
 70
     0
 62
     7
  6
CONTINUOUS
370
    -3
390
331
347
373
348
0
  0
LAYER
  5
20B
330
2
100
AcDbSymbolTableRecord
100
AcDbLayerTableRecord
  2
05_ALL_DTM_CSYS
 70
     0
 62
     7
  6
CONTINUOUS
370
    -3
390
331
347
373
348
0
  0
LAYER
  5
20C
330
2
100
AcDbSymbolTableRecord
100
AcDbLayerTableRecord
  2
05__ASM_ALL_DTM_CSYS
 70
     0
 62
     7
  6
CONTINUOUS
370
    -3
390
331
347
373
348
0
  0
LAYER
  5
20D
330
2
100
AcDbSymbolTableRecord
100
AcDbLayerTableRecord
  2
05__ASM_DEF_DTM_CSYS
 70
     0
 62
     7
  6
CONTINUOUS
370
    -3
390
331
347
373
348
0
  0
LAYER
  5
20E
330
2
100
AcDbSymbolTableRecord
100
AcDbLayerTableRecord
  2
05___PRT_ALL_DTM_CSYS
 70
     0
 62
     7
  6
CONTINUOUS
370
    -3
390
331
347
373
348
0
  0
LAYER
  5
20F
330
2
100
AcDbSymbolTableRecord
100
AcDbLayerTableRecord
  2
05___PRT_DEF_DTM_CSYS
 70
     0
 62
     7
  6
CONTINUOUS
370
    -3
390
331
347
373
348
0
  0
LAYER
  5
210
330
2
100
AcDbSymbolTableRecord
100
AcDbLayerTableRecord
  2
06_ALL_SURFS
 70
     0
 62
     7
  6
CONTINUOUS
370
    -3
390
331
347
373
348
0
  0
LAYER
  5
211
330
2
100
AcDbSymbolTableRecord
100
AcDbLayerTableRecord
  2
06__ASM_ALL_SURFS
 70
     0
 62
     7
  6
CONTINUOUS
370
    -3
390
331
347
373
348
0
  0
LAYER
  5
212
330
2
100
AcDbSymbolTableRecord
100
AcDbLayerTableRecord
  2
06___PRT_ALL_SURFS
 70
     0
 62
     7
  6
CONTINUOUS
370
    -3
390
331
347
373
348
0
  0
LAYER
  5
213
330
2
100
AcDbSymbolTableRecord
100
AcDbLayerTableRecord
  2
07__ASM_ALL_SKELETONS
 70
     0
 62
     7
  6
CONTINUOUS
370
    -3
390
331
347
373
348
0
  0
LAYER
  5
214
330
2
100
AcDbSymbolTableRecord
100
AcDbLayerTableRecord
  2
1_ALL_PLANES
 70
     0
 62
     7
  6
CONTINUOUS
370
    -3
390
331
347
373
348
0
  0
LAYER
  5
215
330
2
100
AcDbSymbolTableRecord
100
AcDbLayerTableRecord
  2
3_ALL_AXES
 70
     0
 62
     7
  6
CONTINUOUS
370
    -3
390
331
347
373
348
0
  0
LAYER
  5
216
330
2
100
AcDbSymbolTableRecord
100
AcDbLayerTableRecord
  2
7_ALL_FEATURES
 70
     0
 62
     7
  6
CONTINUOUS
370
    -3
390
331
347
373
348
0
  0
LAYER
  5
217
330
2
100
AcDbSymbolTableRecord
100
AcDbLayerTableRecord
  2
9_SOLID
 70
     0
 62
     7
  6
CONTINUOUS
370
    -3
390
331
347
373
348
0
  0
ENDTAB
  0
TABLE
  2
STYLE
  5
3
330
0
100
AcDbSymbolTable
 70
     5
  0
STYLE
  5
11
330
3
100
AcDbSymbolTableRecord
100
AcDbTextStyleTableRecord
  2
STANDARD
 70
     0
 40
0.0
 41
1.0
 50
0.0
 71
     0
 42
0.2
  3
arial.ttf
  4

  0
STYLE
  5
218
330
3
100
AcDbSymbolTableRecord
100
AcDbTextStyleTableRecord
  2
TEXTSTYLE_1
 70
     0
 40
0.0
 41
0.8
 50
0.0
 71
     0
 42
0.2
  3
gdt
  4

  0
STYLE
  5
219
330
3
100
AcDbSymbolTableRecord
100
AcDbTextStyleTableRecord
  2
TEXTSTYLE_2
 70
     0
 40
0.0
 41
0.85
 50
0.0
 71
     0
 42
0.2
  3
gdt
  4

  0
STYLE
  5
21A
330
3
100
AcDbSymbolTableRecord
100
AcDbTextStyleTableRecord
  2
TEXTSTYLE_3
 70
     0
 40
0.0
 41
2.0
 50
0.0
 71
     0
 42
0.2
  3
txt
  4

  0
STYLE
  5
21B
330
3
100
AcDbSymbolTableRecord
100
AcDbTextStyleTableRecord
  2
TEXTSTYLE_4
 70
     0
 40
0.0
 41
0.85
 50
0.0
 71
     0
 42
0.2
  3
txt
  4

  0
ENDTAB
  0
TABLE
  2
VIEW
  5
6
330
0
100
AcDbSymbolTable
 70
     0
  0
ENDTAB
  0
TABLE
  2
UCS
  5
7
330
0
100
AcDbSymbolTable
 70
     0
  0
ENDTAB
  0
TABLE
  2
APPID
  5
9
330
0
100
AcDbSymbolTable
 70
     1
  0
APPID
  5
21C
330
9
100
AcDbSymbolTableRecord
100
AcDbRegAppTableRecord
  2
ACAD
 70
     0
  0
ENDTAB
  0
TABLE
  2
DIMSTYLE
  5
A
330
0
100
AcDbSymbolTable
 70
     3
100
AcDbDimStyleTable
  0
DIMSTYLE
105
222
330
A
100
AcDbSymbolTableRecord
100
AcDbDimStyleTableRecord
  2
STANDARD
 70
     0
 41
2.5
 42
0.75
 44
0.75
 47
0.01
 48
0.01
 71
     1
 73
     0
 74
     0
 77
     1
 78
     8
 79
     2
140
3.0
147
0.625
171
     1
178
     0
179
     2
271
     2
272
     2
284
     8
340
11
341
21D
342
21D
343
21D
344
21D
  0
DIMSTYLE
105
223
330
A
100
AcDbSymbolTableRecord
100
AcDbDimStyleTableRecord
  2
DIMSTYLE_1
 70
     0
  3
<>
 41
2.5
 42
0.75
 44
0.75
 47
0.3
 48
0.3
 73
     0
 74
     0
 77
     1
 78
     8
 79
     2
140
3.0
147
0.625
171
     1
172
     1
178
     0
179
     2
271
     2
272
     2
284
     8
288
     1
340
11
341
21D
342
21D
343
21D
344
21D
  0
DIMSTYLE
105
224
330
A
100
AcDbSymbolTableRecord
100
AcDbDimStyleTableRecord
  2
DIMSTYLE_2
 70
     0
 41
2.5
 42
0.75
 44
0.75
 47
0.3
 48
0.3
 73
     0
 74
     0
 77
     1
 78
     8
 79
     2
140
3.0
147
0.75
171
     1
178
     0
179
     2
271
     2
272
     2
284
     8
340
11
341
21D
342
21D
343
21D
344
21D
  0
ENDTAB
  0
TABLE
  2
BLOCK_RECORD
  5
1
330
0
100
AcDbSymbolTable
 70
     5
  0
BLOCK_RECORD
  5
1F
330
1
100
AcDbSymbolTableRecord
100
AcDbBlockTableRecord
  2
*MODEL_SPACE
340
355
 70
     0
280
     1
281
     0
  0
BLOCK_RECORD
  5
1B
330
1
100
AcDbSymbolTableRecord
100
AcDbBlockTableRecord
  2
*PAPER_SPACE
340
356
 70
     0
280
     1
281
     0
  0
BLOCK_RECORD
  5
21D
330
1
100
AcDbSymbolTableRecord
100
AcDbBlockTableRecord
  2
_CLOSED
340
0
102
{BLKREFS
331
274
331
27C
331
27D
102
}
 70
     0
280
     1
281
     0
  0
BLOCK_RECORD
  5
21E
330
1
100
AcDbSymbolTableRecord
100
AcDbBlockTableRecord
  2
*D1
340
0
 70
     0
280
     1
281
     0
  0
BLOCK_RECORD
  5
21F
330
1
100
AcDbSymbolTableRecord
100
AcDbBlockTableRecord
  2
*D2
340
0
 70
     0
280
     1
281
     0
  0
BLOCK_RECORD
  5
220
330
1
100
AcDbSymbolTableRecord
100
AcDbBlockTableRecord
  2
LOGO2_BL1
340
0
102
{BLKREFS
331
319
102
}
 70
     0
280
     1
281
     0
  0
BLOCK_RECORD
  5
221
330
1
100
AcDbSymbolTableRecord
100
AcDbBlockTableRecord
  2
PROIEZIONE_EU_BL0
340
0
102
{BLKREFS
331
316
102
}
 70
     0
280
     1
281
     0
  0
ENDTAB
  0
ENDSEC
  0
SECTION
  2
BLOCKS
  0
BLOCK
  5
20
330
1F
100
AcDbEntity
  8
0
100
AcDbBlockBegin
  2
*MODEL_SPACE
 70
     0
 10
0.0
 20
0.0
 30
0.0
  3
*MODEL_SPACE
  1

  0
ENDBLK
  5
21
330
1F
100
AcDbEntity
  8
0
100
AcDbBlockEnd
  0
BLOCK
  5
1C
330
1B
100
AcDbEntity
 67
     1
  8
0
100
AcDbBlockBegin
  2
*PAPER_SPACE
 70
     0
 10
0.0
 20
0.0
 30
0.0
  3
*PAPER_SPACE
  1

  0
ENDBLK
  5
1D
330
1B
100
AcDbEntity
 67
     1
  8
0
100
AcDbBlockEnd
  0
BLOCK
  5
26B
330
21D
100
AcDbEntity
  8
0
100
AcDbBlockBegin
  2
_CLOSED
 70
     0
 10
0.0
 20
0.0
 30
0.0
  3
_CLOSED
  1

  0
LINE
  5
26C
330
21D
100
AcDbEntity
  8
0
  6
ByBlock
 62
     0
100
AcDbLine
 10
0.0
 20
0.0
 30
0.0
 11
-1.0
 21
0.2
 31
0.0
  0
LINE
  5
26D
330
21D
100
AcDbEntity
  8
0
  6
ByBlock
 62
     0
100
AcDbLine
 10
-1.0
 20
0.2
 30
0.0
 11
-1.0
 21
-0.2
 31
0.0
  0
LINE
  5
26E
330
21D
100
AcDbEntity
  8
0
  6
ByBlock
 62
     0
100
AcDbLine
 10
-1.0
 20
-0.2
 30
0.0
 11
0.0
 21
0.0
 31
0.0
  0
LINE
  5
26F
330
21D
100
AcDbEntity
  8
0
  6
ByBlock
 62
     0
100
AcDbLine
 10
-1.0
 20
0.0
 30
0.0
 11
0.0
 21
0.0
 31
0.0
  0
ENDBLK
  5
270
330
21D
100
AcDbEntity
  8
0
  6
ByBlock
 62
     0
100
AcDbBlockEnd
  0
BLOCK
  5
271
330
21E
100
AcDbEntity
  8
0
100
AcDbBlockBegin
  2
*D1
 70
     1
 10
0.0
 20
0.0
 30
0.0
  3
*D1
  1

  0
MTEXT
  5
272
330
21E
100
AcDbEntity
  8
0
  6
Continuous
 62
     2
100
AcDbMText
 10
98.2153374475
 20
73.9298233695
 30
0.0
 40
3.0
 41
8.6617100372
 46
0.0
 71
     1
 72
     1
  1
{\Fgdt;n}\Farial.ttf;33
  7
TEXTSTYLE_2
 11
0.9166069234000001
 21
0.3997896297
 31
0.0
 73
     1
 44
1.0
  0
LINE
  5
273
330
21E
100
AcDbEntity
  8
0
  6
Continuous
 62
     2
100
AcDbLine
 10
95.6316094314
 20
68.7117221912
 30
0.0
 11
107.6539319473
 21
73.9554092554
 31
0.0
  0
INSERT
  5
274
330
21E
100
AcDbEntity
  8
0
  6
Continuous
 62
     2
100
AcDbBlockReference
  2
_CLOSED
 10
95.6316094314
 20
68.7117221912
 30
0.0
 41
2.5
 42
2.5
 43
2.5
 50
203.5650278767
  0
ENDBLK
  5
275
330
21E
100
AcDbEntity
  8
0
  6
ByBlock
 62
     0
100
AcDbBlockEnd
  0
BLOCK
  5
276
330
21F
100
AcDbEntity
  8
0
100
AcDbBlockBegin
  2
*D2
 70
     1
 10
0.0
 20
0.0
 30
0.0
  3
*D2
  1

  0
MTEXT
  5
277
330
21F
100
AcDbEntity
  8
0
  6
Continuous
 62
     2
100
AcDbMText
 10
103.0860438792
 20
149.335781665
 30
0.0
 40
3.0
 41
8.1524163569
 46
0.0
 71
     2
 72
     1
  1
31,5
 11
0.0
 21
1.0
 31
0.0
 73
     1
 44
1.0
  0
LINE
  5
278
330
21F
100
AcDbEntity
  8
0
  6
Continuous
 62
     2
100
AcDbLine
 10
99.0135186663
 20
165.085781665
 30
0.0
 11
107.5860438792
 21
165.085781665
 31
0.0
  0
LINE
  5
279
330
21F
100
AcDbEntity
  8
0
  6
Continuous
 62
     2
100
AcDbLine
 10
99.1276935273
 20
133.585781665
 30
0.0
 11
107.5860438792
 21
133.585781665
 31
0.0
  0
LINE
  5
27A
330
21F
100
AcDbEntity
  8
0
  6
Continuous
 62
     2
100
AcDbLine
 10
106.8360438792
 20
165.085781665
 30
0.0
 11
106.8360438792
 21
149.335781665
 31
0.0
  0
LINE
  5
27B
330
21F
100
AcDbEntity
  8
0
  6
Continuous
 62
     2
100
AcDbLine
 10
106.8360438792
 20
133.585781665
 30
0.0
 11
106.8360438792
 21
149.335781665
 31
0.0
  0
INSERT
  5
27C
330
21F
100
AcDbEntity
  8
0
  6
Continuous
 62
     2
100
AcDbBlockReference
  2
_CLOSED
 10
106.8360438792
 20
165.085781665
 30
0.0
 41
2.5
 42
2.5
 43
2.5
 50
90.0
  0
INSERT
  5
27D
330
21F
100
AcDbEntity
  8
0
  6
Continuous
 62
     2
100
AcDbBlockReference
  2
_CLOSED
 10
106.8360438792
 20
133.585781665
 30
0.0
 41
2.5
 42
2.5
 43
2.5
 50
270.0
  0
ENDBLK
  5
27E
330
21F
100
AcDbEntity
  8
0
  6
ByBlock
 62
     0
100
AcDbBlockEnd
  0
BLOCK
  5
225
330
220
100
AcDbEntity
  8
0
100
AcDbBlockBegin
  2
LOGO2_BL1
 70
     0
 10
167.8332771924
 20
44.9839440915
 30
0.0
  3
LOGO2_BL1
  1

  0
LINE
  5
226
330
220
100
AcDbEntity
  8
0
  6
Continuous
 62
     7
100
AcDbLine
 10
159.5762024206
 20
48.1794354304
 30
0.0
 11
158.2718614913
 21
48.1794354304
 31
0.0
  0
LINE
  5
227
330
220
100
AcDbEntity
  8
0
  6
Continuous
 62
     7
100
AcDbLine
 10
158.2718614913
 20
48.1794354304
 30
0.0
 11
158.2718614913
 21
37.7203693705
 31
0.0
  0
LINE
  5
228
330
220
100
AcDbEntity
  8
0
  6
Continuous
 62
     7
100
AcDbLine
 10
158.2718614913
 20
37.7203693705
 30
0.0
 11
162.7529163795
 21
37.7203693705
 31
0.0
  0
LINE
  5
229
330
220
100
AcDbEntity
  8
0
  6
Continuous
 62
     7
100
AcDbLine
 10
162.7529163795
 20
37.7203693705
 30
0.0
 11
162.7529163795
 21
38.9132236956
 31
0.0
  0
LINE
  5
22A
330
220
100
AcDbEntity
  8
0
  6
Continuous
 62
     7
100
AcDbLine
 10
162.7529163795
 20
38.9132236956
 30
0.0
 11
159.5762024206
 21
38.9132236956
 31
0.0
  0
LINE
  5
22B
330
220
100
AcDbEntity
  8
0
  6
Continuous
 62
     7
100
AcDbLine
 10
159.5762024206
 20
38.9132236956
 30
0.0
 11
159.5762024206
 21
48.1794354304
 31
0.0
  0
LINE
  5
22C
330
220
100
AcDbEntity
  8
0
  6
Continuous
 62
     7
100
AcDbLine
 10
174.5125286369
 20
48.1794354304
 30
0.0
 11
173.2087111188
 21
48.1794354304
 31
0.0
  0
LINE
  5
22D
330
220
100
AcDbEntity
  8
0
  6
Continuous
 62
     7
100
AcDbLine
 10
173.2087111188
 20
48.1794354304
 30
0.0
 11
173.2087111188
 21
37.7203693705
 31
0.0
  0
LINE
  5
22E
330
220
100
AcDbEntity
  8
0
  6
Continuous
 62
     7
100
AcDbLine
 10
173.2087111188
 20
37.7203693705
 30
0.0
 11
177.6898968599
 21
37.7203693705
 31
0.0
  0
LINE
  5
22F
330
220
100
AcDbEntity
  8
0
  6
Continuous
 62
     7
100
AcDbLine
 10
177.6898968599
 20
37.7203693705
 30
0.0
 11
177.6898968599
 21
38.9132236956
 31
0.0
  0
LINE
  5
230
330
220
100
AcDbEntity
  8
0
  6
Continuous
 62
     7
100
AcDbLine
 10
177.6898968599
 20
38.9132236956
 30
0.0
 11
174.5125286369
 21
38.9132236956
 31
0.0
  0
LINE
  5
231
330
220
100
AcDbEntity
  8
0
  6
Continuous
 62
     7
100
AcDbLine
 10
174.5125286369
 20
38.9132236956
 30
0.0
 11
174.5125286369
 21
48.1794354304
 31
0.0
  0
LWPOLYLINE
  5
232
330
220
100
AcDbEntity
  8
0
  6
Continuous
 62
     7
100
AcDbPolyline
 90
        2
 70
     0
 43
0.2
 10
156.6262564022
 20
34.3768180636
 10
156.6262564022
 20
32.5197548143
  0
LWPOLYLINE
  5
233
330
220
100
AcDbEntity
  8
0
  6
Continuous
 62
     7
100
AcDbPolyline
 90
        2
 70
     0
 43
0.2
 10
156.6262564022
 20
32.5197548143
 10
157.4219724126
 20
32.5197548143
  0
LWPOLYLINE
  5
234
330
220
100
AcDbEntity
  8
0
  6
Continuous
 62
     7
100
AcDbPolyline
 90
        2
 70
     0
 43
0.2
 10
157.4219724126
 20
32.5197548143
 10
157.4219724126
 20
32.7317363858
  0
LWPOLYLINE
  5
235
330
220
100
AcDbEntity
  8
0
  6
Continuous
 62
     7
100
AcDbPolyline
 90
        2
 70
     0
 43
0.2
 10
157.4219724126
 20
32.7317363858
 10
156.8578658971
 20
32.7317363858
  0
LWPOLYLINE
  5
236
330
220
100
AcDbEntity
  8
0
  6
Continuous
 62
     7
100
AcDbPolyline
 90
        2
 70
     0
 43
0.2
 10
156.8578658971
 20
32.7317363858
 10
156.8578658971
 20
34.3768180636
  0
LWPOLYLINE
  5
237
330
220
100
AcDbEntity
  8
0
  6
Continuous
 62
     7
100
AcDbPolyline
 90
        2
 70
     0
 43
0.2
 10
156.8578658971
 20
34.3768180636
 10
156.6262564022
 20
34.3768180636
  0
SPLINE
  5
238
330
220
100
AcDbEntity
  8
0
  6
Continuous
 62
     7
100
AcDbSpline
 70
     3
 71
     3
 72
    35
 73
    31
 74
     0
 42
0.000000001
 43
0.0000001
 40
0.0
 40
0.0
 40
0.0
 40
0.0
 40
1.0
 40
1.0
 40
1.0
 40
2.0
 40
2.0
 40
2.0
 40
3.0
 40
3.0
 40
3.0
 40
4.0
 40
4.0
 40
4.0
 40
5.0
 40
5.0
 40
5.0
 40
6.0
 40
6.0
 40
6.0
 40
7.0
 40
7.0
 40
7.0
 40
8.0
 40
8.0
 40
8.0
 40
9.0
 40
9.0
 40
9.0
 40
10.0
 40
10.0
 40
10.0
 40
10.0
 10
158.8202656681
 20
33.6723064701
 30
0.0
 10
158.8202656681
 20
33.6723064701
 30
0.0
 10
158.8202656681
 20
33.010191191
 30
0.0
 10
158.8202656681
 20
33.010191191
 30
0.0
 10
158.8202656681
 20
32.6950975957
 30
0.0
 10
158.9681293569
 20
32.4804989677
 30
0.0
 10
159.3082158412
 20
32.4804989677
 30
0.0
 10
159.6477789142
 20
32.4804989677
 30
0.0
 10
159.7959043087
 20
32.6950975957
 30
0.0
 10
159.7959043087
 20
33.010191191
 30
0.0
 10
159.7959043087
 20
33.010191191
 30
0.0
 10
159.7959043087
 20
33.6723064701
 30
0.0
 10
159.7959043087
 20
33.6723064701
 30
0.0
 10
159.7959043087
 20
33.6723064701
 30
0.0
 10
159.5738470698
 20
33.6723064701
 30
0.0
 10
159.5738470698
 20
33.6723064701
 30
0.0
 10
159.5738470698
 20
33.6723064701
 30
0.0
 10
159.5738470698
 20
33.0353149328
 30
0.0
 10
159.5738470698
 20
33.0353149328
 30
0.0
 10
159.5738470698
 20
32.8495039256
 30
0.0
 10
159.5271326124
 20
32.6867230151
 30
0.0
 10
159.3082158412
 20
32.6867230151
 30
0.0
 10
159.0887756588
 20
32.6867230151
 30
0.0
 10
159.0420612014
 20
32.8495039256
 30
0.0
 10
159.0420612014
 20
33.0353149328
 30
0.0
 10
159.0420612014
 20
33.0353149328
 30
0.0
 10
159.0420612014
 20
33.6723064701
 30
0.0
 10
159.0420612014
 20
33.6723064701
 30
0.0
 10
159.0420612014
 20
33.6723064701
 30
0.0
 10
158.8202656681
 20
33.6723064701
 30
0.0
 10
158.8202656681
 20
33.6723064701
 30
0.0
  0
SPLINE
  5
239
330
220
100
AcDbEntity
  8
0
  6
Continuous
 62
     7
100
AcDbSpline
 70
     3
 71
     3
 72
    35
 73
    31
 74
     0
 42
0.000000001
 43
0.0000001
 40
0.0
 40
0.0
 40
0.0
 40
0.0
 40
1.0
 40
1.0
 40
1.0
 40
2.0
 40
2.0
 40
2.0
 40
3.0
 40
3.0
 40
3.0
 40
4.0
 40
4.0
 40
4.0
 40
5.0
 40
5.0
 40
5.0
 40
6.0
 40
6.0
 40
6.0
 40
7.0
 40
7.0
 40
7.0
 40
8.0
 40
8.0
 40
8.0
 40
9.0
 40
9.0
 40
9.0
 40
10.0
 40
10.0
 40
10.0
 40
10.0
 10
162.2190368659
 20
33.6309569784
 30
0.0
 10
162.1305803583
 20
33.6822512846
 30
0.0
 10
162.0171309616
 20
33.7073750264
 30
0.0
 10
161.9134955266
 20
33.7073750264
 30
0.0
 10
161.5586226734
 20
33.7073750264
 30
0.0
 10
161.2831774832
 20
33.4435757373
 30
0.0
 10
161.2831774832
 20
33.0860858277
 30
0.0
 10
161.2831774832
 20
32.741157789
 30
0.0
 10
161.5616322883
 20
32.481022379
 30
0.0
 10
161.9011953613
 20
32.481022379
 30
0.0
 10
162.0171309616
 20
32.481022379
 30
0.0
 10
162.1178876345
 20
32.503005653
 30
0.0
 10
162.2190368659
 20
32.5569170157
 30
0.0
 10
162.2190368659
 20
32.5569170157
 30
0.0
 10
162.2190368659
 20
32.8395591111
 30
0.0
 10
162.2190368659
 20
32.8395591111
 30
0.0
 10
162.135160207
 20
32.7463919019
 30
0.0
 10
162.0316556248
 20
32.6872464264
 30
0.0
 10
161.9035507121
 20
32.6872464264
 30
0.0
 10
161.6698475721
 20
32.6872464264
 30
0.0
 10
161.504580458
 20
32.8594487401
 30
0.0
 10
161.504580458
 20
33.0960306422
 30
0.0
 10
161.504580458
 20
33.3080122138
 30
0.0
 10
161.6723337757
 20
33.5001041564
 30
0.0
 10
161.8891569017
 20
33.5001041564
 30
0.0
 10
162.021972516
 20
33.5001041564
 30
0.0
 10
162.1305803583
 20
33.4461927938
 30
0.0
 10
162.2190368659
 20
33.3451744152
 30
0.0
 10
162.2190368659
 20
33.3451744152
 30
0.0
 10
162.2190368659
 20
33.6309569784
 30
0.0
 10
162.2190368659
 20
33.6309569784
 30
0.0
  0
SPLINE
  5
23A
330
220
100
AcDbEntity
  8
0
  6
Continuous
 62
     7
100
AcDbSpline
 70
     3
 71
     3
 72
    32
 73
    28
 74
     0
 42
0.000000001
 43
0.0000001
 40
0.0
 40
0.0
 40
0.0
 40
0.0
 40
1.0
 40
1.0
 40
1.0
 40
2.0
 40
2.0
 40
2.0
 40
3.0
 40
3.0
 40
3.0
 40
4.0
 40
4.0
 40
4.0
 40
5.0
 40
5.0
 40
5.0
 40
6.0
 40
6.0
 40
6.0
 40
7.0
 40
7.0
 40
7.0
 40
8.0
 40
8.0
 40
8.0
 40
9.0
 40
9.0
 40
9.0
 40
9.0
 10
164.7509081182
 20
33.0593918521
 30
0.0
 10
164.7509081182
 20
33.0593918521
 30
0.0
 10
164.7509081182
 20
33.0934135858
 30
0.0
 10
164.7509081182
 20
33.0934135858
 30
0.0
 10
164.7509081182
 20
33.435724568
 30
0.0
 10
164.5780515403
 20
33.7073750264
 30
0.0
 10
164.2114019332
 20
33.7073750264
 30
0.0
 10
163.8397799188
 20
33.7073750264
 30
0.0
 10
163.6500433269
 20
33.4409586809
 30
0.0
 10
163.6500433269
 20
33.0860858277
 30
0.0
 10
163.6500433269
 20
32.7463919019
 30
0.0
 10
163.8641185437
 20
32.4804989677
 30
0.0
 10
164.2162434876
 20
32.4804989677
 30
0.0
 10
164.4402635188
 20
32.4804989677
 30
0.0
 10
164.6424311287
 20
32.5961728623
 30
0.0
 10
164.7509081182
 20
32.795592563
 30
0.0
 10
164.7509081182
 20
32.795592563
 30
0.0
 10
164.5632651715
 20
32.9023684657
 30
0.0
 10
164.5632651715
 20
32.9023684657
 30
0.0
 10
164.479781071
 20
32.7636644744
 30
0.0
 10
164.3885766541
 20
32.6778250232
 30
0.0
 10
164.2189913969
 20
32.6778250232
 30
0.0
 10
164.0070098253
 20
32.6778250232
 30
0.0
 10
163.8740633582
 20
32.8625892078
 30
0.0
 10
163.8717080074
 20
33.0593918521
 30
0.0
 10
163.8717080074
 20
33.0593918521
 30
0.0
 10
164.7509081182
 20
33.0593918521
 30
0.0
 10
164.7509081182
 20
33.0593918521
 30
0.0
  0
SPLINE
  5
23B
330
220
100
AcDbEntity
  8
0
  6
Continuous
 62
     7
100
AcDbSpline
 70
     3
 71
     3
 72
    14
 73
    10
 74
     0
 42
0.000000001
 43
0.0000001
 40
0.0
 40
0.0
 40
0.0
 40
0.0
 40
1.0
 40
1.0
 40
1.0
 40
2.0
 40
2.0
 40
2.0
 40
3.0
 40
3.0
 40
3.0
 40
3.0
 10
163.883746467
 20
33.2268834642
 30
0.0
 10
163.9113564124
 20
33.3917580198
 30
0.0
 10
164.0391996195
 20
33.5147596725
 30
0.0
 10
164.2114019332
 20
33.5147596725
 30
0.0
 10
164.3885766541
 20
33.5147596725
 30
0.0
 10
164.5020260508
 20
33.3990857779
 30
0.0
 10
164.5292434377
 20
33.2268834642
 30
0.0
 10
164.5292434377
 20
33.2268834642
 30
0.0
 10
163.883746467
 20
33.2268834642
 30
0.0
 10
163.883746467
 20
33.2268834642
 30
0.0
  0
SPLINE
  5
23C
330
220
100
AcDbEntity
  8
0
  6
Continuous
 62
     7
100
AcDbSpline
 70
     3
 71
     3
 72
    20
 73
    16
 74
     0
 42
0.000000001
 43
0.0000001
 40
0.0
 40
0.0
 40
0.0
 40
0.0
 40
1.0
 40
1.0
 40
1.0
 40
2.0
 40
2.0
 40
2.0
 40
3.0
 40
3.0
 40
3.0
 40
4.0
 40
4.0
 40
4.0
 40
5.0
 40
5.0
 40
5.0
 40
5.0
 10
166.7749395683
 20
33.4362479793
 30
0.0
 10
166.7749395683
 20
33.4362479793
 30
0.0
 10
167.186079135
 20
32.933773143
 30
0.0
 10
167.186079135
 20
32.933773143
 30
0.0
 10
167.0700126819
 20
32.8180992483
 30
0.0
 10
166.9322246604
 20
32.6877698377
 30
0.0
 10
166.7602840523
 20
32.6877698377
 30
0.0
 10
166.5828476257
 20
32.6877698377
 30
0.0
 10
166.4153560136
 20
32.8521209821
 30
0.0
 10
166.4153560136
 20
33.0290339974
 30
0.0
 10
166.4153560136
 20
33.2069938352
 30
0.0
 10
166.6251130872
 20
33.3331359556
 30
0.0
 10
166.7526945886
 20
33.421069052
 30
0.0
 10
166.7526945886
 20
33.421069052
 30
0.0
 10
166.7749395683
 20
33.4362479793
 30
0.0
 10
166.7749395683
 20
33.4362479793
 30
0.0
  0
SPLINE
  5
23D
330
220
100
AcDbEntity
  8
0
  6
Continuous
 62
     7
100
AcDbSpline
 70
     3
 71
     3
 72
    23
 73
    19
 74
     0
 42
0.000000001
 43
0.0000001
 40
0.0
 40
0.0
 40
0.0
 40
0.0
 40
1.0
 40
1.0
 40
1.0
 40
2.0
 40
2.0
 40
2.0
 40
3.0
 40
3.0
 40
3.0
 40
4.0
 40
4.0
 40
4.0
 40
5.0
 40
5.0
 40
5.0
 40
6.0
 40
6.0
 40
6.0
 40
6.0
 10
166.8242710822
 20
33.7272646554
 30
0.0
 10
166.8242710822
 20
33.7272646554
 30
0.0
 10
166.7626394031
 20
33.8057763486
 30
0.0
 10
166.7626394031
 20
33.8057763486
 30
0.0
 10
166.7087280404
 20
33.8743432273
 30
0.0
 10
166.6519379157
 20
33.9434335173
 30
0.0
 10
166.6519379157
 20
34.0371241378
 30
0.0
 10
166.6519379157
 20
34.1559385001
 30
0.0
 10
166.7478530342
 20
34.2334033707
 30
0.0
 10
166.8588162272
 20
34.2334033707
 30
0.0
 10
166.9820795855
 20
34.2334033707
 30
0.0
 10
167.0753776476
 20
34.1622194356
 30
0.0
 10
167.0753776476
 20
34.0318900249
 30
0.0
 10
167.0753776476
 20
33.8968499126
 30
0.0
 10
166.9472727349
 20
33.8204318646
 30
0.0
 10
166.8537129672
 20
33.746630873
 30
0.0
 10
166.8537129672
 20
33.746630873
 30
0.0
 10
166.8242710822
 20
33.7272646554
 30
0.0
 10
166.8242710822
 20
33.7272646554
 30
0.0
  0
SPLINE
  5
23E
330
220
100
AcDbEntity
  8
0
  6
Continuous
 62
     7
100
AcDbSpline
 70
     3
 71
     3
 72
    50
 73
    46
 74
     0
 42
0.000000001
 43
0.0000001
 40
0.0
 40
0.0
 40
0.0
 40
0.0
 40
1.0
 40
1.0
 40
1.0
 40
2.0
 40
2.0
 40
2.0
 40
3.0
 40
3.0
 40
3.0
 40
4.0
 40
4.0
 40
4.0
 40
5.0
 40
5.0
 40
5.0
 40
6.0
 40
6.0
 40
6.0
 40
7.0
 40
7.0
 40
7.0
 40
8.0
 40
8.0
 40
8.0
 40
9.0
 40
9.0
 40
9.0
 40
10.0
 40
10.0
 40
10.0
 40
11.0
 40
11.0
 40
11.0
 40
12.0
 40
12.0
 40
12.0
 40
13.0
 40
13.0
 40
13.0
 40
14.0
 40
14.0
 40
14.0
 40
15.0
 40
15.0
 40
15.0
 40
15.0
 10
167.5264273249
 20
32.5202782255
 30
0.0
 10
167.5264273249
 20
32.5202782255
 30
0.0
 10
167.8118173296
 20
32.5202782255
 30
0.0
 10
167.8118173296
 20
32.5202782255
 30
0.0
 10
167.8118173296
 20
32.5202782255
 30
0.0
 10
167.4794511618
 20
32.9311560865
 30
0.0
 10
167.4794511618
 20
32.9311560865
 30
0.0
 10
167.4794511618
 20
32.9311560865
 30
0.0
 10
167.7059573966
 20
33.1970490208
 30
0.0
 10
167.7059573966
 20
33.1970490208
 30
0.0
 10
167.7059573966
 20
33.1970490208
 30
0.0
 10
167.5577011494
 20
33.3498851168
 30
0.0
 10
167.5577011494
 20
33.3498851168
 30
0.0
 10
167.5577011494
 20
33.3498851168
 30
0.0
 10
167.3417939931
 20
33.0986476986
 30
0.0
 10
167.3417939931
 20
33.0986476986
 30
0.0
 10
167.3417939931
 20
33.0986476986
 30
0.0
 10
166.9547313457
 20
33.56657739
 30
0.0
 10
166.9547313457
 20
33.56657739
 30
0.0
 10
167.1101844982
 20
33.6806810508
 30
0.0
 10
167.2924624792
 20
33.8204318646
 30
0.0
 10
167.2924624792
 20
34.0297963798
 30
0.0
 10
167.2924624792
 20
34.2737060399
 30
0.0
 10
167.0904257221
 20
34.4171207328
 30
0.0
 10
166.8639194873
 20
34.4171207328
 30
0.0
 10
166.6197481215
 20
34.4171207328
 30
0.0
 10
166.4353764953
 20
34.2663782819
 30
0.0
 10
166.4353764953
 20
34.0099067508
 30
0.0
 10
166.4353764953
 20
33.8523599532
 30
0.0
 10
166.5340395231
 20
33.7147027845
 30
0.0
 10
166.6393760448
 20
33.6037395914
 30
0.0
 10
166.6393760448
 20
33.6037395914
 30
0.0
 10
166.523833003
 20
33.5199937854
 30
0.0
 10
166.523833003
 20
33.5199937854
 30
0.0
 10
166.3461348708
 20
33.3917580198
 30
0.0
 10
166.1987945932
 20
33.2640456656
 30
0.0
 10
166.1987945932
 20
33.0269403522
 30
0.0
 10
166.1987945932
 20
32.706612644
 30
0.0
 10
166.4573597694
 20
32.4804989677
 30
0.0
 10
166.7677426631
 20
32.4804989677
 30
0.0
 10
166.9866594343
 20
32.4804989677
 30
0.0
 10
167.183854637
 20
32.6055942655
 30
0.0
 10
167.3241288621
 20
32.7715156437
 30
0.0
 10
167.3241288621
 20
32.7715156437
 30
0.0
 10
167.5264273249
 20
32.5202782255
 30
0.0
 10
167.5264273249
 20
32.5202782255
 30
0.0
  0
LWPOLYLINE
  5
23F
330
220
100
AcDbEntity
  8
0
  6
Continuous
 62
     7
100
AcDbPolyline
 90
        2
 70
     0
 43
0.2
 10
169.4618714146
 20
34.3768180636
 10
169.2305236254
 20
34.3768180636
  0
LWPOLYLINE
  5
240
330
220
100
AcDbEntity
  8
0
  6
Continuous
 62
     7
100
AcDbPolyline
 90
        2
 70
     0
 43
0.2
 10
169.2305236254
 20
34.3768180636
 10
169.2305236254
 20
32.5197548143
  0
LWPOLYLINE
  5
241
330
220
100
AcDbEntity
  8
0
  6
Continuous
 62
     7
100
AcDbPolyline
 90
        2
 70
     0
 43
0.2
 10
169.2305236254
 20
32.5197548143
 10
170.0258470773
 20
32.5197548143
  0
LWPOLYLINE
  5
242
330
220
100
AcDbEntity
  8
0
  6
Continuous
 62
     7
100
AcDbPolyline
 90
        2
 70
     0
 43
0.2
 10
170.0258470773
 20
32.5197548143
 10
170.0258470773
 20
32.7317363858
  0
LWPOLYLINE
  5
243
330
220
100
AcDbEntity
  8
0
  6
Continuous
 62
     7
100
AcDbPolyline
 90
        2
 70
     0
 43
0.2
 10
170.0258470773
 20
32.7317363858
 10
169.4618714146
 20
32.7317363858
  0
LWPOLYLINE
  5
244
330
220
100
AcDbEntity
  8
0
  6
Continuous
 62
     7
100
AcDbPolyline
 90
        2
 70
     0
 43
0.2
 10
169.4618714146
 20
32.7317363858
 10
169.4618714146
 20
34.3768180636
  0
LWPOLYLINE
  5
245
330
220
100
AcDbEntity
  8
0
  6
Continuous
 62
     7
100
AcDbPolyline
 90
        2
 70
     0
 43
0.2
 10
171.7049504888
 20
33.6723064701
 10
171.4838092197
 20
33.6723064701
  0
LWPOLYLINE
  5
246
330
220
100
AcDbEntity
  8
0
  6
Continuous
 62
     7
100
AcDbPolyline
 90
        2
 70
     0
 43
0.2
 10
171.4838092197
 20
33.6723064701
 10
171.4838092197
 20
32.5202782255
  0
LWPOLYLINE
  5
247
330
220
100
AcDbEntity
  8
0
  6
Continuous
 62
     7
100
AcDbPolyline
 90
        2
 70
     0
 43
0.2
 10
171.4838092197
 20
32.5202782255
 10
171.7049504888
 20
32.5202782255
  0
LWPOLYLINE
  5
248
330
220
100
AcDbEntity
  8
0
  6
Continuous
 62
     7
100
AcDbPolyline
 90
        2
 70
     0
 43
0.2
 10
171.7049504888
 20
32.5202782255
 10
171.7049504888
 20
33.6723064701
  0
SPLINE
  5
249
330
220
100
AcDbEntity
  8
0
  6
Continuous
 62
     7
100
AcDbSpline
 70
     3
 71
     3
 72
    17
 73
    13
 74
     0
 42
0.000000001
 43
0.0000001
 40
0.0
 40
0.0
 40
0.0
 40
0.0
 40
1.0
 40
1.0
 40
1.0
 40
2.0
 40
2.0
 40
2.0
 40
3.0
 40
3.0
 40
3.0
 40
4.0
 40
4.0
 40
4.0
 40
4.0
 10
171.5945107071
 20
34.3548347895
 30
0.0
 10
171.5105031954
 20
34.3548347895
 30
0.0
 10
171.4419363166
 20
34.2857444995
 30
0.0
 10
171.4419363166
 20
34.1999050483
 30
0.0
 10
171.4419363166
 20
34.115635831
 30
0.0
 10
171.5105031954
 20
34.0496860087
 30
0.0
 10
171.5945107071
 20
34.0496860087
 30
0.0
 10
171.6782565131
 20
34.0496860087
 30
0.0
 10
171.7470850975
 20
34.115635831
 30
0.0
 10
171.7470850975
 20
34.1999050483
 30
0.0
 10
171.7470850975
 20
34.2857444995
 30
0.0
 10
171.6782565131
 20
34.3548347895
 30
0.0
 10
171.5945107071
 20
34.3548347895
 30
0.0
  0
SPLINE
  5
24A
330
220
100
AcDbEntity
  8
0
  6
Continuous
 62
     7
100
AcDbSpline
 70
     3
 71
     3
 72
    17
 73
    13
 74
     0
 42
0.000000001
 43
0.0000001
 40
0.0
 40
0.0
 40
0.0
 40
0.0
 40
1.0
 40
1.0
 40
1.0
 40
2.0
 40
2.0
 40
2.0
 40
3.0
 40
3.0
 40
3.0
 40
4.0
 40
4.0
 40
4.0
 40
4.0
 10
173.8352344304
 20
32.6778250232
 30
0.0
 10
173.6012695848
 20
32.6778250232
 30
0.0
 10
173.4709401741
 20
32.8798617803
 30
0.0
 10
173.4709401741
 20
33.0960306422
 30
0.0
 10
173.4709401741
 20
33.3106292702
 30
0.0
 10
173.6067654033
 20
33.5095255596
 30
0.0
 10
173.8352344304
 20
33.5095255596
 30
0.0
 10
174.0746950946
 20
33.5095255596
 30
0.0
 10
174.2102586182
 20
33.3205740847
 30
0.0
 10
174.2102586182
 20
33.0960306422
 30
0.0
 10
174.2102586182
 20
32.8699169658
 30
0.0
 10
174.0770504454
 20
32.6778250232
 30
0.0
 10
173.8352344304
 20
32.6778250232
 30
0.0
  0
SPLINE
  5
24B
330
220
100
AcDbEntity
  8
0
  6
Continuous
 62
     7
100
AcDbSpline
 70
     3
 71
     3
 72
    50
 73
    46
 74
     0
 42
0.000000001
 43
0.0000001
 40
0.0
 40
0.0
 40
0.0
 40
0.0
 40
1.0
 40
1.0
 40
1.0
 40
2.0
 40
2.0
 40
2.0
 40
3.0
 40
3.0
 40
3.0
 40
4.0
 40
4.0
 40
4.0
 40
5.0
 40
5.0
 40
5.0
 40
6.0
 40
6.0
 40
6.0
 40
7.0
 40
7.0
 40
7.0
 40
8.0
 40
8.0
 40
8.0
 40
9.0
 40
9.0
 40
9.0
 40
10.0
 40
10.0
 40
10.0
 40
11.0
 40
11.0
 40
11.0
 40
12.0
 40
12.0
 40
12.0
 40
13.0
 40
13.0
 40
13.0
 40
14.0
 40
14.0
 40
14.0
 40
15.0
 40
15.0
 40
15.0
 40
15.0
 10
174.4193614277
 20
33.6728298814
 30
0.0
 10
174.4193614277
 20
33.6728298814
 30
0.0
 10
174.1976967473
 20
33.6728298814
 30
0.0
 10
174.1976967473
 20
33.6728298814
 30
0.0
 10
174.1976967473
 20
33.6728298814
 30
0.0
 10
174.1976967473
 20
33.4755038259
 30
0.0
 10
174.1976967473
 20
33.4755038259
 30
0.0
 10
174.1976967473
 20
33.4755038259
 30
0.0
 10
174.1929860457
 20
33.4755038259
 30
0.0
 10
174.1929860457
 20
33.4755038259
 30
0.0
 10
174.101650776
 20
33.6183951075
 30
0.0
 10
173.9637319016
 20
33.7068516151
 30
0.0
 10
173.7910061766
 20
33.7068516151
 30
0.0
 10
173.4586400088
 20
33.7068516151
 30
0.0
 10
173.2495371993
 20
33.4189754068
 30
0.0
 10
173.2495371993
 20
33.1033584002
 30
0.0
 10
173.2495371993
 20
32.7736092889
 30
0.0
 10
173.4466015492
 20
32.4804989677
 30
0.0
 10
173.8014744024
 20
32.4804989677
 30
0.0
 10
173.9637319016
 20
32.4804989677
 30
0.0
 10
174.1037444211
 20
32.5689554753
 30
0.0
 10
174.1929860457
 20
32.6998082973
 30
0.0
 10
174.1929860457
 20
32.6998082973
 30
0.0
 10
174.1976967473
 20
32.6998082973
 30
0.0
 10
174.1976967473
 20
32.6998082973
 30
0.0
 10
174.1976967473
 20
32.6998082973
 30
0.0
 10
174.1976967473
 20
32.4804989677
 30
0.0
 10
174.1976967473
 20
32.4804989677
 30
0.0
 10
174.1976967473
 20
32.2439170656
 30
0.0
 10
174.1411683282
 20
32.0570592358
 30
0.0
 10
173.8679476359
 20
32.0570592358
 30
0.0
 10
173.6656491732
 20
32.0570592358
 30
0.0
 10
173.5230195972
 20
32.1753501868
 30
0.0
 10
173.5230195972
 20
32.3815742343
 30
0.0
 10
173.5230195972
 20
32.3815742343
 30
0.0
 10
173.3013549168
 20
32.3815742343
 30
0.0
 10
173.3013549168
 20
32.3815742343
 30
0.0
 10
173.306327324
 20
32.0570592358
 30
0.0
 10
173.5374134076
 20
31.8602565915
 30
0.0
 10
173.8577411158
 20
31.8602565915
 30
0.0
 10
174.3057811782
 20
31.8602565915
 30
0.0
 10
174.4193614277
 20
32.1455157434
 30
0.0
 10
174.4193614277
 20
32.5422614996
 30
0.0
 10
174.4193614277
 20
32.5422614996
 30
0.0
 10
174.4193614277
 20
33.6728298814
 30
0.0
 10
174.4193614277
 20
33.6728298814
 30
0.0
  0
SPLINE
  5
24C
330
220
100
AcDbEntity
  8
0
  6
Continuous
 62
     7
100
AcDbSpline
 70
     3
 71
     3
 72
    44
 73
    40
 74
     0
 42
0.000000001
 43
0.0000001
 40
0.0
 40
0.0
 40
0.0
 40
0.0
 40
1.0
 40
1.0
 40
1.0
 40
2.0
 40
2.0
 40
2.0
 40
3.0
 40
3.0
 40
3.0
 40
4.0
 40
4.0
 40
4.0
 40
5.0
 40
5.0
 40
5.0
 40
6.0
 40
6.0
 40
6.0
 40
7.0
 40
7.0
 40
7.0
 40
8.0
 40
8.0
 40
8.0
 40
9.0
 40
9.0
 40
9.0
 40
10.0
 40
10.0
 40
10.0
 40
11.0
 40
11.0
 40
11.0
 40
12.0
 40
12.0
 40
12.0
 40
13.0
 40
13.0
 40
13.0
 40
13.0
 10
175.9882867631
 20
34.6578899252
 30
0.0
 10
175.9882867631
 20
34.6578899252
 30
0.0
 10
175.9882867631
 20
32.5197548143
 30
0.0
 10
175.9882867631
 20
32.5197548143
 30
0.0
 10
175.9882867631
 20
32.5197548143
 30
0.0
 10
176.2096897379
 20
32.5197548143
 30
0.0
 10
176.2096897379
 20
32.5197548143
 30
0.0
 10
176.2096897379
 20
32.5197548143
 30
0.0
 10
176.2096897379
 20
33.0494470376
 30
0.0
 10
176.2096897379
 20
33.0494470376
 30
0.0
 10
176.2096897379
 20
33.259334964
 30
0.0
 10
176.2096897379
 20
33.5100489709
 30
0.0
 10
176.4949488897
 20
33.5100489709
 30
0.0
 10
176.721847683
 20
33.5100489709
 30
0.0
 10
176.7488033644
 20
33.3771025038
 30
0.0
 10
176.7488033644
 20
33.1808232708
 30
0.0
 10
176.7488033644
 20
33.1808232708
 30
0.0
 10
176.7488033644
 20
32.5197548143
 30
0.0
 10
176.7488033644
 20
32.5197548143
 30
0.0
 10
176.7488033644
 20
32.5197548143
 30
0.0
 10
176.9707297504
 20
32.5197548143
 30
0.0
 10
176.9707297504
 20
32.5197548143
 30
0.0
 10
176.9707297504
 20
32.5197548143
 30
0.0
 10
176.9707297504
 20
33.2069938352
 30
0.0
 10
176.9707297504
 20
33.2069938352
 30
0.0
 10
176.9707297504
 20
33.4875422855
 30
0.0
 10
176.8867222387
 20
33.7073750264
 30
0.0
 10
176.5616838289
 20
33.7073750264
 30
0.0
 10
176.4219330151
 20
33.7073750264
 30
0.0
 10
176.2837524351
 20
33.6409017929
 30
0.0
 10
176.2144004394
 20
33.5179001402
 30
0.0
 10
176.2144004394
 20
33.5179001402
 30
0.0
 10
176.2096897379
 20
33.5179001402
 30
0.0
 10
176.2096897379
 20
33.5179001402
 30
0.0
 10
176.2096897379
 20
33.5179001402
 30
0.0
 10
176.2096897379
 20
34.6578899252
 30
0.0
 10
176.2096897379
 20
34.6578899252
 30
0.0
 10
176.2096897379
 20
34.6578899252
 30
0.0
 10
175.9882867631
 20
34.6578899252
 30
0.0
 10
175.9882867631
 20
34.6578899252
 30
0.0
  0
LWPOLYLINE
  5
24D
330
220
100
AcDbEntity
  8
0
  6
Continuous
 62
     7
100
AcDbPolyline
 90
        2
 70
     0
 43
0.2
 10
178.8105204273
 20
33.4655590114
 10
179.0269509948
 20
33.4655590114
  0
LWPOLYLINE
  5
24E
330
220
100
AcDbEntity
  8
0
  6
Continuous
 62
     7
100
AcDbPolyline
 90
        2
 70
     0
 43
0.2
 10
179.0269509948
 20
33.4655590114
 10
179.0269509948
 20
33.6723064701
  0
LWPOLYLINE
  5
24F
330
220
100
AcDbEntity
  8
0
  6
Continuous
 62
     7
100
AcDbPolyline
 90
        2
 70
     0
 43
0.2
 10
179.0269509948
 20
33.6723064701
 10
178.8105204273
 20
33.6723064701
  0
LWPOLYLINE
  5
250
330
220
100
AcDbEntity
  8
0
  6
Continuous
 62
     7
100
AcDbPolyline
 90
        2
 70
     0
 43
0.2
 10
178.8105204273
 20
33.6723064701
 10
178.8105204273
 20
34.1130187745
  0
LWPOLYLINE
  5
251
330
220
100
AcDbEntity
  8
0
  6
Continuous
 62
     7
100
AcDbPolyline
 90
        2
 70
     0
 43
0.2
 10
178.8105204273
 20
34.1130187745
 10
178.5888557469
 20
34.1130187745
  0
LWPOLYLINE
  5
252
330
220
100
AcDbEntity
  8
0
  6
Continuous
 62
     7
100
AcDbPolyline
 90
        2
 70
     0
 43
0.2
 10
178.5888557469
 20
34.1130187745
 10
178.5888557469
 20
33.6723064701
  0
LWPOLYLINE
  5
253
330
220
100
AcDbEntity
  8
0
  6
Continuous
 62
     7
100
AcDbPolyline
 90
        2
 70
     0
 43
0.2
 10
178.5888557469
 20
33.6723064701
 10
178.468209445
 20
33.6723064701
  0
LWPOLYLINE
  5
254
330
220
100
AcDbEntity
  8
0
  6
Continuous
 62
     7
100
AcDbPolyline
 90
        2
 70
     0
 43
0.2
 10
178.468209445
 20
33.6723064701
 10
178.468209445
 20
33.4655590114
  0
LWPOLYLINE
  5
255
330
220
100
AcDbEntity
  8
0
  6
Continuous
 62
     7
100
AcDbPolyline
 90
        2
 70
     0
 43
0.2
 10
178.468209445
 20
33.4655590114
 10
178.5888557469
 20
33.4655590114
  0
LWPOLYLINE
  5
256
330
220
100
AcDbEntity
  8
0
  6
Continuous
 62
     7
100
AcDbPolyline
 90
        2
 70
     0
 43
0.2
 10
178.5888557469
 20
33.4655590114
 10
178.5888557469
 20
32.5197548143
  0
LWPOLYLINE
  5
257
330
220
100
AcDbEntity
  8
0
  6
Continuous
 62
     7
100
AcDbPolyline
 90
        2
 70
     0
 43
0.2
 10
178.5888557469
 20
32.5197548143
 10
178.8105204273
 20
32.5197548143
  0
LWPOLYLINE
  5
258
330
220
100
AcDbEntity
  8
0
  6
Continuous
 62
     7
100
AcDbPolyline
 90
        2
 70
     0
 43
0.2
 10
178.8105204273
 20
32.5197548143
 10
178.8105204273
 20
33.4655590114
  0
SPLINE
  5
259
330
220
100
AcDbEntity
  8
0
  6
Continuous
 62
     7
100
AcDbSpline
 70
     3
 71
     3
 72
    20
 73
    16
 74
     0
 42
0.000000001
 43
0.0000001
 40
0.0
 40
0.0
 40
0.0
 40
0.0
 40
1.0
 40
1.0
 40
1.0
 40
2.0
 40
2.0
 40
2.0
 40
3.0
 40
3.0
 40
3.0
 40
4.0
 40
4.0
 40
4.0
 40
5.0
 40
5.0
 40
5.0
 40
5.0
 10
166.5925307345
 20
42.8806812576
 30
0.0
 10
166.5925307345
 20
42.8806812576
 30
0.0
 10
168.908887389
 20
40.0511198354
 30
0.0
 10
168.908887389
 20
40.0511198354
 30
0.0
 10
168.2572403356
 20
39.3989493707
 30
0.0
 10
167.4803671316
 20
38.6630331
 30
0.0
 10
166.5091774869
 20
38.6630331
 30
0.0
 10
165.5106396025
 20
38.6630331
 30
0.0
 10
164.5673216089
 20
39.5926115472
 30
0.0
 10
164.5673216089
 20
40.5918036958
 30
0.0
 10
164.5673216089
 20
41.5909958443
 30
0.0
 10
165.746174682
 20
42.297601083
 30
0.0
 10
166.4676971424
 20
42.7974588629
 30
0.0
 10
166.4676971424
 20
42.7974588629
 30
0.0
 10
166.5925307345
 20
42.8806812576
 30
0.0
 10
166.5925307345
 20
42.8806812576
 30
0.0
  0
SPLINE
  5
25A
330
220
100
AcDbEntity
  8
0
  6
Continuous
 62
     7
100
AcDbSpline
 70
     3
 71
     3
 72
    23
 73
    19
 74
     0
 42
0.000000001
 43
0.0000001
 40
0.0
 40
0.0
 40
0.0
 40
0.0
 40
1.0
 40
1.0
 40
1.0
 40
2.0
 40
2.0
 40
2.0
 40
3.0
 40
3.0
 40
3.0
 40
4.0
 40
4.0
 40
4.0
 40
5.0
 40
5.0
 40
5.0
 40
6.0
 40
6.0
 40
6.0
 40
6.0
 10
166.8699387171
 20
44.5184351774
 30
0.0
 10
166.8699387171
 20
44.5184351774
 30
0.0
 10
166.5234404445
 20
44.9617645382
 30
0.0
 10
166.5234404445
 20
44.9617645382
 30
0.0
 10
166.2176373996
 20
45.3498740082
 30
0.0
 10
165.8987490725
 20
45.7383760366
 30
0.0
 10
165.8987490725
 20
46.2653203507
 30
0.0
 10
165.8987490725
 20
46.9314920673
 30
0.0
 10
166.4400871969
 20
47.3752139866
 30
0.0
 10
167.0639934521
 20
47.3752139866
 30
0.0
 10
167.7577751141
 20
47.3752139866
 30
0.0
 10
168.2849811339
 20
46.9729724119
 30
0.0
 10
168.2849811339
 20
46.2379721109
 30
0.0
 10
168.2849811339
 20
45.4747076003
 30
0.0
 10
167.5637203792
 20
45.0445943745
 30
0.0
 10
167.0366452123
 20
44.6288749591
 30
0.0
 10
167.0366452123
 20
44.6288749591
 30
0.0
 10
166.8699387171
 20
44.5184351774
 30
0.0
 10
166.8699387171
 20
44.5184351774
 30
0.0
  0
SPLINE
  5
25B
330
220
100
AcDbEntity
  8
0
  6
Continuous
 62
     7
100
AcDbSpline
 70
     3
 71
     3
 72
    50
 73
    46
 74
     0
 42
0.000000001
 43
0.0000001
 40
0.0
 40
0.0
 40
0.0
 40
0.0
 40
1.0
 40
1.0
 40
1.0
 40
2.0
 40
2.0
 40
2.0
 40
3.0
 40
3.0
 40
3.0
 40
4.0
 40
4.0
 40
4.0
 40
5.0
 40
5.0
 40
5.0
 40
6.0
 40
6.0
 40
6.0
 40
7.0
 40
7.0
 40
7.0
 40
8.0
 40
8.0
 40
8.0
 40
9.0
 40
9.0
 40
9.0
 40
10.0
 40
10.0
 40
10.0
 40
11.0
 40
11.0
 40
11.0
 40
12.0
 40
12.0
 40
12.0
 40
13.0
 40
13.0
 40
13.0
 40
14.0
 40
14.0
 40
14.0
 40
15.0
 40
15.0
 40
15.0
 40
15.0
 10
170.82352588
 20
37.7198459592
 30
0.0
 10
170.82352588
 20
37.7198459592
 30
0.0
 10
172.4327538846
 20
37.7198459592
 30
0.0
 10
172.4327538846
 20
37.7198459592
 30
0.0
 10
172.4327538846
 20
37.7198459592
 30
0.0
 10
170.5597265909
 20
40.0369877306
 30
0.0
 10
170.5597265909
 20
40.0369877306
 30
0.0
 10
170.5597265909
 20
40.0369877306
 30
0.0
 10
171.8360650164
 20
41.5344674252
 30
0.0
 10
171.8360650164
 20
41.5344674252
 30
0.0
 10
171.8360650164
 20
41.5344674252
 30
0.0
 10
171.0038410687
 20
42.3954789938
 30
0.0
 10
171.0038410687
 20
42.3954789938
 30
0.0
 10
171.0038410687
 20
42.3954789938
 30
0.0
 10
169.7832459454
 20
40.9801748714
 30
0.0
 10
169.7832459454
 20
40.9801748714
 30
0.0
 10
169.7832459454
 20
40.9801748714
 30
0.0
 10
167.6053315766
 20
43.6155507058
 30
0.0
 10
167.6053315766
 20
43.6155507058
 30
0.0
 10
168.478905016
 20
44.2535890657
 30
0.0
 10
169.5055762572
 20
45.0445943745
 30
0.0
 10
169.5055762572
 20
46.2234474476
 30
0.0
 10
169.5055762572
 20
47.5971403726
 30
0.0
 10
168.3676801173
 20
48.4016235221
 30
0.0
 10
167.0923885144
 20
48.4016235221
 30
0.0
 10
165.7189572951
 20
48.4016235221
 30
0.0
 10
164.6780230963
 20
47.5553983224
 30
0.0
 10
164.6780230963
 20
46.1127459602
 30
0.0
 10
164.6780230963
 20
45.2251712688
 30
0.0
 10
165.2333624727
 20
44.4482980648
 30
0.0
 10
165.8295279296
 20
43.8238683984
 30
0.0
 10
165.8295279296
 20
43.8238683984
 30
0.0
 10
165.1776191706
 20
43.352274828
 30
0.0
 10
165.1776191706
 20
43.352274828
 30
0.0
 10
164.1790812862
 20
42.6310140733
 30
0.0
 10
163.3462030743
 20
41.9097533186
 30
0.0
 10
163.3462030743
 20
40.5781950023
 30
0.0
 10
163.3462030743
 20
38.7745197043
 30
0.0
 10
164.8032492469
 20
37.4979195732
 30
0.0
 10
166.5507886843
 20
37.4979195732
 30
0.0
 10
167.7856467652
 20
37.4979195732
 30
0.0
 10
168.8950169899
 20
38.2060950457
 30
0.0
 10
169.6858914458
 20
39.1346266704
 30
0.0
 10
169.6858914458
 20
39.1346266704
 30
0.0
 10
170.82352588
 20
37.7198459592
 30
0.0
 10
170.82352588
 20
37.7198459592
 30
0.0
  0
LINE
  5
25C
330
220
100
AcDbEntity
  8
0
  6
Continuous
 62
     7
100
AcDbLine
 10
156.626387255
 20
35.6937208639
 30
0.0
 11
179.0402979827
 21
35.6937208639
 31
0.0
  0
LINE
  5
25D
330
220
100
AcDbEntity
  8
0
  6
Continuous
 62
     7
100
AcDbLine
 10
179.0402979827
 20
35.6937208639
 30
0.0
 11
179.0402979827
 21
58.1076315915
 31
0.0
  0
LINE
  5
25E
330
220
100
AcDbEntity
  8
0
  6
Continuous
 62
     7
100
AcDbLine
 10
179.0402979827
 20
58.1076315915
 30
0.0
 11
156.626387255
 21
58.1076315915
 31
0.0
  0
LINE
  5
25F
330
220
100
AcDbEntity
  8
0
  6
Continuous
 62
     7
100
AcDbLine
 10
156.626387255
 20
58.1076315915
 30
0.0
 11
156.626387255
 21
35.6937208639
 31
0.0
  0
ENDBLK
  5
260
330
220
100
AcDbEntity
  8
0
  6
ByBlock
 62
     0
100
AcDbBlockEnd
  0
BLOCK
  5
261
330
221
100
AcDbEntity
  8
0
100
AcDbBlockBegin
  2
PROIEZIONE_EU_BL0
 70
     0
 10
169.0072301476
 20
70.6089440915
 30
0.0
  3
PROIEZIONE_EU_BL0
  1

  0
LWPOLYLINE
  5
262
330
221
100
AcDbEntity
  8
DEFAULT_1
  6
CENTER
 62
     7
100
AcDbPolyline
 90
        2
 70
     0
 43
0.25
 10
175.1338508093
 20
75.6086382234
 10
175.1338917917
 20
65.6092499597
  0
LWPOLYLINE
  5
263
330
221
100
AcDbEntity
  8
DEFAULT_1
  6
CENTER
 62
     7
100
AcDbPolyline
 90
        2
 70
     0
 43
0.25
 10
181.1338806344
 20
70.6092152267
 10
156.8805796609
 20
70.6089445663
  0
LWPOLYLINE
  5
264
330
221
100
AcDbEntity
  8
0
  6
Continuous
 62
     7
100
AcDbPolyline
 90
        2
 70
     1
 43
0.25
 10
171.5867406335
 20
70.5903963373
 42
1.0
 10
178.6930697321
 20
70.5903963373
 42
1.0
  0
LWPOLYLINE
  5
265
330
221
100
AcDbEntity
  8
0
  6
Continuous
 62
     7
100
AcDbPolyline
 90
        2
 70
     1
 43
0.25
 10
173.1364844619
 20
70.6082943819
 42
1.0
 10
177.1482362119
 20
70.6082943819
 42
1.0
  0
LWPOLYLINE
  5
266
330
221
100
AcDbEntity
  8
0
  6
Continuous
 62
     7
100
AcDbPolyline
 90
        2
 70
     0
 43
0.25
 10
169.1338784284
 20
74.1841475868
 10
169.1338780738
 20
67.0839446785
  0
LWPOLYLINE
  5
267
330
221
100
AcDbEntity
  8
0
  6
Continuous
 62
     7
100
AcDbPolyline
 90
        2
 70
     0
 43
0.25
 10
169.1339065102
 20
67.0839162421
 10
159.139349239
 20
68.6040096549
  0
LWPOLYLINE
  5
268
330
221
100
AcDbEntity
  8
0
  6
Continuous
 62
     7
100
AcDbPolyline
 90
        2
 70
     0
 43
0.25
 10
159.1370392534
 20
68.6033321134
 10
159.1343723493
 20
72.6089707248
  0
LWPOLYLINE
  5
269
330
221
100
AcDbEntity
  8
0
  6
Continuous
 62
     7
100
AcDbPolyline
 90
        2
 70
     0
 43
0.25
 10
159.1343640732
 20
72.6089624487
 10
169.1341073105
 20
74.1841196688
  0
ENDBLK
  5
26A
330
221
100
AcDbEntity
  8
0
  6
ByBlock
 62
     0
100
AcDbBlockEnd
  0
ENDSEC
  0
SECTION
  2
ENTITIES
  0
LWPOLYLINE
  5
27F
330
1B
100
AcDbEntity
 67
     1
  8
0
  6
Continuous
 62
     7
100
AcDbPolyline
 90
        2
 70
     0
 43
0.5
 10
284.0
 20
13.0
 10
284.0
 20
197.0
  0
LWPOLYLINE
  5
280
330
1B
100
AcDbEntity
 67
     1
  8
0
  6
Continuous
 62
     7
100
AcDbPolyline
 90
        2
 70
     0
 43
0.5
 10
13.0
 20
13.0
 10
13.0
 20
197.0
  0
LWPOLYLINE
  5
281
330
1B
100
AcDbEntity
 67
     1
  8
0
  6
Continuous
 62
     7
100
AcDbPolyline
 90
        2
 70
     0
 43
0.5
 10
13.0
 20
13.0
 10
284.0
 20
13.0
  0
LWPOLYLINE
  5
282
330
1B
100
AcDbEntity
 67
     1
  8
0
  6
Continuous
 62
     7
100
AcDbPolyline
 90
        2
 70
     0
 43
0.1
 10
148.5
 20
197.0
 10
148.5
 20
200.0
  0
LWPOLYLINE
  5
283
330
1B
100
AcDbEntity
 67
     1
  8
0
  6
Continuous
 62
     7
100
AcDbPolyline
 90
        2
 70
     0
 43
0.1
 10
284.0
 20
105.0
 10
287.0
 20
105.0
  0
LWPOLYLINE
  5
284
330
1B
100
AcDbEntity
 67
     1
  8
0
  6
Continuous
 62
     7
100
AcDbPolyline
 90
        2
 70
     0
 43
0.1
 10
13.0
 20
105.0
 10
10.0
 20
105.0
  0
LWPOLYLINE
  5
285
330
1B
100
AcDbEntity
 67
     1
  8
0
  6
Continuous
 62
     7
100
AcDbPolyline
 90
        2
 70
     0
 43
0.5
 10
13.0
 20
197.0
 10
284.0
 20
197.0
  0
LWPOLYLINE
  5
286
330
1B
100
AcDbEntity
 67
     1
  8
0
  6
Continuous
 62
     7
100
AcDbPolyline
 90
        2
 70
     0
 43
0.1
 10
10.0
 20
200.0
 10
287.0
 20
200.0
  0
LWPOLYLINE
  5
287
330
1B
100
AcDbEntity
 67
     1
  8
0
  6
Continuous
 62
     7
100
AcDbPolyline
 90
        2
 70
     0
 43
0.1
 10
10.0
 20
10.0
 10
10.0
 20
200.0
  0
LWPOLYLINE
  5
288
330
1B
100
AcDbEntity
 67
     1
  8
0
  6
Continuous
 62
     7
100
AcDbPolyline
 90
        2
 70
     0
 43
0.1
 10
287.0
 20
10.0
 10
287.0
 20
200.0
  0
LWPOLYLINE
  5
289
330
1B
100
AcDbEntity
 67
     1
  8
0
  6
Continuous
 62
     7
100
AcDbPolyline
 90
        2
 70
     0
 43
0.1
 10
10.0
 20
10.0
 10
287.0
 20
10.0
  0
LWPOLYLINE
  5
28A
330
1B
100
AcDbEntity
 67
     1
  8
0
  6
Continuous
 62
     7
100
AcDbPolyline
 90
        2
 70
     0
 43
0.1
 10
148.5
 20
13.0
 10
148.5
 20
10.0
  0
VIEWPORT
  5
28B
330
1B
100
AcDbEntity
 67
     1
  8
0
100
AcDbViewport
 10
0.0
 20
0.0
 30
0.0
 40
316.8826459143969
 41
224.081299610895
 68
     1
 69
     1
 12
159.7369649805447
 22
105.0
 13
0.0
 23
0.0
 14
1.0
 24
1.0
 15
0.0
 25
0.0
 16
0.0
 26
0.0
 36
1.0
 17
0.0
 27
0.0
 37
0.0
 42
50.0
 43
0.0
 44
0.0
 45
224.081299610895
 50
0.0
 51
0.0
 72
   100
 90
   557216
  1

281
     0
 71
     1
 74
     0
110
0.0
120
0.0
130
0.0
111
1.0
121
0.0
131
0.0
112
0.0
122
1.0
132
0.0
 79
     0
146
0.0
170
     0
 61
     5
348
35C
292
     1
282
     1
141
0.0
142
0.0
 63
   256
  0
ARC
  5
28C
330
1B
100
AcDbEntity
 67
     1
  8
7_ALL_FEATURES
  6
Continuous
 62
     7
100
AcDbCircle
 10
80.5075951958
 20
62.1151933007
 30
0.0
 40
15.0
100
AcDbArc
 50
0.0
 51
180.0
  0
LINE
  5
28D
330
1B
100
AcDbEntity
 67
     1
  8
02___PRT_ALL_AXES
  6
Continuous
 62
     7
100
AcDbLine
 10
65.7575951958
 20
59.7303452972
 30
0.0
 11
65.7575951958
 21
64.5000413043
 31
0.0
  0
LINE
  5
28E
330
1B
100
AcDbEntity
 67
     1
  8
02___PRT_ALL_AXES
  6
Continuous
 62
     7
100
AcDbLine
 10
65.7575951958
 20
64.5000413043
 30
0.0
 11
65.7183524573
 21
64.5000413043
 31
0.0
  0
LINE
  5
28F
330
1B
100
AcDbEntity
 67
     1
  8
02___PRT_ALL_AXES
  6
Continuous
 62
     7
100
AcDbLine
 10
65.7183524573
 20
64.5000413043
 30
0.0
 11
65.6983919762
 21
64.5000413043
 31
0.0
  0
LINE
  5
290
330
1B
100
AcDbEntity
 67
     1
  8
02___PRT_ALL_AXES
  6
Continuous
 62
     7
100
AcDbLine
 10
65.7575951958
 20
59.7303452972
 30
0.0
 11
65.7183473623
 21
59.7303452972
 31
0.0
  0
LINE
  5
291
330
1B
100
AcDbEntity
 67
     1
  8
02___PRT_ALL_AXES
  6
Continuous
 62
     7
100
AcDbLine
 10
65.7183473623
 20
59.7303452972
 30
0.0
 11
65.6983919762
 21
59.7303452972
 31
0.0
  0
ARC
  5
292
330
1B
100
AcDbEntity
 67
     1
  8
7_ALL_FEATURES
  6
Continuous
 62
     7
100
AcDbCircle
 10
80.5075951958
 20
62.1151933007
 30
0.0
 40
13.5
100
AcDbArc
 50
0.0
 51
180.0
  0
ARC
  5
293
330
1B
100
AcDbEntity
 67
     1
  8
7_ALL_FEATURES
  6
Continuous
 62
     7
100
AcDbCircle
 10
80.5075951958
 20
62.1151933007
 30
0.0
 40
16.5
100
AcDbArc
 50
0.0
 51
180.0
  0
ARC
  5
294
330
1B
100
AcDbEntity
 67
     1
  8
7_ALL_FEATURES
  6
Continuous
 62
     7
100
AcDbCircle
 10
80.5075951958
 20
62.1151933007
 30
0.0
 40
15.0
100
AcDbArc
 50
180.0
 51
360.0
  0
ARC
  5
295
330
1B
100
AcDbEntity
 67
     1
  8
7_ALL_FEATURES
  6
Continuous
 62
     7
100
AcDbCircle
 10
80.5075951958
 20
62.1151933007
 30
0.0
 40
13.5
100
AcDbArc
 50
180.0
 51
360.0
  0
ARC
  5
296
330
1B
100
AcDbEntity
 67
     1
  8
7_ALL_FEATURES
  6
Continuous
 62
     7
100
AcDbCircle
 10
80.5075951958
 20
62.1151933007
 30
0.0
 40
16.5
100
AcDbArc
 50
180.0
 51
360.0
  0
LINE
  5
297
330
1B
100
AcDbEntity
 67
     1
  8
7_ALL_FEATURES
  6
Continuous
 62
     9
100
AcDbLine
 10
97.00763209
 20
62.1151933397
 30
0.0
 11
96.6401462517
 21
62.1151933393
 31
0.0
  0
ARC
  5
298
330
1B
100
AcDbEntity
 67
     1
  8
7_ALL_FEATURES
  6
Continuous
 62
     7
100
AcDbCircle
 10
80.5075951958
 20
62.1151933007
 30
0.0
 40
13.8
100
AcDbArc
 50
0.0
 51
180.0
  0
SPLINE
  5
299
330
1B
100
AcDbEntity
 67
     1
  8
7_ALL_FEATURES
  6
Continuous
 62
     7
100
AcDbSpline
 70
     0
 71
     3
 72
    25
 73
    21
 74
     0
 42
0.000000001
 43
0.0000001
 40
0.0
 40
0.0
 40
0.0
 40
0.0
 40
0.0603425359
 40
0.0910368224
 40
0.1219708006
 40
0.1841681324
 40
0.2465981807
 40
0.3094648057
 40
0.3727697815
 40
0.436312403
 40
0.4999973545
 40
0.5636823371
 40
0.6272249182
 40
0.6905299525
 40
0.7533969667
 40
0.8158268253
 40
0.8780242312
 40
0.9089588835
 40
0.9396542359
 40
1.0
 40
1.0
 40
1.0
 40
1.0
 10
64.2400371349
 20
62.1151932377
 30
0.0
 10
64.2391962799
 20
63.1373815637
 30
0.0
 10
64.3876846818
 20
64.6846392
 30
0.0
 10
64.8745769289
 20
66.6949384176
 30
0.0
 10
65.5639777339
 20
68.6791399753
 30
0.0
 10
66.7905514912
 20
71.0319783733
 30
0.0
 10
68.7916599313
 20
73.5241178284
 30
0.0
 10
71.2564309571
 20
75.5896288619
 30
0.0
 10
74.0965603125
 20
77.1383936819
 30
0.0
 10
77.2005883124
 20
78.0984139606
 30
0.0
 10
80.4399749234
 20
78.4236907246
 30
0.0
 10
83.6793663954
 20
78.0984680206
 30
0.0
 10
86.7834107832
 20
77.1384981716
 30
0.0
 10
89.6235723474
 20
75.5897779194
 30
0.0
 10
92.088379431
 20
73.5243024612
 30
0.0
 10
94.0895294005
 20
71.0321907278
 30
0.0
 10
95.3161449669
 20
68.6793631742
 30
0.0
 10
96.005584046
 20
66.6951423514
 30
0.0
 10
96.4925215886
 20
64.6847667357
 30
0.0
 10
96.6410174377
 20
63.1374362545
 30
0.0
 10
96.640188642
 20
62.1151932335
 30
0.0
  0
LINE
  5
29A
330
1B
100
AcDbEntity
 67
     1
  8
7_ALL_FEATURES
  6
Continuous
 62
     9
100
AcDbLine
 10
95.5076421979
 20
62.1151932646
 30
0.0
 11
95.7401580383
 21
62.1151932635
 31
0.0
  0
SPLINE
  5
29B
330
1B
100
AcDbEntity
 67
     1
  8
7_ALL_FEATURES
  6
Continuous
 62
     7
100
AcDbSpline
 70
     0
 71
     3
 72
    25
 73
    21
 74
     0
 42
0.000000001
 43
0.0000001
 40
0.0
 40
0.0
 40
0.0
 40
0.0
 40
0.0603425359
 40
0.0910368224
 40
0.1219708006
 40
0.1841681324
 40
0.2465981807
 40
0.3094648057
 40
0.3727697815
 40
0.436312403
 40
0.4999973545
 40
0.5636823371
 40
0.6272249182
 40
0.6905299525
 40
0.7533969667
 40
0.8158268253
 40
0.8780242312
 40
0.9089588835
 40
0.9396542359
 40
1.0
 40
1.0
 40
1.0
 40
1.0
 10
96.6401826241
 20
62.1151933637
 30
0.0
 10
96.6410234791
 20
61.0930050377
 30
0.0
 10
96.4925350772
 20
59.5457474014
 30
0.0
 10
96.0056428302
 20
57.5354481839
 30
0.0
 10
95.3162420252
 20
55.5512466261
 30
0.0
 10
94.0896682678
 20
53.1984082281
 30
0.0
 10
92.0885598277
 20
50.7062687731
 30
0.0
 10
89.6237888019
 20
48.6407577396
 30
0.0
 10
86.7836594465
 20
47.0919929195
 30
0.0
 10
83.6796314466
 20
46.1319726408
 30
0.0
 10
80.4402448357
 20
45.8066958769
 30
0.0
 10
77.2008533636
 20
46.1319185808
 30
0.0
 10
74.0968089758
 20
47.0918884298
 30
0.0
 10
71.2566474116
 20
48.640608682
 30
0.0
 10
68.7918403281
 20
50.7060841403
 30
0.0
 10
66.7906903586
 20
53.1981958736
 30
0.0
 10
65.5640747921
 20
55.5510234273
 30
0.0
 10
64.8746357131
 20
57.53524425
 30
0.0
 10
64.3876981704
 20
59.5456198658
 30
0.0
 10
64.2392023213
 20
61.0929503469
 30
0.0
 10
64.2400311171
 20
62.115193368
 30
0.0
  0
ARC
  5
29C
330
1B
100
AcDbEntity
 67
     1
  8
7_ALL_FEATURES
  6
Continuous
 62
     7
100
AcDbCircle
 10
80.5075951958
 20
62.1151933007
 30
0.0
 40
13.8
100
AcDbArc
 50
180.0
 51
360.0
  0
SPLINE
  5
29D
330
1B
100
AcDbEntity
 67
     1
  8
7_ALL_FEATURES
  6
Continuous
 62
     7
100
AcDbSpline
 70
     0
 71
     3
 72
    25
 73
    21
 74
     0
 42
0.000000001
 43
0.0000001
 40
0.0
 40
0.0
 40
0.0
 40
0.0
 40
0.0604519565
 40
0.0912489486
 40
0.122285687
 40
0.1845896431
 40
0.2469293837
 40
0.3096827075
 40
0.372910582
 40
0.4363759697
 40
0.5000026834
 40
0.5636293272
 40
0.6270947902
 40
0.690322659
 40
0.7530754982
 40
0.8154158354
 40
0.8777202478
 40
0.9087563185
 40
0.9395520851
 40
1.0
 40
1.0
 40
1.0
 40
1.0
 10
95.7402061978
 20
62.1151932048
 30
0.0
 10
95.7411207186
 20
63.0823455001
 30
0.0
 10
95.6000741074
 20
64.5470574681
 30
0.0
 10
95.1381682744
 20
66.4503740662
 30
0.0
 10
94.4838378199
 20
68.328541118
 30
0.0
 10
93.3219280817
 20
70.5510891552
 30
0.0
 10
91.4302194806
 20
72.90127576
 30
0.0
 10
89.1042007475
 20
74.8470643002
 30
0.0
 10
86.424858428
 20
76.306198659
 30
0.0
 10
83.4962984672
 20
77.2109178578
 30
0.0
 10
80.4399813279
 20
77.5174735208
 30
0.0
 10
77.3836683042
 20
77.2108662829
 30
0.0
 10
74.4551231246
 20
76.3060988736
 30
0.0
 10
71.7758117532
 20
74.8469215789
 30
0.0
 10
69.4498228871
 20
72.9010953677
 30
0.0
 10
67.558146718
 20
70.5508702274
 30
0.0
 10
66.3962740141
 20
68.3282957255
 30
0.0
 10
65.741983419
 20
66.4501391033
 30
0.0
 10
65.2801299111
 20
64.5469084348
 30
0.0
 10
65.1390915856
 20
63.0822808311
 30
0.0
 10
65.1400208586
 20
62.1151932106
 30
0.0
  0
LINE
  5
29E
330
1B
100
AcDbEntity
 67
     1
  8
7_ALL_FEATURES
  6
Continuous
 62
     9
100
AcDbLine
 10
64.0075579986
 20
62.1151932756
 30
0.0
 11
64.2400735074
 21
62.1151932763
 31
0.0
  0
SPLINE
  5
29F
330
1B
100
AcDbEntity
 67
     1
  8
7_ALL_FEATURES
  6
Continuous
 62
     7
100
AcDbSpline
 70
     0
 71
     3
 72
    25
 73
    21
 74
     0
 42
0.000000001
 43
0.0000001
 40
0.0
 40
0.0
 40
0.0
 40
0.0
 40
0.0604519565
 40
0.0912489486
 40
0.122285687
 40
0.1845896431
 40
0.2469293837
 40
0.3096827075
 40
0.372910582
 40
0.4363759697
 40
0.5000026834
 40
0.5636293272
 40
0.6270947902
 40
0.690322659
 40
0.7530754982
 40
0.8154158354
 40
0.8777202478
 40
0.9087563185
 40
0.9395520851
 40
1.0
 40
1.0
 40
1.0
 40
1.0
 10
65.1400135612
 20
62.1151933966
 30
0.0
 10
65.1390990404
 20
61.1480411014
 30
0.0
 10
65.2801456516
 20
59.6833291334
 30
0.0
 10
65.7420514846
 20
57.7800125352
 30
0.0
 10
66.3963819391
 20
55.9018454835
 30
0.0
 10
67.5582916773
 20
53.6792974463
 30
0.0
 10
69.4500002784
 20
51.3291108415
 30
0.0
 10
71.7760190115
 20
49.3833223012
 30
0.0
 10
74.455361331
 20
47.9241879425
 30
0.0
 10
77.3839212918
 20
47.0194687437
 30
0.0
 10
80.4402384311
 20
46.7129130806
 30
0.0
 10
83.4965514549
 20
47.0195203185
 30
0.0
 10
86.4250966344
 20
47.9242877278
 30
0.0
 10
89.1044080059
 20
49.3834650226
 30
0.0
 10
91.4303968719
 20
51.3292912338
 30
0.0
 10
93.322073041
 20
53.679516374
 30
0.0
 10
94.4839457449
 20
55.9020908759
 30
0.0
 10
95.1382363401
 20
57.7802474982
 30
0.0
 10
95.6000898479
 20
59.6834781667
 30
0.0
 10
95.7411281735
 20
61.1481057703
 30
0.0
 10
95.7401989004
 20
62.1151933908
 30
0.0
  0
LINE
  5
2A0
330
1B
100
AcDbEntity
 67
     1
  8
7_ALL_FEATURES
  6
Continuous
 62
     9
100
AcDbLine
 10
65.5075477688
 20
62.1151933588
 30
0.0
 11
65.1400617206
 21
62.1151933595
 31
0.0
  0
LINE
  5
2A1
330
1B
100
AcDbEntity
 67
     1
  8
0
  6
Continuous
 62
     2
100
AcDbLine
 10
64.0075951958
 20
135.085781665
 30
0.0
 11
64.0075993247
 21
135.0858163221
 31
0.0
  0
SPLINE
  5
2A2
330
1B
100
AcDbEntity
 67
     1
  8
0
  6
Continuous
 62
     2
100
AcDbSpline
 70
     0
 71
     3
 72
    22
 73
    18
 74
     0
 42
0.000000001
 43
0.0000001
 40
0.0
 40
0.0
 40
0.0
 40
0.0
 40
0.0666666667
 40
0.1333333333
 40
0.2
 40
0.2666666667
 40
0.3333333333
 40
0.4
 40
0.4666666667
 40
0.5333333333
 40
0.6
 40
0.6666666667
 40
0.7333333333
 40
0.8
 40
0.8666666667
 40
0.9333333333
 40
1.0
 40
1.0
 40
1.0
 40
1.0
 10
64.0075993247
 20
135.0858163221
 30
0.0
 10
64.0076985317
 20
135.0866347942
 30
0.0
 10
64.0114674711
 20
135.1174317106
 30
0.0
 10
64.0267922548
 20
135.2482891854
 30
0.0
 10
64.0493201424
 20
135.4595751629
 30
0.0
 10
64.0749338797
 20
135.7387247981
 30
0.0
 10
64.0996863063
 20
136.0793223114
 30
0.0
 10
64.1189299784
 20
136.4598640177
 30
0.0
 10
64.1296733015
 20
136.8740439846
 30
0.0
 10
64.1297456726
 20
137.2917440326
 30
0.0
 10
64.1191536014
 20
137.7059123485
 30
0.0
 10
64.0999881681
 20
138.087489376
 30
0.0
 10
64.0752007182
 20
138.4297010806
 30
0.0
 10
64.0495005546
 20
138.7102182914
 30
0.0
 10
64.0268848699
 20
138.9224671359
 30
0.0
 10
64.011488887
 20
139.0539580204
 30
0.0
 10
64.0076991158
 20
139.0849237138
 30
0.0
 10
64.007599349
 20
139.0857468038
 30
0.0
  0
LINE
  5
2A3
330
1B
100
AcDbEntity
 67
     1
  8
0
  6
Continuous
 62
     2
100
AcDbLine
 10
64.007599349
 20
139.0857468038
 30
0.0
 11
64.0075951958
 21
139.085781665
 31
0.0
  0
LINE
  5
2A4
330
1B
100
AcDbEntity
 67
     1
  8
0
  6
Continuous
 62
     2
100
AcDbLine
 10
64.0075951958
 20
139.085781665
 30
0.0
 11
64.0075991881
 21
139.0857481548
 31
0.0
  0
LINE
  5
2A5
330
1B
100
AcDbEntity
 67
     1
  8
0
  6
Continuous
 62
     2
100
AcDbLine
 10
64.0075993512
 20
135.0858165445
 30
0.0
 11
64.0075951958
 21
135.085781665
 31
0.0
  0
LINE
  5
2A6
330
1B
100
AcDbEntity
 67
     1
  8
7_ALL_FEATURES
  6
Continuous
 62
     7
100
AcDbLine
 10
64.3075951958
 20
133.585781665
 30
0.0
 11
65.2075951958
 21
133.585781665
 31
0.0
  0
LINE
  5
2A7
330
1B
100
AcDbEntity
 67
     1
  8
7_ALL_FEATURES
  6
Continuous
 62
     7
100
AcDbLine
 10
65.2075951958
 20
133.585781665
 30
0.0
 11
95.8075951958
 21
133.585781665
 31
0.0
  0
LINE
  5
2A8
330
1B
100
AcDbEntity
 67
     1
  8
7_ALL_FEATURES
  6
Continuous
 62
     7
100
AcDbLine
 10
95.8075951958
 20
133.585781665
 30
0.0
 11
96.7075951958
 21
133.585781665
 31
0.0
  0
LINE
  5
2A9
330
1B
100
AcDbEntity
 67
     1
  8
7_ALL_FEATURES
  6
Continuous
 62
     7
100
AcDbLine
 10
64.0075951958
 20
157.2285005828
 30
0.0
 11
64.0076004996
 21
157.2284967389
 31
0.0
  0
LINE
  5
2AA
330
1B
100
AcDbEntity
 67
     1
  8
7_ALL_FEATURES
  6
Continuous
 62
     7
100
AcDbLine
 10
97.0075900419
 20
164.7087214724
 30
0.0
 11
96.6401938324
 21
165.0009603768
 31
0.0
  0
LINE
  5
2AB
330
1B
100
AcDbEntity
 67
     1
  8
7_ALL_FEATURES
  6
Continuous
 62
     7
100
AcDbLine
 10
64.2400317926
 20
157.5207935745
 30
0.0
 11
64.0076004996
 21
157.2285892087
 31
0.0
  0
LINE
  5
2AC
330
1B
100
AcDbEntity
 67
     1
  8
7_ALL_FEATURES
  6
Continuous
 62
     7
100
AcDbLine
 10
64.0076003497
 20
157.2284967593
 30
0.0
 11
64.0075951958
 21
157.2285005828
 31
0.0
  0
LINE
  5
2AD
330
1B
100
AcDbEntity
 67
     1
  8
7_ALL_FEATURES
  6
Continuous
 62
     7
100
AcDbLine
 10
64.2400940433
 20
157.5208079462
 30
0.0
 11
64.2401098795
 21
157.5208116023
 31
0.0
  0
LINE
  5
2AE
330
1B
100
AcDbEntity
 67
     1
  8
7_ALL_FEATURES
  6
Continuous
 62
     7
100
AcDbLine
 10
64.2400259266
 20
157.5207922202
 30
0.0
 11
64.0076003497
 21
157.2285951771
 31
0.0
  0
LINE
  5
2AF
330
1B
100
AcDbEntity
 67
     1
  8
7_ALL_FEATURES
  6
Continuous
 62
     7
100
AcDbLine
 10
96.6401258599
 20
165.0009446841
 30
0.0
 11
95.7401298455
 21
164.7931642322
 31
0.0
  0
LINE
  5
2B0
330
1B
100
AcDbEntity
 67
     1
  8
7_ALL_FEATURES
  6
Continuous
 62
     7
100
AcDbLine
 10
95.7401298455
 20
164.7931642322
 30
0.0
 11
65.1400897002
 21
157.7285883155
 31
0.0
  0
LINE
  5
2B1
330
1B
100
AcDbEntity
 67
     1
  8
7_ALL_FEATURES
  6
Continuous
 62
     7
100
AcDbLine
 10
65.1400897002
 20
157.7285883155
 30
0.0
 11
64.2400940433
 21
157.5208079462
 31
0.0
  0
LINE
  5
2B2
330
1B
100
AcDbEntity
 67
     1
  8
7_ALL_FEATURES
  6
Continuous
 62
     7
100
AcDbLine
 10
97.007589892
 20
164.708715485
 30
0.0
 11
96.6401879664
 21
165.0009590225
 31
0.0
  0
ARC
  5
2B3
330
1B
100
AcDbEntity
 67
     1
  8
02___PRT_ALL_AXES
  6
Continuous
 62
     7
100
AcDbCircle
 10
47.4665240218
 20
144.3181370271
 30
0.0
 40
16.7315740475
100
AcDbArc
 50
0.0604224961
 51
8.6543195225
  0
LINE
  5
2B4
330
1B
100
AcDbEntity
 67
     1
  8
7_ALL_FEATURES
  6
Continuous
 62
     7
100
AcDbLine
 10
97.0075951958
 20
164.7086299753
 30
0.0
 11
97.007589892
 21
164.708633364
 31
0.0
  0
LINE
  5
2B5
330
1B
100
AcDbEntity
 67
     1
  8
7_ALL_FEATURES
  6
Continuous
 62
     7
100
AcDbLine
 10
97.0075951958
 20
133.885781665
 30
0.0
 11
97.0075951958
 21
164.7086299753
 31
0.0
  0
LINE
  5
2B6
330
1B
100
AcDbEntity
 67
     1
  8
7_ALL_FEATURES
  6
Continuous
 62
     7
100
AcDbLine
 10
64.0075951958
 20
133.885781665
 30
0.0
 11
64.0075951958
 21
135.085781665
 31
0.0
  0
LINE
  5
2B7
330
1B
100
AcDbEntity
 67
     1
  8
7_ALL_FEATURES
  6
Continuous
 62
     7
100
AcDbLine
 10
64.0075951958
 20
135.085781665
 30
0.0
 11
64.0075951958
 21
135.435781665
 31
0.0
  0
ARC
  5
2B8
330
1B
100
AcDbEntity
 67
     1
  8
02___PRT_ALL_AXES
  6
Continuous
 62
     7
100
AcDbCircle
 10
47.5896252272
 20
137.085781665
 30
0.0
 40
16.5006738618
100
AcDbArc
 50
354.2610646885
 51
5.7389353115
  0
LINE
  5
2B9
330
1B
100
AcDbEntity
 67
     1
  8
02___PRT_ALL_AXES
  6
Continuous
 62
     7
100
AcDbLine
 10
64.0075951958
 20
138.735781665
 30
0.0
 11
64.0075951958
 21
139.0857468038
 31
0.0
  0
LINE
  5
2BA
330
1B
100
AcDbEntity
 67
     1
  8
02___PRT_ALL_AXES
  6
Continuous
 62
     7
100
AcDbLine
 10
64.0075951958
 20
139.0857468038
 30
0.0
 11
64.0075951958
 21
141.835781665
 31
0.0
  0
ARC
  5
2BB
330
1B
100
AcDbEntity
 67
     1
  8
02___PRT_ALL_AXES
  6
Continuous
 62
     7
100
AcDbCircle
 10
47.4665230741
 20
144.3534263751
 30
0.0
 40
16.7315749952
100
AcDbArc
 50
351.3456807213
 51
359.93957726
  0
LINE
  5
2BC
330
1B
100
AcDbEntity
 67
     1
  8
7_ALL_FEATURES
  6
Continuous
 62
     7
100
AcDbLine
 10
64.0075951958
 20
146.835781665
 30
0.0
 11
64.0075951958
 21
157.2285005828
 31
0.0
  0
LINE
  5
2BD
330
1B
100
AcDbEntity
 67
     1
  8
7_ALL_FEATURES
  6
Continuous
 62
     7
100
AcDbLine
 10
64.0075579986
 20
157.228530171
 30
0.0
 11
64.2400735074
 21
157.5208405341
 31
0.0
  0
LINE
  5
2BE
330
1B
100
AcDbEntity
 67
     1
  8
7_ALL_FEATURES
  6
Continuous
 62
     7
100
AcDbLine
 10
97.00763209
 20
164.7086763579
 30
0.0
 11
96.6401462517
 21
165.000986721
 31
0.0
  0
LINE
  5
2BF
330
1B
100
AcDbEntity
 67
     1
  8
7_ALL_FEATURES
  6
Continuous
 62
     7
100
AcDbLine
 10
97.0075951957
 20
133.8857816649
 30
0.0
 11
96.7075951957
 21
133.5857816649
 31
0.0
  0
LINE
  5
2C0
330
1B
100
AcDbEntity
 67
     1
  8
7_ALL_FEATURES
  6
Continuous
 62
     7
100
AcDbLine
 10
64.0075951959
 20
133.8857816649
 30
0.0
 11
64.3075951959
 21
133.5857816649
 31
0.0
  0
LINE
  5
2C1
330
1B
100
AcDbEntity
 67
     1
  8
7_ALL_FEATURES
  6
Continuous
 62
     7
100
AcDbLine
 10
96.6401098795
 20
165.0009409947
 30
0.0
 11
96.6401258599
 21
165.0009446841
 31
0.0
  0
LINE
  5
2C2
330
1B
100
AcDbEntity
 67
     1
  8
7_ALL_FEATURES
  6
Continuous
 62
     7
100
AcDbLine
 10
64.0075951958
 20
133.885781665
 30
0.0
 11
97.0075951958
 21
133.885781665
 31
0.0
  0
LINE
  5
2C3
330
1B
100
AcDbEntity
 67
     1
  8
7_ALL_FEATURES
  6
Continuous
 62
     7
100
AcDbLine
 10
97.007589892
 20
164.708633364
 30
0.0
 11
65.479030341
 21
157.5620294433
 31
0.0
  0
LINE
  5
2C4
330
1B
100
AcDbEntity
 67
     1
  8
7_ALL_FEATURES
  6
Continuous
 62
     7
100
AcDbLine
 10
65.479030341
 20
157.5620294433
 30
0.0
 11
65.4310562961
 21
157.5511548883
 31
0.0
  0
LINE
  5
2C5
330
1B
100
AcDbEntity
 67
     1
  8
7_ALL_FEATURES
  6
Continuous
 62
     7
100
AcDbLine
 10
65.4310562961
 20
157.5511548883
 30
0.0
 11
64.0076003497
 21
157.2284967593
 31
0.0
  0
ARC
  5
2C6
330
1B
100
AcDbEntity
 67
     1
  8
0
  6
Continuous
 62
     2
100
AcDbCircle
 10
178.9889875513
 20
137.0857816698
 30
0.0
 40
2.0000000048
100
AcDbArc
 50
270.0000000005
 51
270.337302452
  0
ARC
  5
2C7
330
1B
100
AcDbEntity
 67
     1
  8
0
  6
Continuous
 62
     2
100
AcDbCircle
 10
178.9889875513
 20
137.085781665
 30
0.0
 40
2.0
100
AcDbArc
 50
270.3373024523
 51
89.6617060496
  0
ARC
  5
2C8
330
1B
100
AcDbEntity
 67
     1
  8
0
  6
Continuous
 62
     2
100
AcDbCircle
 10
178.9889875513
 20
137.0857816674
 30
0.0
 40
1.9999999976
100
AcDbArc
 50
89.6617060494
 51
90.0000000002
  0
ARC
  5
2C9
330
1B
100
AcDbEntity
 67
     1
  8
0
  6
Continuous
 62
     2
100
AcDbCircle
 10
178.9889875513
 20
137.0857816696
 30
0.0
 40
1.9999999953
100
AcDbArc
 50
89.99999999969998
 51
90.33167410789999
  0
ARC
  5
2CA
330
1B
100
AcDbEntity
 67
     1
  8
0
  6
Continuous
 62
     2
100
AcDbCircle
 10
178.9889228838
 20
137.0858608356
 30
0.0
 40
1.9999084256
100
AcDbArc
 50
90.32983460869998
 51
195.0283593616
  0
ARC
  5
2CB
330
1B
100
AcDbEntity
 67
     1
  8
0
  6
Continuous
 62
     2
100
AcDbCircle
 10
178.9892221889
 20
137.087900241
 30
0.0
 40
2.0021199371
100
AcDbArc
 50
255.0030994121
 51
269.6552603992
  0
ARC
  5
2CC
330
1B
100
AcDbEntity
 67
     1
  8
0
  6
Continuous
 62
     2
100
AcDbCircle
 10
178.9889875513
 20
137.0857816593
 30
0.0
 40
1.9999999943
100
AcDbArc
 50
269.6616169739
 51
270.0000000004
  0
LINE
  5
2CD
330
1B
100
AcDbEntity
 67
     1
  8
02___PRT_ALL_AXES
  6
Continuous
 62
     7
100
AcDbLine
 10
181.3738355548
 20
145.085781665
 30
0.0
 11
181.3613215702
 21
145.085781665
 31
0.0
  0
LINE
  5
2CE
330
1B
100
AcDbEntity
 67
     1
  8
02___PRT_ALL_AXES
  6
Continuous
 62
     7
100
AcDbLine
 10
181.3613215702
 20
145.085781665
 30
0.0
 11
176.616655112
 21
145.085781665
 31
0.0
  0
LINE
  5
2CF
330
1B
100
AcDbEntity
 67
     1
  8
02___PRT_ALL_AXES
  6
Continuous
 62
     7
100
AcDbLine
 10
176.616655112
 20
145.085781665
 30
0.0
 11
176.6041395477
 21
145.085781665
 31
0.0
  0
LINE
  5
2D0
330
1B
100
AcDbEntity
 67
     1
  8
02___PRT_ALL_AXES
  6
Continuous
 62
     7
100
AcDbLine
 10
181.3738355548
 20
143.585781665
 30
0.0
 11
181.3613209088
 21
143.585781665
 31
0.0
  0
LINE
  5
2D1
330
1B
100
AcDbEntity
 67
     1
  8
02___PRT_ALL_AXES
  6
Continuous
 62
     7
100
AcDbLine
 10
181.3613209088
 20
143.585781665
 30
0.0
 11
176.6166537465
 21
143.585781665
 31
0.0
  0
LINE
  5
2D2
330
1B
100
AcDbEntity
 67
     1
  8
02___PRT_ALL_AXES
  6
Continuous
 62
     7
100
AcDbLine
 10
176.6166537465
 20
143.585781665
 30
0.0
 11
176.6041395477
 21
143.585781665
 31
0.0
  0
SPLINE
  5
2D3
330
1B
100
AcDbEntity
 67
     1
  8
7_ALL_FEATURES
  6
Continuous
 62
     7
100
AcDbSpline
 70
     0
 71
     3
 72
    19
 73
    15
 74
     0
 42
0.000000001
 43
0.0000001
 40
0.0
 40
0.0
 40
0.0
 40
0.0
 40
0.0296308018
 40
0.0645624795
 40
0.1050031432
 40
0.150920574
 40
0.2021208164
 40
0.258294426
 40
0.319086187
 40
0.3841550463
 40
0.5256501488
 40
0.6789755325
 40
0.838896317
 40
1.0
 40
1.0
 40
1.0
 40
1.0
 10
163.2042302587
 20
162.1022248221
 30
0.0
 10
163.3178303796
 20
162.2158252131
 30
0.0
 10
163.591104751
 20
162.437637462
 30
0.0
 10
164.0781206311
 20
162.7343923586
 30
0.0
 10
164.6713199028
 20
163.0202312761
 30
0.0
 10
165.3659992157
 20
163.2930745178
 30
0.0
 10
166.1565345426
 20
163.5509118672
 30
0.0
 10
167.0361712246
 20
163.7919347999
 30
0.0
 10
167.9979603404
 20
164.0144689301
 30
0.0
 10
169.4208429779
 20
164.2925618218
 30
0.0
 10
171.3521207961
 20
164.5786596516
 30
0.0
 10
173.8063808657
 20
164.8223224884
 30
0.0
 10
176.3747659795
 20
164.968503238
 30
0.0
 10
178.1155007802
 20
165.001122677
 30
0.0
 10
178.9889876185
 20
165.0009591785
 30
0.0
  0
LINE
  5
2D4
330
1B
100
AcDbEntity
 67
     1
  8
7_ALL_FEATURES
  6
Continuous
 62
     7
100
AcDbLine
 10
178.9889875513
 20
133.585781665
 30
0.0
 11
194.2889875513
 21
133.585781665
 31
0.0
  0
LINE
  5
2D5
330
1B
100
AcDbEntity
 67
     1
  8
7_ALL_FEATURES
  6
Continuous
 62
     7
100
AcDbLine
 10
194.2889875513
 20
133.585781665
 30
0.0
 11
195.1889875513
 21
133.585781665
 31
0.0
  0
SPLINE
  5
2D6
330
1B
100
AcDbEntity
 67
     1
  8
7_ALL_FEATURES
  6
Continuous
 62
     7
100
AcDbSpline
 70
     0
 71
     3
 72
    11
 73
     7
 74
     0
 42
0.000000001
 43
0.0000001
 40
0.0
 40
0.0
 40
0.0
 40
0.0
 40
0.2867928541
 40
0.5435424853
 40
0.7778532387
 40
1.0
 40
1.0
 40
1.0
 40
1.0
 10
195.0800600267
 20
161.7960433426
 30
0.0
 10
195.144042733
 20
161.7321160942
 30
0.0
 10
195.2582849024
 20
161.6034159373
 30
0.0
 10
195.3901367325
 20
161.3949864096
 30
0.0
 10
195.4706556598
 20
161.1831225357
 30
0.0
 10
195.4889873796
 20
161.0386238135
 30
0.0
 10
195.4889875502
 20
160.968565279
 30
0.0
  0
ARC
  5
2D7
330
1B
100
AcDbEntity
 67
     1
  8
02___PRT_ALL_AXES
  6
Continuous
 62
     7
100
AcDbCircle
 10
178.9889875513
 20
144.335781665
 30
0.0
 40
2.5
100
AcDbArc
 50
90.0
 51
180.0
  0
ARC
  5
2D8
330
1B
100
AcDbEntity
 67
     1
  8
02___PRT_ALL_AXES
  6
Continuous
 62
     7
100
AcDbCircle
 10
178.9889875513
 20
144.335781665
 30
0.0
 40
2.5
100
AcDbArc
 50
180.0
 51
270.0
  0
ARC
  5
2D9
330
1B
100
AcDbEntity
 67
     1
  8
02___PRT_ALL_AXES
  6
Continuous
 62
     7
100
AcDbCircle
 10
178.9889875513
 20
137.085781665
 30
0.0
 40
1.65
100
AcDbArc
 50
90.0
 51
270.0
  0
SPLINE
  5
2DA
330
1B
100
AcDbEntity
 67
     1
  8
7_ALL_FEATURES
  6
Continuous
 62
     7
100
AcDbSpline
 70
     0
 71
     3
 72
     9
 73
     5
 74
     0
 42
0.000000001
 43
0.0000001
 40
0.0
 40
0.0
 40
0.0
 40
0.0
 40
0.2381174982
 40
1.0
 40
1.0
 40
1.0
 40
1.0
 10
164.0811556583
 20
160.466272763
 30
0.0
 10
164.0997539339
 20
160.4476744494
 30
0.0
 10
164.1793027234
 20
160.3710148097
 30
0.0
 10
164.2641670781
 20
160.2999631748
 30
0.0
 10
164.3307890274
 20
160.2485458703
 30
0.0
  0
ARC
  5
2DB
330
1B
100
AcDbEntity
 67
     1
  8
7_ALL_FEATURES
  6
Continuous
 62
     7
100
AcDbCircle
 10
166.3208999026
 20
162.8276640255
 30
0.0
 40
3.2576666119
100
AcDbArc
 50
232.3453406607
 51
233.8151295852
  0
SPLINE
  5
2DC
330
1B
100
AcDbEntity
 67
     1
  8
7_ALL_FEATURES
  6
Continuous
 62
     7
100
AcDbSpline
 70
     0
 71
     3
 72
    18
 73
    14
 74
     0
 42
0.000000001
 43
0.0000001
 40
0.0
 40
0.0
 40
0.0
 40
0.0
 40
0.0332040797
 40
0.0714148496
 40
0.114635519
 40
0.1627151246
 40
0.2154033555
 40
0.2723879243
 40
0.3981620073
 40
0.5378894705
 40
0.6880496586
 40
0.8437547375
 40
1.0
 40
1.0
 40
1.0
 40
1.0
 10
164.3975977713
 20
160.1983483986
 30
0.0
 10
164.5310990263
 20
160.1006366595
 30
0.0
 10
164.8331219291
 20
159.9107171789
 30
0.0
 10
165.344264628
 20
159.6545630609
 30
0.0
 10
165.9414912756
 20
159.4088876903
 30
0.0
 10
166.6202036941
 20
159.1754207697
 30
0.0
 10
167.3751221622
 20
158.9556512648
 30
0.0
 10
168.5140246686
 20
158.6733590962
 30
0.0
 10
170.092929217
 20
158.3693286452
 30
0.0
 10
172.1451497819
 20
158.0855196557
 30
0.0
 10
174.3563985364
 20
157.8793633706
 30
0.0
 10
176.6560598527
 20
157.755961612
 30
0.0
 10
178.2104956675
 20
157.7283997208
 30
0.0
 10
178.9889876414
 20
157.7285724222
 30
0.0
  0
SPLINE
  5
2DD
330
1B
100
AcDbEntity
 67
     1
  8
7_ALL_FEATURES
  6
Continuous
 62
     7
100
AcDbSpline
 70
     0
 71
     3
 72
     9
 73
     5
 74
     0
 42
0.000000001
 43
0.0000001
 40
0.0
 40
0.0
 40
0.0
 40
0.0
 40
0.2585328823
 40
1.0
 40
1.0
 40
1.0
 40
1.0
 10
193.7119750408
 20
160.2928693845
 30
0.0
 10
193.7230929124
 20
160.3063014736
 30
0.0
 10
193.7653025455
 20
160.3589035104
 30
0.0
 10
193.8042187451
 20
160.4141881759
 30
0.0
 10
193.8306291486
 20
160.4566524611
 30
0.0
  0
ARC
  5
2DE
330
1B
100
AcDbEntity
 67
     1
  8
7_ALL_FEATURES
  6
Continuous
 62
     7
100
AcDbCircle
 10
192.7381885912
 20
161.1362157213
 30
0.0
 40
1.2865584309
100
AcDbArc
 50
328.1159210026
 51
329.530999254
  0
SPLINE
  5
2DF
330
1B
100
AcDbEntity
 67
     1
  8
7_ALL_FEATURES
  6
Continuous
 62
     7
100
AcDbSpline
 70
     0
 71
     3
 72
     9
 73
     5
 74
     0
 42
0.000000001
 43
0.0000001
 40
0.0
 40
0.0
 40
0.0
 40
0.0
 40
0.5181695999
 40
1.0
 40
1.0
 40
1.0
 40
1.0
 10
193.8470779761
 20
160.4838378184
 30
0.0
 10
193.8917105062
 20
160.5597173087
 30
0.0
 10
193.9630009706
 20
160.7160492572
 30
0.0
 10
193.9889877783
 20
160.886706288
 30
0.0
 10
193.98898755
 20
160.9685652792
 30
0.0
  0
LINE
  5
2E0
330
1B
100
AcDbEntity
 67
     1
  8
7_ALL_FEATURES
  6
Continuous
 62
     7
100
AcDbLine
 10
162.7889875513
 20
133.585781665
 30
0.0
 11
163.6889875513
 21
133.585781665
 31
0.0
  0
LINE
  5
2E1
330
1B
100
AcDbEntity
 67
     1
  8
7_ALL_FEATURES
  6
Continuous
 62
     7
100
AcDbLine
 10
163.6889875513
 20
133.585781665
 30
0.0
 11
178.9889875513
 21
133.585781665
 31
0.0
  0
LINE
  5
2E2
330
1B
100
AcDbEntity
 67
     1
  8
7_ALL_FEATURES
  6
Continuous
 62
     7
100
AcDbLine
 10
162.7889875513
 20
133.585781665
 30
0.0
 11
162.4889875513
 21
133.885781665
 31
0.0
  0
LINE
  5
2E3
330
1B
100
AcDbEntity
 67
     1
  8
7_ALL_FEATURES
  6
Continuous
 62
     7
100
AcDbLine
 10
195.1889875513
 20
133.585781665
 30
0.0
 11
195.4889875513
 21
133.885781665
 31
0.0
  0
ARC
  5
2E4
330
1B
100
AcDbEntity
 67
     1
  8
02___PRT_ALL_AXES
  6
Continuous
 62
     7
100
AcDbCircle
 10
178.9889875513
 20
137.085781665
 30
0.0
 40
1.65
100
AcDbArc
 50
270.0
 51
90.0
  0
ARC
  5
2E5
330
1B
100
AcDbEntity
 67
     1
  8
02___PRT_ALL_AXES
  6
Continuous
 62
     7
100
AcDbCircle
 10
178.9889875513
 20
144.335781665
 30
0.0
 40
2.5
100
AcDbArc
 50
270.0
 51
360.0
  0
ARC
  5
2E6
330
1B
100
AcDbEntity
 67
     1
  8
02___PRT_ALL_AXES
  6
Continuous
 62
     7
100
AcDbCircle
 10
178.9889875513
 20
144.335781665
 30
0.0
 40
2.5
100
AcDbArc
 50
0.0
 51
90.0
  0
LINE
  5
2E7
330
1B
100
AcDbEntity
 67
     1
  8
02___PRT_ALL_AXES
  6
Continuous
 62
     7
100
AcDbLine
 10
195.4889875513
 20
133.885781665
 30
0.0
 11
195.4889875513
 21
160.968565278
 31
0.0
  0
SPLINE
  5
2E8
330
1B
100
AcDbEntity
 67
     1
  8
7_ALL_FEATURES
  6
Continuous
 62
     7
100
AcDbSpline
 70
     0
 71
     3
 72
    11
 73
     7
 74
     0
 42
0.000000001
 43
0.0000001
 40
0.0
 40
0.0
 40
0.0
 40
0.0
 40
0.2221467682
 40
0.4564577264
 40
0.713207195
 40
1.0
 40
1.0
 40
1.0
 40
1.0
 10
162.4889875523
 20
160.968565279
 30
0.0
 10
162.4889873817
 20
161.0386236505
 30
0.0
 10
162.507319143
 20
161.1831221916
 30
0.0
 10
162.5878384008
 20
161.3949852969
 30
0.0
 10
162.7196889621
 20
161.6034149011
 30
0.0
 10
162.8339309424
 20
161.732114663
 30
0.0
 10
162.8979134901
 20
161.7960417467
 30
0.0
  0
SPLINE
  5
2E9
330
1B
100
AcDbEntity
 67
     1
  8
7_ALL_FEATURES
  6
Continuous
 62
     7
100
AcDbSpline
 70
     0
 71
     3
 72
    18
 73
    14
 74
     0
 42
0.000000001
 43
0.0000001
 40
0.0
 40
0.0
 40
0.0
 40
0.0
 40
0.1562542564
 40
0.3119633539
 40
0.4621224966
 40
0.6018451255
 40
0.7276161036
 40
0.78460008
 40
0.8372877911
 40
0.885366663
 40
0.9285865605
 40
0.9667965146
 40
1.0
 40
1.0
 40
1.0
 40
1.0
 10
178.9889874553
 20
157.7285707375
 30
0.0
 10
179.7675246517
 20
157.7284007792
 30
0.0
 10
181.322026085
 20
157.7559644782
 30
0.0
 10
183.6217479213
 20
157.8793754668
 30
0.0
 10
185.832987879
 20
158.0855388981
 30
0.0
 10
187.8851641393
 20
158.3693489955
 30
0.0
 10
189.4640269649
 20
158.6733757104
 30
0.0
 10
190.6029087396
 20
158.9556666713
 30
0.0
 10
191.3578183471
 20
159.1754352515
 30
0.0
 10
192.0365205167
 20
159.4089020512
 30
0.0
 10
192.6337362444
 20
159.6545744799
 30
0.0
 10
193.1448682555
 20
159.9107262649
 30
0.0
 10
193.4468850628
 20
160.1006425381
 30
0.0
 10
193.580383709
 20
160.198352975
 30
0.0
  0
ARC
  5
2EA
330
1B
100
AcDbEntity
 67
     1
  8
7_ALL_FEATURES
  6
Continuous
 62
     7
100
AcDbCircle
 10
191.6279913463
 20
162.866365057
 30
0.0
 40
3.3060738661
100
AcDbArc
 50
306.1958423111
 51
307.644992756
  0
SPLINE
  5
2EB
330
1B
100
AcDbEntity
 67
     1
  8
7_ALL_FEATURES
  6
Continuous
 62
     7
100
AcDbSpline
 70
     0
 71
     3
 72
     9
 73
     5
 74
     0
 42
0.000000001
 43
0.0000001
 40
0.0
 40
0.0
 40
0.0
 40
0.0
 40
0.2621980854
 40
1.0
 40
1.0
 40
1.0
 40
1.0
 10
193.6472326207
 20
160.2485818185
 30
0.0
 10
193.6701553921
 20
160.2662738315
 30
0.0
 10
193.7566345862
 20
160.3349525577
 30
0.0
 10
193.8392058434
 20
160.4086590794
 30
0.0
 10
193.8968209297
 20
160.4662742774
 30
0.0
  0
SPLINE
  5
2EC
330
1B
100
AcDbEntity
 67
     1
  8
7_ALL_FEATURES
  6
Continuous
 62
     7
100
AcDbSpline
 70
     0
 71
     3
 72
    19
 73
    15
 74
     0
 42
0.000000001
 43
0.0000001
 40
0.0
 40
0.0
 40
0.0
 40
0.0
 40
0.1610967508
 40
0.3210144224
 40
0.4743406752
 40
0.6158391322
 40
0.6809092142
 40
0.7417017864
 40
0.7978759816
 40
0.8490769298
 40
0.8949950887
 40
0.9354365096
 40
0.9703687639
 40
1.0
 40
1.0
 40
1.0
 40
1.0
 10
178.9889874882
 20
165.0009577892
 30
0.0
 10
179.8624366211
 20
165.0011236684
 30
0.0
 10
181.6031167435
 20
164.968505546
 30
0.0
 10
184.1714520671
 20
164.8223332382
 30
0.0
 10
186.6257184531
 20
164.5786765515
 30
0.0
 10
188.5570261056
 20
164.2925801904
 30
0.0
 10
189.9799379317
 20
164.0144853522
 30
0.0
 10
190.9417413791
 20
163.791950723
 30
0.0
 10
191.8213895393
 20
163.5509270537
 30
0.0
 10
192.6119360953
 20
163.2930891314
 30
0.0
 10
193.3066270554
 20
163.0202433748
 30
0.0
 10
193.899837566
 20
162.7344021211
 30
0.0
 10
194.386862091
 20
162.4376431663
 30
0.0
 10
194.6601415503
 20
162.215828437
 30
0.0
 10
194.7737433153
 20
162.1022263908
 30
0.0
  0
LINE
  5
2ED
330
1B
100
AcDbEntity
 67
     1
  8
02___PRT_ALL_AXES
  6
Continuous
 62
     7
100
AcDbLine
 10
162.4889875513
 20
133.885781665
 30
0.0
 11
162.4889875513
 21
160.968565278
 31
0.0
  0
SPLINE
  5
2EE
330
1B
100
AcDbEntity
 67
     1
  8
7_ALL_FEATURES
  6
Continuous
 62
     7
100
AcDbSpline
 70
     0
 71
     3
 72
     9
 73
     5
 74
     0
 42
0.000000001
 43
0.0000001
 40
0.0
 40
0.0
 40
0.0
 40
0.0
 40
0.4818310107
 40
1.0
 40
1.0
 40
1.0
 40
1.0
 10
163.9889875526
 20
160.9685652791
 30
0.0
 10
163.9889877808
 20
160.8867069386
 30
0.0
 10
164.0149736928
 20
160.7160515921
 30
0.0
 10
164.0862626189
 20
160.5597205784
 30
0.0
 10
164.1308945832
 20
160.4838418167
 30
0.0
  0
ARC
  5
2EF
330
1B
100
AcDbEntity
 67
     1
  8
7_ALL_FEATURES
  6
Continuous
 62
     7
100
AcDbCircle
 10
165.2397794693
 20
161.1362155999
 30
0.0
 40
1.2865524645
100
AcDbArc
 50
210.4689442026
 51
211.8870630092
  0
SPLINE
  5
2F0
330
1B
100
AcDbEntity
 67
     1
  8
7_ALL_FEATURES
  6
Continuous
 62
     7
100
AcDbSpline
 70
     0
 71
     3
 72
     9
 73
     5
 74
     0
 42
0.000000001
 43
0.0000001
 40
0.0
 40
0.0
 40
0.0
 40
0.0
 40
0.2418566505
 40
1.0
 40
1.0
 40
1.0
 40
1.0
 10
164.1473793717
 20
160.4565985971
 30
0.0
 10
164.1559908648
 20
160.4427541012
 30
0.0
 10
164.1926617784
 20
160.3861764963
 30
0.0
 10
164.2333916849
 20
160.3322671075
 30
0.0
 10
164.2659789479
 20
160.2928951099
 30
0.0
  0
SPLINE
  5
2F1
330
1B
100
AcDbEntity
 67
     1
  8
7_ALL_FEATURES
  6
Continuous
 62
     7
100
AcDbSpline
 70
     0
 71
     3
 72
    23
 73
    19
 74
     0
 42
0.000000001
 43
0.0000001
 40
0.0
 40
0.0
 40
0.0
 40
0.0
 40
0.1772288765
 40
0.3520577596
 40
0.4358632359
 40
0.5158571219
 40
0.5912071377
 40
0.6614159254
 40
0.7260422801
 40
0.7846129374
 40
0.83661522
 40
0.8817057118
 40
0.9198167357
 40
0.9513121376
 40
0.9649032315
 40
0.9773234583
 40
0.9888893353
 40
1.0
 40
1.0
 40
1.0
 40
1.0
 10
178.9889876455
 20
164.5008708401
 30
0.0
 10
178.0448450394
 20
164.501081073
 30
0.0
 10
176.1691082684
 20
164.4592728924
 30
0.0
 10
173.8515125175
 20
164.3015786066
 30
0.0
 10
172.0578252908
 20
164.1074211374
 30
0.0
 10
170.7954731621
 20
163.9340208214
 30
0.0
 10
169.6106860015
 20
163.7324947283
 30
0.0
 10
168.5140905766
 20
163.5047521069
 30
0.0
 10
167.5147681383
 20
163.2524276714
 30
0.0
 10
166.6222620936
 20
162.9776519639
 30
0.0
 10
165.8464115426
 20
162.6829242544
 30
0.0
 10
165.1957606924
 20
162.3711554173
 30
0.0
 10
164.6771517526
 20
162.0452869374
 30
0.0
 10
164.3425875176
 20
161.7489971421
 30
0.0
 10
164.1562958614
 20
161.5045739758
 30
0.0
 10
164.0603987178
 20
161.3277633109
 30
0.0
 10
164.0021513735
 20
161.1489156446
 30
0.0
 10
163.9889873875
 20
161.0277545737
 30
0.0
 10
163.9889875526
 20
160.9685652791
 30
0.0
  0
LINE
  5
2F2
330
1B
100
AcDbEntity
 67
     1
  8
7_ALL_FEATURES
  6
Continuous
 62
     7
100
AcDbLine
 10
178.9889875513
 20
133.885781665
 30
0.0
 11
195.4889875513
 21
133.885781665
 31
0.0
  0
SPLINE
  5
2F3
330
1B
100
AcDbEntity
 67
     1
  8
7_ALL_FEATURES
  6
Continuous
 62
     7
100
AcDbSpline
 70
     0
 71
     3
 72
    28
 73
    24
 74
     0
 42
0.000000001
 43
0.0000001
 40
0.0
 40
0.0
 40
0.0
 40
0.0
 40
0.0152381367
 40
0.0288798722
 40
0.0413333702
 40
0.0531504163
 40
0.0649835632
 40
0.0774824309
 40
0.0911925151
 40
0.1065148416
 40
0.1237156471
 40
0.1429629678
 40
0.1643477002
 40
0.1879117344
 40
0.2415220703
 40
0.3034378769
 40
0.3729677478
 40
0.44942684
 40
0.5321838454
 40
0.6204386661
 40
0.7128767113
 40
0.8079762544
 40
1.0
 40
1.0
 40
1.0
 40
1.0
 10
193.8968209297
 20
160.4662742774
 30
0.0
 10
193.9585216996
 20
160.5279751669
 30
0.0
 10
194.0686379024
 20
160.6522464413
 30
0.0
 10
194.1954476774
 20
160.8535985341
 30
0.0
 10
194.2724230268
 20
161.0584936827
 30
0.0
 10
194.29763961
 20
161.2658536036
 30
0.0
 10
194.2698984135
 20
161.4731436935
 30
0.0
 10
194.1905022101
 20
161.6778784482
 30
0.0
 10
194.0613174918
 20
161.8790777665
 30
0.0
 10
193.8837996376
 20
162.0766869013
 30
0.0
 10
193.6589088872
 20
162.2707938425
 30
0.0
 10
193.3873496946
 20
162.461110389
 30
0.0
 10
193.0700355167
 20
162.6473447327
 30
0.0
 10
192.565204534
 20
162.9003967353
 30
0.0
 10
191.8245243984
 20
163.196800266
 30
0.0
 10
190.812789267
 20
163.5142007932
 30
0.0
 10
189.6572327583
 20
163.8030249203
 30
0.0
 10
188.3724328652
 20
164.0600738029
 30
0.0
 10
186.9726052557
 20
164.2826829909
 30
0.0
 10
185.475182188
 20
164.4680572611
 30
0.0
 10
183.9023961916
 20
164.613703496
 30
0.0
 10
181.733169717
 20
164.7526477816
 30
0.0
 10
180.0885731095
 20
164.7934241079
 30
0.0
 10
178.9889874612
 20
164.7931801748
 30
0.0
  0
SPLINE
  5
2F4
330
1B
100
AcDbEntity
 67
     1
  8
7_ALL_FEATURES
  6
Continuous
 62
     7
100
AcDbSpline
 70
     0
 71
     3
 72
    25
 73
    21
 74
     0
 42
0.000000001
 43
0.0000001
 40
0.0
 40
0.0
 40
0.0
 40
0.0
 40
0.1775467364
 40
0.3524265649
 40
0.4363285347
 40
0.5165370838
 40
0.5922150175
 40
0.6627719922
 40
0.7276784548
 40
0.78641207
 40
0.8384621512
 40
0.8834829993
 40
0.9033257899
 40
0.9214120547
 40
0.9377957865
 40
0.9525769767
 40
0.965911402
 40
0.9780286269
 40
0.9892530699
 40
1.0
 40
1.0
 40
1.0
 40
1.0
 10
178.9889876154
 20
157.2284837884
 30
0.0
 10
177.952303033
 20
157.2282904884
 30
0.0
 10
175.8942645581
 20
157.2723003638
 30
0.0
 10
173.3509819505
 20
157.4385098558
 30
0.0
 10
171.3820236918
 20
157.6430477376
 30
0.0
 10
169.9937271543
 20
157.8260859144
 30
0.0
 10
168.6885872321
 20
158.0391840877
 30
0.0
 10
167.4792677464
 20
158.2803759883
 30
0.0
 10
166.3769589573
 20
158.5477508783
 30
0.0
 10
165.3927239342
 20
158.8389112857
 30
0.0
 10
164.5375791548
 20
159.1511846594
 30
0.0
 10
163.9162833683
 20
159.4370489629
 30
0.0
 10
163.4956269451
 20
159.6777315693
 30
0.0
 10
163.2316019409
 20
159.8539506743
 30
0.0
 10
163.0062367817
 20
160.0332333803
 30
0.0
 10
162.8201008245
 20
160.2153118606
 30
0.0
 10
162.6737197314
 20
160.4000193134
 30
0.0
 10
162.5678872288
 20
160.5874129759
 30
0.0
 10
162.5035507582
 20
160.7771194761
 30
0.0
 10
162.4889877052
 20
160.9058146076
 30
0.0
 10
162.4889875523
 20
160.968565279
 30
0.0
  0
SPLINE
  5
2F5
330
1B
100
AcDbEntity
 67
     1
  8
7_ALL_FEATURES
  6
Continuous
 62
     7
100
AcDbSpline
 70
     0
 71
     3
 72
    25
 73
    21
 74
     0
 42
0.000000001
 43
0.0000001
 40
0.0
 40
0.0
 40
0.0
 40
0.0
 40
0.0107468169
 40
0.0219711438
 40
0.0340882187
 40
0.0474224592
 40
0.0622034358
 40
0.0785868835
 40
0.0966728225
 40
0.116515249
 40
0.1615352226
 40
0.2135844693
 40
0.2723173847
 40
0.3372231294
 40
0.4077789163
 40
0.4834551478
 40
0.5636619708
 40
0.6475632895
 40
0.8224457195
 40
1.0
 40
1.0
 40
1.0
 40
1.0
 10
195.4889875502
 20
160.968565279
 30
0.0
 10
195.488987703
 20
160.9058152683
 30
0.0
 10
195.4744249404
 20
160.777121404
 30
0.0
 10
195.41008916
 20
160.5874170862
 30
0.0
 10
195.3042592421
 20
160.4000250629
 30
0.0
 10
195.1578811416
 20
160.2153192805
 30
0.0
 10
194.9717486688
 20
160.0332429684
 30
0.0
 10
194.7463884946
 20
159.8539617529
 30
0.0
 10
194.4823690766
 20
159.6777444942
 30
0.0
 10
194.0617216553
 20
159.4370645726
 30
0.0
 10
193.4404383773
 20
159.1512021056
 30
0.0
 10
192.5853081099
 20
158.8389299215
 30
0.0
 10
191.6010866337
 20
158.5477700835
 30
0.0
 10
190.4987935556
 20
158.2803949552
 30
0.0
 10
189.2894953987
 20
158.0392038011
 30
0.0
 10
187.9843827533
 20
157.8261058689
 30
0.0
 10
186.5961103795
 20
157.6430666294
 30
0.0
 10
184.627151471
 20
157.4385223755
 30
0.0
 10
182.0838138215
 20
157.2723028503
 30
0.0
 10
180.025716118
 20
157.2282918734
 30
0.0
 10
178.9889874829
 20
157.2284823991
 30
0.0
  0
SPLINE
  5
2F6
330
1B
100
AcDbEntity
 67
     1
  8
7_ALL_FEATURES
  6
Continuous
 62
     7
100
AcDbSpline
 70
     0
 71
     3
 72
    23
 73
    19
 74
     0
 42
0.000000001
 43
0.0000001
 40
0.0
 40
0.0
 40
0.0
 40
0.0
 40
0.0111107816
 40
0.0226767722
 40
0.0350971404
 40
0.0486884114
 40
0.0801843098
 40
0.1182960667
 40
0.1633875171
 40
0.2153906597
 40
0.2739619385
 40
0.3385889253
 40
0.4087991794
 40
0.4841516359
 40
0.5641482176
 40
0.6479549399
 40
0.8227809642
 40
1.0
 40
1.0
 40
1.0
 40
1.0
 10
193.98898755
 20
160.9685652792
 30
0.0
 10
193.9889873849
 20
161.0277551964
 30
0.0
 10
193.9758231332
 20
161.1489174176
 30
0.0
 10
193.9175753183
 20
161.3277670872
 30
0.0
 10
193.8216758776
 20
161.5045791884
 30
0.0
 10
193.6353803661
 20
161.7490048467
 30
0.0
 10
193.3008089391
 20
162.0452979378
 30
0.0
 10
192.7821885225
 20
162.371170097
 30
0.0
 10
192.1315237243
 20
162.6829413529
 30
0.0
 10
191.3556596694
 20
162.9776700465
 30
0.0
 10
190.4631419704
 20
163.2524461523
 30
0.0
 10
189.4638045425
 20
163.5047703978
 30
0.0
 10
188.3671847954
 20
163.7325148197
 30
0.0
 10
187.1823621929
 20
163.9340423824
 30
0.0
 10
185.91997576
 20
164.1074428066
 30
0.0
 10
184.1262819955
 20
164.301593557
 30
0.0
 10
181.8087467677
 20
164.4592759084
 30
0.0
 10
179.9330776399
 20
164.501082782
 30
0.0
 10
178.9889874628
 20
164.5008691554
 30
0.0
  0
LINE
  5
2F7
330
1B
100
AcDbEntity
 67
     1
  8
7_ALL_FEATURES
  6
Continuous
 62
     7
100
AcDbLine
 10
162.4889875513
 20
133.885781665
 30
0.0
 11
178.9889875513
 21
133.885781665
 31
0.0
  0
SPLINE
  5
2F8
330
1B
100
AcDbEntity
 67
     1
  8
7_ALL_FEATURES
  6
Continuous
 62
     7
100
AcDbSpline
 70
     0
 71
     3
 72
    28
 73
    24
 74
     0
 42
0.000000001
 43
0.0000001
 40
0.0
 40
0.0
 40
0.0
 40
0.0
 40
0.1920341603
 40
0.2871356956
 40
0.3795734397
 40
0.4678259685
 40
0.550580159
 40
0.6270376287
 40
0.696566846
 40
0.7584818796
 40
0.8120912021
 40
0.8356546675
 40
0.8570389339
 40
0.8762858429
 40
0.8934863193
 40
0.9088083924
 40
0.922518266
 40
0.9350169867
 40
0.9468500118
 40
0.9586669635
 40
0.9711203584
 40
0.9847619939
 40
1.0
 40
1.0
 40
1.0
 40
1.0
 10
178.9889876472
 20
164.7931818596
 30
0.0
 10
177.8893422214
 20
164.7934219172
 30
0.0
 10
176.2446743233
 20
164.7526447885
 30
0.0
 10
174.0753788398
 20
164.6136879479
 30
0.0
 10
172.5025966795
 20
164.4680356264
 30
0.0
 10
171.0052048105
 20
164.2826598179
 30
0.0
 10
169.6054160496
 20
164.0600506502
 30
0.0
 10
168.3206454507
 20
163.8030032027
 30
0.0
 10
167.1651068788
 20
163.5141785761
 30
0.0
 10
166.1533865578
 20
163.1967771643
 30
0.0
 10
165.4127202913
 20
162.9003748551
 30
0.0
 10
164.9079018297
 20
162.647323903
 30
0.0
 10
164.5905959853
 20
162.4610916493
 30
0.0
 10
164.3190441429
 20
162.2707765375
 30
0.0
 10
164.0941596228
 20
162.0766711148
 30
0.0
 10
163.9166464202
 20
161.8790637611
 30
0.0
 10
163.7874669006
 20
161.6778652793
 30
0.0
 10
163.7080735175
 20
161.4731324006
 30
0.0
 10
163.6803355361
 20
161.2658438842
 30
0.0
 10
163.705554529
 20
161.0584862472
 30
0.0
 10
163.7825297686
 20
160.8535929013
 30
0.0
 10
163.9093401764
 20
160.6522434137
 30
0.0
 10
164.0194554125
 20
160.5279731345
 30
0.0
 10
164.0811556583
 20
160.466272763
 30
0.0
  0
SPLINE
  5
2F9
330
1B
100
AcDbEntity
 67
     1
  8
7_ALL_FEATURES
  6
Continuous
 62
     7
100
AcDbSpline
 70
     0
 71
     3
 72
     9
 73
     5
 74
     0
 42
0.000000001
 43
0.0000001
 40
0.0
 40
0.0
 40
0.0
 40
0.0
 40
0.2669338174
 40
1.0
 40
1.0
 40
1.0
 40
1.0
 10
194.7737433153
 20
162.1022263908
 30
0.0
 10
194.7998369143
 20
162.0761327272
 30
0.0
 10
194.8951492691
 20
161.9760423683
 30
0.0
 10
194.980259669
 20
161.8656937711
 30
0.0
 10
195.0327712524
 20
161.7790178379
 30
0.0
  0
SPLINE
  5
2FA
330
1B
100
AcDbEntity
 67
     1
  8
7_ALL_FEATURES
  6
Continuous
 62
     7
100
AcDbSpline
 70
     0
 71
     3
 72
    26
 73
    22
 74
     0
 42
0.000000001
 43
0.0000001
 40
0.0
 40
0.0
 40
0.0
 40
0.0
 40
0.0126399883
 40
0.0244129174
 40
0.0358579349
 40
0.0475660508
 40
0.0600860054
 40
0.0738613385
 40
0.0892105998
 40
0.1063461851
 40
0.1254027384
 40
0.1464519516
 40
0.1946089201
 40
0.2507200107
 40
0.3143210312
 40
0.3847681758
 40
0.4614211046
 40
0.5436047193
 40
0.6304467045
 40
0.8133025983
 40
1.0
 40
1.0
 40
1.0
 40
1.0
 10
195.0327712524
 20
161.7790178379
 30
0.0
 10
195.0715766981
 20
161.7149653374
 30
0.0
 10
195.136399967
 20
161.5844954018
 30
0.0
 10
195.1894381108
 20
161.376961027
 30
0.0
 10
195.192268108
 20
161.1680319639
 30
0.0
 10
195.1447243983
 20
160.9602043701
 30
0.0
 10
195.0483375372
 20
160.7551006227
 30
0.0
 10
194.9045404909
 20
160.553286712
 30
0.0
 10
194.7145018892
 20
160.3547418496
 30
0.0
 10
194.4789685482
 20
160.1595338572
 30
0.0
 10
194.1986315546
 20
159.9679666939
 30
0.0
 10
193.7455627686
 20
159.7060333153
 30
0.0
 10
193.0688183094
 20
159.3967890303
 30
0.0
 10
192.1314516128
 20
159.061986182
 30
0.0
 10
191.0473710031
 20
158.7527152514
 30
0.0
 10
189.8304407726
 20
158.4723414849
 30
0.0
 10
188.4945605932
 20
158.2236805193
 30
0.0
 10
187.0545383412
 20
158.0092648257
 30
0.0
 10
184.9833866145
 20
157.7680565126
 30
0.0
 10
182.2850208319
 20
157.5723136342
 30
0.0
 10
180.0951482837
 20
157.5205863683
 30
0.0
 10
178.988987484
 20
157.5207934185
 30
0.0
  0
SPLINE
  5
2FB
330
1B
100
AcDbEntity
 67
     1
  8
7_ALL_FEATURES
  6
Continuous
 62
     7
100
AcDbSpline
 70
     0
 71
     3
 72
    26
 73
    22
 74
     0
 42
0.000000001
 43
0.0000001
 40
0.0
 40
0.0
 40
0.0
 40
0.0
 40
0.1866895957
 40
0.3695433761
 40
0.4563864608
 40
0.5385720255
 40
0.6152264082
 40
0.685674434
 40
0.7492761273
 40
0.805388078
 40
0.8535459624
 40
0.8745955642
 40
0.8936524635
 40
0.9107883415
 40
0.9261378235
 40
0.9399133501
 40
0.9524334463
 40
0.9641416817
 40
0.9755868112
 40
0.9873598646
 40
1.0
 40
1.0
 40
1.0
 40
1.0
 10
178.9889876143
 20
157.5207948079
 30
0.0
 10
177.8828728028
 20
157.5205847425
 30
0.0
 10
175.6930585224
 20
157.5723112598
 30
0.0
 10
172.9947437754
 20
157.7680422629
 30
0.0
 10
170.923585342
 20
158.009245277
 30
0.0
 10
169.4835356024
 20
158.2236599196
 30
0.0
 10
168.1476294125
 20
158.472321682
 30
0.0
 10
166.9306805624
 20
158.7526953472
 30
0.0
 10
165.8465849311
 20
159.0619667196
 30
0.0
 10
164.9092028469
 20
159.3967702509
 30
0.0
 10
164.2324448888
 20
159.7060163448
 30
0.0
 10
163.7793662241
 20
159.9679524479
 30
0.0
 10
163.4990230583
 20
160.159521473
 30
0.0
 10
163.263484286
 20
160.3547310716
 30
0.0
 10
163.0734419957
 20
160.553278273
 30
0.0
 10
162.9296411919
 20
160.7550936086
 30
0.0
 10
162.8332521153
 20
160.9601994891
 30
0.0
 10
162.7857076642
 20
161.1680291804
 30
0.0
 10
162.7885361752
 20
161.3769604879
 30
0.0
 10
162.841575791
 20
161.5844970497
 30
0.0
 10
162.9064002045
 20
161.7149681932
 30
0.0
 10
162.9452061633
 20
161.7790214228
 30
0.0
  0
SPLINE
  5
2FC
330
1B
100
AcDbEntity
 67
     1
  8
7_ALL_FEATURES
  6
Continuous
 62
     7
100
AcDbSpline
 70
     0
 71
     3
 72
     9
 73
     5
 74
     0
 42
0.000000001
 43
0.0000001
 40
0.0
 40
0.0
 40
0.0
 40
0.0
 40
0.2342765251
 40
1.0
 40
1.0
 40
1.0
 40
1.0
 10
162.9452061633
 20
161.7790214228
 30
0.0
 10
162.9619898333
 20
161.806724598
 30
0.0
 10
163.037932881
 20
161.9223679178
 30
0.0
 10
163.1293705699
 20
162.0273649552
 30
0.0
 10
163.2042302587
 20
162.1022248221
 30
0.0
  0
LINE
  5
2FD
330
1B
100
AcDbEntity
 67
     1
  8
7_ALL_FEATURES
  6
Continuous
 62
     9
100
AcDbLine
 10
178.9889875874
 20
164.5008112158
 30
0.0
 11
178.9889875884
 21
164.7931213152
 31
0.0
  0
LINE
  5
2FE
330
1B
100
AcDbEntity
 67
     1
  8
7_ALL_FEATURES
  6
Continuous
 62
     9
100
AcDbLine
 10
178.9889875764
 20
157.228530171
 30
0.0
 11
178.9889875757
 21
157.5208405341
 31
0.0
  0
DIMENSION
  5
2FF
330
1B
100
AcDbEntity
 67
     1
  8
0
  6
Continuous
 62
     2
100
AcDbDimension
280
     0
  2
*D1
 10
95.6316094314
 20
68.7117221912
 30
0.0
 11
102.7847135863
 21
74.2863439087
 31
0.0
 70
   163
  1
%%c<>
 71
     5
 42
-1.0
 73
     0
 74
     0
 75
     0
  3
DIMSTYLE_1
100
AcDbDiametricDimension
 15
65.3835809603
 25
55.5186644103
 35
0.0
 40
0.0
  0
DIMENSION
  5
300
330
1B
100
AcDbEntity
 67
     1
  8
0
  6
Continuous
 62
     2
100
AcDbDimension
280
     0
  2
*D2
 10
106.8360438792
 20
133.585781665
 30
0.0
 11
106.8360438792
 21
149.3430366264
 31
0.0
 70
   160
 71
     5
 42
-1.0
 73
     0
 74
     0
 75
     0
  3
DIMSTYLE_2
100
AcDbAlignedDimension
 13
98.2635186663
 23
165.085781665
 33
0.0
 14
98.3776935273
 24
133.585781665
 34
0.0
 50
270.0
100
AcDbRotatedDimension
  0
LINE
  5
301
330
1B
100
AcDbEntity
 67
     1
  8
0
  6
Continuous
 62
     2
100
AcDbLine
 10
154.0072301476
 20
78.9839440915
 30
0.0
 11
284.0072301476
 21
78.9839440915
 31
0.0
  0
LINE
  5
302
330
1B
100
AcDbEntity
 67
     1
  8
0
  6
Continuous
 62
     2
100
AcDbLine
 10
154.0072301476
 20
78.9839440915
 30
0.0
 11
154.0072301476
 21
12.9839440915
 31
0.0
  0
LINE
  5
303
330
1B
100
AcDbEntity
 67
     1
  8
0
  6
Continuous
 62
     2
100
AcDbLine
 10
184.0072301476
 20
70.9839440915
 30
0.0
 11
284.0072301476
 21
70.9839440915
 31
0.0
  0
LINE
  5
304
330
1B
100
AcDbEntity
 67
     1
  8
0
  6
Continuous
 62
     2
100
AcDbLine
 10
154.0072301476
 20
62.9839440915
 30
0.0
 11
284.0072301476
 21
62.9839440915
 31
0.0
  0
LINE
  5
305
330
1B
100
AcDbEntity
 67
     1
  8
0
  6
Continuous
 62
     2
100
AcDbLine
 10
184.0072301476
 20
56.9839440915
 30
0.0
 11
284.0072301476
 21
56.9839440915
 31
0.0
  0
LINE
  5
306
330
1B
100
AcDbEntity
 67
     1
  8
0
  6
Continuous
 62
     2
100
AcDbLine
 10
184.0072301476
 20
50.9839440915
 30
0.0
 11
284.0072301476
 21
50.9839440915
 31
0.0
  0
LINE
  5
307
330
1B
100
AcDbEntity
 67
     1
  8
0
  6
Continuous
 62
     2
100
AcDbLine
 10
184.0072301476
 20
44.9839440915
 30
0.0
 11
284.0072301476
 21
44.9839440915
 31
0.0
  0
LINE
  5
308
330
1B
100
AcDbEntity
 67
     1
  8
0
  6
Continuous
 62
     2
100
AcDbLine
 10
184.0072301476
 20
38.9839440915
 30
0.0
 11
284.0072301476
 21
38.9839440915
 31
0.0
  0
LINE
  5
309
330
1B
100
AcDbEntity
 67
     1
  8
0
  6
Continuous
 62
     2
100
AcDbLine
 10
184.0072301476
 20
32.9839440915
 30
0.0
 11
284.0072301476
 21
32.9839440915
 31
0.0
  0
LINE
  5
30A
330
1B
100
AcDbEntity
 67
     1
  8
0
  6
Continuous
 62
     2
100
AcDbLine
 10
154.0072301476
 20
26.9839440915
 30
0.0
 11
284.0072301476
 21
26.9839440915
 31
0.0
  0
LINE
  5
30B
330
1B
100
AcDbEntity
 67
     1
  8
0
  6
Continuous
 62
     2
100
AcDbLine
 10
154.0072301476
 20
20.9839440915
 30
0.0
 11
284.0072301476
 21
20.9839440915
 31
0.0
  0
LINE
  5
30C
330
1B
100
AcDbEntity
 67
     1
  8
0
  6
Continuous
 62
     2
100
AcDbLine
 10
154.0072301476
 20
16.9839440915
 30
0.0
 11
284.0072301476
 21
16.9839440915
 31
0.0
  0
LINE
  5
30D
330
1B
100
AcDbEntity
 67
     1
  8
0
  6
Continuous
 62
     2
100
AcDbLine
 10
154.0072301476
 20
12.9839440915
 30
0.0
 11
284.0072301476
 21
12.9839440915
 31
0.0
  0
LINE
  5
30E
330
1B
100
AcDbEntity
 67
     1
  8
0
  6
Continuous
 62
     2
100
AcDbLine
 10
184.0072301476
 20
78.9839440915
 30
0.0
 11
184.0072301476
 21
20.9839440915
 31
0.0
  0
LINE
  5
30F
330
1B
100
AcDbEntity
 67
     1
  8
0
  6
Continuous
 62
     2
100
AcDbLine
 10
204.0072301476
 20
62.9839440915
 30
0.0
 11
204.0072301476
 21
56.9839440915
 31
0.0
  0
LINE
  5
310
330
1B
100
AcDbEntity
 67
     1
  8
0
  6
Continuous
 62
     2
100
AcDbLine
 10
234.0072301476
 20
32.9839440915
 30
0.0
 11
234.0072301476
 21
20.9839440915
 31
0.0
  0
LINE
  5
311
330
1B
100
AcDbEntity
 67
     1
  8
0
  6
Continuous
 62
     2
100
AcDbLine
 10
244.0072301476
 20
62.9839440915
 30
0.0
 11
244.0072301476
 21
56.9839440915
 31
0.0
  0
LINE
  5
312
330
1B
100
AcDbEntity
 67
     1
  8
0
  6
Continuous
 62
     2
100
AcDbLine
 10
244.0072301476
 20
50.9839440915
 30
0.0
 11
244.0072301476
 21
44.9839440915
 31
0.0
  0
LINE
  5
313
330
1B
100
AcDbEntity
 67
     1
  8
0
  6
Continuous
 62
     2
100
AcDbLine
 10
264.0072301476
 20
62.9839440915
 30
0.0
 11
264.0072301476
 21
56.9839440915
 31
0.0
  0
LINE
  5
314
330
1B
100
AcDbEntity
 67
     1
  8
0
  6
Continuous
 62
     2
100
AcDbLine
 10
274.0072301476
 20
50.9839440915
 30
0.0
 11
274.0072301476
 21
44.9839440915
 31
0.0
  0
LINE
  5
315
330
1B
100
AcDbEntity
 67
     1
  8
0
  6
Continuous
 62
     2
100
AcDbLine
 10
284.0072301476
 20
78.9839440915
 30
0.0
 11
284.0072301476
 21
12.9839440915
 31
0.0
  0
INSERT
  5
316
330
1B
100
AcDbEntity
 67
     1
  8
0
  6
Continuous
 62
     2
100
AcDbBlockReference
  2
PROIEZIONE_EU_BL0
 10
169.0072301476
 20
70.6089440915
 30
0.0
  0
MTEXT
  5
317
330
1B
100
AcDbEntity
 67
     1
  8
9_SOLID
  6
Continuous
 62
     2
100
AcDbMText
 10
185.4947301476
 20
77.3589440915
 30
0.0
 40
1.9
 41
142.3642857143
 46
0.0
 71
     1
 72
     1
  1
EN: Chamfer/radii unlisted 0.3x45°. Remove sharp edges.\PGen. tol.: hole H11, shaft h11, lenght Js12. UNI EN 22768 Medium Grande.
  7
TEXTSTYLE_4
 73
     1
 44
1.0
  0
MTEXT
  5
318
330
1B
100
AcDbEntity
 67
     1
  8
9_SOLID
  6
Continuous
 62
     2
100
AcDbMText
 10
185.4947301476
 20
69.3589440915
 30
0.0
 40
1.9
 41
148.2678571429
 46
0.0
 71
     1
 72
     1
  1
IT: Sm./rac. non quotati 0.3x45°. Eliminare spigoli taglienti.\PToll. gen.: foro H11, albero h11, lunghezza Js12. UNI EN 22768 Grado Medio.
  7
TEXTSTYLE_4
 73
     1
 44
1.0
  0
INSERT
  5
319
330
1B
100
AcDbEntity
 67
     1
  8
0
  6
Continuous
 62
     2
100
AcDbBlockReference
  2
LOGO2_BL1
 10
167.8332771924
 20
44.9839440915
 30
0.0
  0
MTEXT
  5
31A
330
1B
100
AcDbEntity
 67
     1
  8
9_SOLID
  6
Continuous
 62
     2
100
AcDbMText
 10
185.4947301476
 20
61.2339440915
 30
0.0
 40
3.0
 41
21.1071428571
 46
0.0
 71
     1
 72
     1
  1
Pj: 415
  7
TEXTSTYLE_4
 73
     1
 44
1.0
  0
MTEXT
  5
31B
330
1B
100
AcDbEntity
 67
     1
  8
9_SOLID
  6
Continuous
 62
     2
100
AcDbMText
 10
205.4947301476
 20
61.2339440915
 30
0.0
 40
3.0
 41
38.0357142857
 46
0.0
 71
     1
 72
     1
  1
% Check: %
  7
TEXTSTYLE_4
 73
     1
 44
1.0
  0
MTEXT
  5
31C
330
1B
100
AcDbEntity
 67
     1
  8
9_SOLID
  6
Continuous
 62
     2
100
AcDbMText
 10
245.4947301476
 20
61.2339440915
 30
0.0
 40
3.0
 41
19.5
 46
0.0
 71
     1
 72
     1
  1
Rev:00
  7
TEXTSTYLE_4
 73
     1
 44
1.0
  0
MTEXT
  5
31D
330
1B
100
AcDbEntity
 67
     1
  8
9_SOLID
  6
Continuous
 62
     2
100
AcDbMText
 10
265.4947301476
 20
61.4839440915
 30
0.0
 40
3.0
 41
19.7142857143
 46
0.0
 71
     1
 72
     1
  1
Ver: A
  7
TEXTSTYLE_4
 73
     1
 44
1.0
  0
MTEXT
  5
31E
330
1B
100
AcDbEntity
 67
     1
  8
9_SOLID
  6
Continuous
 62
     2
100
AcDbMText
 10
185.4947301476
 20
55.2339440915
 30
0.0
 40
3.0
 41
73.7142857143
 46
0.0
 71
     1
 72
     1
  1
Neutral code: 415_C_004
  7
TEXTSTYLE_4
 73
     1
 44
1.0
  0
MTEXT
  5
31F
330
1B
100
AcDbEntity
 67
     1
  8
9_SOLID
  6
Continuous
 62
     2
100
AcDbMText
 10
185.4947301476
 20
49.2339440915
 30
0.0
 40
3.0
 41
19.3928571429
 46
0.0
 71
     1
 72
     1
  1
Code: 
  7
TEXTSTYLE_4
 73
     1
 44
1.0
  0
MTEXT
  5
320
330
1B
100
AcDbEntity
 67
     1
  8
9_SOLID
  6
Continuous
 62
     2
100
AcDbMText
 10
245.4947301476
 20
49.4839440915
 30
0.0
 40
3.0
 41
27.0
 46
0.0
 71
     1
 72
     1
  1
Scale: 1:1
  7
TEXTSTYLE_4
 73
     1
 44
1.0
  0
MTEXT
  5
321
330
1B
100
AcDbEntity
 67
     1
  8
9_SOLID
  6
Continuous
 62
     2
100
AcDbMText
 10
279.0072301476
 20
49.4839440915
 30
0.0
 40
3.0
 41
7.3928571429
 46
0.0
 71
     2
 72
     1
  1
A4
  7
TEXTSTYLE_4
 73
     1
 44
1.0
  0
MTEXT
  5
322
330
1B
100
AcDbEntity
 67
     1
  8
9_SOLID
  6
Continuous
 62
     2
100
AcDbMText
 10
185.4947301476
 20
43.4839440915
 30
0.0
 40
3.0
 41
119.4642857143
 46
0.0
 71
     1
 72
     1
  1
It descr.: CANNOCCHIALE ASIM. SPOT 1
  7
TEXTSTYLE_4
 73
     1
 44
1.0
  0
MTEXT
  5
323
330
1B
100
AcDbEntity
 67
     1
  8
9_SOLID
  6
Continuous
 62
     2
100
AcDbMText
 10
185.4947301476
 20
37.4839440915
 30
0.0
 40
3.0
 41
33.9642857143
 46
0.0
 71
     1
 72
     1
  1
En descr.: 
  7
TEXTSTYLE_4
 73
     1
 44
1.0
  0
MTEXT
  5
324
330
1B
100
AcDbEntity
 67
     1
  8
9_SOLID
  6
Continuous
 62
     2
100
AcDbMText
 10
185.4947301476
 20
31.4839440915
 30
0.0
 40
3.0
 41
28.7142857143
 46
0.0
 71
     1
 72
     1
  1
Des.: A.F
  7
TEXTSTYLE_4
 73
     1
 44
1.0
  0
MTEXT
  5
325
330
1B
100
AcDbEntity
 67
     1
  8
9_SOLID
  6
Continuous
 62
     2
100
AcDbMText
 10
235.4947301476
 20
31.4839440915
 30
0.0
 40
3.0
 41
34.8214285714
 46
0.0
 71
     1
 72
     1
  1
Check: A.P.
  7
TEXTSTYLE_4
 73
     1
 44
1.0
  0
MTEXT
  5
326
330
1B
100
AcDbEntity
 67
     1
  8
9_SOLID
  6
Continuous
 62
     2
100
AcDbMText
 10
155.4947301476
 20
25.4839440915
 30
0.0
 40
3.0
 41
42.5357142857
 46
0.0
 71
     1
 72
     1
  1
Date: 14.12.18
  7
TEXTSTYLE_4
 73
     1
 44
1.0
  0
MTEXT
  5
327
330
1B
100
AcDbEntity
 67
     1
  8
9_SOLID
  6
Continuous
 62
     2
100
AcDbMText
 10
185.4947301476
 20
25.4839440915
 30
0.0
 40
3.0
 41
18.2142857143
 46
0.0
 71
     1
 72
     1
  1
Mat.: 
  7
TEXTSTYLE_4
 73
     1
 44
1.0
  0
MTEXT
  5
328
330
1B
100
AcDbEntity
 67
     1
  8
9_SOLID
  6
Continuous
 62
     2
100
AcDbMText
 10
235.4947301476
 20
24.9839440915
 30
0.0
 40
2.0
 41
42.3571428571
 46
0.0
 71
     1
 72
     1
  1
Disegno per catalogo
  7
TEXTSTYLE_4
 73
     1
 44
1.0
  0
MTEXT
  5
329
330
1B
100
AcDbEntity
 67
     1
  8
9_SOLID
  6
Continuous
 62
     2
100
AcDbMText
 10
155.4947301476
 20
19.8839440915
 30
0.0
 40
1.8
 41
175.6928571429
 46
0.0
 71
     1
 72
     1
  1
It: A norma di legge si diffida da qualsiasi riproduzione senza nostra autorizzazione esplicita.
  7
TEXTSTYLE_4
 73
     1
 44
1.0
  0
MTEXT
  5
32A
330
1B
100
AcDbEntity
 67
     1
  8
9_SOLID
  6
Continuous
 62
     2
100
AcDbMText
 10
155.4947301476
 20
15.8839440915
 30
0.0
 40
1.8
 41
157.6285714286
 46
0.0
 71
     1
 72
     1
  1
En: According to the law, beware of any reproduction made without our authorization.
  7
TEXTSTYLE_4
 73
     1
 44
1.0
  0
ENDSEC
  0
SECTION
  2
OBJECTS
  0
DICTIONARY
  5
32B
330
0
100
AcDbDictionary
281
     1
  3
ACAD_DETAILVIEWSTYLE
350
381
  3
ACAD_GROUP
350
32C
  3
ACAD_LAYOUT
350
354
  3
ACAD_MATERIAL
350
370
  3
ACAD_MLEADERSTYLE
350
376
  3
ACAD_MLINESTYLE
350
32D
  3
ACAD_PLOTSETTINGS
350
32F
  3
ACAD_PLOTSTYLENAME
350
330
  3
ACAD_SCALELIST
350
332
  3
ACAD_SECTIONVIEWSTYLE
350
382
  3
ACAD_TABLESTYLE
350
374
  3
ACAD_VISUALSTYLE
350
357
  3
ACDB_RECOMPOSE_DATA
350
37D
  3
AcDbVariableDictionary
350
379
  3
APPDATA
350
378
  0
DICTIONARY
  5
381
102
{ACAD_REACTORS
330
32B
102
}
330
32B
100
AcDbDictionary
281
     1
  0
DICTIONARY
  5
32C
102
{ACAD_REACTORS
330
32B
102
}
330
32B
100
AcDbDictionary
281
     1
  0
DICTIONARY
  5
354
102
{ACAD_REACTORS
330
32B
102
}
330
32B
100
AcDbDictionary
281
     1
  3
Foglio 1
350
356
  3
Model
350
355
  0
DICTIONARY
  5
370
102
{ACAD_REACTORS
330
32B
102
}
330
32B
100
AcDbDictionary
281
     1
  3
ByBlock
350
372
  3
ByLayer
350
371
  3
Global
350
373
  0
DICTIONARY
  5
376
102
{ACAD_REACTORS
330
32B
102
}
330
32B
100
AcDbDictionary
281
     1
  3
Standard
350
377
  0
DICTIONARY
  5
32D
102
{ACAD_REACTORS
330
32B
102
}
330
32B
100
AcDbDictionary
281
     1
  3
STANDARD
350
32E
  0
DICTIONARY
  5
32F
102
{ACAD_REACTORS
330
32B
102
}
330
32B
100
AcDbDictionary
281
     1
  0
ACDBDICTIONARYWDFLT
  5
330
102
{ACAD_REACTORS
330
32B
102
}
330
32B
100
AcDbDictionary
281
     1
  3
Normal
350
331
100
AcDbDictionaryWithDefault
340
331
  0
DICTIONARY
  5
332
102
{ACAD_REACTORS
330
32B
102
}
330
32B
100
AcDbDictionary
281
     1
  3
A0
350
333
  3
A1
350
334
  3
A2
350
335
  3
A3
350
336
  3
A4
350
337
  3
A5
350
338
  3
A6
350
339
  3
A7
350
33A
  3
A8
350
33B
  3
A9
350
33C
  3
B0
350
33D
  3
B1
350
33E
  3
B2
350
33F
  3
B3
350
340
  3
B4
350
341
  3
B5
350
342
  3
B6
350
343
  3
B7
350
344
  3
B8
350
345
  3
B9
350
346
  3
C0
350
347
  3
C1
350
348
  3
C2
350
349
  3
C3
350
34A
  3
C4
350
34B
  3
C5
350
34C
  3
C6
350
34D
  3
C7
350
34E
  3
C8
350
34F
  3
C9
350
350
  3
D0
350
351
  3
D1
350
352
  3
D2
350
353
  0
DICTIONARY
  5
382
102
{ACAD_REACTORS
330
32B
102
}
330
32B
100
AcDbDictionary
281
     1
  0
DICTIONARY
  5
374
102
{ACAD_REACTORS
330
32B
102
}
330
32B
100
AcDbDictionary
281
     1
  3
Standard
350
375
  0
DICTIONARY
  5
357
102
{ACAD_REACTORS
330
32B
102
}
330
32B
100
AcDbDictionary
281
     1
  3
2dWireframe
350
35C
  3
Basic
350
35F
  3
Brighten
350
363
  3
ColorChange
350
367
  3
Conceptual
350
361
  3
Dim
350
362
  3
EdgeColorOff
350
36A
  3
Facepattern
350
366
  3
Flat
350
358
  3
FlatWithEdges
350
359
  3
Gouraud
350
35A
  3
GouraudWithEdges
350
35B
  3
Hidden
350
35E
  3
JitterOff
350
368
  3
Linepattern
350
365
  3
OverhangOff
350
369
  3
Realistic
350
360
  3
Shaded
350
36F
  3
Shaded with edges
350
36E
  3
Shades of Gray
350
36B
  3
Sketchy
350
36C
  3
Thicken
350
364
  3
Wireframe
350
35D
  3
X-Ray
350
36D
  0
XRECORD
  5
37D
102
{ACAD_REACTORS
330
32B
102
}
330
32B
100
AcDbXrecord
280
     1
 90
        1
330
375
  0
DICTIONARY
  5
379
102
{ACAD_REACTORS
330
32B
102
}
330
32B
100
AcDbDictionary
281
     1
  3
CANNOSCALE
350
37A
  3
CMLEADERSTYLE
350
37F
  3
CTABLESTYLE
350
37E
  3
MSLTSCALE
350
380
  0
DICTIONARY
  5
378
102
{ACAD_REACTORS
330
32B
102
}
330
32B
100
AcDbDictionary
281
     1
  0
LAYOUT
  5
356
102
{ACAD_REACTORS
330
354
102
}
330
354
100
AcDbPlotSettings
  1

  2
none_device
  4
ISO_A3_(420.00_x_297.00_MM)
  6

 40
7.5
 41
20.0
 42
7.5
 43
20.0
 44
420.0
 45
297.0
 46
0.0
 47
0.0
 48
0.0
 49
0.0
140
0.0
141
0.0
142
1.0
143
0.7396887159533074
 70
   688
 72
     1
 73
     0
 74
     1
  7

 75
     0
 76
     0
 77
     2
 78
   300
147
1.351920042083114
148
-9.949999999999989
149
-9.950000000000003
100
AcDbLayout
  1
Foglio 1
 70
     1
 71
     1
 10
0.0
 20
0.0
 11
412.5
 21
277.0
 12
0.0
 22
0.0
 32
0.0
 14
9.949999999999989
 24
9.950000000000003
 34
0.0
 15
291.5463968142667
 25
200.05
 35
0.0
146
0.0
 13
0.0
 23
0.0
 33
0.0
 16
1.0
 26
0.0
 36
0.0
 17
0.0
 27
1.0
 37
0.0
 76
     0
330
1B
331
28B
  0
LAYOUT
  5
355
102
{ACAD_REACTORS
330
354
102
}
330
354
100
AcDbPlotSettings
  1

  2
none_device
  4
Letter_(8.50_x_11.00_Inches)
  6

 40
6.35
 41
6.35
 42
6.35
 43
6.35
 44
215.9
 45
279.4
 46
0.0
 47
0.0
 48
0.0
 49
0.0
140
0.0
141
0.0
142
1.0
143
37.125000000375
 70
  1712
 72
     0
 73
     0
 74
     0
  7

 75
     0
 76
     0
 77
     2
 78
   300
147
0.0269360269357549
148
0.000000038100319
149
0.0
100
AcDbLayout
  1
Model
 70
     1
 71
     0
 10
0.0
 20
0.0
 11
297.0
 21
210.0
 12
0.0
 22
0.0
 32
0.0
 14
0.0
 24
0.0
 34
0.0
 15
297.0
 25
210.0
 35
0.0
146
0.0
 13
0.0
 23
0.0
 33
0.0
 16
1.0
 26
0.0
 36
0.0
 17
0.0
 27
1.0
 37
0.0
 76
     0
330
1F
331
1F4
  0
MATERIAL
  5
372
102
{ACAD_REACTORS
330
370
102
}
330
370
100
AcDbMaterial
  1
ByBlock
 72
     1
 94
      127
  0
MATERIAL
  5
371
102
{ACAD_REACTORS
330
370
102
}
330
370
100
AcDbMaterial
  1
ByLayer
 72
     1
 94
      127
  0
MATERIAL
  5
373
102
{ACAD_REACTORS
330
370
102
}
330
370
100
AcDbMaterial
  1
Global
 72
     1
 94
      127
  0
MLEADERSTYLE
  5
377
102
{ACAD_REACTORS
330
376
102
}
330
376
100
AcDbMLeaderStyle
179
     2
170
     2
171
     1
172
     0
 90
        2
 40
0.0
 41
0.0
173
     1
 91
-1056964608
340
14
 92
       -2
290
     1
 42
2.0
291
     1
 43
8.0
  3
Standard
341
0
 44
4.0
300

342
11
174
     1
178
     1
175
     1
176
     0
 93
-1056964608
 45
4.0
292
     0
297
     0
 46
4.0
343
0
 94
-1056964608
 47
1.0
 49
1.0
140
1.0
293
     1
141
0.0
294
     1
177
     0
142
1.0
295
     0
296
     0
143
3.75
271
     0
272
     9
273
     9
298
     0
  0
MLINESTYLE
  5
32E
102
{ACAD_REACTORS
330
32D
102
}
330
32D
100
AcDbMlineStyle
  2
STANDARD
 70
     0
  3

 62
   256
 51
90.0
 52
90.0
 71
     2
 49
0.5
 62
   256
  6
BYLAYER
 49
-0.5
 62
   256
  6
BYLAYER
  0
ACDBPLACEHOLDER
  5
331
102
{ACAD_REACTORS
330
330
102
}
330
330
  0
SCALE
  5
333
102
{ACAD_REACTORS
330
332
102
}
330
332
100
AcDbScale
 70
     0
300
1:1
140
1.0
141
1.0
290
     1
  0
SCALE
  5
334
102
{ACAD_REACTORS
330
332
102
}
330
332
100
AcDbScale
 70
     0
300
1:2
140
1.0
141
2.0
290
     0
  0
SCALE
  5
335
102
{ACAD_REACTORS
330
332
102
}
330
332
100
AcDbScale
 70
     0
300
1:4
140
1.0
141
4.0
290
     0
  0
SCALE
  5
336
102
{ACAD_REACTORS
330
332
102
}
330
332
100
AcDbScale
 70
     0
300
1:5
140
1.0
141
5.0
290
     0
  0
SCALE
  5
337
102
{ACAD_REACTORS
330
332
102
}
330
332
100
AcDbScale
 70
     0
300
1:8
140
1.0
141
8.0
290
     0
  0
SCALE
  5
338
102
{ACAD_REACTORS
330
332
102
}
330
332
100
AcDbScale
 70
     0
300
1:10
140
1.0
141
10.0
290
     0
  0
SCALE
  5
339
102
{ACAD_REACTORS
330
332
102
}
330
332
100
AcDbScale
 70
     0
300
1:16
140
1.0
141
16.0
290
     0
  0
SCALE
  5
33A
102
{ACAD_REACTORS
330
332
102
}
330
332
100
AcDbScale
 70
     0
300
1:20
140
1.0
141
20.0
290
     0
  0
SCALE
  5
33B
102
{ACAD_REACTORS
330
332
102
}
330
332
100
AcDbScale
 70
     0
300
1:30
140
1.0
141
30.0
290
     0
  0
SCALE
  5
33C
102
{ACAD_REACTORS
330
332
102
}
330
332
100
AcDbScale
 70
     0
300
1:40
140
1.0
141
40.0
290
     0
  0
SCALE
  5
33D
102
{ACAD_REACTORS
330
332
102
}
330
332
100
AcDbScale
 70
     0
300
1:50
140
1.0
141
50.0
290
     0
  0
SCALE
  5
33E
102
{ACAD_REACTORS
330
332
102
}
330
332
100
AcDbScale
 70
     0
300
1:100
140
1.0
141
100.0
290
     0
  0
SCALE
  5
33F
102
{ACAD_REACTORS
330
332
102
}
330
332
100
AcDbScale
 70
     0
300
2:1
140
2.0
141
1.0
290
     0
  0
SCALE
  5
340
102
{ACAD_REACTORS
330
332
102
}
330
332
100
AcDbScale
 70
     0
300
4:1
140
4.0
141
1.0
290
     0
  0
SCALE
  5
341
102
{ACAD_REACTORS
330
332
102
}
330
332
100
AcDbScale
 70
     0
300
8:1
140
8.0
141
1.0
290
     0
  0
SCALE
  5
342
102
{ACAD_REACTORS
330
332
102
}
330
332
100
AcDbScale
 70
     0
300
10:1
140
10.0
141
1.0
290
     0
  0
SCALE
  5
343
102
{ACAD_REACTORS
330
332
102
}
330
332
100
AcDbScale
 70
     0
300
100:1
140
100.0
141
1.0
290
     0
  0
SCALE
  5
344
102
{ACAD_REACTORS
330
332
102
}
330
332
100
AcDbScale
 70
     0
300
1/128" = 1'-0"
140
0.0078125
141
12.0
290
     0
  0
SCALE
  5
345
102
{ACAD_REACTORS
330
332
102
}
330
332
100
AcDbScale
 70
     0
300
1/64" = 1'-0"
140
0.015625
141
12.0
290
     0
  0
SCALE
  5
346
102
{ACAD_REACTORS
330
332
102
}
330
332
100
AcDbScale
 70
     0
300
1/32" = 1'-0"
140
0.03125
141
12.0
290
     0
  0
SCALE
  5
347
102
{ACAD_REACTORS
330
332
102
}
330
332
100
AcDbScale
 70
     0
300
1/16" = 1'-0"
140
0.0625
141
12.0
290
     0
  0
SCALE
  5
348
102
{ACAD_REACTORS
330
332
102
}
330
332
100
AcDbScale
 70
     0
300
3/32" = 1'-0"
140
0.09375
141
12.0
290
     0
  0
SCALE
  5
349
102
{ACAD_REACTORS
330
332
102
}
330
332
100
AcDbScale
 70
     0
300
1/8" = 1'-0"
140
0.125
141
12.0
290
     0
  0
SCALE
  5
34A
102
{ACAD_REACTORS
330
332
102
}
330
332
100
AcDbScale
 70
     0
300
3/16" = 1'-0"
140
0.1875
141
12.0
290
     0
  0
SCALE
  5
34B
102
{ACAD_REACTORS
330
332
102
}
330
332
100
AcDbScale
 70
     0
300
1/4" = 1'-0"
140
0.25
141
12.0
290
     0
  0
SCALE
  5
34C
102
{ACAD_REACTORS
330
332
102
}
330
332
100
AcDbScale
 70
     0
300
3/8" = 1'-0"
140
0.375
141
12.0
290
     0
  0
SCALE
  5
34D
102
{ACAD_REACTORS
330
332
102
}
330
332
100
AcDbScale
 70
     0
300
1/2" = 1'-0"
140
0.5
141
12.0
290
     0
  0
SCALE
  5
34E
102
{ACAD_REACTORS
330
332
102
}
330
332
100
AcDbScale
 70
     0
300
3/4" = 1'-0"
140
0.75
141
12.0
290
     0
  0
SCALE
  5
34F
102
{ACAD_REACTORS
330
332
102
}
330
332
100
AcDbScale
 70
     0
300
1" = 1'-0"
140
1.0
141
12.0
290
     0
  0
SCALE
  5
350
102
{ACAD_REACTORS
330
332
102
}
330
332
100
AcDbScale
 70
     0
300
1-1/2" = 1'-0"
140
1.5
141
12.0
290
     0
  0
SCALE
  5
351
102
{ACAD_REACTORS
330
332
102
}
330
332
100
AcDbScale
 70
     0
300
3" = 1'-0"
140
3.0
141
12.0
290
     0
  0
SCALE
  5
352
102
{ACAD_REACTORS
330
332
102
}
330
332
100
AcDbScale
 70
     0
300
6" = 1'-0"
140
6.0
141
12.0
290
     0
  0
SCALE
  5
353
102
{ACAD_REACTORS
330
332
102
}
330
332
100
AcDbScale
 70
     0
300
1'-0" = 1'-0"
140
12.0
141
12.0
290
     0
  0
TABLESTYLE
  5
375
102
{ACAD_REACTORS
330
374
102
}
102
{ACAD_XDICTIONARY
360
37B
102
}
330
374
100
AcDbTableStyle
  3
Standard
 70
     0
 71
     0
 40
0.06
 41
0.06
280
     0
281
     0
  7
STANDARD
140
4.5
170
     2
 62
     0
 63
   257
283
     0
 90
        4
 91
        0
  1

274
    -2
284
     1
 64
     0
275
    -2
285
     1
 65
     0
276
    -2
286
     1
 66
     0
277
    -2
287
     1
 67
     0
278
    -2
288
     1
 68
     0
279
    -2
289
     1
 69
     0
  7
STANDARD
140
6.0
170
     5
 62
     0
 63
   257
283
     0
 90
        4
 91
        0
  1

274
    -2
284
     1
 64
     0
275
    -2
285
     1
 65
     0
276
    -2
286
     1
 66
     0
277
    -2
287
     1
 67
     0
278
    -2
288
     1
 68
     0
279
    -2
289
     1
 69
     0
  7
STANDARD
140
4.5
170
     5
 62
     0
 63
   257
283
     0
 90
        4
 91
        0
  1

274
    -2
284
     1
 64
     0
275
    -2
285
     1
 65
     0
276
    -2
286
     1
 66
     0
277
    -2
287
     1
 67
     0
278
    -2
288
     1
 68
     0
279
    -2
289
     1
 69
     0
  0
VISUALSTYLE
  5
35C
102
{ACAD_REACTORS
330
357
102
}
330
357
100
AcDbVisualStyle
  2
2dWireframe
 70
     4
177
     3
291
     0
 70
    58
 90
        0
176
     1
 90
        2
176
     1
 90
        0
176
     1
 90
        0
176
     1
 40
0.6
176
     1
 40
30.0
176
     1
 62
     7
420
 16777215
176
     1
 90
        1
176
     1
 90
        4
176
     1
 62
     7
176
     1
 62
   257
176
     1
 90
        1
176
     1
 90
        1
176
     1
 40
1.0
176
     1
 90
        0
176
     1
 62
   257
176
     1
 40
1.0
176
     1
 90
        1
176
     1
 90
        6
176
     1
 90
        2
176
     1
 62
     7
176
     1
 90
        5
176
     1
 90
        0
176
     1
 90
        0
176
     1
290
     0
176
     1
 90
        1
176
     1
 40
0.0
176
     1
 90
        0
176
     1
290
     1
176
     1
290
     1
176
     1
290
     0
176
     1
290
     0
176
     1
290
     0
176
     1
290
     0
176
     1
290
     0
176
     1
290
     0
176
     1
290
     0
176
     1
 90
       50
176
     1
 40
0.0
176
     1
 40
1.0
176
     1
 90
        0
176
     1
 62
    18
420
        0
176
     1
 90
       50
176
     1
 90
        3
176
     1
 62
     5
420
      255
176
     1
290
     0
176
     1
 90
       50
176
     1
 90
       50
176
     1
 90
       50
176
     1
290
     0
176
     1
 90
       50
176
     1
 62
   256
176
     0
 40
1.0
176
     0
 90
        2
176
     1
  1
strokes_ogs.tif
176
     1
290
     0
176
     1
 40
1.0
176
     1
 40
1.0
176
     1
  0
VISUALSTYLE
  5
35F
102
{ACAD_REACTORS
330
357
102
}
330
357
100
AcDbVisualStyle
  2
Basic
 70
     7
177
     3
291
     1
 70
    58
 90
        1
176
     1
 90
        0
176
     1
 90
        1
176
     1
 90
        0
176
     1
 40
0.6
176
     1
 40
30.0
176
     1
 62
     7
420
 16777215
176
     1
 90
        0
176
     1
 90
        4
176
     1
 62
     7
176
     1
 62
   257
176
     1
 90
        1
176
     1
 90
        1
176
     1
 40
1.0
176
     1
 90
        8
176
     1
 62
     7
176
     1
 40
1.0
176
     1
 90
        1
176
     1
 90
        6
176
     1
 90
        2
176
     1
 62
     7
176
     1
 90
        5
176
     1
 90
        0
176
     1
 90
        0
176
     1
290
     0
176
     1
 90
        1
176
     1
 40
0.0
176
     1
 90
        0
176
     1
290
     0
176
     1
290
     1
176
     1
290
     1
176
     1
290
     0
176
     1
290
     0
176
     1
290
     0
176
     1
290
     0
176
     1
290
     0
176
     1
290
     0
176
     1
 90
       50
176
     1
 40
0.0
176
     1
 40
1.0
176
     1
 90
        0
176
     1
 62
    18
420
        0
176
     1
 90
       50
176
     1
 90
        3
176
     1
 62
     5
420
      255
176
     1
290
     0
176
     1
 90
       50
176
     1
 90
       50
176
     1
 90
       50
176
     1
290
     0
176
     1
 90
       50
176
     1
 62
   256
176
     0
 40
1.0
176
     0
 90
        2
176
     1
  1
strokes_ogs.tif
176
     1
290
     0
176
     1
 40
1.0
176
     1
 40
1.0
176
     1
  0
VISUALSTYLE
  5
363
102
{ACAD_REACTORS
330
357
102
}
330
357
100
AcDbVisualStyle
  2
Brighten
 70
    12
177
     3
291
     1
 70
    58
 90
        2
176
     1
 90
        2
176
     1
 90
        0
176
     1
 90
        0
176
     1
 40
0.6
176
     1
 40
30.0
176
     1
 62
     7
420
 16777215
176
     1
 90
        1
176
     1
 90
        4
176
     1
 62
     7
176
     1
 62
   257
176
     1
 90
        1
176
     1
 90
        1
176
     1
 40
1.0
176
     1
 90
        8
176
     1
 62
     7
176
     1
 40
1.0
176
     1
 90
        1
176
     1
 90
        6
176
     1
 90
        2
176
     1
 62
     7
176
     1
 90
        5
176
     1
 90
        0
176
     1
 90
        0
176
     1
290
     0
176
     1
 90
        1
176
     1
 40
50.0
176
     1
 90
        0
176
     1
290
     0
176
     1
290
     1
176
     1
290
     1
176
     1
290
     0
176
     1
290
     0
176
     1
290
     0
176
     1
290
     0
176
     1
290
     0
176
     1
290
     0
176
     1
 90
       50
176
     1
 40
0.0
176
     1
 40
1.0
176
     1
 90
        0
176
     1
 62
    18
420
        0
176
     1
 90
       50
176
     1
 90
        3
176
     1
 62
     5
420
      255
176
     1
290
     0
176
     1
 90
       50
176
     1
 90
       50
176
     1
 90
       50
176
     1
290
     0
176
     1
 90
       50
176
     1
 62
   256
176
     0
 40
1.0
176
     0
 90
        2
176
     1
  1
strokes_ogs.tif
176
     1
290
     0
176
     1
 40
1.0
176
     1
 40
1.0
176
     1
  0
VISUALSTYLE
  5
367
102
{ACAD_REACTORS
330
357
102
}
330
357
100
AcDbVisualStyle
  2
ColorChange
 70
    16
177
     3
291
     1
 70
    58
 90
        2
176
     1
 90
        2
176
     1
 90
        3
176
     1
 90
        0
176
     1
 40
0.6
176
     1
 40
30.0
176
     1
 62
     8
420
  8421504
176
     1
 90
        1
176
     1
 90
        4
176
     1
 62
     7
176
     1
 62
   257
176
     1
 90
        1
176
     1
 90
        1
176
     1
 40
1.0
176
     1
 90
        8
176
     1
 62
     8
420
  8421504
176
     1
 40
1.0
176
     1
 90
        1
176
     1
 90
        6
176
     1
 90
        2
176
     1
 62
     7
176
     1
 90
        5
176
     1
 90
        0
176
     1
 90
        0
176
     1
290
     0
176
     1
 90
        1
176
     1
 40
0.0
176
     1
 90
        0
176
     1
290
     0
176
     1
290
     1
176
     1
290
     1
176
     1
290
     0
176
     1
290
     0
176
     1
290
     0
176
     1
290
     0
176
     1
290
     0
176
     1
290
     0
176
     1
 90
       50
176
     1
 40
0.0
176
     1
 40
1.0
176
     1
 90
        0
176
     1
 62
    18
420
        0
176
     1
 90
       50
176
     1
 90
        3
176
     1
 62
     5
420
      255
176
     1
290
     0
176
     1
 90
       50
176
     1
 90
       50
176
     1
 90
       50
176
     1
290
     0
176
     1
 90
       50
176
     1
 62
   256
176
     0
 40
1.0
176
     0
 90
        2
176
     1
  1
strokes_ogs.tif
176
     1
290
     0
176
     1
 40
1.0
176
     1
 40
1.0
176
     1
  0
VISUALSTYLE
  5
361
102
{ACAD_REACTORS
330
357
102
}
330
357
100
AcDbVisualStyle
  2
Conceptual
 70
     9
177
     3
291
     0
 70
    58
 90
        3
176
     1
 90
        2
176
     1
 90
        0
176
     1
 90
        0
176
     1
 40
0.6
176
     1
 40
30.0
176
     1
 62
     7
420
 16777215
176
     1
 90
        2
176
     1
 90
        2
176
     1
 62
     7
176
     1
 62
   257
176
     1
 90
        1
176
     1
 90
        1
176
     1
 40
179.0
176
     1
 90
        8
176
     1
 62
     7
176
     1
 40
1.0
176
     1
 90
        1
176
     1
 90
        6
176
     1
 90
        2
176
     1
 62
     7
176
     1
 90
        3
176
     1
 90
        0
176
     1
 90
        0
176
     1
290
     0
176
     1
 90
        1
176
     1
 40
0.0
176
     1
 90
        0
176
     1
290
     0
176
     1
290
     1
176
     1
290
     1
176
     1
290
     0
176
     1
290
     0
176
     1
290
     0
176
     1
290
     0
176
     1
290
     0
176
     1
290
     0
176
     1
 90
       50
176
     1
 40
0.0
176
     1
 40
1.0
176
     1
 90
        0
176
     1
 62
    18
420
        0
176
     1
 90
       50
176
     1
 90
        3
176
     1
 62
     5
420
      255
176
     1
290
     0
176
     1
 90
       50
176
     1
 90
       50
176
     1
 90
       50
176
     1
290
     0
176
     1
 90
       50
176
     1
 62
   256
176
     0
 40
1.0
176
     0
 90
        2
176
     1
  1
strokes_ogs.tif
176
     1
290
     0
176
     1
 40
1.0
176
     1
 40
1.0
176
     1
  0
VISUALSTYLE
  5
362
102
{ACAD_REACTORS
330
357
102
}
330
357
100
AcDbVisualStyle
  2
Dim
 70
    11
177
     3
291
     1
 70
    58
 90
        2
176
     1
 90
        2
176
     1
 90
        0
176
     1
 90
        0
176
     1
 40
0.6
176
     1
 40
30.0
176
     1
 62
     7
420
 16777215
176
     1
 90
        1
176
     1
 90
        4
176
     1
 62
     7
176
     1
 62
   257
176
     1
 90
        1
176
     1
 90
        1
176
     1
 40
1.0
176
     1
 90
        8
176
     1
 62
     7
176
     1
 40
1.0
176
     1
 90
        1
176
     1
 90
        6
176
     1
 90
        2
176
     1
 62
     7
176
     1
 90
        5
176
     1
 90
        0
176
     1
 90
        0
176
     1
290
     0
176
     1
 90
        1
176
     1
 40
-50.0
176
     1
 90
        0
176
     1
290
     0
176
     1
290
     1
176
     1
290
     1
176
     1
290
     0
176
     1
290
     0
176
     1
290
     0
176
     1
290
     0
176
     1
290
     0
176
     1
290
     0
176
     1
 90
       50
176
     1
 40
0.0
176
     1
 40
1.0
176
     1
 90
        0
176
     1
 62
    18
420
        0
176
     1
 90
       50
176
     1
 90
        3
176
     1
 62
     5
420
      255
176
     1
290
     0
176
     1
 90
       50
176
     1
 90
       50
176
     1
 90
       50
176
     1
290
     0
176
     1
 90
       50
176
     1
 62
   256
176
     0
 40
1.0
176
     0
 90
        2
176
     1
  1
strokes_ogs.tif
176
     1
290
     0
176
     1
 40
1.0
176
     1
 40
1.0
176
     1
  0
VISUALSTYLE
  5
36A
102
{ACAD_REACTORS
330
357
102
}
330
357
100
AcDbVisualStyle
  2
EdgeColorOff
 70
    22
177
     3
291
     1
 70
    58
 90
        2
176
     0
 90
        2
176
     0
 90
        0
176
     0
 90
        0
176
     0
 40
0.6
176
     0
 40
30.0
176
     0
 62
     7
420
 16777215
176
     0
 90
        1
176
     0
 90
        4
176
     0
 62
     7
176
     0
 62
   257
176
     0
 90
        1
176
     0
 90
        1
176
     0
 40
1.0
176
     0
 90
        8
176
     2
 62
     7
176
     0
 40
1.0
176
     0
 90
        1
176
     0
 90
        6
176
     0
 90
        2
176
     0
 62
     7
176
     0
 90
        5
176
     0
 90
        0
176
     0
 90
        0
176
     0
290
     0
176
     0
 90
        1
176
     0
 40
0.0
176
     0
 90
        0
176
     0
290
     0
176
     0
290
     1
176
     0
290
     1
176
     0
290
     0
176
     0
290
     0
176
     0
290
     0
176
     0
290
     0
176
     0
290
     0
176
     0
290
     0
176
     0
 90
       50
176
     0
 40
0.0
176
     0
 40
1.0
176
     0
 90
        0
176
     0
 62
    18
420
        0
176
     0
 90
       50
176
     0
 90
        3
176
     0
 62
     5
420
      255
176
     0
290
     0
176
     0
 90
       50
176
     0
 90
       50
176
     0
 90
       50
176
     0
290
     0
176
     0
 90
       50
176
     0
 62
   256
176
     0
 40
1.0
176
     0
 90
        2
176
     0
  1
strokes_ogs.tif
176
     0
290
     0
176
     0
 40
1.0
176
     0
 40
1.0
176
     0
  0
VISUALSTYLE
  5
366
102
{ACAD_REACTORS
330
357
102
}
330
357
100
AcDbVisualStyle
  2
Facepattern
 70
    15
177
     3
291
     1
 70
    58
 90
        2
176
     1
 90
        2
176
     1
 90
        0
176
     1
 90
        0
176
     1
 40
0.6
176
     1
 40
30.0
176
     1
 62
     7
420
 16777215
176
     1
 90
        1
176
     1
 90
        4
176
     1
 62
     7
176
     1
 62
   257
176
     1
 90
        1
176
     1
 90
        1
176
     1
 40
1.0
176
     1
 90
        8
176
     1
 62
     7
176
     1
 40
1.0
176
     1
 90
        1
176
     1
 90
        6
176
     1
 90
        2
176
     1
 62
     7
176
     1
 90
        5
176
     1
 90
        0
176
     1
 90
        0
176
     1
290
     0
176
     1
 90
        1
176
     1
 40
0.0
176
     1
 90
        0
176
     1
290
     0
176
     1
290
     1
176
     1
290
     1
176
     1
290
     0
176
     1
290
     0
176
     1
290
     0
176
     1
290
     0
176
     1
290
     0
176
     1
290
     0
176
     1
 90
       50
176
     1
 40
0.0
176
     1
 40
1.0
176
     1
 90
        0
176
     1
 62
    18
420
        0
176
     1
 90
       50
176
     1
 90
        3
176
     1
 62
     5
420
      255
176
     1
290
     0
176
     1
 90
       50
176
     1
 90
       50
176
     1
 90
       50
176
     1
290
     0
176
     1
 90
       50
176
     1
 62
   256
176
     0
 40
1.0
176
     0
 90
        2
176
     1
  1
strokes_ogs.tif
176
     1
290
     0
176
     1
 40
1.0
176
     1
 40
1.0
176
     1
  0
VISUALSTYLE
  5
358
102
{ACAD_REACTORS
330
357
102
}
330
357
100
AcDbVisualStyle
  2
Flat
 70
     0
177
     3
291
     1
 70
    58
 90
        2
176
     1
 90
        1
176
     1
 90
        1
176
     1
 90
        2
176
     1
 40
0.6
176
     1
 40
30.0
176
     1
 62
     7
420
 16777215
176
     1
 90
        0
176
     1
 90
        0
176
     1
 62
     7
176
     1
 62
   257
176
     1
 90
        1
176
     1
 90
        1
176
     1
 40
1.0
176
     1
 90
        8
176
     1
 62
     7
176
     1
 40
1.0
176
     1
 90
        1
176
     1
 90
        6
176
     1
 90
        2
176
     1
 62
     7
176
     1
 90
        5
176
     1
 90
        0
176
     1
 90
        0
176
     1
290
     0
176
     1
 90
       13
176
     1
 40
0.0
176
     1
 90
        0
176
     1
290
     0
176
     1
290
     1
176
     1
290
     1
176
     1
290
     0
176
     1
290
     0
176
     1
290
     0
176
     1
290
     0
176
     1
290
     0
176
     1
290
     0
176
     1
 90
       50
176
     1
 40
0.0
176
     1
 40
1.0
176
     1
 90
        0
176
     1
 62
    18
420
        0
176
     1
 90
       50
176
     1
 90
        3
176
     1
 62
     5
420
      255
176
     1
290
     0
176
     1
 90
       50
176
     1
 90
       50
176
     1
 90
       50
176
     1
290
     0
176
     1
 90
       50
176
     1
 62
   256
176
     0
 40
1.0
176
     0
 90
        2
176
     1
  1
strokes_ogs.tif
176
     1
290
     0
176
     1
 40
1.0
176
     1
 40
1.0
176
     1
  0
VISUALSTYLE
  5
359
102
{ACAD_REACTORS
330
357
102
}
330
357
100
AcDbVisualStyle
  2
FlatWithEdges
 70
     1
177
     3
291
     1
 70
    58
 90
        2
176
     1
 90
        1
176
     1
 90
        1
176
     1
 90
        2
176
     1
 40
0.6
176
     1
 40
30.0
176
     1
 62
     7
420
 16777215
176
     1
 90
        1
176
     1
 90
        0
176
     1
 62
     7
176
     1
 62
   257
176
     1
 90
        1
176
     1
 90
        1
176
     1
 40
1.0
176
     1
 90
        0
176
     1
 62
   257
176
     1
 40
1.0
176
     1
 90
        1
176
     1
 90
        6
176
     1
 90
        2
176
     1
 62
     7
176
     1
 90
        5
176
     1
 90
        0
176
     1
 90
        0
176
     1
290
     0
176
     1
 90
       13
176
     1
 40
0.0
176
     1
 90
        0
176
     1
290
     0
176
     1
290
     1
176
     1
290
     1
176
     1
290
     0
176
     1
290
     0
176
     1
290
     0
176
     1
290
     0
176
     1
290
     0
176
     1
290
     0
176
     1
 90
       50
176
     1
 40
0.0
176
     1
 40
1.0
176
     1
 90
        0
176
     1
 62
    18
420
        0
176
     1
 90
       50
176
     1
 90
        3
176
     1
 62
     5
420
      255
176
     1
290
     0
176
     1
 90
       50
176
     1
 90
       50
176
     1
 90
       50
176
     1
290
     0
176
     1
 90
       50
176
     1
 62
   256
176
     0
 40
1.0
176
     0
 90
        2
176
     1
  1
strokes_ogs.tif
176
     1
290
     0
176
     1
 40
1.0
176
     1
 40
1.0
176
     1
  0
VISUALSTYLE
  5
35A
102
{ACAD_REACTORS
330
357
102
}
330
357
100
AcDbVisualStyle
  2
Gouraud
 70
     2
177
     3
291
     1
 70
    58
 90
        2
176
     1
 90
        2
176
     1
 90
        1
176
     1
 90
        2
176
     1
 40
0.6
176
     1
 40
30.0
176
     1
 62
     7
420
 16777215
176
     1
 90
        0
176
     1
 90
        0
176
     1
 62
     7
176
     1
 62
   257
176
     1
 90
        1
176
     1
 90
        1
176
     1
 40
1.0
176
     1
 90
        0
176
     1
 62
     7
176
     1
 40
1.0
176
     1
 90
        1
176
     1
 90
        6
176
     1
 90
        2
176
     1
 62
     7
176
     1
 90
        5
176
     1
 90
        0
176
     1
 90
        0
176
     1
290
     0
176
     1
 90
       13
176
     1
 40
0.0
176
     1
 90
        0
176
     1
290
     0
176
     1
290
     1
176
     1
290
     1
176
     1
290
     0
176
     1
290
     0
176
     1
290
     0
176
     1
290
     0
176
     1
290
     0
176
     1
290
     0
176
     1
 90
       50
176
     1
 40
0.0
176
     1
 40
1.0
176
     1
 90
        0
176
     1
 62
    18
420
        0
176
     1
 90
       50
176
     1
 90
        3
176
     1
 62
     5
420
      255
176
     1
290
     0
176
     1
 90
       50
176
     1
 90
       50
176
     1
 90
       50
176
     1
290
     0
176
     1
 90
       50
176
     1
 62
   256
176
     0
 40
1.0
176
     0
 90
        2
176
     1
  1
strokes_ogs.tif
176
     1
290
     0
176
     1
 40
1.0
176
     1
 40
1.0
176
     1
  0
VISUALSTYLE
  5
35B
102
{ACAD_REACTORS
330
357
102
}
330
357
100
AcDbVisualStyle
  2
GouraudWithEdges
 70
     3
177
     3
291
     1
 70
    58
 90
        2
176
     1
 90
        2
176
     1
 90
        1
176
     1
 90
        2
176
     1
 40
0.6
176
     1
 40
30.0
176
     1
 62
     7
420
 16777215
176
     1
 90
        1
176
     1
 90
        0
176
     1
 62
     7
176
     1
 62
   257
176
     1
 90
        1
176
     1
 90
        1
176
     1
 40
1.0
176
     1
 90
        0
176
     1
 62
   257
176
     1
 40
1.0
176
     1
 90
        1
176
     1
 90
        6
176
     1
 90
        2
176
     1
 62
     7
176
     1
 90
        5
176
     1
 90
        0
176
     1
 90
        0
176
     1
290
     0
176
     1
 90
       13
176
     1
 40
0.0
176
     1
 90
        0
176
     1
290
     0
176
     1
290
     1
176
     1
290
     1
176
     1
290
     0
176
     1
290
     0
176
     1
290
     0
176
     1
290
     0
176
     1
290
     0
176
     1
290
     0
176
     1
 90
       50
176
     1
 40
0.0
176
     1
 40
1.0
176
     1
 90
        0
176
     1
 62
    18
420
        0
176
     1
 90
       50
176
     1
 90
        3
176
     1
 62
     5
420
      255
176
     1
290
     0
176
     1
 90
       50
176
     1
 90
       50
176
     1
 90
       50
176
     1
290
     0
176
     1
 90
       50
176
     1
 62
   256
176
     0
 40
1.0
176
     0
 90
        2
176
     1
  1
strokes_ogs.tif
176
     1
290
     0
176
     1
 40
1.0
176
     1
 40
1.0
176
     1
  0
VISUALSTYLE
  5
35E
102
{ACAD_REACTORS
330
357
102
}
330
357
100
AcDbVisualStyle
  2
Hidden
 70
     6
177
     3
291
     0
 70
    58
 90
        1
176
     1
 90
        2
176
     1
 90
        2
176
     1
 90
        0
176
     1
 40
0.6
176
     1
 40
30.0
176
     1
 62
     7
420
 16777215
176
     1
 90
        2
176
     1
 90
        2
176
     1
 62
     7
176
     1
 62
   257
176
     1
 90
        2
176
     1
 90
        1
176
     1
 40
40.0
176
     1
 90
        0
176
     1
 62
   257
176
     1
 40
1.0
176
     1
 90
        1
176
     1
 90
        6
176
     1
 90
        2
176
     1
 62
     7
176
     1
 90
        3
176
     1
 90
        0
176
     1
 90
        0
176
     1
290
     0
176
     1
 90
        1
176
     1
 40
0.0
176
     1
 90
        0
176
     1
290
     0
176
     1
290
     1
176
     1
290
     1
176
     1
290
     0
176
     1
290
     0
176
     1
290
     0
176
     1
290
     0
176
     1
290
     0
176
     1
290
     0
176
     1
 90
       50
176
     1
 40
0.0
176
     1
 40
1.0
176
     1
 90
        0
176
     1
 62
    18
420
        0
176
     1
 90
       50
176
     1
 90
        3
176
     1
 62
     5
420
      255
176
     1
290
     0
176
     1
 90
       50
176
     1
 90
       50
176
     1
 90
       50
176
     1
290
     0
176
     1
 90
       50
176
     1
 62
   256
176
     0
 40
1.0
176
     0
 90
        2
176
     1
  1
strokes_ogs.tif
176
     1
290
     0
176
     1
 40
1.0
176
     1
 40
1.0
176
     1
  0
VISUALSTYLE
  5
368
102
{ACAD_REACTORS
330
357
102
}
330
357
100
AcDbVisualStyle
  2
JitterOff
 70
    20
177
     3
291
     1
 70
    58
 90
        2
176
     0
 90
        2
176
     0
 90
        0
176
     0
 90
        0
176
     0
 40
0.6
176
     0
 40
30.0
176
     0
 62
     7
420
 16777215
176
     0
 90
        1
176
     0
 90
        4
176
     0
 62
     7
176
     0
 62
   257
176
     0
 90
        1
176
     0
 90
        1
176
     0
 40
1.0
176
     0
 90
       10
176
     2
 62
     7
176
     0
 40
1.0
176
     0
 90
        1
176
     0
 90
        6
176
     0
 90
        2
176
     0
 62
     7
176
     0
 90
        5
176
     0
 90
        0
176
     0
 90
        0
176
     0
290
     0
176
     0
 90
        1
176
     0
 40
0.0
176
     0
 90
        0
176
     0
290
     0
176
     0
290
     1
176
     0
290
     1
176
     0
290
     0
176
     0
290
     0
176
     0
290
     0
176
     0
290
     0
176
     0
290
     0
176
     0
290
     0
176
     0
 90
       50
176
     0
 40
0.0
176
     0
 40
1.0
176
     0
 90
        0
176
     0
 62
    18
420
        0
176
     0
 90
       50
176
     0
 90
        3
176
     0
 62
     5
420
      255
176
     0
290
     0
176
     0
 90
       50
176
     0
 90
       50
176
     0
 90
       50
176
     0
290
     0
176
     0
 90
       50
176
     0
 62
   256
176
     0
 40
1.0
176
     0
 90
        2
176
     0
  1
strokes_ogs.tif
176
     0
290
     0
176
     0
 40
1.0
176
     0
 40
1.0
176
     0
  0
VISUALSTYLE
  5
365
102
{ACAD_REACTORS
330
357
102
}
330
357
100
AcDbVisualStyle
  2
Linepattern
 70
    14
177
     3
291
     1
 70
    58
 90
        2
176
     1
 90
        2
176
     1
 90
        0
176
     1
 90
        0
176
     1
 40
0.6
176
     1
 40
30.0
176
     1
 62
     7
420
 16777215
176
     1
 90
        1
176
     1
 90
        4
176
     1
 62
     7
176
     1
 62
   257
176
     1
 90
        7
176
     1
 90
        7
176
     1
 40
1.0
176
     1
 90
        8
176
     1
 62
     7
176
     1
 40
1.0
176
     1
 90
        1
176
     1
 90
        6
176
     1
 90
        2
176
     1
 62
     7
176
     1
 90
        5
176
     1
 90
        0
176
     1
 90
        0
176
     1
290
     0
176
     1
 90
        1
176
     1
 40
0.0
176
     1
 90
        0
176
     1
290
     0
176
     1
290
     1
176
     1
290
     1
176
     1
290
     0
176
     1
290
     0
176
     1
290
     0
176
     1
290
     0
176
     1
290
     0
176
     1
290
     0
176
     1
 90
       50
176
     1
 40
0.0
176
     1
 40
1.0
176
     1
 90
        0
176
     1
 62
    18
420
        0
176
     1
 90
       50
176
     1
 90
        3
176
     1
 62
     5
420
      255
176
     1
290
     0
176
     1
 90
       50
176
     1
 90
       50
176
     1
 90
       50
176
     1
290
     0
176
     1
 90
       50
176
     1
 62
   256
176
     0
 40
1.0
176
     0
 90
        2
176
     1
  1
strokes_ogs.tif
176
     1
290
     0
176
     1
 40
1.0
176
     1
 40
1.0
176
     1
  0
VISUALSTYLE
  5
369
102
{ACAD_REACTORS
330
357
102
}
330
357
100
AcDbVisualStyle
  2
OverhangOff
 70
    21
177
     3
291
     1
 70
    58
 90
        2
176
     0
 90
        2
176
     0
 90
        0
176
     0
 90
        0
176
     0
 40
0.6
176
     0
 40
30.0
176
     0
 62
     7
420
 16777215
176
     0
 90
        1
176
     0
 90
        4
176
     0
 62
     7
176
     0
 62
   257
176
     0
 90
        1
176
     0
 90
        1
176
     0
 40
1.0
176
     0
 90
        9
176
     2
 62
     7
176
     0
 40
1.0
176
     0
 90
        1
176
     0
 90
        6
176
     0
 90
        2
176
     0
 62
     7
176
     0
 90
        5
176
     0
 90
        0
176
     0
 90
        0
176
     0
290
     0
176
     0
 90
        1
176
     0
 40
0.0
176
     0
 90
        0
176
     0
290
     0
176
     0
290
     1
176
     0
290
     1
176
     0
290
     0
176
     0
290
     0
176
     0
290
     0
176
     0
290
     0
176
     0
290
     0
176
     0
290
     0
176
     0
 90
       50
176
     0
 40
0.0
176
     0
 40
1.0
176
     0
 90
        0
176
     0
 62
    18
420
        0
176
     0
 90
       50
176
     0
 90
        3
176
     0
 62
     5
420
      255
176
     0
290
     0
176
     0
 90
       50
176
     0
 90
       50
176
     0
 90
       50
176
     0
290
     0
176
     0
 90
       50
176
     0
 62
   256
176
     0
 40
1.0
176
     0
 90
        2
176
     0
  1
strokes_ogs.tif
176
     0
290
     0
176
     0
 40
1.0
176
     0
 40
1.0
176
     0
  0
VISUALSTYLE
  5
360
102
{ACAD_REACTORS
330
357
102
}
330
357
100
AcDbVisualStyle
  2
Realistic
 70
     8
177
     3
291
     0
 70
    58
 90
        2
176
     1
 90
        3
176
     1
 90
        0
176
     1
 90
        2
176
     1
 40
0.6
176
     1
 40
30.0
176
     1
 62
     7
420
 16777215
176
     1
 90
        0
176
     1
 90
        0
176
     1
 62
     7
176
     1
 62
   257
176
     1
 90
        1
176
     1
 90
        1
176
     1
 40
1.0
176
     1
 90
        8
176
     1
 62
   257
176
     1
 40
1.0
176
     1
 90
        1
176
     1
 90
        6
176
     1
 90
        2
176
     1
 62
     7
176
     1
 90
        3
176
     1
 90
        0
176
     1
 90
        0
176
     1
290
     0
176
     1
 90
       13
176
     1
 40
0.0
176
     1
 90
        0
176
     1
290
     0
176
     1
290
     1
176
     1
290
     1
176
     1
290
     0
176
     1
290
     0
176
     1
290
     0
176
     1
290
     0
176
     1
290
     0
176
     1
290
     0
176
     1
 90
       50
176
     1
 40
0.0
176
     1
 40
1.0
176
     1
 90
        0
176
     1
 62
    18
420
        0
176
     1
 90
       50
176
     1
 90
        3
176
     1
 62
     5
420
      255
176
     1
290
     0
176
     1
 90
       50
176
     1
 90
       50
176
     1
 90
       50
176
     1
290
     0
176
     1
 90
       50
176
     1
 62
   256
176
     0
 40
1.0
176
     0
 90
        2
176
     1
  1
strokes_ogs.tif
176
     1
290
     0
176
     1
 40
1.0
176
     1
 40
1.0
176
     1
  0
VISUALSTYLE
  5
36F
102
{ACAD_REACTORS
330
357
102
}
330
357
100
AcDbVisualStyle
  2
Shaded
 70
    27
177
     3
291
     0
 70
    58
 90
        2
176
     1
 90
        2
176
     1
 90
        1
176
     1
 90
        2
176
     1
 40
0.6
176
     1
 40
30.0
176
     1
 62
     7
420
 16777215
176
     1
 90
        0
176
     1
 90
        4
176
     1
 62
     7
176
     1
 62
   257
176
     1
 90
        1
176
     1
 90
        1
176
     1
 40
1.0
176
     1
 90
        8
176
     1
 62
   257
176
     1
 40
1.0
176
     1
 90
        1
176
     1
 90
        6
176
     1
 90
        2
176
     1
 62
     8
420
  7895160
176
     1
 90
        3
176
     1
 90
        0
176
     1
 90
        0
176
     1
290
     0
176
     1
 90
        5
176
     1
 40
0.0
176
     1
 90
        0
176
     1
290
     0
176
     1
290
     1
176
     1
290
     1
176
     1
290
     0
176
     1
290
     0
176
     1
290
     0
176
     1
290
     0
176
     1
290
     0
176
     1
290
     0
176
     1
 90
       50
176
     1
 40
0.0
176
     1
 40
1.0
176
     1
 90
        0
176
     1
 62
    18
420
        0
176
     1
 90
       50
176
     1
 90
        3
176
     1
 62
     5
420
      255
176
     1
290
     0
176
     1
 90
       50
176
     1
 90
       50
176
     1
 90
       50
176
     1
290
     0
176
     1
 90
       50
176
     1
 62
   256
176
     0
 40
1.0
176
     0
 90
        2
176
     1
  1
strokes_ogs.tif
176
     1
290
     0
176
     1
 40
1.0
176
     1
 40
1.0
176
     1
  0
VISUALSTYLE
  5
36E
102
{ACAD_REACTORS
330
357
102
}
330
357
100
AcDbVisualStyle
  2
Shaded with edges
 70
    26
177
     3
291
     0
 70
    58
 90
        2
176
     1
 90
        2
176
     1
 90
        1
176
     1
 90
        2
176
     1
 40
0.6
176
     1
 40
30.0
176
     1
 62
     7
420
 16777215
176
     1
 90
        1
176
     1
 90
       10
176
     1
 62
     7
176
     1
 62
   257
176
     1
 90
        2
176
     1
 90
        1
176
     1
 40
1.0
176
     1
 90
        8
176
     1
 62
   257
176
     1
 40
1.0
176
     1
 90
        1
176
     1
 90
        6
176
     1
 90
        2
176
     1
 62
     7
176
     1
 90
        3
176
     1
 90
        0
176
     1
 90
        0
176
     1
290
     0
176
     1
 90
        5
176
     1
 40
0.0
176
     1
 90
        0
176
     1
290
     0
176
     1
290
     1
176
     1
290
     1
176
     1
290
     0
176
     1
290
     0
176
     1
290
     0
176
     1
290
     0
176
     1
290
     0
176
     1
290
     0
176
     1
 90
       50
176
     1
 40
0.0
176
     1
 40
1.0
176
     1
 90
        0
176
     1
 62
    18
420
        0
176
     1
 90
       50
176
     1
 90
        3
176
     1
 62
     5
420
      255
176
     1
290
     0
176
     1
 90
       50
176
     1
 90
       50
176
     1
 90
       50
176
     1
290
     0
176
     1
 90
       50
176
     1
 62
   256
176
     0
 40
1.0
176
     0
 90
        2
176
     1
  1
strokes_ogs.tif
176
     1
290
     0
176
     1
 40
1.0
176
     1
 40
1.0
176
     1
  0
VISUALSTYLE
  5
36B
102
{ACAD_REACTORS
330
357
102
}
330
357
100
AcDbVisualStyle
  2
Shades of Gray
 70
    23
177
     3
291
     0
 70
    58
 90
        2
176
     1
 90
        2
176
     1
 90
        3
176
     1
 90
        0
176
     1
 40
0.6
176
     1
 40
30.0
176
     1
 62
     7
420
 16777215
176
     1
 90
        2
176
     1
 90
        2
176
     1
 62
     7
176
     1
 62
     7
176
     1
 90
        1
176
     1
 90
        1
176
     1
 40
40.0
176
     1
 90
        8
176
     1
 62
     7
176
     1
 40
1.0
176
     1
 90
        1
176
     1
 90
        6
176
     1
 90
        2
176
     1
 62
     7
176
     1
 90
        3
176
     1
 90
        0
176
     1
 90
        0
176
     1
290
     0
176
     1
 90
        1
176
     1
 40
0.0
176
     1
 90
        0
176
     1
290
     0
176
     1
290
     1
176
     1
290
     1
176
     1
290
     0
176
     1
290
     0
176
     1
290
     0
176
     1
290
     0
176
     1
290
     0
176
     1
290
     0
176
     1
 90
       50
176
     1
 40
0.0
176
     1
 40
1.0
176
     1
 90
        0
176
     1
 62
    18
420
        0
176
     1
 90
       50
176
     1
 90
        3
176
     1
 62
     5
420
      255
176
     1
290
     0
176
     1
 90
       50
176
     1
 90
       50
176
     1
 90
       50
176
     1
290
     0
176
     1
 90
       50
176
     1
 62
   256
176
     0
 40
1.0
176
     0
 90
        2
176
     1
  1
strokes_ogs.tif
176
     1
290
     0
176
     1
 40
1.0
176
     1
 40
1.0
176
     1
  0
VISUALSTYLE
  5
36C
102
{ACAD_REACTORS
330
357
102
}
330
357
100
AcDbVisualStyle
  2
Sketchy
 70
    24
177
     3
291
     0
 70
    58
 90
        1
176
     1
 90
        2
176
     1
 90
        2
176
     1
 90
        0
176
     1
 40
0.6
176
     1
 40
30.0
176
     1
 62
     7
420
 16777215
176
     1
 90
        2
176
     1
 90
        2
176
     1
 62
     7
176
     1
 62
     7
176
     1
 90
        1
176
     1
 90
        1
176
     1
 40
40.0
176
     1
 90
       11
176
     1
 62
     7
176
     1
 40
1.0
176
     1
 90
        1
176
     1
 90
        6
176
     1
 90
        2
176
     1
 62
     7
176
     1
 90
        6
176
     1
 90
        0
176
     1
 90
        0
176
     1
290
     0
176
     1
 90
        1
176
     1
 40
0.0
176
     1
 90
        0
176
     1
290
     0
176
     1
290
     1
176
     1
290
     1
176
     1
290
     0
176
     1
290
     0
176
     1
290
     0
176
     1
290
     0
176
     1
290
     0
176
     1
290
     0
176
     1
 90
       50
176
     1
 40
0.0
176
     1
 40
1.0
176
     1
 90
        0
176
     1
 62
    18
420
        0
176
     1
 90
       50
176
     1
 90
        3
176
     1
 62
     5
420
      255
176
     1
290
     0
176
     1
 90
       50
176
     1
 90
       50
176
     1
 90
       50
176
     1
290
     0
176
     1
 90
       50
176
     1
 62
   256
176
     0
 40
1.0
176
     0
 90
        2
176
     1
  1
strokes_ogs.tif
176
     1
290
     0
176
     1
 40
1.0
176
     1
 40
1.0
176
     1
  0
VISUALSTYLE
  5
364
102
{ACAD_REACTORS
330
357
102
}
330
357
100
AcDbVisualStyle
  2
Thicken
 70
    13
177
     3
291
     1
 70
    58
 90
        2
176
     1
 90
        2
176
     1
 90
        0
176
     1
 90
        0
176
     1
 40
0.6
176
     1
 40
30.0
176
     1
 62
     7
420
 16777215
176
     1
 90
        1
176
     1
 90
        4
176
     1
 62
     7
176
     1
 62
   257
176
     1
 90
        1
176
     1
 90
        1
176
     1
 40
1.0
176
     1
 90
       12
176
     1
 62
     7
176
     1
 40
1.0
176
     1
 90
        1
176
     1
 90
        6
176
     1
 90
        2
176
     1
 62
     7
176
     1
 90
        5
176
     1
 90
        0
176
     1
 90
        0
176
     1
290
     0
176
     1
 90
        1
176
     1
 40
0.0
176
     1
 90
        0
176
     1
290
     0
176
     1
290
     1
176
     1
290
     1
176
     1
290
     0
176
     1
290
     0
176
     1
290
     0
176
     1
290
     0
176
     1
290
     0
176
     1
290
     0
176
     1
 90
       50
176
     1
 40
0.0
176
     1
 40
1.0
176
     1
 90
        0
176
     1
 62
    18
420
        0
176
     1
 90
       50
176
     1
 90
        3
176
     1
 62
     5
420
      255
176
     1
290
     0
176
     1
 90
       50
176
     1
 90
       50
176
     1
 90
       50
176
     1
290
     0
176
     1
 90
       50
176
     1
 62
   256
176
     0
 40
1.0
176
     0
 90
        2
176
     1
  1
strokes_ogs.tif
176
     1
290
     0
176
     1
 40
1.0
176
     1
 40
1.0
176
     1
  0
VISUALSTYLE
  5
35D
102
{ACAD_REACTORS
330
357
102
}
330
357
100
AcDbVisualStyle
  2
Wireframe
 70
     5
177
     3
291
     0
 70
    58
 90
        0
176
     1
 90
        2
176
     1
 90
        0
176
     1
 90
        0
176
     1
 40
0.6
176
     1
 40
30.0
176
     1
 62
     7
420
 16777215
176
     1
 90
        1
176
     1
 90
        4
176
     1
 62
     7
176
     1
 62
   257
176
     1
 90
        1
176
     1
 90
        1
176
     1
 40
1.0
176
     1
 90
        0
176
     1
 62
   257
176
     1
 40
1.0
176
     1
 90
        1
176
     1
 90
        6
176
     1
 90
        2
176
     1
 62
     7
176
     1
 90
        3
176
     1
 90
        0
176
     1
 90
        0
176
     1
290
     0
176
     1
 90
        1
176
     1
 40
0.0
176
     1
 90
        0
176
     1
290
     0
176
     1
290
     1
176
     1
290
     1
176
     1
290
     0
176
     1
290
     0
176
     1
290
     0
176
     1
290
     0
176
     1
290
     0
176
     1
290
     0
176
     1
 90
       50
176
     1
 40
0.0
176
     1
 40
1.0
176
     1
 90
        0
176
     1
 62
    18
420
        0
176
     1
 90
       50
176
     1
 90
        3
176
     1
 62
     5
420
      255
176
     1
290
     0
176
     1
 90
       50
176
     1
 90
       50
176
     1
 90
       50
176
     1
290
     0
176
     1
 90
       50
176
     1
 62
   256
176
     0
 40
1.0
176
     0
 90
        2
176
     1
  1
strokes_ogs.tif
176
     1
290
     0
176
     1
 40
1.0
176
     1
 40
1.0
176
     1
  0
VISUALSTYLE
  5
36D
102
{ACAD_REACTORS
330
357
102
}
330
357
100
AcDbVisualStyle
  2
X-Ray
 70
    25
177
     3
291
     0
 70
    58
 90
        2
176
     1
 90
        2
176
     1
 90
        1
176
     1
 90
        1
176
     1
 40
0.5
176
     1
 40
30.0
176
     1
 62
     7
420
 16777215
176
     1
 90
        1
176
     1
 90
        0
176
     1
 62
     7
176
     1
 62
   257
176
     1
 90
        1
176
     1
 90
        1
176
     1
 40
1.0
176
     1
 90
        8
176
     1
 62
     7
176
     1
 40
1.0
176
     1
 90
        1
176
     1
 90
        6
176
     1
 90
        2
176
     1
 62
     7
176
     1
 90
        3
176
     1
 90
        0
176
     1
 90
        0
176
     1
290
     0
176
     1
 90
       13
176
     1
 40
0.0
176
     1
 90
        0
176
     1
290
     0
176
     1
290
     1
176
     1
290
     1
176
     1
290
     0
176
     1
290
     0
176
     1
290
     0
176
     1
290
     0
176
     1
290
     0
176
     1
290
     0
176
     1
 90
       50
176
     1
 40
0.0
176
     1
 40
1.0
176
     1
 90
        0
176
     1
 62
    18
420
        0
176
     1
 90
       50
176
     1
 90
        3
176
     1
 62
     5
420
      255
176
     1
290
     0
176
     1
 90
       50
176
     1
 90
       50
176
     1
 90
       50
176
     1
290
     0
176
     1
 90
       50
176
     1
 62
   256
176
     0
 40
1.0
176
     0
 90
        2
176
     1
  1
strokes_ogs.tif
176
     1
290
     0
176
     1
 40
1.0
176
     1
 40
1.0
176
     1
  0
DICTIONARYVAR
  5
37A
102
{ACAD_REACTORS
330
379
102
}
330
379
100
DictionaryVariables
280
     0
  1
1:1
  0
DICTIONARYVAR
  5
37F
102
{ACAD_REACTORS
330
379
102
}
330
379
100
DictionaryVariables
280
     0
  1
Standard
  0
DICTIONARYVAR
  5
37E
102
{ACAD_REACTORS
330
379
102
}
330
379
100
DictionaryVariables
280
     0
  1
Standard
  0
DICTIONARYVAR
  5
380
102
{ACAD_REACTORS
330
379
102
}
330
379
100
DictionaryVariables
280
     0
  1
0
  0
DICTIONARY
  5
37B
330
375
100
AcDbDictionary
280
     1
281
     1
  3
ACAD_ROUNDTRIP_2008_TABLESTYLE_CELLSTYLEMAP
360
37C
  0
CELLSTYLEMAP
  5
37C
102
{ACAD_REACTORS
330
37B
102
}
330
37B
100
AcDbCellStyleMap
 90
        3
300
CELLSTYLE
  1
TABLEFORMAT_BEGIN
 90
        5
170
     1
 91
        0
 92
    32768
 62
   257
 93
        1
300
CONTENTFORMAT
  1
CONTENTFORMAT_BEGIN
 90
        0
 91
        0
 92
        4
 93
        0
300

 40
0.0
140
1.0
 94
        5
 62
     0
340
11
144
6.0
309
CONTENTFORMAT_END
171
     1
301
MARGIN
  1
CELLMARGIN_BEGIN
 40
1.5
 40
1.5
 40
1.5
 40
1.5
 40
1.5
 40
1.5
309
CELLMARGIN_END
 94
        6
 95
        1
302
GRIDFORMAT
  1
GRIDFORMAT_BEGIN
 90
        0
 91
        1
 62
     0
 92
       -2
340
14
 93
        0
 40
0.045
309
GRIDFORMAT_END
 95
        2
302
GRIDFORMAT
  1
GRIDFORMAT_BEGIN
 90
        0
 91
        1
 62
     0
 92
       -2
340
14
 93
        0
 40
0.045
309
GRIDFORMAT_END
 95
        4
302
GRIDFORMAT
  1
GRIDFORMAT_BEGIN
 90
        0
 91
        1
 62
     0
 92
       -2
340
14
 93
        0
 40
0.045
309
GRIDFORMAT_END
 95
        8
302
GRIDFORMAT
  1
GRIDFORMAT_BEGIN
 90
        0
 91
        1
 62
     0
 92
       -2
340
14
 93
        0
 40
0.045
309
GRIDFORMAT_END
 95
       16
302
GRIDFORMAT
  1
GRIDFORMAT_BEGIN
 90
        0
 91
        1
 62
     0
 92
       -2
340
14
 93
        0
 40
0.045
309
GRIDFORMAT_END
 95
       32
302
GRIDFORMAT
  1
GRIDFORMAT_BEGIN
 90
        0
 91
        1
 62
     0
 92
       -2
340
14
 93
        0
 40
0.045
309
GRIDFORMAT_END
309
TABLEFORMAT_END
  1
CELLSTYLE_BEGIN
 90
        1
 91
        1
300
_TITLE
309
CELLSTYLE_END
300
CELLSTYLE
  1
TABLEFORMAT_BEGIN
 90
        5
170
     1
 91
        0
 92
        0
 62
   257
 93
        1
300
CONTENTFORMAT
  1
CONTENTFORMAT_BEGIN
 90
        0
 91
        0
 92
        4
 93
        0
300

 40
0.0
140
1.0
 94
        5
 62
     0
340
11
144
4.5
309
CONTENTFORMAT_END
171
     1
301
MARGIN
  1
CELLMARGIN_BEGIN
 40
1.5
 40
1.5
 40
1.5
 40
1.5
 40
1.5
 40
1.5
309
CELLMARGIN_END
 94
        6
 95
        1
302
GRIDFORMAT
  1
GRIDFORMAT_BEGIN
 90
        0
 91
        1
 62
     0
 92
       -2
340
14
 93
        0
 40
0.045
309
GRIDFORMAT_END
 95
        2
302
GRIDFORMAT
  1
GRIDFORMAT_BEGIN
 90
        0
 91
        1
 62
     0
 92
       -2
340
14
 93
        0
 40
0.045
309
GRIDFORMAT_END
 95
        4
302
GRIDFORMAT
  1
GRIDFORMAT_BEGIN
 90
        0
 91
        1
 62
     0
 92
       -2
340
14
 93
        0
 40
0.045
309
GRIDFORMAT_END
 95
        8
302
GRIDFORMAT
  1
GRIDFORMAT_BEGIN
 90
        0
 91
        1
 62
     0
 92
       -2
340
14
 93
        0
 40
0.045
309
GRIDFORMAT_END
 95
       16
302
GRIDFORMAT
  1
GRIDFORMAT_BEGIN
 90
        0
 91
        1
 62
     0
 92
       -2
340
14
 93
        0
 40
0.045
309
GRIDFORMAT_END
 95
       32
302
GRIDFORMAT
  1
GRIDFORMAT_BEGIN
 90
        0
 91
        1
 62
     0
 92
       -2
340
14
 93
        0
 40
0.045
309
GRIDFORMAT_END
309
TABLEFORMAT_END
  1
CELLSTYLE_BEGIN
 90
        2
 91
        1
300
_HEADER
309
CELLSTYLE_END
300
CELLSTYLE
  1
TABLEFORMAT_BEGIN
 90
        5
170
     1
 91
        0
 92
        0
 62
   257
 93
        1
300
CONTENTFORMAT
  1
CONTENTFORMAT_BEGIN
 90
        0
 91
        0
 92
        4
 93
        0
300

 40
0.0
140
1.0
 94
        2
 62
     0
340
11
144
4.5
309
CONTENTFORMAT_END
171
     1
301
MARGIN
  1
CELLMARGIN_BEGIN
 40
1.5
 40
1.5
 40
1.5
 40
1.5
 40
1.5
 40
1.5
309
CELLMARGIN_END
 94
        6
 95
        1
302
GRIDFORMAT
  1
GRIDFORMAT_BEGIN
 90
        0
 91
        1
 62
     0
 92
       -2
340
14
 93
        0
 40
0.045
309
GRIDFORMAT_END
 95
        2
302
GRIDFORMAT
  1
GRIDFORMAT_BEGIN
 90
        0
 91
        1
 62
     0
 92
       -2
340
14
 93
        0
 40
0.045
309
GRIDFORMAT_END
 95
        4
302
GRIDFORMAT
  1
GRIDFORMAT_BEGIN
 90
        0
 91
        1
 62
     0
 92
       -2
340
14
 93
        0
 40
0.045
309
GRIDFORMAT_END
 95
        8
302
GRIDFORMAT
  1
GRIDFORMAT_BEGIN
 90
        0
 91
        1
 62
     0
 92
       -2
340
14
 93
        0
 40
0.045
309
GRIDFORMAT_END
 95
       16
302
GRIDFORMAT
  1
GRIDFORMAT_BEGIN
 90
        0
 91
        1
 62
     0
 92
       -2
340
14
 93
        0
 40
0.045
309
GRIDFORMAT_END
 95
       32
302
GRIDFORMAT
  1
GRIDFORMAT_BEGIN
 90
        0
 91
        1
 62
     0
 92
       -2
340
14
 93
        0
 40
0.045
309
GRIDFORMAT_END
309
TABLEFORMAT_END
  1
CELLSTYLE_BEGIN
 90
        3
 91
        2
300
_DATA
309
CELLSTYLE_END
  0
ENDSEC
  0
EOF
