  0
SECTION
  2
HEADER
  9
$ACADVER
  1
AC1027
  9
$ACADMAINTVER
 70
   105
  9
$DWGCODEPAGE
  3
ANSI_1252
  9
$REQUIREDVERSIONS
160
                 0
  9
$LASTSAVEDBY
  1
andrea.zolin
  9
$INSBASE
 10
0.0
 20
0.0
 30
0.0
  9
$EXTMIN
 10
0.0
 20
0.0
 30
0.0
  9
$EXTMAX
 10
297.0
 20
210.0
 30
0.0
  9
$LIMMIN
 10
0.0
 20
0.0
  9
$LIMMAX
 10
297.0
 20
210.0
  9
$ORTHOMODE
 70
     0
  9
$REGENMODE
 70
     1
  9
$FILLMODE
 70
     1
  9
$QTEXTMODE
 70
     0
  9
$MIRRTEXT
 70
     1
  9
$LTSCALE
 40
16.335
  9
$ATTMODE
 70
     1
  9
$TEXTSIZE
 40
0.2
  9
$TRACEWID
 40
0.05
  9
$TEXTSTYLE
  7
STANDARD
  9
$CLAYER
  8
0
  9
$CELTYPE
  6
BYLAYER
  9
$CECOLOR
 62
   256
  9
$CELTSCALE
 40
1.0
  9
$DISPSILH
 70
     0
  9
$DIMSCALE
 40
1.0
  9
$DIMASZ
 40
2.5
  9
$DIMEXO
 40
0.75
  9
$DIMDLI
 40
11.286
  9
$DIMRND
 40
0.0
  9
$DIMDLE
 40
0.0
  9
$DIMEXE
 40
0.75
  9
$DIMTP
 40
0.01
  9
$DIMTM
 40
0.01
  9
$DIMTXT
 40
3.0
  9
$DIMCEN
 40
2.673
  9
$DIMTSZ
 40
0.0
  9
$DIMTOL
 70
     1
  9
$DIMLIM
 70
     0
  9
$DIMTIH
 70
     1
  9
$DIMTOH
 70
     1
  9
$DIMSE1
 70
     0
  9
$DIMSE2
 70
     0
  9
$DIMTAD
 70
     0
  9
$DIMZIN
 70
     0
  9
$DIMBLK
  1
CLOSED
  9
$DIMASO
 70
     1
  9
$DIMSHO
 70
     1
  9
$DIMPOST
  1

  9
$DIMAPOST
  1

  9
$DIMALT
 70
     0
  9
$DIMALTD
 70
     2
  9
$DIMALTF
 40
25.4
  9
$DIMLFAC
 40
1.0
  9
$DIMTOFL
 70
     0
  9
$DIMTVP
 40
0.0
  9
$DIMTIX
 70
     0
  9
$DIMSOXD
 70
     0
  9
$DIMSAH
 70
     0
  9
$DIMBLK1
  1

  9
$DIMBLK2
  1

  9
$DIMSTYLE
  2
STANDARD
  9
$DIMCLRD
 70
     0
  9
$DIMCLRE
 70
     0
  9
$DIMCLRT
 70
     0
  9
$DIMTFAC
 40
1.0
  9
$DIMGAP
 40
0.625
  9
$DIMJUST
 70
     0
  9
$DIMSD1
 70
     0
  9
$DIMSD2
 70
     0
  9
$DIMTOLJ
 70
     1
  9
$DIMTZIN
 70
     0
  9
$DIMALTZ
 70
     0
  9
$DIMALTTZ
 70
     0
  9
$DIMUPT
 70
     0
  9
$DIMDEC
 70
     4
  9
$DIMTDEC
 70
     4
  9
$DIMALTU
 70
     2
  9
$DIMALTTD
 70
     2
  9
$DIMTXSTY
  7
STANDARD
  9
$DIMAUNIT
 70
     0
  9
$DIMADEC
 70
     0
  9
$DIMALTRND
 40
0.0
  9
$DIMAZIN
 70
     0
  9
$DIMDSEP
 70
    46
  9
$DIMATFIT
 70
     3
  9
$DIMFRAC
 70
     0
  9
$DIMLDRBLK
  1

  9
$DIMLUNIT
 70
     2
  9
$DIMLWD
 70
    -2
  9
$DIMLWE
 70
    -2
  9
$DIMTMOVE
 70
     2
  9
$DIMFXL
 40
1.0
  9
$DIMFXLON
 70
     0
  9
$DIMJOGANG
 40
0.7853981633974483
  9
$DIMTFILL
 70
     0
  9
$DIMTFILLCLR
 70
     0
  9
$DIMARCSYM
 70
     0
  9
$DIMLTYPE
  6

  9
$DIMLTEX1
  6

  9
$DIMLTEX2
  6

  9
$DIMTXTDIRECTION
 70
     0
  9
$LUNITS
 70
     2
  9
$LUPREC
 70
     4
  9
$SKETCHINC
 40
0.1
  9
$FILLETRAD
 40
0.5
  9
$AUNITS
 70
     0
  9
$AUPREC
 70
     0
  9
$MENU
  1
.
  9
$ELEVATION
 40
0.0
  9
$PELEVATION
 40
0.0
  9
$THICKNESS
 40
0.0
  9
$LIMCHECK
 70
     0
  9
$CHAMFERA
 40
0.0
  9
$CHAMFERB
 40
0.0
  9
$CHAMFERC
 40
0.0
  9
$CHAMFERD
 40
0.0
  9
$SKPOLY
 70
     0
  9
$TDCREATE
 40
2447893.041666667
  9
$TDUCREATE
 40
0.0
  9
$TDUPDATE
 40
2458466.712182419
  9
$TDUUPDATE
 40
2458466.670515752
  9
$TDINDWG
 40
0.0002789815
  9
$TDUSRTIMER
 40
0.0002789815
  9
$USRTIMER
 70
     1
  9
$ANGBASE
 50
0.0
  9
$ANGDIR
 70
     0
  9
$PDMODE
 70
     3
  9
$PDSIZE
 40
0.3125
  9
$PLINEWID
 40
0.0
  9
$SPLFRAME
 70
     0
  9
$SPLINETYPE
 70
     6
  9
$SPLINESEGS
 70
     8
  9
$HANDSEED
  5
381
  9
$SURFTAB1
 70
     6
  9
$SURFTAB2
 70
     6
  9
$SURFTYPE
 70
     6
  9
$SURFU
 70
     6
  9
$SURFV
 70
     6
  9
$UCSBASE
  2

  9
$UCSNAME
  2

  9
$UCSORG
 10
0.0
 20
0.0
 30
0.0
  9
$UCSXDIR
 10
1.0
 20
0.0
 30
0.0
  9
$UCSYDIR
 10
0.0
 20
1.0
 30
0.0
  9
$UCSORTHOREF
  2

  9
$UCSORTHOVIEW
 70
     0
  9
$UCSORGTOP
 10
0.0
 20
0.0
 30
0.0
  9
$UCSORGBOTTOM
 10
0.0
 20
0.0
 30
0.0
  9
$UCSORGLEFT
 10
0.0
 20
0.0
 30
0.0
  9
$UCSORGRIGHT
 10
0.0
 20
0.0
 30
0.0
  9
$UCSORGFRONT
 10
0.0
 20
0.0
 30
0.0
  9
$UCSORGBACK
 10
0.0
 20
0.0
 30
0.0
  9
$PUCSBASE
  2

  9
$PUCSNAME
  2

  9
$PUCSORG
 10
0.0
 20
0.0
 30
0.0
  9
$PUCSXDIR
 10
1.0
 20
0.0
 30
0.0
  9
$PUCSYDIR
 10
0.0
 20
1.0
 30
0.0
  9
$PUCSORTHOREF
  2

  9
$PUCSORTHOVIEW
 70
     0
  9
$PUCSORGTOP
 10
0.0
 20
0.0
 30
0.0
  9
$PUCSORGBOTTOM
 10
0.0
 20
0.0
 30
0.0
  9
$PUCSORGLEFT
 10
0.0
 20
0.0
 30
0.0
  9
$PUCSORGRIGHT
 10
0.0
 20
0.0
 30
0.0
  9
$PUCSORGFRONT
 10
0.0
 20
0.0
 30
0.0
  9
$PUCSORGBACK
 10
0.0
 20
0.0
 30
0.0
  9
$USERI1
 70
     0
  9
$USERI2
 70
     0
  9
$USERI3
 70
     0
  9
$USERI4
 70
     0
  9
$USERI5
 70
     0
  9
$USERR1
 40
0.0
  9
$USERR2
 40
0.0
  9
$USERR3
 40
0.0
  9
$USERR4
 40
0.0
  9
$USERR5
 40
0.0
  9
$WORLDVIEW
 70
     1
  9
$SHADEDGE
 70
     3
  9
$SHADEDIF
 70
    70
  9
$TILEMODE
 70
     0
  9
$MAXACTVP
 70
    64
  9
$PINSBASE
 10
0.0
 20
0.0
 30
0.0
  9
$PLIMCHECK
 70
     0
  9
$PEXTMIN
 10
9.949999999999989
 20
9.950000000000003
 30
0.0
  9
$PEXTMAX
 10
291.3063890997666
 20
200.05
 30
0.0
  9
$PLIMMIN
 10
4.402334630350183
 20
-4.843774319066146
  9
$PLIMMAX
 10
315.0715953307393
 20
214.8437743190662
  9
$UNITMODE
 70
     0
  9
$VISRETAIN
 70
     1
  9
$PLINEGEN
 70
     0
  9
$PSLTSCALE
 70
     1
  9
$TREEDEPTH
 70
  3020
  9
$CMLSTYLE
  2
STANDARD
  9
$CMLJUST
 70
     0
  9
$CMLSCALE
 40
1.0
  9
$PROXYGRAPHICS
 70
     1
  9
$MEASUREMENT
 70
     1
  9
$CELWEIGHT
370
    -1
  9
$ENDCAPS
280
     0
  9
$JOINSTYLE
280
     0
  9
$LWDISPLAY
290
     0
  9
$INSUNITS
 70
     0
  9
$HYPERLINKBASE
  1

  9
$STYLESHEET
  1

  9
$XEDIT
290
     1
  9
$CEPSNTYPE
380
     0
  9
$PSTYLEMODE
290
     1
  9
$FINGERPRINTGUID
  2
{87D5B172-F9EC-4251-8107-8DA2E8BE63AE}
  9
$VERSIONGUID
  2
{FAEB1C32-E019-11D5-929B-00C0DF256EC4}
  9
$EXTNAMES
290
     1
  9
$PSVPSCALE
 40
0.0
  9
$OLESTARTUP
290
     0
  9
$SORTENTS
280
   127
  9
$INDEXCTL
280
     0
  9
$HIDETEXT
280
     1
  9
$XCLIPFRAME
280
     2
  9
$HALOGAP
280
     0
  9
$OBSCOLOR
 70
   257
  9
$OBSLTYPE
280
     0
  9
$INTERSECTIONDISPLAY
280
     0
  9
$INTERSECTIONCOLOR
 70
   257
  9
$DIMASSOC
280
     2
  9
$PROJECTNAME
  1

  9
$CAMERADISPLAY
290
     0
  9
$LENSLENGTH
 40
50.0
  9
$CAMERAHEIGHT
 40
0.0
  9
$STEPSPERSEC
 40
2.0
  9
$STEPSIZE
 40
6.0
  9
$3DDWFPREC
 40
2.0
  9
$PSOLWIDTH
 40
0.25
  9
$PSOLHEIGHT
 40
4.0
  9
$LOFTANG1
 40
1.570796326794897
  9
$LOFTANG2
 40
1.570796326794897
  9
$LOFTMAG1
 40
0.0
  9
$LOFTMAG2
 40
0.0
  9
$LOFTPARAM
 70
     7
  9
$LOFTNORMALS
280
     1
  9
$LATITUDE
 40
37.795
  9
$LONGITUDE
 40
-122.394
  9
$NORTHDIRECTION
 40
0.0
  9
$TIMEZONE
 70
 -8000
  9
$LIGHTGLYPHDISPLAY
280
     1
  9
$TILEMODELIGHTSYNCH
280
     1
  9
$SOLIDHIST
280
     0
  9
$SHOWHIST
280
     1
  9
$DWFFRAME
280
     2
  9
$DGNFRAME
280
     2
  9
$REALWORLDSCALE
290
     1
  9
$INTERFERECOLOR
 62
   256
  9
$CSHADOW
280
     0
  9
$SHADOWPLANELOCATION
 40
0.0
  0
ENDSEC
  0
SECTION
  2
CLASSES
  0
CLASS
  1
ACDBDICTIONARYWDFLT
  2
AcDbDictionaryWithDefault
  3
ObjectDBX Classes
 90
        0
 91
        4
280
     0
281
     0
  0
CLASS
  1
SCALE
  2
AcDbScale
  3
ObjectDBX Classes
 90
     1153
 91
        4
280
     0
281
     0
  0
CLASS
  1
VISUALSTYLE
  2
AcDbVisualStyle
  3
ObjectDBX Classes
 90
     4095
 91
        4
280
     0
281
     0
  0
CLASS
  1
MATERIAL
  2
AcDbMaterial
  3
ObjectDBX Classes
 90
     1153
 91
        4
280
     0
281
     0
  0
CLASS
  1
TABLESTYLE
  2
AcDbTableStyle
  3
ObjectDBX Classes
 90
     4095
 91
        4
280
     0
281
     0
  0
CLASS
  1
MLEADERSTYLE
  2
AcDbMLeaderStyle
  3
ACDB_MLEADERSTYLE_CLASS
 90
     4095
 91
        4
280
     0
281
     0
  0
CLASS
  1
DICTIONARYVAR
  2
AcDbDictionaryVar
  3
ObjectDBX Classes
 90
        0
 91
        4
280
     0
281
     0
  0
CLASS
  1
CELLSTYLEMAP
  2
AcDbCellStyleMap
  3
ObjectDBX Classes
 90
     1152
 91
        4
280
     0
281
     0
  0
ENDSEC
  0
SECTION
  2
TABLES
  0
TABLE
  2
VPORT
  5
8
330
0
100
AcDbSymbolTable
 70
     1
  0
VPORT
  5
1F4
330
8
100
AcDbSymbolTableRecord
100
AcDbViewportTableRecord
  2
*ACTIVE
 70
     0
 10
0.0
 20
0.0
 11
1.0
 21
1.0
 12
148.5
 22
105.0
 13
0.0
 23
0.0
 14
1.0
 24
1.0
 15
0.0
 25
0.0
 16
0.0
 26
0.0
 36
1.0
 17
0.0
 27
0.0
 37
0.0
 40
210.0
 41
1.4142857143
 42
50.0
 43
0.0
 44
0.0
 50
0.0
 51
0.0
 71
     0
 72
   100
 73
     1
 74
     1
 75
     0
 76
     0
 77
     0
 78
     0
281
     0
 65
     1
110
0.0
120
0.0
130
0.0
111
1.0
121
0.0
131
0.0
112
0.0
122
1.0
132
0.0
 79
     0
146
0.0
348
35A
 60
     3
 61
     5
292
     1
282
     1
141
0.0
142
0.0
 63
   256
  0
ENDTAB
  0
TABLE
  2
LTYPE
  5
5
330
0
100
AcDbSymbolTable
 70
     6
  0
LTYPE
  5
14
330
5
100
AcDbSymbolTableRecord
100
AcDbLinetypeTableRecord
  2
BYBLOCK
 70
     0
  3

 72
    65
 73
     0
 40
0.0
  0
LTYPE
  5
15
330
5
100
AcDbSymbolTableRecord
100
AcDbLinetypeTableRecord
  2
BYLAYER
 70
     0
  3

 72
    65
 73
     0
 40
0.0
  0
LTYPE
  5
16
330
5
100
AcDbSymbolTableRecord
100
AcDbLinetypeTableRecord
  2
CONTINUOUS
 70
     0
  3
Solid line
 72
    65
 73
     0
 40
0.0
  0
LTYPE
  5
1F5
330
5
100
AcDbSymbolTableRecord
100
AcDbLinetypeTableRecord
  2
CENTER
 70
     0
  3
____ _ ____ _ ____ _ ____ _ ____ _ ____ _ ____
 72
    65
 73
     4
 40
0.6
 49
0.375
 74
     0
 49
-0.075
 74
     0
 49
0.075
 74
     0
 49
-0.075
 74
     0
  0
LTYPE
  5
1F6
330
5
100
AcDbSymbolTableRecord
100
AcDbLinetypeTableRecord
  2
HIDDEN
 70
     0
  3
- - - - - - - - - - - - - - - - - - - -
 72
    65
 73
     2
 40
0.2
 49
0.1
 74
     0
 49
-0.1
 74
     0
  0
LTYPE
  5
1F7
330
5
100
AcDbSymbolTableRecord
100
AcDbLinetypeTableRecord
  2
PHANTOM
 70
     0
  3
_____ _ _ _____ _ _ _____ _ _ _____
 72
    65
 73
     6
 40
0.8
 49
0.45
 74
     0
 49
-0.05
 74
     0
 49
0.1
 74
     0
 49
-0.05
 74
     0
 49
0.1
 74
     0
 49
-0.05
 74
     0
  0
LTYPE
  5
1F8
330
5
100
AcDbSymbolTableRecord
100
AcDbLinetypeTableRecord
  2
DOT
 70
     0
  3
. . . . . . . . . . . . . . . . . . . .
 72
    65
 73
     2
 40
0.2
 49
0.1
 74
     0
 49
-0.1
 74
     0
  0
LTYPE
  5
1F9
330
5
100
AcDbSymbolTableRecord
100
AcDbLinetypeTableRecord
  2
DASHED
 70
     0
  3
- - - - - - - - - - - - - - - - - - - -
 72
    65
 73
     2
 40
0.2
 49
0.1
 74
     0
 49
-0.1
 74
     0
  0
ENDTAB
  0
TABLE
  2
LAYER
  5
2
330
0
100
AcDbSymbolTable
 70
    16
  0
LAYER
  5
10
330
2
100
AcDbSymbolTableRecord
100
AcDbLayerTableRecord
  2
0
 70
     0
 62
     7
  6
CONTINUOUS
370
    -3
390
32F
347
371
348
0
  0
LAYER
  5
1FA
330
2
100
AcDbSymbolTableRecord
100
AcDbLayerTableRecord
  2
DEFAULT_1
 70
     0
 62
     7
  6
CENTER
370
    -3
390
32F
347
371
348
0
  0
LAYER
  5
1FB
330
2
100
AcDbSymbolTableRecord
100
AcDbLayerTableRecord
  2
DEFAULT_2
 70
     0
 62
     8
  6
HIDDEN
370
    -3
390
32F
347
371
348
0
  0
LAYER
  5
1FC
330
2
100
AcDbSymbolTableRecord
100
AcDbLayerTableRecord
  2
DEFAULT_3
 70
     0
 62
     7
  6
PHANTOM
370
    -3
390
32F
347
371
348
0
  0
LAYER
  5
1FD
330
2
100
AcDbSymbolTableRecord
100
AcDbLayerTableRecord
  2
01___PRT_ALL_DTM_PLN
 70
     0
 62
     7
  6
CONTINUOUS
370
    -3
390
32F
347
371
348
0
  0
LAYER
  5
1FE
330
2
100
AcDbSymbolTableRecord
100
AcDbLayerTableRecord
  2
01___PRT_DEF_DTM_PLN
 70
     0
 62
     7
  6
CONTINUOUS
370
    -3
390
32F
347
371
348
0
  0
LAYER
  5
1FF
330
2
100
AcDbSymbolTableRecord
100
AcDbLayerTableRecord
  2
02___PRT_ALL_AXES
 70
     0
 62
     7
  6
CONTINUOUS
370
    -3
390
32F
347
371
348
0
  0
LAYER
  5
200
330
2
100
AcDbSymbolTableRecord
100
AcDbLayerTableRecord
  2
03___PRT_ALL_CURVES
 70
     0
 62
     7
  6
CONTINUOUS
370
    -3
390
32F
347
371
348
0
  0
LAYER
  5
201
330
2
100
AcDbSymbolTableRecord
100
AcDbLayerTableRecord
  2
04___PRT_ALL_DTM_PNT
 70
     0
 62
     7
  6
CONTINUOUS
370
    -3
390
32F
347
371
348
0
  0
LAYER
  5
202
330
2
100
AcDbSymbolTableRecord
100
AcDbLayerTableRecord
  2
05___PRT_ALL_DTM_CSYS
 70
     0
 62
     7
  6
CONTINUOUS
370
    -3
390
32F
347
371
348
0
  0
LAYER
  5
203
330
2
100
AcDbSymbolTableRecord
100
AcDbLayerTableRecord
  2
05___PRT_DEF_DTM_CSYS
 70
     0
 62
     7
  6
CONTINUOUS
370
    -3
390
32F
347
371
348
0
  0
LAYER
  5
204
330
2
100
AcDbSymbolTableRecord
100
AcDbLayerTableRecord
  2
06___PRT_ALL_SURFS
 70
     0
 62
     7
  6
CONTINUOUS
370
    -3
390
32F
347
371
348
0
  0
LAYER
  5
205
330
2
100
AcDbSymbolTableRecord
100
AcDbLayerTableRecord
  2
1_ALL_PLANES
 70
     0
 62
     7
  6
CONTINUOUS
370
    -3
390
32F
347
371
348
0
  0
LAYER
  5
206
330
2
100
AcDbSymbolTableRecord
100
AcDbLayerTableRecord
  2
3_ALL_AXES
 70
     0
 62
     7
  6
CONTINUOUS
370
    -3
390
32F
347
371
348
0
  0
LAYER
  5
207
330
2
100
AcDbSymbolTableRecord
100
AcDbLayerTableRecord
  2
7_ALL_FEATURES
 70
     0
 62
     7
  6
CONTINUOUS
370
    -3
390
32F
347
371
348
0
  0
LAYER
  5
208
330
2
100
AcDbSymbolTableRecord
100
AcDbLayerTableRecord
  2
9_SOLID
 70
     0
 62
     7
  6
CONTINUOUS
370
    -3
390
32F
347
371
348
0
  0
ENDTAB
  0
TABLE
  2
STYLE
  5
3
330
0
100
AcDbSymbolTable
 70
     5
  0
STYLE
  5
11
330
3
100
AcDbSymbolTableRecord
100
AcDbTextStyleTableRecord
  2
STANDARD
 70
     0
 40
0.0
 41
1.0
 50
0.0
 71
     0
 42
0.2
  3
arial.ttf
  4

  0
STYLE
  5
209
330
3
100
AcDbSymbolTableRecord
100
AcDbTextStyleTableRecord
  2
TEXTSTYLE_1
 70
     0
 40
0.0
 41
0.8
 50
0.0
 71
     0
 42
0.2
  3
gdt
  4

  0
STYLE
  5
20A
330
3
100
AcDbSymbolTableRecord
100
AcDbTextStyleTableRecord
  2
TEXTSTYLE_2
 70
     0
 40
0.0
 41
0.85
 50
0.0
 71
     0
 42
0.2
  3
gdt
  4

  0
STYLE
  5
20B
330
3
100
AcDbSymbolTableRecord
100
AcDbTextStyleTableRecord
  2
TEXTSTYLE_3
 70
     0
 40
0.0
 41
2.0
 50
0.0
 71
     0
 42
0.2
  3
txt
  4

  0
STYLE
  5
20C
330
3
100
AcDbSymbolTableRecord
100
AcDbTextStyleTableRecord
  2
TEXTSTYLE_4
 70
     0
 40
0.0
 41
0.85
 50
0.0
 71
     0
 42
0.2
  3
txt
  4

  0
ENDTAB
  0
TABLE
  2
VIEW
  5
6
330
0
100
AcDbSymbolTable
 70
     0
  0
ENDTAB
  0
TABLE
  2
UCS
  5
7
330
0
100
AcDbSymbolTable
 70
     0
  0
ENDTAB
  0
TABLE
  2
APPID
  5
9
330
0
100
AcDbSymbolTable
 70
     1
  0
APPID
  5
20D
330
9
100
AcDbSymbolTableRecord
100
AcDbRegAppTableRecord
  2
ACAD
 70
     0
  0
ENDTAB
  0
TABLE
  2
DIMSTYLE
  5
A
330
0
100
AcDbSymbolTable
 70
     3
100
AcDbDimStyleTable
  0
DIMSTYLE
105
213
330
A
100
AcDbSymbolTableRecord
100
AcDbDimStyleTableRecord
  2
STANDARD
 70
     0
 41
2.5
 42
0.75
 44
0.75
 47
0.01
 48
0.01
 71
     1
 73
     0
 74
     0
 77
     1
 78
     8
 79
     2
140
3.0
147
0.625
171
     1
178
     0
179
     2
271
     2
272
     2
284
     8
340
11
341
20E
342
20E
343
20E
344
20E
  0
DIMSTYLE
105
214
330
A
100
AcDbSymbolTableRecord
100
AcDbDimStyleTableRecord
  2
DIMSTYLE_1
 70
     0
  3
<>
 41
2.5
 42
0.75
 44
0.75
 47
0.3
 48
0.3
 73
     0
 74
     0
 77
     1
 78
     8
 79
     2
140
3.0
147
0.625
171
     1
172
     1
178
     0
179
     2
271
     2
272
     2
284
     8
288
     1
340
11
341
20E
342
20E
343
20E
344
20E
  0
DIMSTYLE
105
215
330
A
100
AcDbSymbolTableRecord
100
AcDbDimStyleTableRecord
  2
DIMSTYLE_2
 70
     0
 41
2.5
 42
0.75
 44
0.75
 47
0.3
 48
0.3
 73
     0
 74
     0
 77
     1
 78
     8
 79
     2
140
3.0
147
0.75
171
     1
178
     0
179
     2
271
     2
272
     2
284
     8
340
11
341
20E
342
20E
343
20E
344
20E
  0
ENDTAB
  0
TABLE
  2
BLOCK_RECORD
  5
1
330
0
100
AcDbSymbolTable
 70
     5
  0
BLOCK_RECORD
  5
1F
330
1
100
AcDbSymbolTableRecord
100
AcDbBlockTableRecord
  2
*MODEL_SPACE
340
353
 70
     0
280
     1
281
     0
  0
BLOCK_RECORD
  5
1B
330
1
100
AcDbSymbolTableRecord
100
AcDbBlockTableRecord
  2
*PAPER_SPACE
340
354
 70
     0
280
     1
281
     0
  0
BLOCK_RECORD
  5
20E
330
1
100
AcDbSymbolTableRecord
100
AcDbBlockTableRecord
  2
_CLOSED
340
0
102
{BLKREFS
331
265
331
26D
331
26E
102
}
 70
     0
280
     1
281
     0
  0
BLOCK_RECORD
  5
20F
330
1
100
AcDbSymbolTableRecord
100
AcDbBlockTableRecord
  2
*D1
340
0
 70
     0
280
     1
281
     0
  0
BLOCK_RECORD
  5
210
330
1
100
AcDbSymbolTableRecord
100
AcDbBlockTableRecord
  2
*D2
340
0
 70
     0
280
     1
281
     0
  0
BLOCK_RECORD
  5
211
330
1
100
AcDbSymbolTableRecord
100
AcDbBlockTableRecord
  2
LOGO2_BL1
340
0
102
{BLKREFS
331
319
102
}
 70
     0
280
     1
281
     0
  0
BLOCK_RECORD
  5
212
330
1
100
AcDbSymbolTableRecord
100
AcDbBlockTableRecord
  2
PROIEZIONE_EU_BL0
340
0
102
{BLKREFS
331
316
102
}
 70
     0
280
     1
281
     0
  0
ENDTAB
  0
ENDSEC
  0
SECTION
  2
BLOCKS
  0
BLOCK
  5
20
330
1F
100
AcDbEntity
  8
0
100
AcDbBlockBegin
  2
*MODEL_SPACE
 70
     0
 10
0.0
 20
0.0
 30
0.0
  3
*MODEL_SPACE
  1

  0
ENDBLK
  5
21
330
1F
100
AcDbEntity
  8
0
100
AcDbBlockEnd
  0
BLOCK
  5
1C
330
1B
100
AcDbEntity
 67
     1
  8
0
100
AcDbBlockBegin
  2
*PAPER_SPACE
 70
     0
 10
0.0
 20
0.0
 30
0.0
  3
*PAPER_SPACE
  1

  0
ENDBLK
  5
1D
330
1B
100
AcDbEntity
 67
     1
  8
0
100
AcDbBlockEnd
  0
BLOCK
  5
25C
330
20E
100
AcDbEntity
  8
0
100
AcDbBlockBegin
  2
_CLOSED
 70
     0
 10
0.0
 20
0.0
 30
0.0
  3
_CLOSED
  1

  0
LINE
  5
25D
330
20E
100
AcDbEntity
  8
0
  6
ByBlock
 62
     0
100
AcDbLine
 10
0.0
 20
0.0
 30
0.0
 11
-1.0
 21
0.2
 31
0.0
  0
LINE
  5
25E
330
20E
100
AcDbEntity
  8
0
  6
ByBlock
 62
     0
100
AcDbLine
 10
-1.0
 20
0.2
 30
0.0
 11
-1.0
 21
-0.2
 31
0.0
  0
LINE
  5
25F
330
20E
100
AcDbEntity
  8
0
  6
ByBlock
 62
     0
100
AcDbLine
 10
-1.0
 20
-0.2
 30
0.0
 11
0.0
 21
0.0
 31
0.0
  0
LINE
  5
260
330
20E
100
AcDbEntity
  8
0
  6
ByBlock
 62
     0
100
AcDbLine
 10
-1.0
 20
0.0
 30
0.0
 11
0.0
 21
0.0
 31
0.0
  0
ENDBLK
  5
261
330
20E
100
AcDbEntity
  8
0
  6
ByBlock
 62
     0
100
AcDbBlockEnd
  0
BLOCK
  5
262
330
20F
100
AcDbEntity
  8
0
100
AcDbBlockBegin
  2
*D1
 70
     1
 10
0.0
 20
0.0
 30
0.0
  3
*D1
  1

  0
MTEXT
  5
263
330
20F
100
AcDbEntity
  8
0
  6
Continuous
 62
     2
100
AcDbMText
 10
90.9557200443
 20
80.4499612315
 30
0.0
 40
3.0
 41
12.1524163569
 46
0.0
 71
     1
 72
     1
  1
{\Fgdt;n}\Farial.ttf;43,8
  7
TEXTSTYLE_2
 11
0.8319454492
 21
0.5548574317
 31
0.0
 73
     1
 44
1.0
  0
LINE
  5
264
330
20F
100
AcDbEntity
  8
0
  6
Continuous
 62
     2
100
AcDbLine
 10
88.0525806676
 20
74.0062353076
 30
0.0
 11
103.1465828984
 21
84.0730243258
 31
0.0
  0
INSERT
  5
265
330
20F
100
AcDbEntity
  8
0
  6
Continuous
 62
     2
100
AcDbBlockReference
  2
_CLOSED
 10
88.0525806676
 20
74.0062353076
 30
0.0
 41
2.5
 42
2.5
 43
2.5
 50
213.700895594
  0
ENDBLK
  5
266
330
20F
100
AcDbEntity
  8
0
  6
ByBlock
 62
     0
100
AcDbBlockEnd
  0
BLOCK
  5
267
330
210
100
AcDbEntity
  8
0
100
AcDbBlockBegin
  2
*D2
 70
     1
 10
0.0
 20
0.0
 30
0.0
  3
*D2
  1

  0
MTEXT
  5
268
330
210
100
AcDbEntity
  8
0
  6
Continuous
 62
     2
100
AcDbMText
 10
101.4579268416
 20
152.126473764
 30
0.0
 40
3.0
 41
8.1524163569
 46
0.0
 71
     2
 72
     1
  1
36,4
 11
0.0
 21
1.0
 31
0.0
 73
     1
 44
1.0
  0
LINE
  5
269
330
210
100
AcDbEntity
  8
0
  6
Continuous
 62
     2
100
AcDbLine
 10
93.2745596928
 20
170.325889483
 30
0.0
 11
105.9579268416
 21
170.325889483
 31
0.0
  0
LINE
  5
26A
330
210
100
AcDbEntity
  8
0
  6
Continuous
 62
     2
100
AcDbLine
 10
93.7174854609
 20
133.9270580449
 30
0.0
 11
105.9579268416
 21
133.9270580449
 31
0.0
  0
LINE
  5
26B
330
210
100
AcDbEntity
  8
0
  6
Continuous
 62
     2
100
AcDbLine
 10
105.2079268416
 20
170.325889483
 30
0.0
 11
105.2079268416
 21
152.126473764
 31
0.0
  0
LINE
  5
26C
330
210
100
AcDbEntity
  8
0
  6
Continuous
 62
     2
100
AcDbLine
 10
105.2079268416
 20
133.9270580449
 30
0.0
 11
105.2079268416
 21
152.126473764
 31
0.0
  0
INSERT
  5
26D
330
210
100
AcDbEntity
  8
0
  6
Continuous
 62
     2
100
AcDbBlockReference
  2
_CLOSED
 10
105.2079268416
 20
170.325889483
 30
0.0
 41
2.5
 42
2.5
 43
2.5
 50
90.0
  0
INSERT
  5
26E
330
210
100
AcDbEntity
  8
0
  6
Continuous
 62
     2
100
AcDbBlockReference
  2
_CLOSED
 10
105.2079268416
 20
133.9270580449
 30
0.0
 41
2.5
 42
2.5
 43
2.5
 50
270.0
  0
ENDBLK
  5
26F
330
210
100
AcDbEntity
  8
0
  6
ByBlock
 62
     0
100
AcDbBlockEnd
  0
BLOCK
  5
216
330
211
100
AcDbEntity
  8
0
100
AcDbBlockBegin
  2
LOGO2_BL1
 70
     0
 10
167.5932694779
 20
42.3275126695
 30
0.0
  3
LOGO2_BL1
  1

  0
LINE
  5
217
330
211
100
AcDbEntity
  8
0
  6
Continuous
 62
     7
100
AcDbLine
 10
159.3361947061
 20
45.5230040084
 30
0.0
 11
158.0318537767
 21
45.5230040084
 31
0.0
  0
LINE
  5
218
330
211
100
AcDbEntity
  8
0
  6
Continuous
 62
     7
100
AcDbLine
 10
158.0318537767
 20
45.5230040084
 30
0.0
 11
158.0318537767
 21
35.0639379485
 31
0.0
  0
LINE
  5
219
330
211
100
AcDbEntity
  8
0
  6
Continuous
 62
     7
100
AcDbLine
 10
158.0318537767
 20
35.0639379485
 30
0.0
 11
162.512908665
 21
35.0639379485
 31
0.0
  0
LINE
  5
21A
330
211
100
AcDbEntity
  8
0
  6
Continuous
 62
     7
100
AcDbLine
 10
162.512908665
 20
35.0639379485
 30
0.0
 11
162.512908665
 21
36.2567922736
 31
0.0
  0
LINE
  5
21B
330
211
100
AcDbEntity
  8
0
  6
Continuous
 62
     7
100
AcDbLine
 10
162.512908665
 20
36.2567922736
 30
0.0
 11
159.3361947061
 21
36.2567922736
 31
0.0
  0
LINE
  5
21C
330
211
100
AcDbEntity
  8
0
  6
Continuous
 62
     7
100
AcDbLine
 10
159.3361947061
 20
36.2567922736
 30
0.0
 11
159.3361947061
 21
45.5230040084
 31
0.0
  0
LINE
  5
21D
330
211
100
AcDbEntity
  8
0
  6
Continuous
 62
     7
100
AcDbLine
 10
174.2725209224
 20
45.5230040084
 30
0.0
 11
172.9687034043
 21
45.5230040084
 31
0.0
  0
LINE
  5
21E
330
211
100
AcDbEntity
  8
0
  6
Continuous
 62
     7
100
AcDbLine
 10
172.9687034043
 20
45.5230040084
 30
0.0
 11
172.9687034043
 21
35.0639379485
 31
0.0
  0
LINE
  5
21F
330
211
100
AcDbEntity
  8
0
  6
Continuous
 62
     7
100
AcDbLine
 10
172.9687034043
 20
35.0639379485
 30
0.0
 11
177.4498891454
 21
35.0639379485
 31
0.0
  0
LINE
  5
220
330
211
100
AcDbEntity
  8
0
  6
Continuous
 62
     7
100
AcDbLine
 10
177.4498891454
 20
35.0639379485
 30
0.0
 11
177.4498891454
 21
36.2567922736
 31
0.0
  0
LINE
  5
221
330
211
100
AcDbEntity
  8
0
  6
Continuous
 62
     7
100
AcDbLine
 10
177.4498891454
 20
36.2567922736
 30
0.0
 11
174.2725209224
 21
36.2567922736
 31
0.0
  0
LINE
  5
222
330
211
100
AcDbEntity
  8
0
  6
Continuous
 62
     7
100
AcDbLine
 10
174.2725209224
 20
36.2567922736
 30
0.0
 11
174.2725209224
 21
45.5230040084
 31
0.0
  0
LWPOLYLINE
  5
223
330
211
100
AcDbEntity
  8
0
  6
Continuous
 62
     7
100
AcDbPolyline
 90
        2
 70
     0
 43
0.2
 10
156.3862486877
 20
31.7203866416
 10
156.3862486877
 20
29.8633233923
  0
LWPOLYLINE
  5
224
330
211
100
AcDbEntity
  8
0
  6
Continuous
 62
     7
100
AcDbPolyline
 90
        2
 70
     0
 43
0.2
 10
156.3862486877
 20
29.8633233923
 10
157.1819646981
 20
29.8633233923
  0
LWPOLYLINE
  5
225
330
211
100
AcDbEntity
  8
0
  6
Continuous
 62
     7
100
AcDbPolyline
 90
        2
 70
     0
 43
0.2
 10
157.1819646981
 20
29.8633233923
 10
157.1819646981
 20
30.0753049638
  0
LWPOLYLINE
  5
226
330
211
100
AcDbEntity
  8
0
  6
Continuous
 62
     7
100
AcDbPolyline
 90
        2
 70
     0
 43
0.2
 10
157.1819646981
 20
30.0753049638
 10
156.6178581826
 20
30.0753049638
  0
LWPOLYLINE
  5
227
330
211
100
AcDbEntity
  8
0
  6
Continuous
 62
     7
100
AcDbPolyline
 90
        2
 70
     0
 43
0.2
 10
156.6178581826
 20
30.0753049638
 10
156.6178581826
 20
31.7203866416
  0
LWPOLYLINE
  5
228
330
211
100
AcDbEntity
  8
0
  6
Continuous
 62
     7
100
AcDbPolyline
 90
        2
 70
     0
 43
0.2
 10
156.6178581826
 20
31.7203866416
 10
156.3862486877
 20
31.7203866416
  0
SPLINE
  5
229
330
211
100
AcDbEntity
  8
0
  6
Continuous
 62
     7
100
AcDbSpline
 70
     3
 71
     3
 72
    35
 73
    31
 74
     0
 42
0.000000001
 43
0.0000001
 40
0.0
 40
0.0
 40
0.0
 40
0.0
 40
1.0
 40
1.0
 40
1.0
 40
2.0
 40
2.0
 40
2.0
 40
3.0
 40
3.0
 40
3.0
 40
4.0
 40
4.0
 40
4.0
 40
5.0
 40
5.0
 40
5.0
 40
6.0
 40
6.0
 40
6.0
 40
7.0
 40
7.0
 40
7.0
 40
8.0
 40
8.0
 40
8.0
 40
9.0
 40
9.0
 40
9.0
 40
10.0
 40
10.0
 40
10.0
 40
10.0
 10
158.5802579536
 20
31.0158750482
 30
0.0
 10
158.5802579536
 20
31.0158750482
 30
0.0
 10
158.5802579536
 20
30.353759769
 30
0.0
 10
158.5802579536
 20
30.353759769
 30
0.0
 10
158.5802579536
 20
30.0386661737
 30
0.0
 10
158.7281216424
 20
29.8240675457
 30
0.0
 10
159.0682081267
 20
29.8240675457
 30
0.0
 10
159.4077711997
 20
29.8240675457
 30
0.0
 10
159.5558965942
 20
30.0386661737
 30
0.0
 10
159.5558965942
 20
30.353759769
 30
0.0
 10
159.5558965942
 20
30.353759769
 30
0.0
 10
159.5558965942
 20
31.0158750482
 30
0.0
 10
159.5558965942
 20
31.0158750482
 30
0.0
 10
159.5558965942
 20
31.0158750482
 30
0.0
 10
159.3338393553
 20
31.0158750482
 30
0.0
 10
159.3338393553
 20
31.0158750482
 30
0.0
 10
159.3338393553
 20
31.0158750482
 30
0.0
 10
159.3338393553
 20
30.3788835108
 30
0.0
 10
159.3338393553
 20
30.3788835108
 30
0.0
 10
159.3338393553
 20
30.1930725036
 30
0.0
 10
159.2871248979
 20
30.0302915931
 30
0.0
 10
159.0682081267
 20
30.0302915931
 30
0.0
 10
158.8487679443
 20
30.0302915931
 30
0.0
 10
158.8020534868
 20
30.1930725036
 30
0.0
 10
158.8020534868
 20
30.3788835108
 30
0.0
 10
158.8020534868
 20
30.3788835108
 30
0.0
 10
158.8020534868
 20
31.0158750482
 30
0.0
 10
158.8020534868
 20
31.0158750482
 30
0.0
 10
158.8020534868
 20
31.0158750482
 30
0.0
 10
158.5802579536
 20
31.0158750482
 30
0.0
 10
158.5802579536
 20
31.0158750482
 30
0.0
  0
SPLINE
  5
22A
330
211
100
AcDbEntity
  8
0
  6
Continuous
 62
     7
100
AcDbSpline
 70
     3
 71
     3
 72
    35
 73
    31
 74
     0
 42
0.000000001
 43
0.0000001
 40
0.0
 40
0.0
 40
0.0
 40
0.0
 40
1.0
 40
1.0
 40
1.0
 40
2.0
 40
2.0
 40
2.0
 40
3.0
 40
3.0
 40
3.0
 40
4.0
 40
4.0
 40
4.0
 40
5.0
 40
5.0
 40
5.0
 40
6.0
 40
6.0
 40
6.0
 40
7.0
 40
7.0
 40
7.0
 40
8.0
 40
8.0
 40
8.0
 40
9.0
 40
9.0
 40
9.0
 40
10.0
 40
10.0
 40
10.0
 40
10.0
 10
161.9790291514
 20
30.9745255564
 30
0.0
 10
161.8905726437
 20
31.0258198626
 30
0.0
 10
161.7771232471
 20
31.0509436044
 30
0.0
 10
161.6734878121
 20
31.0509436044
 30
0.0
 10
161.3186149589
 20
31.0509436044
 30
0.0
 10
161.0431697687
 20
30.7871443154
 30
0.0
 10
161.0431697687
 20
30.4296544057
 30
0.0
 10
161.0431697687
 20
30.084726367
 30
0.0
 10
161.3216245738
 20
29.824590957
 30
0.0
 10
161.6611876468
 20
29.824590957
 30
0.0
 10
161.7771232471
 20
29.824590957
 30
0.0
 10
161.87787992
 20
29.8465742311
 30
0.0
 10
161.9790291514
 20
29.9004855937
 30
0.0
 10
161.9790291514
 20
29.9004855937
 30
0.0
 10
161.9790291514
 20
30.1831276892
 30
0.0
 10
161.9790291514
 20
30.1831276892
 30
0.0
 10
161.8951524925
 20
30.0899604799
 30
0.0
 10
161.7916479103
 20
30.0308150044
 30
0.0
 10
161.6635429976
 20
30.0308150044
 30
0.0
 10
161.4298398576
 20
30.0308150044
 30
0.0
 10
161.2645727434
 20
30.2030173181
 30
0.0
 10
161.2645727434
 20
30.4395992202
 30
0.0
 10
161.2645727434
 20
30.6515807918
 30
0.0
 10
161.4323260612
 20
30.8436727344
 30
0.0
 10
161.6491491872
 20
30.8436727344
 30
0.0
 10
161.7819648015
 20
30.8436727344
 30
0.0
 10
161.8905726437
 20
30.7897613718
 30
0.0
 10
161.9790291514
 20
30.6887429932
 30
0.0
 10
161.9790291514
 20
30.6887429932
 30
0.0
 10
161.9790291514
 20
30.9745255564
 30
0.0
 10
161.9790291514
 20
30.9745255564
 30
0.0
  0
SPLINE
  5
22B
330
211
100
AcDbEntity
  8
0
  6
Continuous
 62
     7
100
AcDbSpline
 70
     3
 71
     3
 72
    32
 73
    28
 74
     0
 42
0.000000001
 43
0.0000001
 40
0.0
 40
0.0
 40
0.0
 40
0.0
 40
1.0
 40
1.0
 40
1.0
 40
2.0
 40
2.0
 40
2.0
 40
3.0
 40
3.0
 40
3.0
 40
4.0
 40
4.0
 40
4.0
 40
5.0
 40
5.0
 40
5.0
 40
6.0
 40
6.0
 40
6.0
 40
7.0
 40
7.0
 40
7.0
 40
8.0
 40
8.0
 40
8.0
 40
9.0
 40
9.0
 40
9.0
 40
9.0
 10
164.5109004036
 20
30.4029604301
 30
0.0
 10
164.5109004036
 20
30.4029604301
 30
0.0
 10
164.5109004036
 20
30.4369821638
 30
0.0
 10
164.5109004036
 20
30.4369821638
 30
0.0
 10
164.5109004036
 20
30.779293146
 30
0.0
 10
164.3380438258
 20
31.0509436044
 30
0.0
 10
163.9713942187
 20
31.0509436044
 30
0.0
 10
163.5997722043
 20
31.0509436044
 30
0.0
 10
163.4100356124
 20
30.7845272589
 30
0.0
 10
163.4100356124
 20
30.4296544057
 30
0.0
 10
163.4100356124
 20
30.0899604799
 30
0.0
 10
163.6241108292
 20
29.8240675457
 30
0.0
 10
163.9762357731
 20
29.8240675457
 30
0.0
 10
164.2002558043
 20
29.8240675457
 30
0.0
 10
164.4024234142
 20
29.9397414403
 30
0.0
 10
164.5109004036
 20
30.139161141
 30
0.0
 10
164.5109004036
 20
30.139161141
 30
0.0
 10
164.3232574569
 20
30.2459370437
 30
0.0
 10
164.3232574569
 20
30.2459370437
 30
0.0
 10
164.2397733565
 20
30.1072330524
 30
0.0
 10
164.1485689396
 20
30.0213936012
 30
0.0
 10
163.9789836823
 20
30.0213936012
 30
0.0
 10
163.7670021107
 20
30.0213936012
 30
0.0
 10
163.6340556436
 20
30.2061577858
 30
0.0
 10
163.6317002928
 20
30.4029604301
 30
0.0
 10
163.6317002928
 20
30.4029604301
 30
0.0
 10
164.5109004036
 20
30.4029604301
 30
0.0
 10
164.5109004036
 20
30.4029604301
 30
0.0
  0
SPLINE
  5
22C
330
211
100
AcDbEntity
  8
0
  6
Continuous
 62
     7
100
AcDbSpline
 70
     3
 71
     3
 72
    14
 73
    10
 74
     0
 42
0.000000001
 43
0.0000001
 40
0.0
 40
0.0
 40
0.0
 40
0.0
 40
1.0
 40
1.0
 40
1.0
 40
2.0
 40
2.0
 40
2.0
 40
3.0
 40
3.0
 40
3.0
 40
3.0
 10
163.6437387525
 20
30.5704520422
 30
0.0
 10
163.6713486979
 20
30.7353265979
 30
0.0
 10
163.799191905
 20
30.8583282505
 30
0.0
 10
163.9713942187
 20
30.8583282505
 30
0.0
 10
164.1485689396
 20
30.8583282505
 30
0.0
 10
164.2620183363
 20
30.7426543559
 30
0.0
 10
164.2892357232
 20
30.5704520422
 30
0.0
 10
164.2892357232
 20
30.5704520422
 30
0.0
 10
163.6437387525
 20
30.5704520422
 30
0.0
 10
163.6437387525
 20
30.5704520422
 30
0.0
  0
SPLINE
  5
22D
330
211
100
AcDbEntity
  8
0
  6
Continuous
 62
     7
100
AcDbSpline
 70
     3
 71
     3
 72
    20
 73
    16
 74
     0
 42
0.000000001
 43
0.0000001
 40
0.0
 40
0.0
 40
0.0
 40
0.0
 40
1.0
 40
1.0
 40
1.0
 40
2.0
 40
2.0
 40
2.0
 40
3.0
 40
3.0
 40
3.0
 40
4.0
 40
4.0
 40
4.0
 40
5.0
 40
5.0
 40
5.0
 40
5.0
 10
166.5349318538
 20
30.7798165573
 30
0.0
 10
166.5349318538
 20
30.7798165573
 30
0.0
 10
166.9460714204
 20
30.277341721
 30
0.0
 10
166.9460714204
 20
30.277341721
 30
0.0
 10
166.8300049674
 20
30.1616678263
 30
0.0
 10
166.6922169458
 20
30.0313384157
 30
0.0
 10
166.5202763378
 20
30.0313384157
 30
0.0
 10
166.3428399112
 20
30.0313384157
 30
0.0
 10
166.1753482991
 20
30.1956895601
 30
0.0
 10
166.1753482991
 20
30.3726025754
 30
0.0
 10
166.1753482991
 20
30.5505624132
 30
0.0
 10
166.3851053727
 20
30.6767045336
 30
0.0
 10
166.5126868741
 20
30.76463763
 30
0.0
 10
166.5126868741
 20
30.76463763
 30
0.0
 10
166.5349318538
 20
30.7798165573
 30
0.0
 10
166.5349318538
 20
30.7798165573
 30
0.0
  0
SPLINE
  5
22E
330
211
100
AcDbEntity
  8
0
  6
Continuous
 62
     7
100
AcDbSpline
 70
     3
 71
     3
 72
    23
 73
    19
 74
     0
 42
0.000000001
 43
0.0000001
 40
0.0
 40
0.0
 40
0.0
 40
0.0
 40
1.0
 40
1.0
 40
1.0
 40
2.0
 40
2.0
 40
2.0
 40
3.0
 40
3.0
 40
3.0
 40
4.0
 40
4.0
 40
4.0
 40
5.0
 40
5.0
 40
5.0
 40
6.0
 40
6.0
 40
6.0
 40
6.0
 10
166.5842633677
 20
31.0708332334
 30
0.0
 10
166.5842633677
 20
31.0708332334
 30
0.0
 10
166.5226316886
 20
31.1493449266
 30
0.0
 10
166.5226316886
 20
31.1493449266
 30
0.0
 10
166.4687203259
 20
31.2179118053
 30
0.0
 10
166.4119302012
 20
31.2870020953
 30
0.0
 10
166.4119302012
 20
31.3806927158
 30
0.0
 10
166.4119302012
 20
31.4995070781
 30
0.0
 10
166.5078453197
 20
31.5769719487
 30
0.0
 10
166.6188085127
 20
31.5769719487
 30
0.0
 10
166.742071871
 20
31.5769719487
 30
0.0
 10
166.8353699331
 20
31.5057880136
 30
0.0
 10
166.8353699331
 20
31.3754586029
 30
0.0
 10
166.8353699331
 20
31.2404184906
 30
0.0
 10
166.7072650204
 20
31.1640004426
 30
0.0
 10
166.6137052527
 20
31.090199451
 30
0.0
 10
166.6137052527
 20
31.090199451
 30
0.0
 10
166.5842633677
 20
31.0708332334
 30
0.0
 10
166.5842633677
 20
31.0708332334
 30
0.0
  0
SPLINE
  5
22F
330
211
100
AcDbEntity
  8
0
  6
Continuous
 62
     7
100
AcDbSpline
 70
     3
 71
     3
 72
    50
 73
    46
 74
     0
 42
0.000000001
 43
0.0000001
 40
0.0
 40
0.0
 40
0.0
 40
0.0
 40
1.0
 40
1.0
 40
1.0
 40
2.0
 40
2.0
 40
2.0
 40
3.0
 40
3.0
 40
3.0
 40
4.0
 40
4.0
 40
4.0
 40
5.0
 40
5.0
 40
5.0
 40
6.0
 40
6.0
 40
6.0
 40
7.0
 40
7.0
 40
7.0
 40
8.0
 40
8.0
 40
8.0
 40
9.0
 40
9.0
 40
9.0
 40
10.0
 40
10.0
 40
10.0
 40
11.0
 40
11.0
 40
11.0
 40
12.0
 40
12.0
 40
12.0
 40
13.0
 40
13.0
 40
13.0
 40
14.0
 40
14.0
 40
14.0
 40
15.0
 40
15.0
 40
15.0
 40
15.0
 10
167.2864196104
 20
29.8638468036
 30
0.0
 10
167.2864196104
 20
29.8638468036
 30
0.0
 10
167.5718096151
 20
29.8638468036
 30
0.0
 10
167.5718096151
 20
29.8638468036
 30
0.0
 10
167.5718096151
 20
29.8638468036
 30
0.0
 10
167.2394434473
 20
30.2747246645
 30
0.0
 10
167.2394434473
 20
30.2747246645
 30
0.0
 10
167.2394434473
 20
30.2747246645
 30
0.0
 10
167.4659496821
 20
30.5406175988
 30
0.0
 10
167.4659496821
 20
30.5406175988
 30
0.0
 10
167.4659496821
 20
30.5406175988
 30
0.0
 10
167.3176934348
 20
30.6934536948
 30
0.0
 10
167.3176934348
 20
30.6934536948
 30
0.0
 10
167.3176934348
 20
30.6934536948
 30
0.0
 10
167.1017862786
 20
30.4422162766
 30
0.0
 10
167.1017862786
 20
30.4422162766
 30
0.0
 10
167.1017862786
 20
30.4422162766
 30
0.0
 10
166.7147236312
 20
30.910145968
 30
0.0
 10
166.7147236312
 20
30.910145968
 30
0.0
 10
166.8701767837
 20
31.0242496288
 30
0.0
 10
167.0524547647
 20
31.1640004426
 30
0.0
 10
167.0524547647
 20
31.3733649578
 30
0.0
 10
167.0524547647
 20
31.6172746179
 30
0.0
 10
166.8504180076
 20
31.7606893108
 30
0.0
 10
166.6239117728
 20
31.7606893108
 30
0.0
 10
166.379740407
 20
31.7606893108
 30
0.0
 10
166.1953687808
 20
31.6099468599
 30
0.0
 10
166.1953687808
 20
31.3534753288
 30
0.0
 10
166.1953687808
 20
31.1959285312
 30
0.0
 10
166.2940318086
 20
31.0582713625
 30
0.0
 10
166.3993683303
 20
30.9473081694
 30
0.0
 10
166.3993683303
 20
30.9473081694
 30
0.0
 10
166.2838252885
 20
30.8635623634
 30
0.0
 10
166.2838252885
 20
30.8635623634
 30
0.0
 10
166.1061271562
 20
30.7353265979
 30
0.0
 10
165.9587868787
 20
30.6076142436
 30
0.0
 10
165.9587868787
 20
30.3705089302
 30
0.0
 10
165.9587868787
 20
30.050181222
 30
0.0
 10
166.2173520549
 20
29.8240675457
 30
0.0
 10
166.5277349486
 20
29.8240675457
 30
0.0
 10
166.7466517198
 20
29.8240675457
 30
0.0
 10
166.9438469225
 20
29.9491628435
 30
0.0
 10
167.0841211476
 20
30.1150842217
 30
0.0
 10
167.0841211476
 20
30.1150842217
 30
0.0
 10
167.2864196104
 20
29.8638468036
 30
0.0
 10
167.2864196104
 20
29.8638468036
 30
0.0
  0
LWPOLYLINE
  5
230
330
211
100
AcDbEntity
  8
0
  6
Continuous
 62
     7
100
AcDbPolyline
 90
        2
 70
     0
 43
0.2
 10
169.2218637001
 20
31.7203866416
 10
168.9905159109
 20
31.7203866416
  0
LWPOLYLINE
  5
231
330
211
100
AcDbEntity
  8
0
  6
Continuous
 62
     7
100
AcDbPolyline
 90
        2
 70
     0
 43
0.2
 10
168.9905159109
 20
31.7203866416
 10
168.9905159109
 20
29.8633233923
  0
LWPOLYLINE
  5
232
330
211
100
AcDbEntity
  8
0
  6
Continuous
 62
     7
100
AcDbPolyline
 90
        2
 70
     0
 43
0.2
 10
168.9905159109
 20
29.8633233923
 10
169.7858393628
 20
29.8633233923
  0
LWPOLYLINE
  5
233
330
211
100
AcDbEntity
  8
0
  6
Continuous
 62
     7
100
AcDbPolyline
 90
        2
 70
     0
 43
0.2
 10
169.7858393628
 20
29.8633233923
 10
169.7858393628
 20
30.0753049638
  0
LWPOLYLINE
  5
234
330
211
100
AcDbEntity
  8
0
  6
Continuous
 62
     7
100
AcDbPolyline
 90
        2
 70
     0
 43
0.2
 10
169.7858393628
 20
30.0753049638
 10
169.2218637001
 20
30.0753049638
  0
LWPOLYLINE
  5
235
330
211
100
AcDbEntity
  8
0
  6
Continuous
 62
     7
100
AcDbPolyline
 90
        2
 70
     0
 43
0.2
 10
169.2218637001
 20
30.0753049638
 10
169.2218637001
 20
31.7203866416
  0
LWPOLYLINE
  5
236
330
211
100
AcDbEntity
  8
0
  6
Continuous
 62
     7
100
AcDbPolyline
 90
        2
 70
     0
 43
0.2
 10
171.4649427743
 20
31.0158750482
 10
171.2438015052
 20
31.0158750482
  0
LWPOLYLINE
  5
237
330
211
100
AcDbEntity
  8
0
  6
Continuous
 62
     7
100
AcDbPolyline
 90
        2
 70
     0
 43
0.2
 10
171.2438015052
 20
31.0158750482
 10
171.2438015052
 20
29.8638468036
  0
LWPOLYLINE
  5
238
330
211
100
AcDbEntity
  8
0
  6
Continuous
 62
     7
100
AcDbPolyline
 90
        2
 70
     0
 43
0.2
 10
171.2438015052
 20
29.8638468036
 10
171.4649427743
 20
29.8638468036
  0
LWPOLYLINE
  5
239
330
211
100
AcDbEntity
  8
0
  6
Continuous
 62
     7
100
AcDbPolyline
 90
        2
 70
     0
 43
0.2
 10
171.4649427743
 20
29.8638468036
 10
171.4649427743
 20
31.0158750482
  0
SPLINE
  5
23A
330
211
100
AcDbEntity
  8
0
  6
Continuous
 62
     7
100
AcDbSpline
 70
     3
 71
     3
 72
    17
 73
    13
 74
     0
 42
0.000000001
 43
0.0000001
 40
0.0
 40
0.0
 40
0.0
 40
0.0
 40
1.0
 40
1.0
 40
1.0
 40
2.0
 40
2.0
 40
2.0
 40
3.0
 40
3.0
 40
3.0
 40
4.0
 40
4.0
 40
4.0
 40
4.0
 10
171.3545029925
 20
31.6984033675
 30
0.0
 10
171.2704954808
 20
31.6984033675
 30
0.0
 10
171.2019286021
 20
31.6293130775
 30
0.0
 10
171.2019286021
 20
31.5434736263
 30
0.0
 10
171.2019286021
 20
31.459204409
 30
0.0
 10
171.2704954808
 20
31.3932545867
 30
0.0
 10
171.3545029925
 20
31.3932545867
 30
0.0
 10
171.4382487986
 20
31.3932545867
 30
0.0
 10
171.5070773829
 20
31.459204409
 30
0.0
 10
171.5070773829
 20
31.5434736263
 30
0.0
 10
171.5070773829
 20
31.6293130775
 30
0.0
 10
171.4382487986
 20
31.6984033675
 30
0.0
 10
171.3545029925
 20
31.6984033675
 30
0.0
  0
SPLINE
  5
23B
330
211
100
AcDbEntity
  8
0
  6
Continuous
 62
     7
100
AcDbSpline
 70
     3
 71
     3
 72
    17
 73
    13
 74
     0
 42
0.000000001
 43
0.0000001
 40
0.0
 40
0.0
 40
0.0
 40
0.0
 40
1.0
 40
1.0
 40
1.0
 40
2.0
 40
2.0
 40
2.0
 40
3.0
 40
3.0
 40
3.0
 40
4.0
 40
4.0
 40
4.0
 40
4.0
 10
173.5952267159
 20
30.0213936012
 30
0.0
 10
173.3612618702
 20
30.0213936012
 30
0.0
 10
173.2309324595
 20
30.2234303583
 30
0.0
 10
173.2309324595
 20
30.4395992202
 30
0.0
 10
173.2309324595
 20
30.6541978482
 30
0.0
 10
173.3667576888
 20
30.8530941376
 30
0.0
 10
173.5952267159
 20
30.8530941376
 30
0.0
 10
173.8346873801
 20
30.8530941376
 30
0.0
 10
173.9702509037
 20
30.6641426627
 30
0.0
 10
173.9702509037
 20
30.4395992202
 30
0.0
 10
173.9702509037
 20
30.2134855438
 30
0.0
 10
173.8370427309
 20
30.0213936012
 30
0.0
 10
173.5952267159
 20
30.0213936012
 30
0.0
  0
SPLINE
  5
23C
330
211
100
AcDbEntity
  8
0
  6
Continuous
 62
     7
100
AcDbSpline
 70
     3
 71
     3
 72
    50
 73
    46
 74
     0
 42
0.000000001
 43
0.0000001
 40
0.0
 40
0.0
 40
0.0
 40
0.0
 40
1.0
 40
1.0
 40
1.0
 40
2.0
 40
2.0
 40
2.0
 40
3.0
 40
3.0
 40
3.0
 40
4.0
 40
4.0
 40
4.0
 40
5.0
 40
5.0
 40
5.0
 40
6.0
 40
6.0
 40
6.0
 40
7.0
 40
7.0
 40
7.0
 40
8.0
 40
8.0
 40
8.0
 40
9.0
 40
9.0
 40
9.0
 40
10.0
 40
10.0
 40
10.0
 40
11.0
 40
11.0
 40
11.0
 40
12.0
 40
12.0
 40
12.0
 40
13.0
 40
13.0
 40
13.0
 40
14.0
 40
14.0
 40
14.0
 40
15.0
 40
15.0
 40
15.0
 40
15.0
 10
174.1793537132
 20
31.0163984594
 30
0.0
 10
174.1793537132
 20
31.0163984594
 30
0.0
 10
173.9576890328
 20
31.0163984594
 30
0.0
 10
173.9576890328
 20
31.0163984594
 30
0.0
 10
173.9576890328
 20
31.0163984594
 30
0.0
 10
173.9576890328
 20
30.8190724039
 30
0.0
 10
173.9576890328
 20
30.8190724039
 30
0.0
 10
173.9576890328
 20
30.8190724039
 30
0.0
 10
173.9529783312
 20
30.8190724039
 30
0.0
 10
173.9529783312
 20
30.8190724039
 30
0.0
 10
173.8616430614
 20
30.9619636855
 30
0.0
 10
173.7237241871
 20
31.0504201932
 30
0.0
 10
173.5509984621
 20
31.0504201932
 30
0.0
 10
173.2186322943
 20
31.0504201932
 30
0.0
 10
173.0095294848
 20
30.7625439848
 30
0.0
 10
173.0095294848
 20
30.4469269782
 30
0.0
 10
173.0095294848
 20
30.1171778669
 30
0.0
 10
173.2065938347
 20
29.8240675457
 30
0.0
 10
173.5614666878
 20
29.8240675457
 30
0.0
 10
173.7237241871
 20
29.8240675457
 30
0.0
 10
173.8637367066
 20
29.9125240533
 30
0.0
 10
173.9529783312
 20
30.0433768753
 30
0.0
 10
173.9529783312
 20
30.0433768753
 30
0.0
 10
173.9576890328
 20
30.0433768753
 30
0.0
 10
173.9576890328
 20
30.0433768753
 30
0.0
 10
173.9576890328
 20
30.0433768753
 30
0.0
 10
173.9576890328
 20
29.8240675457
 30
0.0
 10
173.9576890328
 20
29.8240675457
 30
0.0
 10
173.9576890328
 20
29.5874856436
 30
0.0
 10
173.9011606137
 20
29.4006278138
 30
0.0
 10
173.6279399214
 20
29.4006278138
 30
0.0
 10
173.4256414586
 20
29.4006278138
 30
0.0
 10
173.2830118827
 20
29.5189187648
 30
0.0
 10
173.2830118827
 20
29.7251428123
 30
0.0
 10
173.2830118827
 20
29.7251428123
 30
0.0
 10
173.0613472023
 20
29.7251428123
 30
0.0
 10
173.0613472023
 20
29.7251428123
 30
0.0
 10
173.0663196095
 20
29.4006278138
 30
0.0
 10
173.2974056931
 20
29.2038251695
 30
0.0
 10
173.6177334013
 20
29.2038251695
 30
0.0
 10
174.0657734637
 20
29.2038251695
 30
0.0
 10
174.1793537132
 20
29.4890843214
 30
0.0
 10
174.1793537132
 20
29.8858300776
 30
0.0
 10
174.1793537132
 20
29.8858300776
 30
0.0
 10
174.1793537132
 20
31.0163984594
 30
0.0
 10
174.1793537132
 20
31.0163984594
 30
0.0
  0
SPLINE
  5
23D
330
211
100
AcDbEntity
  8
0
  6
Continuous
 62
     7
100
AcDbSpline
 70
     3
 71
     3
 72
    44
 73
    40
 74
     0
 42
0.000000001
 43
0.0000001
 40
0.0
 40
0.0
 40
0.0
 40
0.0
 40
1.0
 40
1.0
 40
1.0
 40
2.0
 40
2.0
 40
2.0
 40
3.0
 40
3.0
 40
3.0
 40
4.0
 40
4.0
 40
4.0
 40
5.0
 40
5.0
 40
5.0
 40
6.0
 40
6.0
 40
6.0
 40
7.0
 40
7.0
 40
7.0
 40
8.0
 40
8.0
 40
8.0
 40
9.0
 40
9.0
 40
9.0
 40
10.0
 40
10.0
 40
10.0
 40
11.0
 40
11.0
 40
11.0
 40
12.0
 40
12.0
 40
12.0
 40
13.0
 40
13.0
 40
13.0
 40
13.0
 10
175.7482790486
 20
32.0014585032
 30
0.0
 10
175.7482790486
 20
32.0014585032
 30
0.0
 10
175.7482790486
 20
29.8633233923
 30
0.0
 10
175.7482790486
 20
29.8633233923
 30
0.0
 10
175.7482790486
 20
29.8633233923
 30
0.0
 10
175.9696820233
 20
29.8633233923
 30
0.0
 10
175.9696820233
 20
29.8633233923
 30
0.0
 10
175.9696820233
 20
29.8633233923
 30
0.0
 10
175.9696820233
 20
30.3930156156
 30
0.0
 10
175.9696820233
 20
30.3930156156
 30
0.0
 10
175.9696820233
 20
30.602903542
 30
0.0
 10
175.9696820233
 20
30.8536175489
 30
0.0
 10
176.2549411752
 20
30.8536175489
 30
0.0
 10
176.4818399685
 20
30.8536175489
 30
0.0
 10
176.5087956498
 20
30.7206710818
 30
0.0
 10
176.5087956498
 20
30.5243918488
 30
0.0
 10
176.5087956498
 20
30.5243918488
 30
0.0
 10
176.5087956498
 20
29.8633233923
 30
0.0
 10
176.5087956498
 20
29.8633233923
 30
0.0
 10
176.5087956498
 20
29.8633233923
 30
0.0
 10
176.7307220359
 20
29.8633233923
 30
0.0
 10
176.7307220359
 20
29.8633233923
 30
0.0
 10
176.7307220359
 20
29.8633233923
 30
0.0
 10
176.7307220359
 20
30.5505624132
 30
0.0
 10
176.7307220359
 20
30.5505624132
 30
0.0
 10
176.7307220359
 20
30.8311108635
 30
0.0
 10
176.6467145242
 20
31.0509436044
 30
0.0
 10
176.3216761144
 20
31.0509436044
 30
0.0
 10
176.1819253006
 20
31.0509436044
 30
0.0
 10
176.0437447206
 20
30.9844703709
 30
0.0
 10
175.9743927249
 20
30.8614687182
 30
0.0
 10
175.9743927249
 20
30.8614687182
 30
0.0
 10
175.9696820233
 20
30.8614687182
 30
0.0
 10
175.9696820233
 20
30.8614687182
 30
0.0
 10
175.9696820233
 20
30.8614687182
 30
0.0
 10
175.9696820233
 20
32.0014585032
 30
0.0
 10
175.9696820233
 20
32.0014585032
 30
0.0
 10
175.9696820233
 20
32.0014585032
 30
0.0
 10
175.7482790486
 20
32.0014585032
 30
0.0
 10
175.7482790486
 20
32.0014585032
 30
0.0
  0
LWPOLYLINE
  5
23E
330
211
100
AcDbEntity
  8
0
  6
Continuous
 62
     7
100
AcDbPolyline
 90
        2
 70
     0
 43
0.2
 10
178.5705127128
 20
30.8091275894
 10
178.7869432803
 20
30.8091275894
  0
LWPOLYLINE
  5
23F
330
211
100
AcDbEntity
  8
0
  6
Continuous
 62
     7
100
AcDbPolyline
 90
        2
 70
     0
 43
0.2
 10
178.7869432803
 20
30.8091275894
 10
178.7869432803
 20
31.0158750482
  0
LWPOLYLINE
  5
240
330
211
100
AcDbEntity
  8
0
  6
Continuous
 62
     7
100
AcDbPolyline
 90
        2
 70
     0
 43
0.2
 10
178.7869432803
 20
31.0158750482
 10
178.5705127128
 20
31.0158750482
  0
LWPOLYLINE
  5
241
330
211
100
AcDbEntity
  8
0
  6
Continuous
 62
     7
100
AcDbPolyline
 90
        2
 70
     0
 43
0.2
 10
178.5705127128
 20
31.0158750482
 10
178.5705127128
 20
31.4565873525
  0
LWPOLYLINE
  5
242
330
211
100
AcDbEntity
  8
0
  6
Continuous
 62
     7
100
AcDbPolyline
 90
        2
 70
     0
 43
0.2
 10
178.5705127128
 20
31.4565873525
 10
178.3488480323
 20
31.4565873525
  0
LWPOLYLINE
  5
243
330
211
100
AcDbEntity
  8
0
  6
Continuous
 62
     7
100
AcDbPolyline
 90
        2
 70
     0
 43
0.2
 10
178.3488480323
 20
31.4565873525
 10
178.3488480323
 20
31.0158750482
  0
LWPOLYLINE
  5
244
330
211
100
AcDbEntity
  8
0
  6
Continuous
 62
     7
100
AcDbPolyline
 90
        2
 70
     0
 43
0.2
 10
178.3488480323
 20
31.0158750482
 10
178.2282017305
 20
31.0158750482
  0
LWPOLYLINE
  5
245
330
211
100
AcDbEntity
  8
0
  6
Continuous
 62
     7
100
AcDbPolyline
 90
        2
 70
     0
 43
0.2
 10
178.2282017305
 20
31.0158750482
 10
178.2282017305
 20
30.8091275894
  0
LWPOLYLINE
  5
246
330
211
100
AcDbEntity
  8
0
  6
Continuous
 62
     7
100
AcDbPolyline
 90
        2
 70
     0
 43
0.2
 10
178.2282017305
 20
30.8091275894
 10
178.3488480323
 20
30.8091275894
  0
LWPOLYLINE
  5
247
330
211
100
AcDbEntity
  8
0
  6
Continuous
 62
     7
100
AcDbPolyline
 90
        2
 70
     0
 43
0.2
 10
178.3488480323
 20
30.8091275894
 10
178.3488480323
 20
29.8633233923
  0
LWPOLYLINE
  5
248
330
211
100
AcDbEntity
  8
0
  6
Continuous
 62
     7
100
AcDbPolyline
 90
        2
 70
     0
 43
0.2
 10
178.3488480323
 20
29.8633233923
 10
178.5705127128
 20
29.8633233923
  0
LWPOLYLINE
  5
249
330
211
100
AcDbEntity
  8
0
  6
Continuous
 62
     7
100
AcDbPolyline
 90
        2
 70
     0
 43
0.2
 10
178.5705127128
 20
29.8633233923
 10
178.5705127128
 20
30.8091275894
  0
SPLINE
  5
24A
330
211
100
AcDbEntity
  8
0
  6
Continuous
 62
     7
100
AcDbSpline
 70
     3
 71
     3
 72
    20
 73
    16
 74
     0
 42
0.000000001
 43
0.0000001
 40
0.0
 40
0.0
 40
0.0
 40
0.0
 40
1.0
 40
1.0
 40
1.0
 40
2.0
 40
2.0
 40
2.0
 40
3.0
 40
3.0
 40
3.0
 40
4.0
 40
4.0
 40
4.0
 40
5.0
 40
5.0
 40
5.0
 40
5.0
 10
166.35252302
 20
40.2242498357
 30
0.0
 10
166.35252302
 20
40.2242498357
 30
0.0
 10
168.6688796745
 20
37.3946884134
 30
0.0
 10
168.6688796745
 20
37.3946884134
 30
0.0
 10
168.0172326211
 20
36.7425179487
 30
0.0
 10
167.2403594171
 20
36.006601678
 30
0.0
 10
166.2691697724
 20
36.006601678
 30
0.0
 10
165.270631888
 20
36.006601678
 30
0.0
 10
164.3273138944
 20
36.9361801253
 30
0.0
 10
164.3273138944
 20
37.9353722738
 30
0.0
 10
164.3273138944
 20
38.9345644223
 30
0.0
 10
165.5061669675
 20
39.641169661
 30
0.0
 10
166.2276894278
 20
40.1410274409
 30
0.0
 10
166.2276894278
 20
40.1410274409
 30
0.0
 10
166.35252302
 20
40.2242498357
 30
0.0
 10
166.35252302
 20
40.2242498357
 30
0.0
  0
SPLINE
  5
24B
330
211
100
AcDbEntity
  8
0
  6
Continuous
 62
     7
100
AcDbSpline
 70
     3
 71
     3
 72
    23
 73
    19
 74
     0
 42
0.000000001
 43
0.0000001
 40
0.0
 40
0.0
 40
0.0
 40
0.0
 40
1.0
 40
1.0
 40
1.0
 40
2.0
 40
2.0
 40
2.0
 40
3.0
 40
3.0
 40
3.0
 40
4.0
 40
4.0
 40
4.0
 40
5.0
 40
5.0
 40
5.0
 40
6.0
 40
6.0
 40
6.0
 40
6.0
 10
166.6299310026
 20
41.8620037554
 30
0.0
 10
166.6299310026
 20
41.8620037554
 30
0.0
 10
166.28343273
 20
42.3053331162
 30
0.0
 10
166.28343273
 20
42.3053331162
 30
0.0
 10
165.9776296851
 20
42.6934425862
 30
0.0
 10
165.6587413579
 20
43.0819446146
 30
0.0
 10
165.6587413579
 20
43.6088889287
 30
0.0
 10
165.6587413579
 20
44.2750606453
 30
0.0
 10
166.2000794824
 20
44.7187825646
 30
0.0
 10
166.8239857376
 20
44.7187825646
 30
0.0
 10
167.5177673996
 20
44.7187825646
 30
0.0
 10
168.0449734193
 20
44.3165409899
 30
0.0
 10
168.0449734193
 20
43.5815406889
 30
0.0
 10
168.0449734193
 20
42.8182761783
 30
0.0
 10
167.3237126646
 20
42.3881629525
 30
0.0
 10
166.7966374978
 20
41.9724435371
 30
0.0
 10
166.7966374978
 20
41.9724435371
 30
0.0
 10
166.6299310026
 20
41.8620037554
 30
0.0
 10
166.6299310026
 20
41.8620037554
 30
0.0
  0
SPLINE
  5
24C
330
211
100
AcDbEntity
  8
0
  6
Continuous
 62
     7
100
AcDbSpline
 70
     3
 71
     3
 72
    50
 73
    46
 74
     0
 42
0.000000001
 43
0.0000001
 40
0.0
 40
0.0
 40
0.0
 40
0.0
 40
1.0
 40
1.0
 40
1.0
 40
2.0
 40
2.0
 40
2.0
 40
3.0
 40
3.0
 40
3.0
 40
4.0
 40
4.0
 40
4.0
 40
5.0
 40
5.0
 40
5.0
 40
6.0
 40
6.0
 40
6.0
 40
7.0
 40
7.0
 40
7.0
 40
8.0
 40
8.0
 40
8.0
 40
9.0
 40
9.0
 40
9.0
 40
10.0
 40
10.0
 40
10.0
 40
11.0
 40
11.0
 40
11.0
 40
12.0
 40
12.0
 40
12.0
 40
13.0
 40
13.0
 40
13.0
 40
14.0
 40
14.0
 40
14.0
 40
15.0
 40
15.0
 40
15.0
 40
15.0
 10
170.5835181655
 20
35.0634145373
 30
0.0
 10
170.5835181655
 20
35.0634145373
 30
0.0
 10
172.1927461701
 20
35.0634145373
 30
0.0
 10
172.1927461701
 20
35.0634145373
 30
0.0
 10
172.1927461701
 20
35.0634145373
 30
0.0
 10
170.3197188764
 20
37.3805563087
 30
0.0
 10
170.3197188764
 20
37.3805563087
 30
0.0
 10
170.3197188764
 20
37.3805563087
 30
0.0
 10
171.5960573019
 20
38.8780360032
 30
0.0
 10
171.5960573019
 20
38.8780360032
 30
0.0
 10
171.5960573019
 20
38.8780360032
 30
0.0
 10
170.7638333542
 20
39.7390475718
 30
0.0
 10
170.7638333542
 20
39.7390475718
 30
0.0
 10
170.7638333542
 20
39.7390475718
 30
0.0
 10
169.5432382309
 20
38.3237434494
 30
0.0
 10
169.5432382309
 20
38.3237434494
 30
0.0
 10
169.5432382309
 20
38.3237434494
 30
0.0
 10
167.365323862
 20
40.9591192838
 30
0.0
 10
167.365323862
 20
40.9591192838
 30
0.0
 10
168.2388973015
 20
41.5971576437
 30
0.0
 10
169.2655685426
 20
42.3881629525
 30
0.0
 10
169.2655685426
 20
43.5670160256
 30
0.0
 10
169.2655685426
 20
44.9407089506
 30
0.0
 10
168.1276724028
 20
45.7451921001
 30
0.0
 10
166.8523807999
 20
45.7451921001
 30
0.0
 10
165.4789495805
 20
45.7451921001
 30
0.0
 10
164.4380153818
 20
44.8989669004
 30
0.0
 10
164.4380153818
 20
43.4563145382
 30
0.0
 10
164.4380153818
 20
42.5687398468
 30
0.0
 10
164.9933547582
 20
41.7918666428
 30
0.0
 10
165.5895202151
 20
41.1674369764
 30
0.0
 10
165.5895202151
 20
41.1674369764
 30
0.0
 10
164.9376114561
 20
40.695843406
 30
0.0
 10
164.9376114561
 20
40.695843406
 30
0.0
 10
163.9390735716
 20
39.9745826513
 30
0.0
 10
163.1061953598
 20
39.2533218967
 30
0.0
 10
163.1061953598
 20
37.9217635803
 30
0.0
 10
163.1061953598
 20
36.1180882823
 30
0.0
 10
164.5632415324
 20
34.8414881512
 30
0.0
 10
166.3107809698
 20
34.8414881512
 30
0.0
 10
167.5456390507
 20
34.8414881512
 30
0.0
 10
168.6550092753
 20
35.5496636237
 30
0.0
 10
169.4458837313
 20
36.4781952484
 30
0.0
 10
169.4458837313
 20
36.4781952484
 30
0.0
 10
170.5835181655
 20
35.0634145373
 30
0.0
 10
170.5835181655
 20
35.0634145373
 30
0.0
  0
LINE
  5
24D
330
211
100
AcDbEntity
  8
0
  6
Continuous
 62
     7
100
AcDbLine
 10
156.3863795405
 20
33.0372894419
 30
0.0
 11
178.8002902681
 21
33.0372894419
 31
0.0
  0
LINE
  5
24E
330
211
100
AcDbEntity
  8
0
  6
Continuous
 62
     7
100
AcDbLine
 10
178.8002902681
 20
33.0372894419
 30
0.0
 11
178.8002902681
 21
55.4512001695
 31
0.0
  0
LINE
  5
24F
330
211
100
AcDbEntity
  8
0
  6
Continuous
 62
     7
100
AcDbLine
 10
178.8002902681
 20
55.4512001695
 30
0.0
 11
156.3863795405
 21
55.4512001695
 31
0.0
  0
LINE
  5
250
330
211
100
AcDbEntity
  8
0
  6
Continuous
 62
     7
100
AcDbLine
 10
156.3863795405
 20
55.4512001695
 30
0.0
 11
156.3863795405
 21
33.0372894419
 31
0.0
  0
ENDBLK
  5
251
330
211
100
AcDbEntity
  8
0
  6
ByBlock
 62
     0
100
AcDbBlockEnd
  0
BLOCK
  5
252
330
212
100
AcDbEntity
  8
0
100
AcDbBlockBegin
  2
PROIEZIONE_EU_BL0
 70
     0
 10
168.7672224331
 20
64.9525126695
 30
0.0
  3
PROIEZIONE_EU_BL0
  1

  0
LWPOLYLINE
  5
253
330
212
100
AcDbEntity
  8
DEFAULT_1
  6
CENTER
 62
     7
100
AcDbPolyline
 90
        2
 70
     0
 43
0.25
 10
174.8938430948
 20
69.9522068014
 10
174.8938840771
 20
59.9528185377
  0
LWPOLYLINE
  5
254
330
212
100
AcDbEntity
  8
DEFAULT_1
  6
CENTER
 62
     7
100
AcDbPolyline
 90
        2
 70
     0
 43
0.25
 10
180.8938729199
 20
64.9527838047
 10
156.6405719464
 20
64.9525131443
  0
LWPOLYLINE
  5
255
330
212
100
AcDbEntity
  8
0
  6
Continuous
 62
     7
100
AcDbPolyline
 90
        2
 70
     1
 43
0.25
 10
171.346732919
 20
64.9339649153
 42
1.0
 10
178.4530620176
 20
64.9339649153
 42
1.0
  0
LWPOLYLINE
  5
256
330
212
100
AcDbEntity
  8
0
  6
Continuous
 62
     7
100
AcDbPolyline
 90
        2
 70
     1
 43
0.25
 10
172.8964767474
 20
64.9518629599
 42
1.0
 10
176.9082284974
 20
64.9518629599
 42
1.0
  0
LWPOLYLINE
  5
257
330
212
100
AcDbEntity
  8
0
  6
Continuous
 62
     7
100
AcDbPolyline
 90
        2
 70
     0
 43
0.25
 10
168.8938707138
 20
68.5277161648
 10
168.8938703593
 20
61.4275132565
  0
LWPOLYLINE
  5
258
330
212
100
AcDbEntity
  8
0
  6
Continuous
 62
     7
100
AcDbPolyline
 90
        2
 70
     0
 43
0.25
 10
168.8938987956
 20
61.4274848201
 10
158.8993415245
 20
62.9475782329
  0
LWPOLYLINE
  5
259
330
212
100
AcDbEntity
  8
0
  6
Continuous
 62
     7
100
AcDbPolyline
 90
        2
 70
     0
 43
0.25
 10
158.8970315389
 20
62.9469006914
 10
158.8943646348
 20
66.9525393028
  0
LWPOLYLINE
  5
25A
330
212
100
AcDbEntity
  8
0
  6
Continuous
 62
     7
100
AcDbPolyline
 90
        2
 70
     0
 43
0.25
 10
158.8943563587
 20
66.9525310267
 10
168.894099596
 20
68.5276882468
  0
ENDBLK
  5
25B
330
212
100
AcDbEntity
  8
0
  6
ByBlock
 62
     0
100
AcDbBlockEnd
  0
ENDSEC
  0
SECTION
  2
ENTITIES
  0
LWPOLYLINE
  5
270
330
1B
100
AcDbEntity
 67
     1
  8
0
  6
Continuous
 62
     7
100
AcDbPolyline
 90
        2
 70
     0
 43
0.5
 10
284.0
 20
13.0
 10
284.0
 20
197.0
  0
LWPOLYLINE
  5
271
330
1B
100
AcDbEntity
 67
     1
  8
0
  6
Continuous
 62
     7
100
AcDbPolyline
 90
        2
 70
     0
 43
0.5
 10
13.0
 20
13.0
 10
13.0
 20
197.0
  0
LWPOLYLINE
  5
272
330
1B
100
AcDbEntity
 67
     1
  8
0
  6
Continuous
 62
     7
100
AcDbPolyline
 90
        2
 70
     0
 43
0.5
 10
13.0
 20
13.0
 10
284.0
 20
13.0
  0
LWPOLYLINE
  5
273
330
1B
100
AcDbEntity
 67
     1
  8
0
  6
Continuous
 62
     7
100
AcDbPolyline
 90
        2
 70
     0
 43
0.1
 10
148.5
 20
197.0
 10
148.5
 20
200.0
  0
LWPOLYLINE
  5
274
330
1B
100
AcDbEntity
 67
     1
  8
0
  6
Continuous
 62
     7
100
AcDbPolyline
 90
        2
 70
     0
 43
0.1
 10
284.0
 20
105.0
 10
287.0
 20
105.0
  0
LWPOLYLINE
  5
275
330
1B
100
AcDbEntity
 67
     1
  8
0
  6
Continuous
 62
     7
100
AcDbPolyline
 90
        2
 70
     0
 43
0.1
 10
13.0
 20
105.0
 10
10.0
 20
105.0
  0
LWPOLYLINE
  5
276
330
1B
100
AcDbEntity
 67
     1
  8
0
  6
Continuous
 62
     7
100
AcDbPolyline
 90
        2
 70
     0
 43
0.5
 10
13.0
 20
197.0
 10
284.0
 20
197.0
  0
LWPOLYLINE
  5
277
330
1B
100
AcDbEntity
 67
     1
  8
0
  6
Continuous
 62
     7
100
AcDbPolyline
 90
        2
 70
     0
 43
0.1
 10
10.0
 20
200.0
 10
287.0
 20
200.0
  0
LWPOLYLINE
  5
278
330
1B
100
AcDbEntity
 67
     1
  8
0
  6
Continuous
 62
     7
100
AcDbPolyline
 90
        2
 70
     0
 43
0.1
 10
10.0
 20
10.0
 10
10.0
 20
200.0
  0
LWPOLYLINE
  5
279
330
1B
100
AcDbEntity
 67
     1
  8
0
  6
Continuous
 62
     7
100
AcDbPolyline
 90
        2
 70
     0
 43
0.1
 10
287.0
 20
10.0
 10
287.0
 20
200.0
  0
LWPOLYLINE
  5
27A
330
1B
100
AcDbEntity
 67
     1
  8
0
  6
Continuous
 62
     7
100
AcDbPolyline
 90
        2
 70
     0
 43
0.1
 10
10.0
 20
10.0
 10
287.0
 20
10.0
  0
LWPOLYLINE
  5
27B
330
1B
100
AcDbEntity
 67
     1
  8
0
  6
Continuous
 62
     7
100
AcDbPolyline
 90
        2
 70
     0
 43
0.1
 10
148.5
 20
13.0
 10
148.5
 20
10.0
  0
VIEWPORT
  5
27C
330
1B
100
AcDbEntity
 67
     1
  8
0
100
AcDbViewport
 10
0.0
 20
0.0
 30
0.0
 40
316.8826459143969
 41
224.081299610895
 68
     1
 69
     1
 12
159.7369649805447
 22
105.0
 13
0.0
 23
0.0
 14
1.0
 24
1.0
 15
0.0
 25
0.0
 16
0.0
 26
0.0
 36
1.0
 17
0.0
 27
0.0
 37
0.0
 42
50.0
 43
0.0
 44
0.0
 45
224.081299610895
 50
0.0
 51
0.0
 72
   100
 90
   557216
  1

281
     0
 71
     1
 74
     0
110
0.0
120
0.0
130
0.0
111
1.0
121
0.0
131
0.0
112
0.0
122
1.0
132
0.0
 79
     0
146
0.0
170
     0
 61
     5
348
35A
292
     1
282
     1
141
0.0
142
0.0
 63
   256
  0
ARC
  5
27D
330
1B
100
AcDbEntity
 67
     1
  8
7_ALL_FEATURES
  6
Continuous
 62
     7
100
AcDbCircle
 10
69.8329753296
 20
61.8548575532
 30
0.0
 40
20.4
100
AcDbArc
 50
0.0
 51
180.0
  0
LINE
  5
27E
330
1B
100
AcDbEntity
 67
     1
  8
02___PRT_ALL_AXES
  6
Continuous
 62
     7
100
AcDbLine
 10
49.7329753296
 20
59.4700095496
 30
0.0
 11
49.7329753296
 21
64.2397055567
 31
0.0
  0
LINE
  5
27F
330
1B
100
AcDbEntity
 67
     1
  8
02___PRT_ALL_AXES
  6
Continuous
 62
     7
100
AcDbLine
 10
49.7329753296
 20
64.2397055567
 30
0.0
 11
49.5962379429
 21
64.2397055567
 31
0.0
  0
LINE
  5
280
330
1B
100
AcDbEntity
 67
     1
  8
02___PRT_ALL_AXES
  6
Continuous
 62
     7
100
AcDbLine
 10
49.5962379429
 20
64.2397055567
 30
0.0
 11
49.5728544021
 21
64.2397055567
 31
0.0
  0
LINE
  5
281
330
1B
100
AcDbEntity
 67
     1
  8
02___PRT_ALL_AXES
  6
Continuous
 62
     7
100
AcDbLine
 10
49.7329753296
 20
59.4700095496
 30
0.0
 11
49.5962474347
 21
59.4700095496
 31
0.0
  0
LINE
  5
282
330
1B
100
AcDbEntity
 67
     1
  8
02___PRT_ALL_AXES
  6
Continuous
 62
     7
100
AcDbLine
 10
49.5962474347
 20
59.4700095496
 30
0.0
 11
49.5728544021
 21
59.4700095496
 31
0.0
  0
ARC
  5
283
330
1B
100
AcDbEntity
 67
     1
  8
7_ALL_FEATURES
  6
Continuous
 62
     7
100
AcDbCircle
 10
69.8329753296
 20
61.8548575532
 30
0.0
 40
18.9
100
AcDbArc
 50
0.0
 51
180.0
  0
ARC
  5
284
330
1B
100
AcDbEntity
 67
     1
  8
7_ALL_FEATURES
  6
Continuous
 62
     7
100
AcDbCircle
 10
69.8329753296
 20
61.8548575532
 30
0.0
 40
21.9
100
AcDbArc
 50
0.0
 51
180.0
  0
ARC
  5
285
330
1B
100
AcDbEntity
 67
     1
  8
7_ALL_FEATURES
  6
Continuous
 62
     7
100
AcDbCircle
 10
69.8329753296
 20
61.8548575532
 30
0.0
 40
20.4
100
AcDbArc
 50
180.0
 51
360.0
  0
ARC
  5
286
330
1B
100
AcDbEntity
 67
     1
  8
7_ALL_FEATURES
  6
Continuous
 62
     7
100
AcDbCircle
 10
69.8329753296
 20
61.8548575532
 30
0.0
 40
18.9
100
AcDbArc
 50
180.0
 51
360.0
  0
ARC
  5
287
330
1B
100
AcDbEntity
 67
     1
  8
7_ALL_FEATURES
  6
Continuous
 62
     7
100
AcDbCircle
 10
69.8329753296
 20
61.8548575532
 30
0.0
 40
21.9
100
AcDbArc
 50
180.0
 51
360.0
  0
LINE
  5
288
330
1B
100
AcDbEntity
 67
     1
  8
7_ALL_FEATURES
  6
Continuous
 62
     9
100
AcDbLine
 10
90.2330323564
 20
61.8548575124
 30
0.0
 11
90.4553877025
 21
61.8548575115
 31
0.0
  0
LINE
  5
289
330
1B
100
AcDbEntity
 67
     1
  8
7_ALL_FEATURES
  6
Continuous
 62
     9
100
AcDbLine
 10
49.432917867
 20
61.8548576234
 30
0.0
 11
49.0552715295
 21
61.8548576239
 31
0.0
  0
ARC
  5
28A
330
1B
100
AcDbEntity
 67
     1
  8
7_ALL_FEATURES
  6
Continuous
 62
     7
100
AcDbCircle
 10
69.8329753296
 20
61.8548575532
 30
0.0
 40
19.2
100
AcDbArc
 50
180.0
 51
360.0
  0
LINE
  5
28B
330
1B
100
AcDbEntity
 67
     1
  8
7_ALL_FEATURES
  6
Continuous
 62
     9
100
AcDbLine
 10
47.9329348846
 20
61.8548575306
 30
0.0
 11
48.1552898661
 21
61.8548575311
 31
0.0
  0
LINE
  5
28C
330
1B
100
AcDbEntity
 67
     1
  8
7_ALL_FEATURES
  6
Continuous
 62
     9
100
AcDbLine
 10
91.733015489
 20
61.854857591
 30
0.0
 11
91.3553693662
 21
61.8548575907
 31
0.0
  0
ARC
  5
28D
330
1B
100
AcDbEntity
 67
     1
  8
7_ALL_FEATURES
  6
Continuous
 62
     7
100
AcDbCircle
 10
69.7553292354
 20
61.8548445049
 30
0.0
 40
20.7000023158
100
AcDbArc
 50
0.0000358052
 51
179.9999641755
  0
ARC
  5
28E
330
1B
100
AcDbEntity
 67
     1
  8
7_ALL_FEATURES
  6
Continuous
 62
     7
100
AcDbCircle
 10
69.8329753296
 20
61.8548575532
 30
0.0
 40
19.2
100
AcDbArc
 50
0.0
 51
180.0
  0
ARC
  5
28F
330
1B
100
AcDbEntity
 67
     1
  8
7_ALL_FEATURES
  6
Continuous
 62
     7
100
AcDbCircle
 10
69.7553251935
 20
61.8548737828
 30
0.0
 40
20.7000067149
100
AcDbArc
 50
180.0000446109
 51
359.9999553698
  0
ARC
  5
290
330
1B
100
AcDbEntity
 67
     1
  8
7_ALL_FEATURES
  6
Continuous
 62
     7
100
AcDbCircle
 10
69.7553329014
 20
61.8547364996
 30
0.0
 40
21.6000827861
100
AcDbArc
 50
0.0003209346
 51
179.9996790548
  0
ARC
  5
291
330
1B
100
AcDbEntity
 67
     1
  8
7_ALL_FEATURES
  6
Continuous
 62
     7
100
AcDbCircle
 10
69.7553263309
 20
61.8549786067
 30
0.0
 40
21.6000827861
100
AcDbArc
 50
180.0003209346
 51
359.9996790548
  0
LINE
  5
292
330
1B
100
AcDbEntity
 67
     1
  8
0
  6
Continuous
 62
     2
100
AcDbLine
 10
47.9329753296
 20
135.9270580449
 30
0.0
 11
47.9330022662
 21
135.9273554725
 31
0.0
  0
ARC
  5
293
330
1B
100
AcDbEntity
 67
     1
  8
0
  6
Continuous
 62
     2
100
AcDbCircle
 10
26.1236185676
 20
137.9270580182
 30
0.0
 40
21.9008249089
100
AcDbArc
 50
354.7611977723
 51
5.2387905228
  0
LINE
  5
294
330
1B
100
AcDbEntity
 67
     1
  8
0
  6
Continuous
 62
     2
100
AcDbLine
 10
47.9330026745
 20
139.9267561085
 30
0.0
 11
47.9329753296
 21
139.9270580449
 31
0.0
  0
LINE
  5
295
330
1B
100
AcDbEntity
 67
     1
  8
7_ALL_FEATURES
  6
Continuous
 62
     7
100
AcDbLine
 10
48.2329753296
 20
133.9270580449
 30
0.0
 11
49.1078408061
 21
133.9270580449
 31
0.0
  0
LINE
  5
296
330
1B
100
AcDbEntity
 67
     1
  8
7_ALL_FEATURES
  6
Continuous
 62
     7
100
AcDbLine
 10
49.1078408061
 20
133.9270580449
 30
0.0
 11
49.1329753296
 21
133.9270580449
 31
0.0
  0
LINE
  5
297
330
1B
100
AcDbEntity
 67
     1
  8
7_ALL_FEATURES
  6
Continuous
 62
     7
100
AcDbLine
 10
49.1329753296
 20
133.9270580449
 30
0.0
 11
90.5329753296
 21
133.9270580449
 31
0.0
  0
LINE
  5
298
330
1B
100
AcDbEntity
 67
     1
  8
7_ALL_FEATURES
  6
Continuous
 62
     7
100
AcDbLine
 10
90.5329753296
 20
133.9270580449
 30
0.0
 11
90.5581099741
 21
133.9270580449
 31
0.0
  0
LINE
  5
299
330
1B
100
AcDbEntity
 67
     1
  8
7_ALL_FEATURES
  6
Continuous
 62
     7
100
AcDbLine
 10
90.5581099741
 20
133.9270580449
 30
0.0
 11
91.4329753296
 21
133.9270580449
 31
0.0
  0
LINE
  5
29A
330
1B
100
AcDbEntity
 67
     1
  8
7_ALL_FEATURES
  6
Continuous
 62
     7
100
AcDbLine
 10
47.9329753296
 20
158.46068532
 30
0.0
 11
47.9329804511
 21
158.4606798639
 31
0.0
  0
LINE
  5
29B
330
1B
100
AcDbEntity
 67
     1
  8
7_ALL_FEATURES
  6
Continuous
 62
     7
100
AcDbLine
 10
47.9329671882
 20
139.8770882321
 30
0.0
 11
47.9381206019
 21
139.8200173331
 31
0.0
  0
LINE
  5
29C
330
1B
100
AcDbEntity
 67
     1
  8
7_ALL_FEATURES
  6
Continuous
 62
     7
100
AcDbLine
 10
47.9329773869
 20
139.8770196208
 30
0.0
 11
47.9381206019
 21
139.8200173331
 31
0.0
  0
ARC
  5
29D
330
1B
100
AcDbEntity
 67
     1
  8
7_ALL_FEATURES
  6
Continuous
 62
     7
100
AcDbCircle
 10
26.6886389339
 20
137.9270554452
 30
0.0
 40
21.3336301615
100
AcDbArc
 50
354.9033930012
 51
5.090627017
  0
LINE
  5
29E
330
1B
100
AcDbEntity
 67
     1
  8
7_ALL_FEATURES
  6
Continuous
 62
     7
100
AcDbLine
 10
47.937922917
 20
136.0318757513
 30
0.0
 11
47.9329648989
 21
135.9770231542
 31
0.0
  0
LINE
  5
29F
330
1B
100
AcDbEntity
 67
     1
  8
7_ALL_FEATURES
  6
Continuous
 62
     7
100
AcDbLine
 10
47.937922917
 20
136.0318757513
 30
0.0
 11
47.9329776277
 21
135.9770624155
 31
0.0
  0
LINE
  5
2A0
330
1B
100
AcDbEntity
 67
     1
  8
7_ALL_FEATURES
  6
Continuous
 62
     7
100
AcDbLine
 10
91.732970355
 20
170.036189525
 30
0.0
 11
91.355420707
 21
170.3258925887
 31
0.0
  0
LINE
  5
2A1
330
1B
100
AcDbEntity
 67
     1
  8
7_ALL_FEATURES
  6
Continuous
 62
     7
100
AcDbLine
 10
48.1552449468
 20
158.7504403808
 30
0.0
 11
47.9329804511
 21
158.4607811824
 31
0.0
  0
LINE
  5
2A2
330
1B
100
AcDbEntity
 67
     1
  8
7_ALL_FEATURES
  6
Continuous
 62
     7
100
AcDbLine
 10
47.9329803042
 20
158.4606799069
 30
0.0
 11
47.9329753296
 21
158.46068532
 31
0.0
  0
LINE
  5
2A3
330
1B
100
AcDbEntity
 67
     1
  8
7_ALL_FEATURES
  6
Continuous
 62
     7
100
AcDbLine
 10
48.1552385252
 20
158.7504386602
 30
0.0
 11
47.9329803043
 21
158.4607877554
 31
0.0
  0
LINE
  5
2A4
330
1B
100
AcDbEntity
 67
     1
  8
7_ALL_FEATURES
  6
Continuous
 62
     7
100
AcDbLine
 10
47.9329753296
 20
139.8770580449
 30
0.0
 11
47.9329753296
 21
139.9267561085
 31
0.0
  0
LINE
  5
2A5
330
1B
100
AcDbEntity
 67
     1
  8
7_ALL_FEATURES
  6
Continuous
 62
     7
100
AcDbLine
 10
47.9329753296
 20
139.9267561085
 30
0.0
 11
47.9329753296
 21
142.1770580449
 31
0.0
  0
SPLINE
  5
2A6
330
1B
100
AcDbEntity
 67
     1
  8
02___PRT_ALL_AXES
  6
Continuous
 62
     7
100
AcDbSpline
 70
     0
 71
     3
 72
    21
 73
    17
 74
     0
 42
0.000000001
 43
0.0000001
 40
0.0
 40
0.0
 40
0.0
 40
0.0
 40
0.1948235153
 40
0.3821632142
 40
0.5548571851
 40
0.7063374945
 40
0.7722802006
 40
0.8308300914
 40
0.8814026431
 40
0.923508604
 40
0.956708914
 40
0.9806796967
 40
0.9891149917
 40
0.9951545086
 40
0.9987866937
 40
1.0
 40
1.0
 40
1.0
 40
1.0
 10
48.0761373241
 20
144.6770580449
 30
0.0
 10
48.0761373241
 20
144.5143534109
 30
0.0
 10
48.072556005
 20
144.1951824321
 30
0.0
 10
48.0571744106
 20
143.7320210768
 30
0.0
 10
48.0341967128
 20
143.3054266002
 30
0.0
 10
48.0106740721
 20
142.9804579671
 30
0.0
 10
47.9912168086
 20
142.7508034418
 30
0.0
 10
47.9778493505
 20
142.605210997
 30
0.0
 10
47.9655459039
 20
142.4795145333
 30
0.0
 10
47.9547360367
 20
142.3749445732
 30
0.0
 10
47.9459224145
 20
142.2925056946
 30
0.0
 10
47.9398210617
 20
142.2380522684
 30
0.0
 10
47.9363274248
 20
142.2061404796
 30
0.0
 10
47.9344744458
 20
142.1911232413
 30
0.0
 10
47.9337172763
 20
142.1820755682
 30
0.0
 10
47.9329753296
 20
142.1780713238
 30
0.0
 10
47.9329753296
 20
142.1770580449
 30
0.0
  0
LINE
  5
2A7
330
1B
100
AcDbEntity
 67
     1
  8
7_ALL_FEATURES
  6
Continuous
 62
     7
100
AcDbLine
 10
91.3553494342
 20
170.3258734912
 30
0.0
 11
90.4553575182
 21
170.0847213841
 31
0.0
  0
LINE
  5
2A8
330
1B
100
AcDbEntity
 67
     1
  8
7_ALL_FEATURES
  6
Continuous
 62
     7
100
AcDbLine
 10
90.4553575182
 20
170.0847213841
 30
0.0
 11
49.0553014201
 21
158.991609786
 31
0.0
  0
LINE
  5
2A9
330
1B
100
AcDbEntity
 67
     1
  8
7_ALL_FEATURES
  6
Continuous
 62
     7
100
AcDbLine
 10
49.0553014201
 20
158.991609786
 30
0.0
 11
48.1553100022
 21
158.7504578124
 31
0.0
  0
LINE
  5
2AA
330
1B
100
AcDbEntity
 67
     1
  8
7_ALL_FEATURES
  6
Continuous
 62
     7
100
AcDbLine
 10
47.9329753296
 20
147.1770580449
 30
0.0
 11
47.9329753296
 21
158.46068532
 31
0.0
  0
LINE
  5
2AB
330
1B
100
AcDbEntity
 67
     1
  8
7_ALL_FEATURES
  6
Continuous
 62
     7
100
AcDbLine
 10
91.7329753296
 20
170.0360904331
 30
0.0
 11
91.7329702082
 21
170.0360954382
 31
0.0
  0
LINE
  5
2AC
330
1B
100
AcDbEntity
 67
     1
  8
7_ALL_FEATURES
  6
Continuous
 62
     7
100
AcDbLine
 10
91.7329753296
 20
134.2270580449
 30
0.0
 11
91.7329753296
 21
170.0360904331
 31
0.0
  0
LINE
  5
2AD
330
1B
100
AcDbEntity
 67
     1
  8
7_ALL_FEATURES
  6
Continuous
 62
     7
100
AcDbLine
 10
47.9329753296
 20
134.2270580449
 30
0.0
 11
47.9329753296
 21
135.9270580449
 31
0.0
  0
LINE
  5
2AE
330
1B
100
AcDbEntity
 67
     1
  8
7_ALL_FEATURES
  6
Continuous
 62
     7
100
AcDbLine
 10
47.9329753296
 20
135.9270580449
 30
0.0
 11
47.9329753296
 21
135.9770580449
 31
0.0
  0
LINE
  5
2AF
330
1B
100
AcDbEntity
 67
     1
  8
7_ALL_FEATURES
  6
Continuous
 62
     7
100
AcDbLine
 10
91.7329702082
 20
170.0361829211
 30
0.0
 11
91.3554142854
 21
170.325890868
 31
0.0
  0
SPLINE
  5
2B0
330
1B
100
AcDbEntity
 67
     1
  8
02___PRT_ALL_AXES
  6
Continuous
 62
     7
100
AcDbSpline
 70
     0
 71
     3
 72
    19
 73
    15
 74
     0
 42
0.000000001
 43
0.0000001
 40
0.0
 40
0.0
 40
0.0
 40
0.0
 40
0.0012133614
 40
0.0048457244
 40
0.0108854836
 40
0.0193210299
 40
0.0432928205
 40
0.0764940978
 40
0.1186008604
 40
0.1691740738
 40
0.2936668292
 40
0.6178318487
 40
0.8051740233
 40
1.0
 40
1.0
 40
1.0
 40
1.0
 10
47.9329753296
 20
147.1770580449
 30
0.0
 10
47.9329753296
 20
147.1780713551
 30
0.0
 10
47.933717356
 20
147.1691384283
 30
0.0
 10
47.9344745457
 20
147.1648401085
 30
0.0
 10
47.9363275833
 20
147.1471402534
 30
0.0
 10
47.9398211367
 20
147.1168511425
 30
0.0
 10
47.9459228008
 20
147.0611976629
 30
0.0
 10
47.9547364685
 20
146.9793283282
 30
0.0
 10
47.9655460671
 20
146.8745410434
 30
0.0
 10
47.9832159332
 20
146.694135516
 30
0.0
 10
48.0198019941
 20
146.2787275963
 30
0.0
 10
48.052976053
 20
145.7485297099
 30
0.0
 10
48.0725559123
 20
145.1589326285
 30
0.0
 10
48.0761373241
 20
144.8397623779
 30
0.0
 10
48.0761373241
 20
144.6770580449
 30
0.0
  0
LINE
  5
2B1
330
1B
100
AcDbEntity
 67
     1
  8
7_ALL_FEATURES
  6
Continuous
 62
     7
100
AcDbLine
 10
91.3553296161
 20
170.3258681809
 30
0.0
 11
91.3553494342
 21
170.3258734912
 31
0.0
  0
LINE
  5
2B2
330
1B
100
AcDbEntity
 67
     1
  8
7_ALL_FEATURES
  6
Continuous
 62
     7
100
AcDbLine
 10
91.733015489
 20
170.0361427699
 30
0.0
 11
91.3553693662
 21
170.3259199845
 31
0.0
  0
LINE
  5
2B3
330
1B
100
AcDbEntity
 67
     1
  8
7_ALL_FEATURES
  6
Continuous
 62
     7
100
AcDbLine
 10
47.9329348846
 20
158.4607163547
 30
0.0
 11
48.1552898661
 21
158.7504935694
 31
0.0
  0
LINE
  5
2B4
330
1B
100
AcDbEntity
 67
     1
  8
7_ALL_FEATURES
  6
Continuous
 62
     7
100
AcDbLine
 10
91.7329753295
 20
134.2270580448
 30
0.0
 11
91.4329753295
 21
133.9270580448
 31
0.0
  0
LINE
  5
2B5
330
1B
100
AcDbEntity
 67
     1
  8
7_ALL_FEATURES
  6
Continuous
 62
     7
100
AcDbLine
 10
47.9329753297
 20
134.2270580448
 30
0.0
 11
48.2329753297
 21
133.9270580448
 31
0.0
  0
LINE
  5
2B6
330
1B
100
AcDbEntity
 67
     1
  8
7_ALL_FEATURES
  6
Continuous
 62
     7
100
AcDbLine
 10
47.9329776277
 20
135.9770624155
 30
0.0
 11
47.9329753296
 21
135.9770580449
 31
0.0
  0
LINE
  5
2B7
330
1B
100
AcDbEntity
 67
     1
  8
7_ALL_FEATURES
  6
Continuous
 62
     7
100
AcDbLine
 10
47.9329753296
 20
134.2270580449
 30
0.0
 11
91.7329753296
 21
134.2270580449
 31
0.0
  0
LINE
  5
2B8
330
1B
100
AcDbEntity
 67
     1
  8
7_ALL_FEATURES
  6
Continuous
 62
     7
100
AcDbLine
 10
91.7329702082
 20
170.0360954382
 30
0.0
 11
49.3945503515
 21
158.846947048
 31
0.0
  0
LINE
  5
2B9
330
1B
100
AcDbEntity
 67
     1
  8
7_ALL_FEATURES
  6
Continuous
 62
     7
100
AcDbLine
 10
49.3945503515
 20
158.846947048
 30
0.0
 11
47.9329803042
 21
158.4606799069
 31
0.0
  0
LINE
  5
2BA
330
1B
100
AcDbEntity
 67
     1
  8
7_ALL_FEATURES
  6
Continuous
 62
     7
100
AcDbLine
 10
47.9329753296
 20
139.8770580449
 30
0.0
 11
47.9329773869
 21
139.8770196208
 31
0.0
  0
ARC
  5
2BB
330
1B
100
AcDbEntity
 67
     1
  8
0
  6
Continuous
 62
     2
100
AcDbCircle
 10
178.2830651187
 20
137.9270580452
 30
0.0
 40
2.0000000003
100
AcDbArc
 50
270.0000000002
 51
270.988140353
  0
ARC
  5
2BC
330
1B
100
AcDbEntity
 67
     1
  8
0
  6
Continuous
 62
     2
100
AcDbCircle
 10
178.2830651187
 20
137.9270580449
 30
0.0
 40
2.0
100
AcDbArc
 50
270.988140353
 51
89.0043978339
  0
ARC
  5
2BD
330
1B
100
AcDbEntity
 67
     1
  8
0
  6
Continuous
 62
     2
100
AcDbCircle
 10
178.2830651187
 20
137.927058044
 30
0.0
 40
2.0000000009
100
AcDbArc
 50
89.00439783410002
 51
89.9999999998
  0
ARC
  5
2BE
330
1B
100
AcDbEntity
 67
     1
  8
0
  6
Continuous
 62
     2
100
AcDbCircle
 10
178.2830651187
 20
137.9270580442
 30
0.0
 40
2.0000000007
100
AcDbArc
 50
90.0000000002
 51
90.96698623610003
  0
ARC
  5
2BF
330
1B
100
AcDbEntity
 67
     1
  8
0
  6
Continuous
 62
     2
100
AcDbCircle
 10
178.2830021142
 20
137.9271341268
 30
0.0
 40
1.9999113882
100
AcDbArc
 50
90.9652182629
 51
195.0204051801
  0
ARC
  5
2C0
330
1B
100
AcDbEntity
 67
     1
  8
0
  6
Continuous
 62
     2
100
AcDbCircle
 10
178.2832806925
 20
137.9288315072
 30
0.0
 40
2.0017769451
100
AcDbArc
 50
255.0050571319
 51
269.0002470329
  0
ARC
  5
2C1
330
1B
100
AcDbEntity
 67
     1
  8
0
  6
Continuous
 62
     2
100
AcDbCircle
 10
178.2830651187
 20
137.9270580447
 30
0.0
 40
1.9999999998
100
AcDbArc
 50
269.0055353604999
 51
270.0
  0
LINE
  5
2C2
330
1B
100
AcDbEntity
 67
     1
  8
02___PRT_ALL_AXES
  6
Continuous
 62
     7
100
AcDbLine
 10
180.6679131222
 20
145.4270580449
 30
0.0
 11
180.6553941798
 21
145.4270580449
 31
0.0
  0
LINE
  5
2C3
330
1B
100
AcDbEntity
 67
     1
  8
02___PRT_ALL_AXES
  6
Continuous
 62
     7
100
AcDbLine
 10
180.6553941798
 20
145.4270580449
 30
0.0
 11
175.9107512753
 21
145.4270580449
 31
0.0
  0
LINE
  5
2C4
330
1B
100
AcDbEntity
 67
     1
  8
02___PRT_ALL_AXES
  6
Continuous
 62
     7
100
AcDbLine
 10
175.9107512753
 20
145.4270580449
 30
0.0
 11
175.8982171151
 21
145.4270580449
 31
0.0
  0
LINE
  5
2C5
330
1B
100
AcDbEntity
 67
     1
  8
02___PRT_ALL_AXES
  6
Continuous
 62
     7
100
AcDbLine
 10
180.6679131222
 20
143.9270580449
 30
0.0
 11
180.6553807783
 21
143.9270580449
 31
0.0
  0
LINE
  5
2C6
330
1B
100
AcDbEntity
 67
     1
  8
02___PRT_ALL_AXES
  6
Continuous
 62
     7
100
AcDbLine
 10
180.6553807783
 20
143.9270580449
 30
0.0
 11
175.9107366964
 21
143.9270580449
 31
0.0
  0
LINE
  5
2C7
330
1B
100
AcDbEntity
 67
     1
  8
02___PRT_ALL_AXES
  6
Continuous
 62
     7
100
AcDbLine
 10
175.9107366964
 20
143.9270580449
 30
0.0
 11
175.8982171151
 21
143.9270580449
 31
0.0
  0
LINE
  5
2C8
330
1B
100
AcDbEntity
 67
     1
  8
7_ALL_FEATURES
  6
Continuous
 62
     7
100
AcDbLine
 10
156.6830651187
 20
133.9270580449
 30
0.0
 11
157.5580520637
 21
133.9270580449
 31
0.0
  0
LINE
  5
2C9
330
1B
100
AcDbEntity
 67
     1
  8
7_ALL_FEATURES
  6
Continuous
 62
     7
100
AcDbLine
 10
157.5580520637
 20
133.9270580449
 30
0.0
 11
157.5830651187
 21
133.9270580449
 31
0.0
  0
LINE
  5
2CA
330
1B
100
AcDbEntity
 67
     1
  8
7_ALL_FEATURES
  6
Continuous
 62
     7
100
AcDbLine
 10
157.5830651187
 20
133.9270580449
 30
0.0
 11
178.2830651187
 21
133.9270580449
 31
0.0
  0
LINE
  5
2CB
330
1B
100
AcDbEntity
 67
     1
  8
7_ALL_FEATURES
  6
Continuous
 62
     7
100
AcDbLine
 10
178.2830651187
 20
133.9270580449
 30
0.0
 11
198.9830651187
 21
133.9270580449
 31
0.0
  0
LINE
  5
2CC
330
1B
100
AcDbEntity
 67
     1
  8
7_ALL_FEATURES
  6
Continuous
 62
     7
100
AcDbLine
 10
198.9830651187
 20
133.9270580449
 30
0.0
 11
199.008078288
 21
133.9270580449
 31
0.0
  0
LINE
  5
2CD
330
1B
100
AcDbEntity
 67
     1
  8
7_ALL_FEATURES
  6
Continuous
 62
     7
100
AcDbLine
 10
199.008078288
 20
133.9270580449
 30
0.0
 11
199.8830651187
 21
133.9270580449
 31
0.0
  0
LINE
  5
2CE
330
1B
100
AcDbEntity
 67
     1
  8
7_ALL_FEATURES
  6
Continuous
 62
     7
100
AcDbLine
 10
156.6830651187
 20
133.9270580449
 30
0.0
 11
156.3830651187
 21
134.2270580449
 31
0.0
  0
LINE
  5
2CF
330
1B
100
AcDbEntity
 67
     1
  8
7_ALL_FEATURES
  6
Continuous
 62
     7
100
AcDbLine
 10
199.8830651187
 20
133.9270580449
 30
0.0
 11
200.1830651187
 21
134.2270580449
 31
0.0
  0
ARC
  5
2D0
330
1B
100
AcDbEntity
 67
     1
  8
02___PRT_ALL_AXES
  6
Continuous
 62
     7
100
AcDbCircle
 10
178.2830651187
 20
144.6770580449
 30
0.0
 40
2.5
100
AcDbArc
 50
90.0000106476
 51
180.0
  0
ARC
  5
2D1
330
1B
100
AcDbEntity
 67
     1
  8
02___PRT_ALL_AXES
  6
Continuous
 62
     7
100
AcDbCircle
 10
178.2830651187
 20
144.6770580449
 30
0.0
 40
2.5
100
AcDbArc
 50
180.0
 51
270.0000199579
  0
ARC
  5
2D2
330
1B
100
AcDbEntity
 67
     1
  8
7_ALL_FEATURES
  6
Continuous
 62
     7
100
AcDbCircle
 10
161.1470659756
 20
165.9631866103
 30
0.0
 40
4.044103832
100
AcDbArc
 50
225.0218252244
 51
228.378171777
  0
ARC
  5
2D3
330
1B
100
AcDbEntity
 67
     1
  8
7_ALL_FEATURES
  6
Continuous
 62
     7
100
AcDbCircle
 10
161.5467509864
 20
166.4064310354
 30
0.0
 40
4.640926294
100
AcDbArc
 50
228.3241624794
 51
230.4874936141
  0
SPLINE
  5
2D4
330
1B
100
AcDbEntity
 67
     1
  8
7_ALL_FEATURES
  6
Continuous
 62
     7
100
AcDbSpline
 70
     0
 71
     3
 72
    18
 73
    14
 74
     0
 42
0.000000001
 43
0.0000001
 40
0.0
 40
0.0
 40
0.0
 40
0.0
 40
0.0351367956
 40
0.0749449613
 40
0.1194482257
 40
0.1685137988
 40
0.2219053506
 40
0.2793268187
 40
0.4052350016
 40
0.5441738339
 40
0.6927223826
 40
0.8462297916
 40
1.0
 40
1.0
 40
1.0
 40
1.0
 10
158.5939772555
 20
162.8260226564
 30
0.0
 10
158.7774502014
 20
162.674551201
 30
0.0
 10
159.1917655779
 20
162.3790666085
 30
0.0
 10
159.8952327959
 20
161.9780540332
 30
0.0
 10
160.7136262452
 20
161.59423029
 30
0.0
 10
161.6403513813
 20
161.2302324932
 30
0.0
 10
162.6679400785
 20
160.8882188537
 30
0.0
 10
164.2104215154
 20
160.4507124632
 30
0.0
 10
166.3431691767
 20
159.9798986488
 30
0.0
 10
169.1090620095
 20
159.5411791071
 30
0.0
 10
172.0793798667
 20
159.2234347999
 30
0.0
 10
175.1609436093
 20
159.0336553631
 30
0.0
 10
177.2418488762
 20
158.9913329488
 30
0.0
 10
178.2830652241
 20
158.9915885828
 30
0.0
  0
SPLINE
  5
2D5
330
1B
100
AcDbEntity
 67
     1
  8
7_ALL_FEATURES
  6
Continuous
 62
     7
100
AcDbSpline
 70
     0
 71
     3
 72
     9
 73
     5
 74
     0
 42
0.000000001
 43
0.0000001
 40
0.0
 40
0.0
 40
0.0
 40
0.0
 40
0.256750855
 40
1.0
 40
1.0
 40
1.0
 40
1.0
 10
198.0739541523
 20
162.9031554978
 30
0.0
 10
198.091474705
 20
162.922211653
 30
0.0
 10
198.1588760548
 20
162.9971949677
 30
0.0
 10
198.2228273642
 20
163.0753056037
 30
0.0
 10
198.2679272634
 20
163.1351513005
 30
0.0
  0
SPLINE
  5
2D6
330
1B
100
AcDbEntity
 67
     1
  8
7_ALL_FEATURES
  6
Continuous
 62
     7
100
AcDbSpline
 70
     0
 71
     3
 72
    10
 73
     6
 74
     0
 42
0.000000001
 43
0.0000001
 40
0.0
 40
0.0
 40
0.0
 40
0.0
 40
0.5261617817
 40
0.7666867683
 40
1.0
 40
1.0
 40
1.0
 40
1.0
 10
198.2679272634
 20
163.1351513005
 30
0.0
 10
198.3952818021
 20
163.3041454942
 30
0.0
 10
198.55479192
 20
163.574955444
 30
0.0
 10
198.6649617921
 20
163.9635159447
 30
0.0
 10
198.6830653491
 20
164.1545553387
 30
0.0
 10
198.683065117
 20
164.2483878767
 30
0.0
  0
SPLINE
  5
2D7
330
1B
100
AcDbEntity
 67
     1
  8
7_ALL_FEATURES
  6
Continuous
 62
     7
100
AcDbSpline
 70
     0
 71
     3
 72
    19
 73
    15
 74
     0
 42
0.000000001
 43
0.0000001
 40
0.0
 40
0.0
 40
0.0
 40
0.0
 40
0.0329956849
 40
0.0708384434
 40
0.113678046
 40
0.161463656
 40
0.2139846193
 40
0.2709531739
 40
0.3320449236
 40
0.3969644106
 40
0.5369474376
 40
0.687353557
 40
0.8433378918
 40
1.0
 40
1.0
 40
1.0
 40
1.0
 10
157.4189992429
 20
166.0360458317
 30
0.0
 10
157.5871961874
 20
166.2042422273
 30
0.0
 10
157.9804267444
 20
166.5334665539
 30
0.0
 10
158.6699832083
 20
166.9787649518
 30
0.0
 10
159.4928795757
 20
167.4061403187
 30
0.0
 10
160.4422352117
 20
167.8125293363
 30
0.0
 10
161.510067635
 20
168.195308182
 30
0.0
 10
162.687395707
 20
168.5519121231
 30
0.0
 10
163.9653194415
 20
168.8803359238
 30
0.0
 10
165.8392822556
 20
169.288550996
 30
0.0
 10
168.3677996447
 20
169.7082755521
 30
0.0
 10
171.5671251551
 20
170.0651181163
 30
0.0
 10
174.8995314427
 20
170.2785907737
 30
0.0
 10
177.1536874959
 20
170.326099934
 30
0.0
 10
178.2830651823
 20
170.3258912436
 30
0.0
  0
SPLINE
  5
2D8
330
1B
100
AcDbEntity
 67
     1
  8
7_ALL_FEATURES
  6
Continuous
 62
     7
100
AcDbSpline
 70
     0
 71
     3
 72
    11
 73
     7
 74
     0
 42
0.000000001
 43
0.0000001
 40
0.0
 40
0.0
 40
0.0
 40
0.0
 40
0.2855879799
 40
0.5421448217
 40
0.7769700474
 40
1.0
 40
1.0
 40
1.0
 40
1.0
 10
199.4550401054
 20
165.7282701857
 30
0.0
 10
199.5688872932
 20
165.6145207742
 30
0.0
 10
199.7723055887
 20
165.3849388689
 30
0.0
 10
200.0069617976
 20
165.0124993055
 30
0.0
 10
200.1505032021
 20
164.6330695325
 30
0.0
 10
200.1830266807
 20
164.3740675407
 30
0.0
 10
200.1830263196
 20
164.2483852527
 30
0.0
  0
ARC
  5
2D9
330
1B
100
AcDbEntity
 67
     1
  8
02___PRT_ALL_AXES
  6
Continuous
 62
     7
100
AcDbCircle
 10
178.2830651187
 20
144.6770580449
 30
0.0
 40
2.5
100
AcDbArc
 50
270.0000199579
 51
360.0
  0
ARC
  5
2DA
330
1B
100
AcDbEntity
 67
     1
  8
02___PRT_ALL_AXES
  6
Continuous
 62
     7
100
AcDbCircle
 10
178.2830651187
 20
144.6770580449
 30
0.0
 40
2.5
100
AcDbArc
 50
0.0
 51
90.0000106476
  0
LINE
  5
2DB
330
1B
100
AcDbEntity
 67
     1
  8
02___PRT_ALL_AXES
  6
Continuous
 62
     7
100
AcDbLine
 10
200.1830651187
 20
134.2270580449
 30
0.0
 11
200.1830651187
 21
164.2483477456
 31
0.0
  0
ARC
  5
2DC
330
1B
100
AcDbEntity
 67
     1
  8
7_ALL_FEATURES
  6
Continuous
 62
     7
100
AcDbCircle
 10
178.2830651187
 20
137.9270580449
 30
0.0
 40
1.65
100
AcDbArc
 50
90.0
 51
270.0
  0
ARC
  5
2DD
330
1B
100
AcDbEntity
 67
     1
  8
7_ALL_FEATURES
  6
Continuous
 62
     7
100
AcDbCircle
 10
178.2830651187
 20
137.9270580449
 30
0.0
 40
1.65
100
AcDbArc
 50
270.0
 51
90.0
  0
SPLINE
  5
2DE
330
1B
100
AcDbEntity
 67
     1
  8
7_ALL_FEATURES
  6
Continuous
 62
     7
100
AcDbSpline
 70
     0
 71
     3
 72
    11
 73
     7
 74
     0
 42
0.000000001
 43
0.0000001
 40
0.0
 40
0.0
 40
0.0
 40
0.0
 40
0.2230300163
 40
0.4578553081
 40
0.7144123093
 40
1.0
 40
1.0
 40
1.0
 40
1.0
 10
156.3831039177
 20
164.2483852527
 30
0.0
 10
156.3831038482
 20
164.3740674222
 30
0.0
 10
156.4156272405
 20
164.6330690731
 30
0.0
 10
156.5591678067
 20
165.012498886
 30
0.0
 10
156.7938243757
 20
165.3849375285
 30
0.0
 10
156.997241654
 20
165.6145196855
 30
0.0
 10
157.1110885913
 20
165.7282688375
 30
0.0
  0
SPLINE
  5
2DF
330
1B
100
AcDbEntity
 67
     1
  8
7_ALL_FEATURES
  6
Continuous
 62
     7
100
AcDbSpline
 70
     0
 71
     3
 72
    19
 73
    15
 74
     0
 42
0.000000001
 43
0.0000001
 40
0.0
 40
0.0
 40
0.0
 40
0.0
 40
0.1566553747
 40
0.3126364902
 40
0.463043208
 40
0.6030295424
 40
0.6679503988
 40
0.7290430096
 40
0.7860121809
 40
0.8385337815
 40
0.886320095
 40
0.9291604663
 40
0.9670038542
 40
1.0
 40
1.0
 40
1.0
 40
1.0
 10
178.283065059
 20
170.325889483
 30
0.0
 10
179.4123940801
 20
170.3261012532
 30
0.0
 10
181.6664781649
 20
170.2785940873
 30
0.0
 10
184.9988171864
 20
170.0651340469
 30
0.0
 10
188.198148356
 20
169.7083008671
 30
0.0
 10
190.7267044751
 20
169.2885787441
 30
0.0
 10
192.6007072562
 20
168.8803605371
 30
0.0
 10
193.8786517745
 20
168.5519356533
 30
0.0
 10
195.0559951492
 20
168.1953301466
 30
0.0
 10
196.1238422335
 20
167.8125506924
 30
0.0
 10
197.0732127022
 20
167.4061579614
 30
0.0
 10
197.8961240888
 20
166.9787788191
 30
0.0
 10
198.5856928612
 20
166.5334748555
 30
0.0
 10
198.9789300113
 20
166.2042461112
 30
0.0
 10
199.14712928
 20
166.0360473776
 30
0.0
  0
SPLINE
  5
2E0
330
1B
100
AcDbEntity
 67
     1
  8
7_ALL_FEATURES
  6
Continuous
 62
     7
100
AcDbSpline
 70
     0
 71
     3
 72
    18
 73
    14
 74
     0
 42
0.000000001
 43
0.0000001
 40
0.0
 40
0.0
 40
0.0
 40
0.0
 40
0.1537784147
 40
0.3072896121
 40
0.4558373865
 40
0.594771842
 40
0.7206770353
 40
0.7780979074
 40
0.8314889694
 40
0.8805538602
 40
0.9250563999
 40
0.9648637844
 40
1.0
 40
1.0
 40
1.0
 40
1.0
 10
178.2830650063
 20
158.9915862125
 30
0.0
 10
179.3243372868
 20
158.9913344043
 30
0.0
 10
181.4053244459
 20
159.0336594771
 30
0.0
 10
184.4869647254
 20
159.2234521199
 30
0.0
 10
187.4572732467
 20
159.5412069487
 30
0.0
 10
190.2231108925
 20
159.9799282032
 30
0.0
 10
192.3558053108
 20
160.4507365083
 30
0.0
 10
193.8982592348
 20
160.8882407106
 30
0.0
 10
194.9258362757
 20
161.2302527391
 30
0.0
 10
195.852548138
 20
161.5942500794
 30
0.0
 10
196.6709277086
 20
161.9780692831
 30
0.0
 10
197.374381104
 20
162.3790780715
 30
0.0
 10
197.7886888341
 20
162.6745577185
 30
0.0
 10
197.9721585419
 20
162.8260270579
 30
0.0
  0
ARC
  5
2E1
330
1B
100
AcDbEntity
 67
     1
  8
7_ALL_FEATURES
  6
Continuous
 62
     7
100
AcDbCircle
 10
194.9625806187
 20
166.4727038946
 30
0.0
 40
4.7281932307
100
AcDbArc
 50
309.5326286503
 51
311.6569572383
  0
ARC
  5
2E2
330
1B
100
AcDbEntity
 67
     1
  8
7_ALL_FEATURES
  6
Continuous
 62
     7
100
AcDbCircle
 10
195.3459269967
 20
166.0407945573
 30
0.0
 40
4.1506989723
100
AcDbArc
 50
311.6661274825
 51
314.9351020813
  0
LINE
  5
2E3
330
1B
100
AcDbEntity
 67
     1
  8
02___PRT_ALL_AXES
  6
Continuous
 62
     7
100
AcDbLine
 10
156.3830651187
 20
134.2270580449
 30
0.0
 11
156.3830651187
 21
164.2483477456
 31
0.0
  0
SPLINE
  5
2E4
330
1B
100
AcDbEntity
 67
     1
  8
7_ALL_FEATURES
  6
Continuous
 62
     7
100
AcDbSpline
 70
     0
 71
     3
 72
    10
 73
     6
 74
     0
 42
0.000000001
 43
0.0000001
 40
0.0
 40
0.0
 40
0.0
 40
0.0
 40
0.2333133031
 40
0.4738381096
 40
1.0
 40
1.0
 40
1.0
 40
1.0
 10
157.8830651204
 20
164.2483878766
 30
0.0
 10
157.8830653525
 20
164.1545549355
 30
0.0
 10
157.9011690351
 20
163.9635149286
 30
0.0
 10
158.0113384641
 20
163.5749525206
 30
0.0
 10
158.1708507965
 20
163.3041423212
 30
0.0
 10
158.298206016
 20
163.1351475287
 30
0.0
  0
SPLINE
  5
2E5
330
1B
100
AcDbEntity
 67
     1
  8
7_ALL_FEATURES
  6
Continuous
 62
     7
100
AcDbSpline
 70
     0
 71
     3
 72
     9
 73
     5
 74
     0
 42
0.000000001
 43
0.0000001
 40
0.0
 40
0.0
 40
0.0
 40
0.0
 40
0.2434395508
 40
1.0
 40
1.0
 40
1.0
 40
1.0
 10
158.298206016
 20
163.1351475287
 30
0.0
 10
158.3129788585
 20
163.1155446144
 30
0.0
 10
158.3747259709
 20
163.035823711
 30
0.0
 10
158.4405609678
 20
162.9592935495
 30
0.0
 10
158.4921923546
 20
162.9031375995
 30
0.0
  0
SPLINE
  5
2E6
330
1B
100
AcDbEntity
 67
     1
  8
7_ALL_FEATURES
  6
Continuous
 62
     7
100
AcDbSpline
 70
     0
 71
     3
 72
     9
 73
     5
 74
     0
 42
0.000000001
 43
0.0000001
 40
0.0
 40
0.0
 40
0.0
 40
0.0
 40
0.2583861486
 40
1.0
 40
1.0
 40
1.0
 40
1.0
 10
199.14712928
 20
166.0360473776
 30
0.0
 10
199.170973373
 20
166.0122033605
 30
0.0
 10
199.2620663803
 20
165.9187503335
 30
0.0
 10
199.3482501065
 20
165.820452276
 30
0.0
 10
199.4085010526
 20
165.7447094701
 30
0.0
  0
ARC
  5
2E7
330
1B
100
AcDbEntity
 67
     1
  8
7_ALL_FEATURES
  6
Continuous
 62
     7
100
AcDbCircle
 10
197.0768901454
 20
163.8898689121
 30
0.0
 40
2.9794031144
100
AcDbArc
 50
37.7261585857
 51
38.5029121635
  0
SPLINE
  5
2E8
330
1B
100
AcDbEntity
 67
     1
  8
7_ALL_FEATURES
  6
Continuous
 62
     7
100
AcDbSpline
 70
     0
 71
     3
 72
    27
 73
    23
 74
     0
 42
0.000000001
 43
0.0000001
 40
0.0
 40
0.0
 40
0.0
 40
0.0
 40
0.0157377664
 40
0.0302366113
 40
0.0439055693
 40
0.0572468508
 40
0.0708031045
 40
0.0850905038
 40
0.1005397121
 40
0.1174778925
 40
0.1361325074
 40
0.156651098
 40
0.1791209347
 40
0.2035772725
 40
0.2584083919
 40
0.3208156662
 40
0.3901803495
 40
0.4658331675
 40
0.5471089264
 40
0.6331690837
 40
0.8147025645
 40
1.0
 40
1.0
 40
1.0
 40
1.0
 10
199.4334319243
 20
165.7129305574
 30
0.0
 10
199.512449595
 20
165.6107833817
 30
0.0
 10
199.651708794
 20
165.4041177493
 30
0.0
 10
199.8019557146
 20
165.0745959651
 30
0.0
 10
199.8816855522
 20
164.7409904656
 30
0.0
 10
199.8892719429
 20
164.4056287001
 30
0.0
 10
199.8246114033
 20
164.0714310426
 30
0.0
 10
199.6889305277
 20
163.7409079576
 30
0.0
 10
199.4844364624
 20
163.4152174691
 30
0.0
 10
199.2126603774
 20
163.094987548
 30
0.0
 10
198.875066822
 20
162.780616993
 30
0.0
 10
198.4729663511
 20
162.4726680915
 30
0.0
 10
198.0077940974
 20
162.1719079292
 30
0.0
 10
197.2775432946
 20
161.7659462806
 30
0.0
 10
196.2143404087
 20
161.2901050852
 30
0.0
 10
194.7691789928
 20
160.7804445951
 30
0.0
 10
193.1299689253
 20
160.3183509516
 30
0.0
 10
191.318093334
 20
159.908599923
 30
0.0
 10
189.3551342595
 20
159.5551745749
 30
0.0
 10
186.5195075336
 20
159.1574811867
 30
0.0
 10
182.8143937763
 20
158.8350831396
 30
0.0
 10
179.8035992077
 20
158.7501590356
 30
0.0
 10
178.2830650551
 20
158.7504400053
 30
0.0
  0
SPLINE
  5
2E9
330
1B
100
AcDbEntity
 67
     1
  8
7_ALL_FEATURES
  6
Continuous
 62
     7
100
AcDbSpline
 70
     0
 71
     3
 72
    23
 73
    19
 74
     0
 42
0.000000001
 43
0.0000001
 40
0.0
 40
0.0
 40
0.0
 40
0.0
 40
0.1733865865
 40
0.3448268205
 40
0.4272613353
 40
0.5061604129
 40
0.580720192
 40
0.6504561532
 40
0.7149441902
 40
0.7737339503
 40
0.8263409522
 40
0.8724583877
 40
0.9120728443
 40
0.9295745821
 40
0.9456646232
 40
0.9742415736
 40
0.9873149208
 40
1.0
 40
1.0
 40
1.0
 40
1.0
 10
178.2830652296
 20
169.7949672885
 30
0.0
 10
177.0070144198
 20
169.7952804105
 30
0.0
 10
174.4688143072
 20
169.7303812906
 30
0.0
 10
171.332130826
 20
169.4853360542
 30
0.0
 10
168.9013714149
 20
169.1833983375
 30
0.0
 10
167.1861309829
 20
168.9129941069
 30
0.0
 10
165.5735530658
 20
168.5981598401
 30
0.0
 10
164.0783988295
 20
168.24169822
 30
0.0
 10
162.7134499799
 20
167.8459893194
 30
0.0
 10
161.492240766
 20
167.4142237852
 30
0.0
 10
160.428568153
 20
166.9500271494
 30
0.0
 10
159.5353558946
 20
166.4580172626
 30
0.0
 10
158.917123184
 20
166.0111176509
 30
0.0
 10
158.5260005823
 20
165.6391636828
 30
0.0
 10
158.2284872889
 20
165.2911983418
 30
0.0
 10
158.0100491125
 20
164.9183737932
 30
0.0
 10
157.9009697519
 20
164.5317630158
 30
0.0
 10
157.8830648894
 20
164.3417446145
 30
0.0
 10
157.8830651204
 20
164.2483878766
 30
0.0
  0
ARC
  5
2EA
330
1B
100
AcDbEntity
 67
     1
  8
7_ALL_FEATURES
  6
Continuous
 62
     7
100
AcDbCircle
 10
178.2936669366
 20
138.0343114831
 30
0.0
 40
1.8427770591
100
AcDbArc
 50
89.44653618129999
 51
90.32963443510002
  0
SPLINE
  5
2EB
330
1B
100
AcDbEntity
 67
     1
  8
7_ALL_FEATURES
  6
Continuous
 62
     7
100
AcDbSpline
 70
     0
 71
     3
 72
    22
 73
    18
 74
     0
 42
0.000000001
 43
0.0000001
 40
0.0
 40
0.0
 40
0.0
 40
0.0
 40
0.1260901309
 40
0.1893428687
 40
0.2522145155
 40
0.3148018045
 40
0.3769534686
 40
0.4387703415
 40
0.5003977014
 40
0.562017129
 40
0.6238481196
 40
0.68603729
 40
0.7485031474
 40
0.8115790307
 40
0.8750305461
 40
0.9381418506
 40
1.0
 40
1.0
 40
1.0
 40
1.0
 10
178.3114674548
 20
139.8770025671
 30
0.0
 10
178.5677879311
 20
139.8745293271
 30
0.0
 10
178.9566807142
 20
139.7907965992
 30
0.0
 10
179.4091701783
 20
139.5451734328
 30
0.0
 10
179.7062743372
 20
139.298275601
 30
0.0
 10
179.9485426888
 20
139.0006462634
 30
0.0
 10
180.1272024733
 20
138.6633291533
 30
0.0
 10
180.2362923453
 20
138.2996247328
 30
0.0
 10
180.2724407622
 20
137.9227239771
 30
0.0
 10
180.2346294933
 20
137.5459576629
 30
0.0
 10
180.1238394623
 20
137.1826605382
 30
0.0
 10
179.9436875471
 20
136.846336884
 30
0.0
 10
179.7001124502
 20
136.5493723508
 30
0.0
 10
179.401413393
 20
136.3038383805
 30
0.0
 10
179.059542849
 20
136.1202958475
 30
0.0
 10
178.691432021
 20
136.0067682452
 30
0.0
 10
178.4370896544
 20
135.9782749845
 30
0.0
 10
178.311341833
 20
135.9771025689
 30
0.0
  0
ARC
  5
2EC
330
1B
100
AcDbEntity
 67
     1
  8
7_ALL_FEATURES
  6
Continuous
 62
     7
100
AcDbCircle
 10
178.294335803
 20
137.7983089016
 30
0.0
 40
1.8212857303
100
AcDbArc
 50
269.6454335768
 51
270.5350000219
  0
ARC
  5
2ED
330
1B
100
AcDbEntity
 67
     1
  8
7_ALL_FEATURES
  6
Continuous
 62
     7
100
AcDbCircle
 10
178.2723294447
 20
137.8176513894
 30
0.0
 40
1.8406246534
100
AcDbArc
 50
269.4512478883
 51
270.3341867101
  0
SPLINE
  5
2EE
330
1B
100
AcDbEntity
 67
     1
  8
7_ALL_FEATURES
  6
Continuous
 62
     7
100
AcDbSpline
 70
     0
 71
     3
 72
     9
 73
     5
 74
     0
 42
0.000000001
 43
0.0000001
 40
0.0
 40
0.0
 40
0.0
 40
0.0
 40
0.2488727226
 40
1.0
 40
1.0
 40
1.0
 40
1.0
 10
178.2547010743
 20
135.9771111548
 30
0.0
 10
178.2173355151
 20
135.977468617
 30
0.0
 10
178.0672649412
 20
135.9834504901
 30
0.0
 10
177.9179758988
 20
136.007171423
 30
0.0
 10
177.8084537668
 20
136.0340780687
 30
0.0
  0
ARC
  5
2EF
330
1B
100
AcDbEntity
 67
     1
  8
7_ALL_FEATURES
  6
Continuous
 62
     7
100
AcDbCircle
 10
178.2911109319
 20
137.9986916344
 30
0.0
 40
2.0230334653
100
AcDbArc
 50
255.4465111858
 51
256.1972003483
  0
SPLINE
  5
2F0
330
1B
100
AcDbEntity
 67
     1
  8
7_ALL_FEATURES
  6
Continuous
 62
     7
100
AcDbSpline
 70
     0
 71
     3
 72
    11
 73
     7
 74
     0
 42
0.000000001
 43
0.0000001
 40
0.0
 40
0.0
 40
0.0
 40
0.0
 40
0.2529508296
 40
0.5037797549
 40
0.7529843415
 40
1.0
 40
1.0
 40
1.0
 40
1.0
 10
177.7827555676
 20
136.0405702834
 30
0.0
 10
177.6151423804
 20
136.0840846315
 30
0.0
 10
177.2906904457
 20
136.2140068836
 30
0.0
 10
176.8741781467
 20
136.5274270681
 30
0.0
 10
176.5550270354
 20
136.9342974841
 30
0.0
 10
176.4205957555
 20
137.2513345032
 30
0.0
 10
176.3755665049
 20
137.4143354522
 30
0.0
  0
SPLINE
  5
2F1
330
1B
100
AcDbEntity
 67
     1
  8
7_ALL_FEATURES
  6
Continuous
 62
     7
100
AcDbSpline
 70
     0
 71
     3
 72
    15
 73
    11
 74
     0
 42
0.000000001
 43
0.0000001
 40
0.0
 40
0.0
 40
0.0
 40
0.0
 40
0.1236757808
 40
0.2472356406
 40
0.3712708467
 40
0.4961007589
 40
0.6217833966
 40
0.748859002
 40
0.8757165625
 40
1.0
 40
1.0
 40
1.0
 40
1.0
 10
176.3755665049
 20
137.4143354522
 30
0.0
 10
176.3363986893
 20
137.5561186495
 30
0.0
 10
176.290494308
 20
137.849661613
 30
0.0
 10
176.323885385
 20
138.2937137066
 30
0.0
 10
176.4581104514
 20
138.719973531
 30
0.0
 10
176.6870418909
 20
139.1066968432
 30
0.0
 10
177.0005834926
 20
139.4336568083
 30
0.0
 10
177.3822667361
 20
139.6824062621
 30
0.0
 10
177.8084951555
 20
139.8370211003
 30
0.0
 10
178.1077080677
 20
139.8756966537
 30
0.0
 10
178.2555186888
 20
139.8770194306
 30
0.0
  0
ARC
  5
2F2
330
1B
100
AcDbEntity
 67
     1
  8
7_ALL_FEATURES
  6
Continuous
 62
     7
100
AcDbCircle
 10
178.2718455123
 20
138.0553608795
 30
0.0
 40
1.8217317151
100
AcDbArc
 50
89.6471268774
 51
90.5135062379
  0
LINE
  5
2F3
330
1B
100
AcDbEntity
 67
     1
  8
7_ALL_FEATURES
  6
Continuous
 62
     7
100
AcDbLine
 10
178.2830651187
 20
134.2270580449
 30
0.0
 11
200.1830651187
 21
134.2270580449
 31
0.0
  0
SPLINE
  5
2F4
330
1B
100
AcDbEntity
 67
     1
  8
7_ALL_FEATURES
  6
Continuous
 62
     7
100
AcDbSpline
 70
     0
 71
     3
 72
    23
 73
    19
 74
     0
 42
0.000000001
 43
0.0000001
 40
0.0
 40
0.0
 40
0.0
 40
0.0
 40
0.012385607
 40
0.0251743666
 40
0.0387291316
 40
0.0533455565
 40
0.0865578971
 40
0.1259759783
 40
0.1720118048
 40
0.2246458449
 40
0.2835535063
 40
0.3482624648
 40
0.4182703748
 40
0.4930976477
 40
0.5721733686
 40
0.6547140079
 40
0.8262772806
 40
1.0
 40
1.0
 40
1.0
 40
1.0
 10
200.1830263196
 20
164.2483852527
 30
0.0
 10
200.1830260394
 20
164.1508553654
 30
0.0
 10
200.1638243019
 20
163.9521322296
 30
0.0
 10
200.0781699002
 20
163.6578327033
 30
0.0
 10
199.9367161428
 20
163.3664563694
 30
0.0
 10
199.6636208957
 20
162.9659122977
 30
0.0
 10
199.1717096701
 20
162.4781331213
 30
0.0
 10
198.404704035
 20
161.9398546638
 30
0.0
 10
197.4439729274
 20
161.4261726277
 30
0.0
 10
196.300261601
 20
160.941764234
 30
0.0
 10
194.986678341
 20
160.4909545343
 30
0.0
 10
193.5183279055
 20
160.0778899765
 30
0.0
 10
191.9102259534
 20
159.7059314299
 30
0.0
 10
190.1774271916
 20
159.377830498
 30
0.0
 10
188.3366018697
 20
159.0963680765
 30
0.0
 10
185.7314542683
 20
158.7825748524
 30
0.0
 10
182.3704041342
 20
158.5277468388
 30
0.0
 10
179.6510365228
 20
158.4604129415
 30
0.0
 10
178.2830650543
 20
158.4606622574
 30
0.0
  0
SPLINE
  5
2F5
330
1B
100
AcDbEntity
 67
     1
  8
7_ALL_FEATURES
  6
Continuous
 62
     7
100
AcDbSpline
 70
     0
 71
     3
 72
    23
 73
    19
 74
     0
 42
0.000000001
 43
0.0000001
 40
0.0
 40
0.0
 40
0.0
 40
0.0
 40
0.0126852079
 40
0.0257586784
 40
0.05433595
 40
0.0704262013
 40
0.0879282214
 40
0.1275433886
 40
0.1736617386
 40
0.2262695525
 40
0.2850599063
 40
0.3495485483
 40
0.4192858898
 40
0.4938479042
 40
0.5727493873
 40
0.6551849434
 40
0.8266223991
 40
1.0
 40
1.0
 40
1.0
 40
1.0
 10
198.683065117
 20
164.2483878767
 30
0.0
 10
198.683064886
 20
164.3417455614
 30
0.0
 10
198.6651596837
 20
164.5317657223
 30
0.0
 10
198.556079411
 20
164.9183807681
 30
0.0
 10
198.337635752
 20
165.2912079577
 30
0.0
 10
198.0401176934
 20
165.6391770228
 30
0.0
 10
197.6489861622
 20
166.0111345475
 30
0.0
 10
197.0307402001
 20
166.4580397369
 30
0.0
 10
196.1375092775
 20
166.9500531306
 30
0.0
 10
195.0738187868
 20
167.4142513405
 30
0.0
 10
193.8525940737
 20
167.8460174466
 30
0.0
 10
192.4876253852
 20
168.2417260669
 30
0.0
 10
190.9924398079
 20
168.5981901746
 30
0.0
 10
189.3798170947
 20
168.9130263609
 30
0.0
 10
187.6645342952
 20
169.1834303867
 30
0.0
 10
185.233768648
 20
169.4853579522
 30
0.0
 10
182.0971632446
 20
169.730385736
 30
0.0
 10
179.5590496886
 20
169.7952827983
 30
0.0
 10
178.2830650146
 20
169.7949649181
 30
0.0
  0
SPLINE
  5
2F6
330
1B
100
AcDbEntity
 67
     1
  8
7_ALL_FEATURES
  6
Continuous
 62
     7
100
AcDbSpline
 70
     0
 71
     3
 72
    30
 73
    26
 74
     0
 42
0.000000001
 43
0.0000001
 40
0.0
 40
0.0
 40
0.0
 40
0.0
 40
0.017504934
 40
0.033403266
 40
0.0480252794
 40
0.0618199617
 40
0.0753325443
 40
0.0891488594
 40
0.1038112729
 40
0.1197645556
 40
0.1373346249
 40
0.1567448345
 40
0.1781343511
 40
0.2015778575
 40
0.227104997
 40
0.2546956843
 40
0.3158441526
 40
0.3844080149
 40
0.4596948529
 40
0.5410756484
 40
0.6277791843
 40
0.718526253
 40
0.8118163489
 40
0.9061345605
 40
1.0
 40
1.0
 40
1.0
 40
1.0
 10
198.2775880963
 20
163.1024846423
 30
0.0
 10
198.3766391857
 20
163.2015364338
 30
0.0
 10
198.5555642213
 20
163.4012535285
 30
0.0
 10
198.7698613093
 20
163.7221012265
 30
0.0
 10
198.9142075395
 20
164.0482797014
 30
0.0
 10
198.9866346215
 20
164.3784745898
 30
0.0
 10
198.9852417687
 20
164.7102742419
 30
0.0
 10
198.9100838197
 20
165.0403545667
 30
0.0
 10
198.7630880078
 20
165.3663439745
 30
0.0
 10
198.5461775925
 20
165.6870123395
 30
0.0
 10
198.2612855837
 20
166.002004821
 30
0.0
 10
197.9097335365
 20
166.3108133471
 30
0.0
 10
197.4929486351
 20
166.61282682
 30
0.0
 10
197.0125208188
 20
166.9073216603
 30
0.0
 10
196.4702901679
 20
167.1933078703
 30
0.0
 10
195.6391129162
 20
167.5753171683
 30
0.0
 10
194.4590885842
 20
168.0181630535
 30
0.0
 10
192.8858166958
 20
168.4861790907
 30
0.0
 10
191.1312423391
 20
168.9020700045
 30
0.0
 10
189.2166093589
 20
169.2618033582
 30
0.0
 10
187.1665638288
 20
169.5609795087
 30
0.0
 10
185.0123374952
 20
169.7957690828
 30
0.0
 10
182.7907669322
 20
169.9632397107
 30
0.0
 10
180.5402043631
 20
170.0627985445
 30
0.0
 10
179.0342052382
 20
170.0849270821
 30
0.0
 10
178.2830650133
 20
170.084742666
 30
0.0
  0
LINE
  5
2F7
330
1B
100
AcDbEntity
 67
     1
  8
7_ALL_FEATURES
  6
Continuous
 62
     7
100
AcDbLine
 10
156.3830651187
 20
134.2270580449
 30
0.0
 11
178.2830651187
 21
134.2270580449
 31
0.0
  0
SPLINE
  5
2F8
330
1B
100
AcDbEntity
 67
     1
  8
7_ALL_FEATURES
  6
Continuous
 62
     7
100
AcDbSpline
 70
     0
 71
     3
 72
    27
 73
    23
 74
     0
 42
0.000000001
 43
0.0000001
 40
0.0
 40
0.0
 40
0.0
 40
0.0
 40
0.1852897085
 40
0.3668212293
 40
0.4528827457
 40
0.5341603364
 40
0.6098145166
 40
0.6791799268
 40
0.7415879286
 40
0.7964199566
 40
0.8208767466
 40
0.8433469928
 40
0.8638659514
 40
0.8825208501
 40
0.8994592736
 40
0.9149086619
 40
0.9291962101
 40
0.9427525884
 40
0.95609399
 40
0.9697630733
 40
0.984262065
 40
1.0
 40
1.0
 40
1.0
 40
1.0
 10
178.2830651783
 20
158.7504417658
 30
0.0
 10
176.7625940487
 20
158.7501566492
 30
0.0
 10
173.7518782582
 20
158.8350792497
 30
0.0
 10
170.046830773
 20
159.1574582463
 30
0.0
 10
167.2111918948
 20
159.5551431499
 30
0.0
 10
165.2481941995
 20
159.9085677139
 30
0.0
 10
163.4362852439
 20
160.3183193161
 30
0.0
 10
161.7970508094
 20
160.7804132385
 30
0.0
 10
160.3518683272
 20
161.2900734453
 30
0.0
 10
159.2886470953
 20
161.7659163116
 30
0.0
 10
158.5583810046
 20
162.1718808352
 30
0.0
 10
158.0931985028
 20
162.4726439494
 30
0.0
 10
157.6910885863
 20
162.7805951152
 30
0.0
 10
157.3534880267
 20
163.0949690717
 30
0.0
 10
157.0817051647
 20
163.415200996
 30
0.0
 10
156.877206665
 20
163.7408944576
 30
0.0
 10
156.7415222422
 20
164.0714201171
 30
0.0
 10
156.6768580888
 20
164.4056206192
 30
0.0
 10
156.6844446451
 20
164.7409855485
 30
0.0
 10
156.7641732337
 20
165.0745947415
 30
0.0
 10
156.9144224742
 20
165.4041197556
 30
0.0
 10
157.0536836455
 20
165.6107871983
 30
0.0
 10
157.1327022408
 20
165.7129354496
 30
0.0
  0
ARC
  5
2F9
330
1B
100
AcDbEntity
 67
     1
  8
7_ALL_FEATURES
  6
Continuous
 62
     7
100
AcDbCircle
 10
159.4892646406
 20
163.889856213
 30
0.0
 40
2.9794301882
100
AcDbArc
 50
141.4987246882
 51
142.2738164912
  0
SPLINE
  5
2FA
330
1B
100
AcDbEntity
 67
     1
  8
7_ALL_FEATURES
  6
Continuous
 62
     7
100
AcDbSpline
 70
     0
 71
     3
 72
     9
 73
     5
 74
     0
 42
0.000000001
 43
0.0000001
 40
0.0
 40
0.0
 40
0.0
 40
0.0
 40
0.2418626408
 40
1.0
 40
1.0
 40
1.0
 40
1.0
 10
157.1575795566
 20
165.7446470141
 30
0.0
 10
157.1772326616
 20
165.7693548122
 30
0.0
 10
157.2600902508
 20
165.8702344965
 30
0.0
 10
157.3490228798
 20
165.9660696971
 30
0.0
 10
157.4189992429
 20
166.0360458317
 30
0.0
  0
SPLINE
  5
2FB
330
1B
100
AcDbEntity
 67
     1
  8
7_ALL_FEATURES
  6
Continuous
 62
     7
100
AcDbSpline
 70
     0
 71
     3
 72
    23
 73
    19
 74
     0
 42
0.000000001
 43
0.0000001
 40
0.0
 40
0.0
 40
0.0
 40
0.0
 40
0.1737153477
 40
0.3452759719
 40
0.4278172269
 40
0.5068946832
 40
0.581723651
 40
0.6517327703
 40
0.7164424197
 40
0.7753507742
 40
0.8279856221
 40
0.8740223032
 40
0.9134410784
 40
0.9466538924
 40
0.9612704867
 40
0.9748253895
 40
0.9876142767
 40
1.0
 40
1.0
 40
1.0
 40
1.0
 10
178.283065179
 20
158.4606640179
 30
0.0
 10
176.915151759
 20
158.4604110226
 30
0.0
 10
174.1958630553
 20
158.5277431899
 30
0.0
 10
170.8348861919
 20
158.7825552612
 30
0.0
 10
168.2297398317
 20
159.0963392715
 30
0.0
 10
166.388881935
 20
159.3777994889
 30
0.0
 10
164.6560461759
 20
159.7059014727
 30
0.0
 10
163.0479153347
 20
160.0778608134
 30
0.0
 10
161.5795438899
 20
160.490926046
 30
0.0
 10
160.2659423087
 20
160.9417355511
 30
0.0
 10
159.1222119792
 20
161.4261466644
 30
0.0
 10
158.1614618835
 20
161.9398325234
 30
0.0
 10
157.3944402377
 20
162.4781160148
 30
0.0
 10
156.9025190803
 20
162.9659002133
 30
0.0
 10
156.6294184306
 20
163.3664481628
 30
0.0
 10
156.4879628986
 20
163.6578274003
 30
0.0
 10
156.4023056544
 20
163.9521292556
 30
0.0
 10
156.3831039717
 20
164.1508544494
 30
0.0
 10
156.3831039177
 20
164.2483852527
 30
0.0
  0
SPLINE
  5
2FC
330
1B
100
AcDbEntity
 67
     1
  8
7_ALL_FEATURES
  6
Continuous
 62
     7
100
AcDbSpline
 70
     0
 71
     3
 72
    30
 73
    26
 74
     0
 42
0.000000001
 43
0.0000001
 40
0.0
 40
0.0
 40
0.0
 40
0.0
 40
0.0938711924
 40
0.1881931397
 40
0.2814850711
 40
0.372231857
 40
0.4589332393
 40
0.5403115846
 40
0.6155970273
 40
0.6841603284
 40
0.7453080194
 40
0.7728982456
 40
0.7984248613
 40
0.8218678654
 40
0.8432569671
 40
0.8626668091
 40
0.8802366038
 40
0.8961896623
 40
0.9108519059
 40
0.9246680852
 40
0.9381805504
 40
0.9519751198
 40
0.9665970113
 40
0.9824952162
 40
1.0
 40
1.0
 40
1.0
 40
1.0
 10
178.283065231
 20
170.0847450364
 30
0.0
 10
177.531878957
 20
170.0849266938
 30
0.0
 10
176.025803952
 20
170.062794504
 30
0.0
 10
173.7751508888
 20
169.9632287011
 30
0.0
 10
171.5535387125
 20
169.7957458847
 30
0.0
 10
169.3993181786
 20
169.5609473067
 30
0.0
 10
167.3493124992
 20
169.2617686742
 30
0.0
 10
165.4347283224
 20
168.9020354953
 30
0.0
 10
163.6801898592
 20
168.4861460663
 30
0.0
 10
162.1069408842
 20
168.0181294695
 30
0.0
 10
160.926932596
 20
167.5752817605
 30
0.0
 10
160.0957703077
 20
167.1932736495
 30
0.0
 10
159.5535521623
 20
166.907289169
 30
0.0
 10
159.0731366371
 20
166.6127963915
 30
0.0
 10
158.6563620397
 20
166.3107861591
 30
0.0
 10
158.304819674
 20
166.0019794461
 30
0.0
 10
158.0199347295
 20
165.6869899511
 30
0.0
 10
157.8030309303
 20
165.3663234634
 30
0.0
 10
157.6560409151
 20
165.0403362633
 30
0.0
 10
157.5808858991
 20
164.7102586529
 30
0.0
 10
157.5794981479
 20
164.3784619689
 30
0.0
 10
157.6519256105
 20
164.0482702676
 30
0.0
 10
157.7962723719
 20
163.7220951113
 30
0.0
 10
158.0105687591
 20
163.40125093
 30
0.0
 10
158.1894919883
 20
163.2015352282
 30
0.0
 10
158.2885422293
 20
163.1024842847
 30
0.0
  0
LINE
  5
2FD
330
1B
100
AcDbEntity
 67
     1
  8
7_ALL_FEATURES
  6
Continuous
 62
     9
100
AcDbLine
 10
178.2830651412
 20
158.4607163547
 30
0.0
 11
178.2830651408
 21
158.7504935694
 31
0.0
  0
LINE
  5
2FE
330
1B
100
AcDbEntity
 67
     1
  8
7_ALL_FEATURES
  6
Continuous
 62
     9
100
AcDbLine
 10
178.2830651594
 20
169.7948924014
 30
0.0
 11
178.2830651603
 21
170.0846693361
 31
0.0
  0
LINE
  5
2FF
330
1B
100
AcDbEntity
 67
     1
  8
7_ALL_FEATURES
  6
Continuous
 62
     9
100
AcDbLine
 10
178.2830645777
 20
135.9770580417
 30
0.0
 11
178.2830646921
 21
136.2770580424
 31
0.0
  0
LINE
  5
300
330
1B
100
AcDbEntity
 67
     1
  8
7_ALL_FEATURES
  6
Continuous
 62
     9
100
AcDbLine
 10
178.2830657101
 20
139.8770580483
 30
0.0
 11
178.2830655845
 21
139.5770580476
 31
0.0
  0
DIMENSION
  5
301
330
1B
100
AcDbEntity
 67
     1
  8
0
  6
Continuous
 62
     2
100
AcDbDimension
280
     0
  2
*D1
 10
88.0525806676
 20
74.0062353076
 30
0.0
 11
96.8430799344
 21
82.5734723221
 31
0.0
 70
   163
  1
%%c<>
 71
     5
 42
-1.0
 73
     0
 74
     0
 75
     0
  3
DIMSTYLE_1
100
AcDbDiametricDimension
 15
51.6133699917
 25
49.7034797988
 35
0.0
 40
0.0
  0
DIMENSION
  5
302
330
1B
100
AcDbEntity
 67
     1
  8
0
  6
Continuous
 62
     2
100
AcDbDimension
280
     0
  2
*D2
 10
105.2079268416
 20
133.9270580449
 30
0.0
 11
105.2079268416
 21
152.1225767048
 31
0.0
 70
   160
 71
     5
 42
-1.0
 73
     0
 74
     0
 75
     0
  3
DIMSTYLE_2
100
AcDbAlignedDimension
 13
92.5245596928
 23
170.325889483
 33
0.0
 14
92.9674854609
 24
133.9270580449
 34
0.0
 50
270.0
100
AcDbRotatedDimension
  0
LINE
  5
303
330
1B
100
AcDbEntity
 67
     1
  8
0
  6
Continuous
 62
     2
100
AcDbLine
 10
153.7672224331
 20
73.3275126695
 30
0.0
 11
283.7672224331
 21
73.3275126695
 31
0.0
  0
LINE
  5
304
330
1B
100
AcDbEntity
 67
     1
  8
0
  6
Continuous
 62
     2
100
AcDbLine
 10
153.7672224331
 20
73.3275126695
 30
0.0
 11
153.7672224331
 21
13.3275126695
 31
0.0
  0
LINE
  5
305
330
1B
100
AcDbEntity
 67
     1
  8
0
  6
Continuous
 62
     2
100
AcDbLine
 10
183.7672224331
 20
65.3275126695
 30
0.0
 11
283.7672224331
 21
65.3275126695
 31
0.0
  0
LINE
  5
306
330
1B
100
AcDbEntity
 67
     1
  8
0
  6
Continuous
 62
     2
100
AcDbLine
 10
153.7672224331
 20
57.3275126695
 30
0.0
 11
283.7672224331
 21
57.3275126695
 31
0.0
  0
LINE
  5
307
330
1B
100
AcDbEntity
 67
     1
  8
0
  6
Continuous
 62
     2
100
AcDbLine
 10
183.7672224331
 20
51.3275126695
 30
0.0
 11
283.7672224331
 21
51.3275126695
 31
0.0
  0
LINE
  5
308
330
1B
100
AcDbEntity
 67
     1
  8
0
  6
Continuous
 62
     2
100
AcDbLine
 10
183.7672224331
 20
45.3275126695
 30
0.0
 11
283.7672224331
 21
45.3275126695
 31
0.0
  0
LINE
  5
309
330
1B
100
AcDbEntity
 67
     1
  8
0
  6
Continuous
 62
     2
100
AcDbLine
 10
183.7672224331
 20
39.3275126695
 30
0.0
 11
283.7672224331
 21
39.3275126695
 31
0.0
  0
LINE
  5
30A
330
1B
100
AcDbEntity
 67
     1
  8
0
  6
Continuous
 62
     2
100
AcDbLine
 10
183.7672224331
 20
33.3275126695
 30
0.0
 11
283.7672224331
 21
33.3275126695
 31
0.0
  0
LINE
  5
30B
330
1B
100
AcDbEntity
 67
     1
  8
0
  6
Continuous
 62
     2
100
AcDbLine
 10
153.7672224331
 20
27.3275126695
 30
0.0
 11
283.7672224331
 21
27.3275126695
 31
0.0
  0
LINE
  5
30C
330
1B
100
AcDbEntity
 67
     1
  8
0
  6
Continuous
 62
     2
100
AcDbLine
 10
153.7672224331
 20
21.3275126695
 30
0.0
 11
283.7672224331
 21
21.3275126695
 31
0.0
  0
LINE
  5
30D
330
1B
100
AcDbEntity
 67
     1
  8
0
  6
Continuous
 62
     2
100
AcDbLine
 10
153.7672224331
 20
17.3275126695
 30
0.0
 11
283.7672224331
 21
17.3275126695
 31
0.0
  0
LINE
  5
30E
330
1B
100
AcDbEntity
 67
     1
  8
0
  6
Continuous
 62
     2
100
AcDbLine
 10
153.7672224331
 20
13.3275126695
 30
0.0
 11
283.7672224331
 21
13.3275126695
 31
0.0
  0
LINE
  5
30F
330
1B
100
AcDbEntity
 67
     1
  8
0
  6
Continuous
 62
     2
100
AcDbLine
 10
183.7672224331
 20
73.3275126695
 30
0.0
 11
183.7672224331
 21
21.3275126695
 31
0.0
  0
LINE
  5
310
330
1B
100
AcDbEntity
 67
     1
  8
0
  6
Continuous
 62
     2
100
AcDbLine
 10
213.7672224331
 20
57.3275126695
 30
0.0
 11
213.7672224331
 21
51.3275126695
 31
0.0
  0
LINE
  5
311
330
1B
100
AcDbEntity
 67
     1
  8
0
  6
Continuous
 62
     2
100
AcDbLine
 10
233.7672224331
 20
33.3275126695
 30
0.0
 11
233.7672224331
 21
21.3275126695
 31
0.0
  0
LINE
  5
312
330
1B
100
AcDbEntity
 67
     1
  8
0
  6
Continuous
 62
     2
100
AcDbLine
 10
243.7672224331
 20
51.3275126695
 30
0.0
 11
243.7672224331
 21
45.3275126695
 31
0.0
  0
LINE
  5
313
330
1B
100
AcDbEntity
 67
     1
  8
0
  6
Continuous
 62
     2
100
AcDbLine
 10
263.7672224331
 20
57.3275126695
 30
0.0
 11
263.7672224331
 21
51.3275126695
 31
0.0
  0
LINE
  5
314
330
1B
100
AcDbEntity
 67
     1
  8
0
  6
Continuous
 62
     2
100
AcDbLine
 10
273.7672224331
 20
51.3275126695
 30
0.0
 11
273.7672224331
 21
45.3275126695
 31
0.0
  0
LINE
  5
315
330
1B
100
AcDbEntity
 67
     1
  8
0
  6
Continuous
 62
     2
100
AcDbLine
 10
283.7672224331
 20
73.3275126695
 30
0.0
 11
283.7672224331
 21
13.3275126695
 31
0.0
  0
INSERT
  5
316
330
1B
100
AcDbEntity
 67
     1
  8
0
  6
Continuous
 62
     2
100
AcDbBlockReference
  2
PROIEZIONE_EU_BL0
 10
168.7672224331
 20
64.9525126695
 30
0.0
  0
MTEXT
  5
317
330
1B
100
AcDbEntity
 67
     1
  8
9_SOLID
  6
Continuous
 62
     2
100
AcDbMText
 10
185.2547224331
 20
71.7025126695
 30
0.0
 40
1.9
 41
142.3642857143
 46
0.0
 71
     1
 72
     1
  1
EN: Chamfer/radii unlisted 0.3x45°. Remove sharp edges.\PGen. tol.: hole H11, shaft h11, lenght Js12. UNI EN 22768 Medium Grande.
  7
TEXTSTYLE_4
 73
     1
 44
1.0
  0
MTEXT
  5
318
330
1B
100
AcDbEntity
 67
     1
  8
9_SOLID
  6
Continuous
 62
     2
100
AcDbMText
 10
185.2547224331
 20
63.7025126695
 30
0.0
 40
1.9
 41
148.2678571429
 46
0.0
 71
     1
 72
     1
  1
IT: Sm./rac. non quotati 0.3x45°. Eliminare spigoli taglienti.\PToll. gen.: foro H11, albero h11, lunghezza Js12. UNI EN 22768 Grado Medio.
  7
TEXTSTYLE_4
 73
     1
 44
1.0
  0
INSERT
  5
319
330
1B
100
AcDbEntity
 67
     1
  8
0
  6
Continuous
 62
     2
100
AcDbBlockReference
  2
LOGO2_BL1
 10
167.5932694779
 20
42.3275126695
 30
0.0
  0
MTEXT
  5
31A
330
1B
100
AcDbEntity
 67
     1
  8
9_SOLID
  6
Continuous
 62
     2
100
AcDbMText
 10
185.2547224331
 20
55.5775126695
 30
0.0
 40
3.0
 41
21.4285714286
 46
0.0
 71
     1
 72
     1
  1
Pj: 421
  7
TEXTSTYLE_4
 73
     1
 44
1.0
  0
MTEXT
  5
31B
330
1B
100
AcDbEntity
 67
     1
  8
9_SOLID
  6
Continuous
 62
     2
100
AcDbMText
 10
215.2547224331
 20
55.5775126695
 30
0.0
 40
3.0
 41
38.0357142857
 46
0.0
 71
     1
 72
     1
  1
% Check: %
  7
TEXTSTYLE_4
 73
     1
 44
1.0
  0
MTEXT
  5
31C
330
1B
100
AcDbEntity
 67
     1
  8
9_SOLID
  6
Continuous
 62
     2
100
AcDbMText
 10
265.2547224331
 20
55.8275126695
 30
0.0
 40
3.0
 41
19.5
 46
0.0
 71
     1
 72
     1
  1
Rev:00
  7
TEXTSTYLE_4
 73
     1
 44
1.0
  0
MTEXT
  5
31D
330
1B
100
AcDbEntity
 67
     1
  8
9_SOLID
  6
Continuous
 62
     2
100
AcDbMText
 10
185.2547224331
 20
49.5775126695
 30
0.0
 40
3.0
 41
19.3928571429
 46
0.0
 71
     1
 72
     1
  1
Code: 
  7
TEXTSTYLE_4
 73
     1
 44
1.0
  0
MTEXT
  5
31E
330
1B
100
AcDbEntity
 67
     1
  8
9_SOLID
  6
Continuous
 62
     2
100
AcDbMText
 10
245.2547224331
 20
49.8275126695
 30
0.0
 40
3.0
 41
27.0
 46
0.0
 71
     1
 72
     1
  1
Scale: 1:1
  7
TEXTSTYLE_4
 73
     1
 44
1.0
  0
MTEXT
  5
31F
330
1B
100
AcDbEntity
 67
     1
  8
9_SOLID
  6
Continuous
 62
     2
100
AcDbMText
 10
278.7672224331
 20
49.8275126695
 30
0.0
 40
3.0
 41
7.3928571429
 46
0.0
 71
     2
 72
     1
  1
A4
  7
TEXTSTYLE_4
 73
     1
 44
1.0
  0
MTEXT
  5
320
330
1B
100
AcDbEntity
 67
     1
  8
9_SOLID
  6
Continuous
 62
     2
100
AcDbMText
 10
185.2547224331
 20
43.8275126695
 30
0.0
 40
3.0
 41
125.1428571429
 46
0.0
 71
     1
 72
     1
  1
It descr.: CANNOCCHIALE ASIM PIVOT 1.1
  7
TEXTSTYLE_4
 73
     1
 44
1.0
  0
MTEXT
  5
321
330
1B
100
AcDbEntity
 67
     1
  8
9_SOLID
  6
Continuous
 62
     2
100
AcDbMText
 10
185.2547224331
 20
37.8275126695
 30
0.0
 40
3.0
 41
33.9642857143
 46
0.0
 71
     1
 72
     1
  1
En descr.: 
  7
TEXTSTYLE_4
 73
     1
 44
1.0
  0
MTEXT
  5
322
330
1B
100
AcDbEntity
 67
     1
  8
9_SOLID
  6
Continuous
 62
     2
100
AcDbMText
 10
185.2547224331
 20
31.8275126695
 30
0.0
 40
3.0
 41
28.7142857143
 46
0.0
 71
     1
 72
     1
  1
Des.: A.F
  7
TEXTSTYLE_4
 73
     1
 44
1.0
  0
MTEXT
  5
323
330
1B
100
AcDbEntity
 67
     1
  8
9_SOLID
  6
Continuous
 62
     2
100
AcDbMText
 10
235.2547224331
 20
31.8275126695
 30
0.0
 40
3.0
 41
34.8214285714
 46
0.0
 71
     1
 72
     1
  1
Check: A.P.
  7
TEXTSTYLE_4
 73
     1
 44
1.0
  0
MTEXT
  5
324
330
1B
100
AcDbEntity
 67
     1
  8
9_SOLID
  6
Continuous
 62
     2
100
AcDbMText
 10
155.2547224331
 20
25.8275126695
 30
0.0
 40
3.0
 41
42.5357142857
 46
0.0
 71
     1
 72
     1
  1
Date: 26.11.18
  7
TEXTSTYLE_4
 73
     1
 44
1.0
  0
MTEXT
  5
325
330
1B
100
AcDbEntity
 67
     1
  8
9_SOLID
  6
Continuous
 62
     2
100
AcDbMText
 10
185.2547224331
 20
25.8275126695
 30
0.0
 40
3.0
 41
18.2142857143
 46
0.0
 71
     1
 72
     1
  1
Mat.: 
  7
TEXTSTYLE_4
 73
     1
 44
1.0
  0
MTEXT
  5
326
330
1B
100
AcDbEntity
 67
     1
  8
9_SOLID
  6
Continuous
 62
     2
100
AcDbMText
 10
235.2547224331
 20
25.3275126695
 30
0.0
 40
2.0
 41
42.3571428571
 46
0.0
 71
     1
 72
     1
  1
Disegno per catalogo
  7
TEXTSTYLE_4
 73
     1
 44
1.0
  0
MTEXT
  5
327
330
1B
100
AcDbEntity
 67
     1
  8
9_SOLID
  6
Continuous
 62
     2
100
AcDbMText
 10
155.2547224331
 20
20.2275126695
 30
0.0
 40
1.8
 41
175.6928571429
 46
0.0
 71
     1
 72
     1
  1
It: A norma di legge si diffida da qualsiasi riproduzione senza nostra autorizzazione esplicita.
  7
TEXTSTYLE_4
 73
     1
 44
1.0
  0
MTEXT
  5
328
330
1B
100
AcDbEntity
 67
     1
  8
9_SOLID
  6
Continuous
 62
     2
100
AcDbMText
 10
155.2547224331
 20
16.2275126695
 30
0.0
 40
1.8
 41
157.6285714286
 46
0.0
 71
     1
 72
     1
  1
En: According to the law, beware of any reproduction made without our authorization.
  7
TEXTSTYLE_4
 73
     1
 44
1.0
  0
ENDSEC
  0
SECTION
  2
OBJECTS
  0
DICTIONARY
  5
329
330
0
100
AcDbDictionary
281
     1
  3
ACAD_DETAILVIEWSTYLE
350
37F
  3
ACAD_GROUP
350
32A
  3
ACAD_LAYOUT
350
352
  3
ACAD_MATERIAL
350
36E
  3
ACAD_MLEADERSTYLE
350
374
  3
ACAD_MLINESTYLE
350
32B
  3
ACAD_PLOTSETTINGS
350
32D
  3
ACAD_PLOTSTYLENAME
350
32E
  3
ACAD_SCALELIST
350
330
  3
ACAD_SECTIONVIEWSTYLE
350
380
  3
ACAD_TABLESTYLE
350
372
  3
ACAD_VISUALSTYLE
350
355
  3
ACDB_RECOMPOSE_DATA
350
37B
  3
AcDbVariableDictionary
350
377
  3
APPDATA
350
376
  0
DICTIONARY
  5
37F
102
{ACAD_REACTORS
330
329
102
}
330
329
100
AcDbDictionary
281
     1
  0
DICTIONARY
  5
32A
102
{ACAD_REACTORS
330
329
102
}
330
329
100
AcDbDictionary
281
     1
  0
DICTIONARY
  5
352
102
{ACAD_REACTORS
330
329
102
}
330
329
100
AcDbDictionary
281
     1
  3
Foglio 1
350
354
  3
Model
350
353
  0
DICTIONARY
  5
36E
102
{ACAD_REACTORS
330
329
102
}
330
329
100
AcDbDictionary
281
     1
  3
ByBlock
350
370
  3
ByLayer
350
36F
  3
Global
350
371
  0
DICTIONARY
  5
374
102
{ACAD_REACTORS
330
329
102
}
330
329
100
AcDbDictionary
281
     1
  3
Standard
350
375
  0
DICTIONARY
  5
32B
102
{ACAD_REACTORS
330
329
102
}
330
329
100
AcDbDictionary
281
     1
  3
STANDARD
350
32C
  0
DICTIONARY
  5
32D
102
{ACAD_REACTORS
330
329
102
}
330
329
100
AcDbDictionary
281
     1
  0
ACDBDICTIONARYWDFLT
  5
32E
102
{ACAD_REACTORS
330
329
102
}
330
329
100
AcDbDictionary
281
     1
  3
Normal
350
32F
100
AcDbDictionaryWithDefault
340
32F
  0
DICTIONARY
  5
330
102
{ACAD_REACTORS
330
329
102
}
330
329
100
AcDbDictionary
281
     1
  3
A0
350
331
  3
A1
350
332
  3
A2
350
333
  3
A3
350
334
  3
A4
350
335
  3
A5
350
336
  3
A6
350
337
  3
A7
350
338
  3
A8
350
339
  3
A9
350
33A
  3
B0
350
33B
  3
B1
350
33C
  3
B2
350
33D
  3
B3
350
33E
  3
B4
350
33F
  3
B5
350
340
  3
B6
350
341
  3
B7
350
342
  3
B8
350
343
  3
B9
350
344
  3
C0
350
345
  3
C1
350
346
  3
C2
350
347
  3
C3
350
348
  3
C4
350
349
  3
C5
350
34A
  3
C6
350
34B
  3
C7
350
34C
  3
C8
350
34D
  3
C9
350
34E
  3
D0
350
34F
  3
D1
350
350
  3
D2
350
351
  0
DICTIONARY
  5
380
102
{ACAD_REACTORS
330
329
102
}
330
329
100
AcDbDictionary
281
     1
  0
DICTIONARY
  5
372
102
{ACAD_REACTORS
330
329
102
}
330
329
100
AcDbDictionary
281
     1
  3
Standard
350
373
  0
DICTIONARY
  5
355
102
{ACAD_REACTORS
330
329
102
}
330
329
100
AcDbDictionary
281
     1
  3
2dWireframe
350
35A
  3
Basic
350
35D
  3
Brighten
350
361
  3
ColorChange
350
365
  3
Conceptual
350
35F
  3
Dim
350
360
  3
EdgeColorOff
350
368
  3
Facepattern
350
364
  3
Flat
350
356
  3
FlatWithEdges
350
357
  3
Gouraud
350
358
  3
GouraudWithEdges
350
359
  3
Hidden
350
35C
  3
JitterOff
350
366
  3
Linepattern
350
363
  3
OverhangOff
350
367
  3
Realistic
350
35E
  3
Shaded
350
36D
  3
Shaded with edges
350
36C
  3
Shades of Gray
350
369
  3
Sketchy
350
36A
  3
Thicken
350
362
  3
Wireframe
350
35B
  3
X-Ray
350
36B
  0
XRECORD
  5
37B
102
{ACAD_REACTORS
330
329
102
}
330
329
100
AcDbXrecord
280
     1
 90
        1
330
373
  0
DICTIONARY
  5
377
102
{ACAD_REACTORS
330
329
102
}
330
329
100
AcDbDictionary
281
     1
  3
CANNOSCALE
350
378
  3
CMLEADERSTYLE
350
37D
  3
CTABLESTYLE
350
37C
  3
MSLTSCALE
350
37E
  0
DICTIONARY
  5
376
102
{ACAD_REACTORS
330
329
102
}
330
329
100
AcDbDictionary
281
     1
  0
LAYOUT
  5
354
102
{ACAD_REACTORS
330
352
102
}
330
352
100
AcDbPlotSettings
  1

  2
none_device
  4
ISO_A3_(420.00_x_297.00_MM)
  6

 40
7.5
 41
20.0
 42
7.5
 43
20.0
 44
420.0
 45
297.0
 46
0.0
 47
0.0
 48
0.0
 49
0.0
140
0.0
141
0.0
142
1.0
143
0.7396887159533074
 70
   688
 72
     1
 73
     0
 74
     1
  7

 75
     0
 76
     0
 77
     2
 78
   300
147
1.351920042083114
148
-9.949999999999989
149
-9.950000000000003
100
AcDbLayout
  1
Foglio 1
 70
     1
 71
     1
 10
0.0
 20
0.0
 11
412.5
 21
277.0
 12
0.0
 22
0.0
 32
0.0
 14
9.949999999999989
 24
9.950000000000003
 34
0.0
 15
291.3063890997666
 25
200.05
 35
0.0
146
0.0
 13
0.0
 23
0.0
 33
0.0
 16
1.0
 26
0.0
 36
0.0
 17
0.0
 27
1.0
 37
0.0
 76
     0
330
1B
331
27C
  0
LAYOUT
  5
353
102
{ACAD_REACTORS
330
352
102
}
330
352
100
AcDbPlotSettings
  1

  2
none_device
  4
Letter_(8.50_x_11.00_Inches)
  6

 40
6.35
 41
6.35
 42
6.35
 43
6.35
 44
215.9
 45
279.4
 46
0.0
 47
0.0
 48
0.0
 49
0.0
140
0.0
141
0.0
142
1.0
143
37.125000000375
 70
  1712
 72
     0
 73
     0
 74
     0
  7

 75
     0
 76
     0
 77
     2
 78
   300
147
0.0269360269357549
148
0.000000038100319
149
0.0
100
AcDbLayout
  1
Model
 70
     1
 71
     0
 10
0.0
 20
0.0
 11
297.0
 21
210.0
 12
0.0
 22
0.0
 32
0.0
 14
0.0
 24
0.0
 34
0.0
 15
297.0
 25
210.0
 35
0.0
146
0.0
 13
0.0
 23
0.0
 33
0.0
 16
1.0
 26
0.0
 36
0.0
 17
0.0
 27
1.0
 37
0.0
 76
     0
330
1F
331
1F4
  0
MATERIAL
  5
370
102
{ACAD_REACTORS
330
36E
102
}
330
36E
100
AcDbMaterial
  1
ByBlock
 72
     1
 94
      127
  0
MATERIAL
  5
36F
102
{ACAD_REACTORS
330
36E
102
}
330
36E
100
AcDbMaterial
  1
ByLayer
 72
     1
 94
      127
  0
MATERIAL
  5
371
102
{ACAD_REACTORS
330
36E
102
}
330
36E
100
AcDbMaterial
  1
Global
 72
     1
 94
      127
  0
MLEADERSTYLE
  5
375
102
{ACAD_REACTORS
330
374
102
}
330
374
100
AcDbMLeaderStyle
179
     2
170
     2
171
     1
172
     0
 90
        2
 40
0.0
 41
0.0
173
     1
 91
-1056964608
340
14
 92
       -2
290
     1
 42
2.0
291
     1
 43
8.0
  3
Standard
341
0
 44
4.0
300

342
11
174
     1
178
     1
175
     1
176
     0
 93
-1056964608
 45
4.0
292
     0
297
     0
 46
4.0
343
0
 94
-1056964608
 47
1.0
 49
1.0
140
1.0
293
     1
141
0.0
294
     1
177
     0
142
1.0
295
     0
296
     0
143
3.75
271
     0
272
     9
273
     9
298
     0
  0
MLINESTYLE
  5
32C
102
{ACAD_REACTORS
330
32B
102
}
330
32B
100
AcDbMlineStyle
  2
STANDARD
 70
     0
  3

 62
   256
 51
90.0
 52
90.0
 71
     2
 49
0.5
 62
   256
  6
BYLAYER
 49
-0.5
 62
   256
  6
BYLAYER
  0
ACDBPLACEHOLDER
  5
32F
102
{ACAD_REACTORS
330
32E
102
}
330
32E
  0
SCALE
  5
331
102
{ACAD_REACTORS
330
330
102
}
330
330
100
AcDbScale
 70
     0
300
1:1
140
1.0
141
1.0
290
     1
  0
SCALE
  5
332
102
{ACAD_REACTORS
330
330
102
}
330
330
100
AcDbScale
 70
     0
300
1:2
140
1.0
141
2.0
290
     0
  0
SCALE
  5
333
102
{ACAD_REACTORS
330
330
102
}
330
330
100
AcDbScale
 70
     0
300
1:4
140
1.0
141
4.0
290
     0
  0
SCALE
  5
334
102
{ACAD_REACTORS
330
330
102
}
330
330
100
AcDbScale
 70
     0
300
1:5
140
1.0
141
5.0
290
     0
  0
SCALE
  5
335
102
{ACAD_REACTORS
330
330
102
}
330
330
100
AcDbScale
 70
     0
300
1:8
140
1.0
141
8.0
290
     0
  0
SCALE
  5
336
102
{ACAD_REACTORS
330
330
102
}
330
330
100
AcDbScale
 70
     0
300
1:10
140
1.0
141
10.0
290
     0
  0
SCALE
  5
337
102
{ACAD_REACTORS
330
330
102
}
330
330
100
AcDbScale
 70
     0
300
1:16
140
1.0
141
16.0
290
     0
  0
SCALE
  5
338
102
{ACAD_REACTORS
330
330
102
}
330
330
100
AcDbScale
 70
     0
300
1:20
140
1.0
141
20.0
290
     0
  0
SCALE
  5
339
102
{ACAD_REACTORS
330
330
102
}
330
330
100
AcDbScale
 70
     0
300
1:30
140
1.0
141
30.0
290
     0
  0
SCALE
  5
33A
102
{ACAD_REACTORS
330
330
102
}
330
330
100
AcDbScale
 70
     0
300
1:40
140
1.0
141
40.0
290
     0
  0
SCALE
  5
33B
102
{ACAD_REACTORS
330
330
102
}
330
330
100
AcDbScale
 70
     0
300
1:50
140
1.0
141
50.0
290
     0
  0
SCALE
  5
33C
102
{ACAD_REACTORS
330
330
102
}
330
330
100
AcDbScale
 70
     0
300
1:100
140
1.0
141
100.0
290
     0
  0
SCALE
  5
33D
102
{ACAD_REACTORS
330
330
102
}
330
330
100
AcDbScale
 70
     0
300
2:1
140
2.0
141
1.0
290
     0
  0
SCALE
  5
33E
102
{ACAD_REACTORS
330
330
102
}
330
330
100
AcDbScale
 70
     0
300
4:1
140
4.0
141
1.0
290
     0
  0
SCALE
  5
33F
102
{ACAD_REACTORS
330
330
102
}
330
330
100
AcDbScale
 70
     0
300
8:1
140
8.0
141
1.0
290
     0
  0
SCALE
  5
340
102
{ACAD_REACTORS
330
330
102
}
330
330
100
AcDbScale
 70
     0
300
10:1
140
10.0
141
1.0
290
     0
  0
SCALE
  5
341
102
{ACAD_REACTORS
330
330
102
}
330
330
100
AcDbScale
 70
     0
300
100:1
140
100.0
141
1.0
290
     0
  0
SCALE
  5
342
102
{ACAD_REACTORS
330
330
102
}
330
330
100
AcDbScale
 70
     0
300
1/128" = 1'-0"
140
0.0078125
141
12.0
290
     0
  0
SCALE
  5
343
102
{ACAD_REACTORS
330
330
102
}
330
330
100
AcDbScale
 70
     0
300
1/64" = 1'-0"
140
0.015625
141
12.0
290
     0
  0
SCALE
  5
344
102
{ACAD_REACTORS
330
330
102
}
330
330
100
AcDbScale
 70
     0
300
1/32" = 1'-0"
140
0.03125
141
12.0
290
     0
  0
SCALE
  5
345
102
{ACAD_REACTORS
330
330
102
}
330
330
100
AcDbScale
 70
     0
300
1/16" = 1'-0"
140
0.0625
141
12.0
290
     0
  0
SCALE
  5
346
102
{ACAD_REACTORS
330
330
102
}
330
330
100
AcDbScale
 70
     0
300
3/32" = 1'-0"
140
0.09375
141
12.0
290
     0
  0
SCALE
  5
347
102
{ACAD_REACTORS
330
330
102
}
330
330
100
AcDbScale
 70
     0
300
1/8" = 1'-0"
140
0.125
141
12.0
290
     0
  0
SCALE
  5
348
102
{ACAD_REACTORS
330
330
102
}
330
330
100
AcDbScale
 70
     0
300
3/16" = 1'-0"
140
0.1875
141
12.0
290
     0
  0
SCALE
  5
349
102
{ACAD_REACTORS
330
330
102
}
330
330
100
AcDbScale
 70
     0
300
1/4" = 1'-0"
140
0.25
141
12.0
290
     0
  0
SCALE
  5
34A
102
{ACAD_REACTORS
330
330
102
}
330
330
100
AcDbScale
 70
     0
300
3/8" = 1'-0"
140
0.375
141
12.0
290
     0
  0
SCALE
  5
34B
102
{ACAD_REACTORS
330
330
102
}
330
330
100
AcDbScale
 70
     0
300
1/2" = 1'-0"
140
0.5
141
12.0
290
     0
  0
SCALE
  5
34C
102
{ACAD_REACTORS
330
330
102
}
330
330
100
AcDbScale
 70
     0
300
3/4" = 1'-0"
140
0.75
141
12.0
290
     0
  0
SCALE
  5
34D
102
{ACAD_REACTORS
330
330
102
}
330
330
100
AcDbScale
 70
     0
300
1" = 1'-0"
140
1.0
141
12.0
290
     0
  0
SCALE
  5
34E
102
{ACAD_REACTORS
330
330
102
}
330
330
100
AcDbScale
 70
     0
300
1-1/2" = 1'-0"
140
1.5
141
12.0
290
     0
  0
SCALE
  5
34F
102
{ACAD_REACTORS
330
330
102
}
330
330
100
AcDbScale
 70
     0
300
3" = 1'-0"
140
3.0
141
12.0
290
     0
  0
SCALE
  5
350
102
{ACAD_REACTORS
330
330
102
}
330
330
100
AcDbScale
 70
     0
300
6" = 1'-0"
140
6.0
141
12.0
290
     0
  0
SCALE
  5
351
102
{ACAD_REACTORS
330
330
102
}
330
330
100
AcDbScale
 70
     0
300
1'-0" = 1'-0"
140
12.0
141
12.0
290
     0
  0
TABLESTYLE
  5
373
102
{ACAD_REACTORS
330
372
102
}
102
{ACAD_XDICTIONARY
360
379
102
}
330
372
100
AcDbTableStyle
  3
Standard
 70
     0
 71
     0
 40
0.06
 41
0.06
280
     0
281
     0
  7
STANDARD
140
4.5
170
     2
 62
     0
 63
   257
283
     0
 90
        4
 91
        0
  1

274
    -2
284
     1
 64
     0
275
    -2
285
     1
 65
     0
276
    -2
286
     1
 66
     0
277
    -2
287
     1
 67
     0
278
    -2
288
     1
 68
     0
279
    -2
289
     1
 69
     0
  7
STANDARD
140
6.0
170
     5
 62
     0
 63
   257
283
     0
 90
        4
 91
        0
  1

274
    -2
284
     1
 64
     0
275
    -2
285
     1
 65
     0
276
    -2
286
     1
 66
     0
277
    -2
287
     1
 67
     0
278
    -2
288
     1
 68
     0
279
    -2
289
     1
 69
     0
  7
STANDARD
140
4.5
170
     5
 62
     0
 63
   257
283
     0
 90
        4
 91
        0
  1

274
    -2
284
     1
 64
     0
275
    -2
285
     1
 65
     0
276
    -2
286
     1
 66
     0
277
    -2
287
     1
 67
     0
278
    -2
288
     1
 68
     0
279
    -2
289
     1
 69
     0
  0
VISUALSTYLE
  5
35A
102
{ACAD_REACTORS
330
355
102
}
330
355
100
AcDbVisualStyle
  2
2dWireframe
 70
     4
177
     3
291
     0
 70
    58
 90
        0
176
     1
 90
        2
176
     1
 90
        0
176
     1
 90
        0
176
     1
 40
0.6
176
     1
 40
30.0
176
     1
 62
     7
420
 16777215
176
     1
 90
        1
176
     1
 90
        4
176
     1
 62
     7
176
     1
 62
   257
176
     1
 90
        1
176
     1
 90
        1
176
     1
 40
1.0
176
     1
 90
        0
176
     1
 62
   257
176
     1
 40
1.0
176
     1
 90
        1
176
     1
 90
        6
176
     1
 90
        2
176
     1
 62
     7
176
     1
 90
        5
176
     1
 90
        0
176
     1
 90
        0
176
     1
290
     0
176
     1
 90
        1
176
     1
 40
0.0
176
     1
 90
        0
176
     1
290
     1
176
     1
290
     1
176
     1
290
     0
176
     1
290
     0
176
     1
290
     0
176
     1
290
     0
176
     1
290
     0
176
     1
290
     0
176
     1
290
     0
176
     1
 90
       50
176
     1
 40
0.0
176
     1
 40
1.0
176
     1
 90
        0
176
     1
 62
    18
420
        0
176
     1
 90
       50
176
     1
 90
        3
176
     1
 62
     5
420
      255
176
     1
290
     0
176
     1
 90
       50
176
     1
 90
       50
176
     1
 90
       50
176
     1
290
     0
176
     1
 90
       50
176
     1
 62
   256
176
     0
 40
1.0
176
     0
 90
        2
176
     1
  1
strokes_ogs.tif
176
     1
290
     0
176
     1
 40
1.0
176
     1
 40
1.0
176
     1
  0
VISUALSTYLE
  5
35D
102
{ACAD_REACTORS
330
355
102
}
330
355
100
AcDbVisualStyle
  2
Basic
 70
     7
177
     3
291
     1
 70
    58
 90
        1
176
     1
 90
        0
176
     1
 90
        1
176
     1
 90
        0
176
     1
 40
0.6
176
     1
 40
30.0
176
     1
 62
     7
420
 16777215
176
     1
 90
        0
176
     1
 90
        4
176
     1
 62
     7
176
     1
 62
   257
176
     1
 90
        1
176
     1
 90
        1
176
     1
 40
1.0
176
     1
 90
        8
176
     1
 62
     7
176
     1
 40
1.0
176
     1
 90
        1
176
     1
 90
        6
176
     1
 90
        2
176
     1
 62
     7
176
     1
 90
        5
176
     1
 90
        0
176
     1
 90
        0
176
     1
290
     0
176
     1
 90
        1
176
     1
 40
0.0
176
     1
 90
        0
176
     1
290
     0
176
     1
290
     1
176
     1
290
     1
176
     1
290
     0
176
     1
290
     0
176
     1
290
     0
176
     1
290
     0
176
     1
290
     0
176
     1
290
     0
176
     1
 90
       50
176
     1
 40
0.0
176
     1
 40
1.0
176
     1
 90
        0
176
     1
 62
    18
420
        0
176
     1
 90
       50
176
     1
 90
        3
176
     1
 62
     5
420
      255
176
     1
290
     0
176
     1
 90
       50
176
     1
 90
       50
176
     1
 90
       50
176
     1
290
     0
176
     1
 90
       50
176
     1
 62
   256
176
     0
 40
1.0
176
     0
 90
        2
176
     1
  1
strokes_ogs.tif
176
     1
290
     0
176
     1
 40
1.0
176
     1
 40
1.0
176
     1
  0
VISUALSTYLE
  5
361
102
{ACAD_REACTORS
330
355
102
}
330
355
100
AcDbVisualStyle
  2
Brighten
 70
    12
177
     3
291
     1
 70
    58
 90
        2
176
     1
 90
        2
176
     1
 90
        0
176
     1
 90
        0
176
     1
 40
0.6
176
     1
 40
30.0
176
     1
 62
     7
420
 16777215
176
     1
 90
        1
176
     1
 90
        4
176
     1
 62
     7
176
     1
 62
   257
176
     1
 90
        1
176
     1
 90
        1
176
     1
 40
1.0
176
     1
 90
        8
176
     1
 62
     7
176
     1
 40
1.0
176
     1
 90
        1
176
     1
 90
        6
176
     1
 90
        2
176
     1
 62
     7
176
     1
 90
        5
176
     1
 90
        0
176
     1
 90
        0
176
     1
290
     0
176
     1
 90
        1
176
     1
 40
50.0
176
     1
 90
        0
176
     1
290
     0
176
     1
290
     1
176
     1
290
     1
176
     1
290
     0
176
     1
290
     0
176
     1
290
     0
176
     1
290
     0
176
     1
290
     0
176
     1
290
     0
176
     1
 90
       50
176
     1
 40
0.0
176
     1
 40
1.0
176
     1
 90
        0
176
     1
 62
    18
420
        0
176
     1
 90
       50
176
     1
 90
        3
176
     1
 62
     5
420
      255
176
     1
290
     0
176
     1
 90
       50
176
     1
 90
       50
176
     1
 90
       50
176
     1
290
     0
176
     1
 90
       50
176
     1
 62
   256
176
     0
 40
1.0
176
     0
 90
        2
176
     1
  1
strokes_ogs.tif
176
     1
290
     0
176
     1
 40
1.0
176
     1
 40
1.0
176
     1
  0
VISUALSTYLE
  5
365
102
{ACAD_REACTORS
330
355
102
}
330
355
100
AcDbVisualStyle
  2
ColorChange
 70
    16
177
     3
291
     1
 70
    58
 90
        2
176
     1
 90
        2
176
     1
 90
        3
176
     1
 90
        0
176
     1
 40
0.6
176
     1
 40
30.0
176
     1
 62
     8
420
  8421504
176
     1
 90
        1
176
     1
 90
        4
176
     1
 62
     7
176
     1
 62
   257
176
     1
 90
        1
176
     1
 90
        1
176
     1
 40
1.0
176
     1
 90
        8
176
     1
 62
     8
420
  8421504
176
     1
 40
1.0
176
     1
 90
        1
176
     1
 90
        6
176
     1
 90
        2
176
     1
 62
     7
176
     1
 90
        5
176
     1
 90
        0
176
     1
 90
        0
176
     1
290
     0
176
     1
 90
        1
176
     1
 40
0.0
176
     1
 90
        0
176
     1
290
     0
176
     1
290
     1
176
     1
290
     1
176
     1
290
     0
176
     1
290
     0
176
     1
290
     0
176
     1
290
     0
176
     1
290
     0
176
     1
290
     0
176
     1
 90
       50
176
     1
 40
0.0
176
     1
 40
1.0
176
     1
 90
        0
176
     1
 62
    18
420
        0
176
     1
 90
       50
176
     1
 90
        3
176
     1
 62
     5
420
      255
176
     1
290
     0
176
     1
 90
       50
176
     1
 90
       50
176
     1
 90
       50
176
     1
290
     0
176
     1
 90
       50
176
     1
 62
   256
176
     0
 40
1.0
176
     0
 90
        2
176
     1
  1
strokes_ogs.tif
176
     1
290
     0
176
     1
 40
1.0
176
     1
 40
1.0
176
     1
  0
VISUALSTYLE
  5
35F
102
{ACAD_REACTORS
330
355
102
}
330
355
100
AcDbVisualStyle
  2
Conceptual
 70
     9
177
     3
291
     0
 70
    58
 90
        3
176
     1
 90
        2
176
     1
 90
        0
176
     1
 90
        0
176
     1
 40
0.6
176
     1
 40
30.0
176
     1
 62
     7
420
 16777215
176
     1
 90
        2
176
     1
 90
        2
176
     1
 62
     7
176
     1
 62
   257
176
     1
 90
        1
176
     1
 90
        1
176
     1
 40
179.0
176
     1
 90
        8
176
     1
 62
     7
176
     1
 40
1.0
176
     1
 90
        1
176
     1
 90
        6
176
     1
 90
        2
176
     1
 62
     7
176
     1
 90
        3
176
     1
 90
        0
176
     1
 90
        0
176
     1
290
     0
176
     1
 90
        1
176
     1
 40
0.0
176
     1
 90
        0
176
     1
290
     0
176
     1
290
     1
176
     1
290
     1
176
     1
290
     0
176
     1
290
     0
176
     1
290
     0
176
     1
290
     0
176
     1
290
     0
176
     1
290
     0
176
     1
 90
       50
176
     1
 40
0.0
176
     1
 40
1.0
176
     1
 90
        0
176
     1
 62
    18
420
        0
176
     1
 90
       50
176
     1
 90
        3
176
     1
 62
     5
420
      255
176
     1
290
     0
176
     1
 90
       50
176
     1
 90
       50
176
     1
 90
       50
176
     1
290
     0
176
     1
 90
       50
176
     1
 62
   256
176
     0
 40
1.0
176
     0
 90
        2
176
     1
  1
strokes_ogs.tif
176
     1
290
     0
176
     1
 40
1.0
176
     1
 40
1.0
176
     1
  0
VISUALSTYLE
  5
360
102
{ACAD_REACTORS
330
355
102
}
330
355
100
AcDbVisualStyle
  2
Dim
 70
    11
177
     3
291
     1
 70
    58
 90
        2
176
     1
 90
        2
176
     1
 90
        0
176
     1
 90
        0
176
     1
 40
0.6
176
     1
 40
30.0
176
     1
 62
     7
420
 16777215
176
     1
 90
        1
176
     1
 90
        4
176
     1
 62
     7
176
     1
 62
   257
176
     1
 90
        1
176
     1
 90
        1
176
     1
 40
1.0
176
     1
 90
        8
176
     1
 62
     7
176
     1
 40
1.0
176
     1
 90
        1
176
     1
 90
        6
176
     1
 90
        2
176
     1
 62
     7
176
     1
 90
        5
176
     1
 90
        0
176
     1
 90
        0
176
     1
290
     0
176
     1
 90
        1
176
     1
 40
-50.0
176
     1
 90
        0
176
     1
290
     0
176
     1
290
     1
176
     1
290
     1
176
     1
290
     0
176
     1
290
     0
176
     1
290
     0
176
     1
290
     0
176
     1
290
     0
176
     1
290
     0
176
     1
 90
       50
176
     1
 40
0.0
176
     1
 40
1.0
176
     1
 90
        0
176
     1
 62
    18
420
        0
176
     1
 90
       50
176
     1
 90
        3
176
     1
 62
     5
420
      255
176
     1
290
     0
176
     1
 90
       50
176
     1
 90
       50
176
     1
 90
       50
176
     1
290
     0
176
     1
 90
       50
176
     1
 62
   256
176
     0
 40
1.0
176
     0
 90
        2
176
     1
  1
strokes_ogs.tif
176
     1
290
     0
176
     1
 40
1.0
176
     1
 40
1.0
176
     1
  0
VISUALSTYLE
  5
368
102
{ACAD_REACTORS
330
355
102
}
330
355
100
AcDbVisualStyle
  2
EdgeColorOff
 70
    22
177
     3
291
     1
 70
    58
 90
        2
176
     0
 90
        2
176
     0
 90
        0
176
     0
 90
        0
176
     0
 40
0.6
176
     0
 40
30.0
176
     0
 62
     7
420
 16777215
176
     0
 90
        1
176
     0
 90
        4
176
     0
 62
     7
176
     0
 62
   257
176
     0
 90
        1
176
     0
 90
        1
176
     0
 40
1.0
176
     0
 90
        8
176
     2
 62
     7
176
     0
 40
1.0
176
     0
 90
        1
176
     0
 90
        6
176
     0
 90
        2
176
     0
 62
     7
176
     0
 90
        5
176
     0
 90
        0
176
     0
 90
        0
176
     0
290
     0
176
     0
 90
        1
176
     0
 40
0.0
176
     0
 90
        0
176
     0
290
     0
176
     0
290
     1
176
     0
290
     1
176
     0
290
     0
176
     0
290
     0
176
     0
290
     0
176
     0
290
     0
176
     0
290
     0
176
     0
290
     0
176
     0
 90
       50
176
     0
 40
0.0
176
     0
 40
1.0
176
     0
 90
        0
176
     0
 62
    18
420
        0
176
     0
 90
       50
176
     0
 90
        3
176
     0
 62
     5
420
      255
176
     0
290
     0
176
     0
 90
       50
176
     0
 90
       50
176
     0
 90
       50
176
     0
290
     0
176
     0
 90
       50
176
     0
 62
   256
176
     0
 40
1.0
176
     0
 90
        2
176
     0
  1
strokes_ogs.tif
176
     0
290
     0
176
     0
 40
1.0
176
     0
 40
1.0
176
     0
  0
VISUALSTYLE
  5
364
102
{ACAD_REACTORS
330
355
102
}
330
355
100
AcDbVisualStyle
  2
Facepattern
 70
    15
177
     3
291
     1
 70
    58
 90
        2
176
     1
 90
        2
176
     1
 90
        0
176
     1
 90
        0
176
     1
 40
0.6
176
     1
 40
30.0
176
     1
 62
     7
420
 16777215
176
     1
 90
        1
176
     1
 90
        4
176
     1
 62
     7
176
     1
 62
   257
176
     1
 90
        1
176
     1
 90
        1
176
     1
 40
1.0
176
     1
 90
        8
176
     1
 62
     7
176
     1
 40
1.0
176
     1
 90
        1
176
     1
 90
        6
176
     1
 90
        2
176
     1
 62
     7
176
     1
 90
        5
176
     1
 90
        0
176
     1
 90
        0
176
     1
290
     0
176
     1
 90
        1
176
     1
 40
0.0
176
     1
 90
        0
176
     1
290
     0
176
     1
290
     1
176
     1
290
     1
176
     1
290
     0
176
     1
290
     0
176
     1
290
     0
176
     1
290
     0
176
     1
290
     0
176
     1
290
     0
176
     1
 90
       50
176
     1
 40
0.0
176
     1
 40
1.0
176
     1
 90
        0
176
     1
 62
    18
420
        0
176
     1
 90
       50
176
     1
 90
        3
176
     1
 62
     5
420
      255
176
     1
290
     0
176
     1
 90
       50
176
     1
 90
       50
176
     1
 90
       50
176
     1
290
     0
176
     1
 90
       50
176
     1
 62
   256
176
     0
 40
1.0
176
     0
 90
        2
176
     1
  1
strokes_ogs.tif
176
     1
290
     0
176
     1
 40
1.0
176
     1
 40
1.0
176
     1
  0
VISUALSTYLE
  5
356
102
{ACAD_REACTORS
330
355
102
}
330
355
100
AcDbVisualStyle
  2
Flat
 70
     0
177
     3
291
     1
 70
    58
 90
        2
176
     1
 90
        1
176
     1
 90
        1
176
     1
 90
        2
176
     1
 40
0.6
176
     1
 40
30.0
176
     1
 62
     7
420
 16777215
176
     1
 90
        0
176
     1
 90
        0
176
     1
 62
     7
176
     1
 62
   257
176
     1
 90
        1
176
     1
 90
        1
176
     1
 40
1.0
176
     1
 90
        8
176
     1
 62
     7
176
     1
 40
1.0
176
     1
 90
        1
176
     1
 90
        6
176
     1
 90
        2
176
     1
 62
     7
176
     1
 90
        5
176
     1
 90
        0
176
     1
 90
        0
176
     1
290
     0
176
     1
 90
       13
176
     1
 40
0.0
176
     1
 90
        0
176
     1
290
     0
176
     1
290
     1
176
     1
290
     1
176
     1
290
     0
176
     1
290
     0
176
     1
290
     0
176
     1
290
     0
176
     1
290
     0
176
     1
290
     0
176
     1
 90
       50
176
     1
 40
0.0
176
     1
 40
1.0
176
     1
 90
        0
176
     1
 62
    18
420
        0
176
     1
 90
       50
176
     1
 90
        3
176
     1
 62
     5
420
      255
176
     1
290
     0
176
     1
 90
       50
176
     1
 90
       50
176
     1
 90
       50
176
     1
290
     0
176
     1
 90
       50
176
     1
 62
   256
176
     0
 40
1.0
176
     0
 90
        2
176
     1
  1
strokes_ogs.tif
176
     1
290
     0
176
     1
 40
1.0
176
     1
 40
1.0
176
     1
  0
VISUALSTYLE
  5
357
102
{ACAD_REACTORS
330
355
102
}
330
355
100
AcDbVisualStyle
  2
FlatWithEdges
 70
     1
177
     3
291
     1
 70
    58
 90
        2
176
     1
 90
        1
176
     1
 90
        1
176
     1
 90
        2
176
     1
 40
0.6
176
     1
 40
30.0
176
     1
 62
     7
420
 16777215
176
     1
 90
        1
176
     1
 90
        0
176
     1
 62
     7
176
     1
 62
   257
176
     1
 90
        1
176
     1
 90
        1
176
     1
 40
1.0
176
     1
 90
        0
176
     1
 62
   257
176
     1
 40
1.0
176
     1
 90
        1
176
     1
 90
        6
176
     1
 90
        2
176
     1
 62
     7
176
     1
 90
        5
176
     1
 90
        0
176
     1
 90
        0
176
     1
290
     0
176
     1
 90
       13
176
     1
 40
0.0
176
     1
 90
        0
176
     1
290
     0
176
     1
290
     1
176
     1
290
     1
176
     1
290
     0
176
     1
290
     0
176
     1
290
     0
176
     1
290
     0
176
     1
290
     0
176
     1
290
     0
176
     1
 90
       50
176
     1
 40
0.0
176
     1
 40
1.0
176
     1
 90
        0
176
     1
 62
    18
420
        0
176
     1
 90
       50
176
     1
 90
        3
176
     1
 62
     5
420
      255
176
     1
290
     0
176
     1
 90
       50
176
     1
 90
       50
176
     1
 90
       50
176
     1
290
     0
176
     1
 90
       50
176
     1
 62
   256
176
     0
 40
1.0
176
     0
 90
        2
176
     1
  1
strokes_ogs.tif
176
     1
290
     0
176
     1
 40
1.0
176
     1
 40
1.0
176
     1
  0
VISUALSTYLE
  5
358
102
{ACAD_REACTORS
330
355
102
}
330
355
100
AcDbVisualStyle
  2
Gouraud
 70
     2
177
     3
291
     1
 70
    58
 90
        2
176
     1
 90
        2
176
     1
 90
        1
176
     1
 90
        2
176
     1
 40
0.6
176
     1
 40
30.0
176
     1
 62
     7
420
 16777215
176
     1
 90
        0
176
     1
 90
        0
176
     1
 62
     7
176
     1
 62
   257
176
     1
 90
        1
176
     1
 90
        1
176
     1
 40
1.0
176
     1
 90
        0
176
     1
 62
     7
176
     1
 40
1.0
176
     1
 90
        1
176
     1
 90
        6
176
     1
 90
        2
176
     1
 62
     7
176
     1
 90
        5
176
     1
 90
        0
176
     1
 90
        0
176
     1
290
     0
176
     1
 90
       13
176
     1
 40
0.0
176
     1
 90
        0
176
     1
290
     0
176
     1
290
     1
176
     1
290
     1
176
     1
290
     0
176
     1
290
     0
176
     1
290
     0
176
     1
290
     0
176
     1
290
     0
176
     1
290
     0
176
     1
 90
       50
176
     1
 40
0.0
176
     1
 40
1.0
176
     1
 90
        0
176
     1
 62
    18
420
        0
176
     1
 90
       50
176
     1
 90
        3
176
     1
 62
     5
420
      255
176
     1
290
     0
176
     1
 90
       50
176
     1
 90
       50
176
     1
 90
       50
176
     1
290
     0
176
     1
 90
       50
176
     1
 62
   256
176
     0
 40
1.0
176
     0
 90
        2
176
     1
  1
strokes_ogs.tif
176
     1
290
     0
176
     1
 40
1.0
176
     1
 40
1.0
176
     1
  0
VISUALSTYLE
  5
359
102
{ACAD_REACTORS
330
355
102
}
330
355
100
AcDbVisualStyle
  2
GouraudWithEdges
 70
     3
177
     3
291
     1
 70
    58
 90
        2
176
     1
 90
        2
176
     1
 90
        1
176
     1
 90
        2
176
     1
 40
0.6
176
     1
 40
30.0
176
     1
 62
     7
420
 16777215
176
     1
 90
        1
176
     1
 90
        0
176
     1
 62
     7
176
     1
 62
   257
176
     1
 90
        1
176
     1
 90
        1
176
     1
 40
1.0
176
     1
 90
        0
176
     1
 62
   257
176
     1
 40
1.0
176
     1
 90
        1
176
     1
 90
        6
176
     1
 90
        2
176
     1
 62
     7
176
     1
 90
        5
176
     1
 90
        0
176
     1
 90
        0
176
     1
290
     0
176
     1
 90
       13
176
     1
 40
0.0
176
     1
 90
        0
176
     1
290
     0
176
     1
290
     1
176
     1
290
     1
176
     1
290
     0
176
     1
290
     0
176
     1
290
     0
176
     1
290
     0
176
     1
290
     0
176
     1
290
     0
176
     1
 90
       50
176
     1
 40
0.0
176
     1
 40
1.0
176
     1
 90
        0
176
     1
 62
    18
420
        0
176
     1
 90
       50
176
     1
 90
        3
176
     1
 62
     5
420
      255
176
     1
290
     0
176
     1
 90
       50
176
     1
 90
       50
176
     1
 90
       50
176
     1
290
     0
176
     1
 90
       50
176
     1
 62
   256
176
     0
 40
1.0
176
     0
 90
        2
176
     1
  1
strokes_ogs.tif
176
     1
290
     0
176
     1
 40
1.0
176
     1
 40
1.0
176
     1
  0
VISUALSTYLE
  5
35C
102
{ACAD_REACTORS
330
355
102
}
330
355
100
AcDbVisualStyle
  2
Hidden
 70
     6
177
     3
291
     0
 70
    58
 90
        1
176
     1
 90
        2
176
     1
 90
        2
176
     1
 90
        0
176
     1
 40
0.6
176
     1
 40
30.0
176
     1
 62
     7
420
 16777215
176
     1
 90
        2
176
     1
 90
        2
176
     1
 62
     7
176
     1
 62
   257
176
     1
 90
        2
176
     1
 90
        1
176
     1
 40
40.0
176
     1
 90
        0
176
     1
 62
   257
176
     1
 40
1.0
176
     1
 90
        1
176
     1
 90
        6
176
     1
 90
        2
176
     1
 62
     7
176
     1
 90
        3
176
     1
 90
        0
176
     1
 90
        0
176
     1
290
     0
176
     1
 90
        1
176
     1
 40
0.0
176
     1
 90
        0
176
     1
290
     0
176
     1
290
     1
176
     1
290
     1
176
     1
290
     0
176
     1
290
     0
176
     1
290
     0
176
     1
290
     0
176
     1
290
     0
176
     1
290
     0
176
     1
 90
       50
176
     1
 40
0.0
176
     1
 40
1.0
176
     1
 90
        0
176
     1
 62
    18
420
        0
176
     1
 90
       50
176
     1
 90
        3
176
     1
 62
     5
420
      255
176
     1
290
     0
176
     1
 90
       50
176
     1
 90
       50
176
     1
 90
       50
176
     1
290
     0
176
     1
 90
       50
176
     1
 62
   256
176
     0
 40
1.0
176
     0
 90
        2
176
     1
  1
strokes_ogs.tif
176
     1
290
     0
176
     1
 40
1.0
176
     1
 40
1.0
176
     1
  0
VISUALSTYLE
  5
366
102
{ACAD_REACTORS
330
355
102
}
330
355
100
AcDbVisualStyle
  2
JitterOff
 70
    20
177
     3
291
     1
 70
    58
 90
        2
176
     0
 90
        2
176
     0
 90
        0
176
     0
 90
        0
176
     0
 40
0.6
176
     0
 40
30.0
176
     0
 62
     7
420
 16777215
176
     0
 90
        1
176
     0
 90
        4
176
     0
 62
     7
176
     0
 62
   257
176
     0
 90
        1
176
     0
 90
        1
176
     0
 40
1.0
176
     0
 90
       10
176
     2
 62
     7
176
     0
 40
1.0
176
     0
 90
        1
176
     0
 90
        6
176
     0
 90
        2
176
     0
 62
     7
176
     0
 90
        5
176
     0
 90
        0
176
     0
 90
        0
176
     0
290
     0
176
     0
 90
        1
176
     0
 40
0.0
176
     0
 90
        0
176
     0
290
     0
176
     0
290
     1
176
     0
290
     1
176
     0
290
     0
176
     0
290
     0
176
     0
290
     0
176
     0
290
     0
176
     0
290
     0
176
     0
290
     0
176
     0
 90
       50
176
     0
 40
0.0
176
     0
 40
1.0
176
     0
 90
        0
176
     0
 62
    18
420
        0
176
     0
 90
       50
176
     0
 90
        3
176
     0
 62
     5
420
      255
176
     0
290
     0
176
     0
 90
       50
176
     0
 90
       50
176
     0
 90
       50
176
     0
290
     0
176
     0
 90
       50
176
     0
 62
   256
176
     0
 40
1.0
176
     0
 90
        2
176
     0
  1
strokes_ogs.tif
176
     0
290
     0
176
     0
 40
1.0
176
     0
 40
1.0
176
     0
  0
VISUALSTYLE
  5
363
102
{ACAD_REACTORS
330
355
102
}
330
355
100
AcDbVisualStyle
  2
Linepattern
 70
    14
177
     3
291
     1
 70
    58
 90
        2
176
     1
 90
        2
176
     1
 90
        0
176
     1
 90
        0
176
     1
 40
0.6
176
     1
 40
30.0
176
     1
 62
     7
420
 16777215
176
     1
 90
        1
176
     1
 90
        4
176
     1
 62
     7
176
     1
 62
   257
176
     1
 90
        7
176
     1
 90
        7
176
     1
 40
1.0
176
     1
 90
        8
176
     1
 62
     7
176
     1
 40
1.0
176
     1
 90
        1
176
     1
 90
        6
176
     1
 90
        2
176
     1
 62
     7
176
     1
 90
        5
176
     1
 90
        0
176
     1
 90
        0
176
     1
290
     0
176
     1
 90
        1
176
     1
 40
0.0
176
     1
 90
        0
176
     1
290
     0
176
     1
290
     1
176
     1
290
     1
176
     1
290
     0
176
     1
290
     0
176
     1
290
     0
176
     1
290
     0
176
     1
290
     0
176
     1
290
     0
176
     1
 90
       50
176
     1
 40
0.0
176
     1
 40
1.0
176
     1
 90
        0
176
     1
 62
    18
420
        0
176
     1
 90
       50
176
     1
 90
        3
176
     1
 62
     5
420
      255
176
     1
290
     0
176
     1
 90
       50
176
     1
 90
       50
176
     1
 90
       50
176
     1
290
     0
176
     1
 90
       50
176
     1
 62
   256
176
     0
 40
1.0
176
     0
 90
        2
176
     1
  1
strokes_ogs.tif
176
     1
290
     0
176
     1
 40
1.0
176
     1
 40
1.0
176
     1
  0
VISUALSTYLE
  5
367
102
{ACAD_REACTORS
330
355
102
}
330
355
100
AcDbVisualStyle
  2
OverhangOff
 70
    21
177
     3
291
     1
 70
    58
 90
        2
176
     0
 90
        2
176
     0
 90
        0
176
     0
 90
        0
176
     0
 40
0.6
176
     0
 40
30.0
176
     0
 62
     7
420
 16777215
176
     0
 90
        1
176
     0
 90
        4
176
     0
 62
     7
176
     0
 62
   257
176
     0
 90
        1
176
     0
 90
        1
176
     0
 40
1.0
176
     0
 90
        9
176
     2
 62
     7
176
     0
 40
1.0
176
     0
 90
        1
176
     0
 90
        6
176
     0
 90
        2
176
     0
 62
     7
176
     0
 90
        5
176
     0
 90
        0
176
     0
 90
        0
176
     0
290
     0
176
     0
 90
        1
176
     0
 40
0.0
176
     0
 90
        0
176
     0
290
     0
176
     0
290
     1
176
     0
290
     1
176
     0
290
     0
176
     0
290
     0
176
     0
290
     0
176
     0
290
     0
176
     0
290
     0
176
     0
290
     0
176
     0
 90
       50
176
     0
 40
0.0
176
     0
 40
1.0
176
     0
 90
        0
176
     0
 62
    18
420
        0
176
     0
 90
       50
176
     0
 90
        3
176
     0
 62
     5
420
      255
176
     0
290
     0
176
     0
 90
       50
176
     0
 90
       50
176
     0
 90
       50
176
     0
290
     0
176
     0
 90
       50
176
     0
 62
   256
176
     0
 40
1.0
176
     0
 90
        2
176
     0
  1
strokes_ogs.tif
176
     0
290
     0
176
     0
 40
1.0
176
     0
 40
1.0
176
     0
  0
VISUALSTYLE
  5
35E
102
{ACAD_REACTORS
330
355
102
}
330
355
100
AcDbVisualStyle
  2
Realistic
 70
     8
177
     3
291
     0
 70
    58
 90
        2
176
     1
 90
        3
176
     1
 90
        0
176
     1
 90
        2
176
     1
 40
0.6
176
     1
 40
30.0
176
     1
 62
     7
420
 16777215
176
     1
 90
        0
176
     1
 90
        0
176
     1
 62
     7
176
     1
 62
   257
176
     1
 90
        1
176
     1
 90
        1
176
     1
 40
1.0
176
     1
 90
        8
176
     1
 62
   257
176
     1
 40
1.0
176
     1
 90
        1
176
     1
 90
        6
176
     1
 90
        2
176
     1
 62
     7
176
     1
 90
        3
176
     1
 90
        0
176
     1
 90
        0
176
     1
290
     0
176
     1
 90
       13
176
     1
 40
0.0
176
     1
 90
        0
176
     1
290
     0
176
     1
290
     1
176
     1
290
     1
176
     1
290
     0
176
     1
290
     0
176
     1
290
     0
176
     1
290
     0
176
     1
290
     0
176
     1
290
     0
176
     1
 90
       50
176
     1
 40
0.0
176
     1
 40
1.0
176
     1
 90
        0
176
     1
 62
    18
420
        0
176
     1
 90
       50
176
     1
 90
        3
176
     1
 62
     5
420
      255
176
     1
290
     0
176
     1
 90
       50
176
     1
 90
       50
176
     1
 90
       50
176
     1
290
     0
176
     1
 90
       50
176
     1
 62
   256
176
     0
 40
1.0
176
     0
 90
        2
176
     1
  1
strokes_ogs.tif
176
     1
290
     0
176
     1
 40
1.0
176
     1
 40
1.0
176
     1
  0
VISUALSTYLE
  5
36D
102
{ACAD_REACTORS
330
355
102
}
330
355
100
AcDbVisualStyle
  2
Shaded
 70
    27
177
     3
291
     0
 70
    58
 90
        2
176
     1
 90
        2
176
     1
 90
        1
176
     1
 90
        2
176
     1
 40
0.6
176
     1
 40
30.0
176
     1
 62
     7
420
 16777215
176
     1
 90
        0
176
     1
 90
        4
176
     1
 62
     7
176
     1
 62
   257
176
     1
 90
        1
176
     1
 90
        1
176
     1
 40
1.0
176
     1
 90
        8
176
     1
 62
   257
176
     1
 40
1.0
176
     1
 90
        1
176
     1
 90
        6
176
     1
 90
        2
176
     1
 62
     8
420
  7895160
176
     1
 90
        3
176
     1
 90
        0
176
     1
 90
        0
176
     1
290
     0
176
     1
 90
        5
176
     1
 40
0.0
176
     1
 90
        0
176
     1
290
     0
176
     1
290
     1
176
     1
290
     1
176
     1
290
     0
176
     1
290
     0
176
     1
290
     0
176
     1
290
     0
176
     1
290
     0
176
     1
290
     0
176
     1
 90
       50
176
     1
 40
0.0
176
     1
 40
1.0
176
     1
 90
        0
176
     1
 62
    18
420
        0
176
     1
 90
       50
176
     1
 90
        3
176
     1
 62
     5
420
      255
176
     1
290
     0
176
     1
 90
       50
176
     1
 90
       50
176
     1
 90
       50
176
     1
290
     0
176
     1
 90
       50
176
     1
 62
   256
176
     0
 40
1.0
176
     0
 90
        2
176
     1
  1
strokes_ogs.tif
176
     1
290
     0
176
     1
 40
1.0
176
     1
 40
1.0
176
     1
  0
VISUALSTYLE
  5
36C
102
{ACAD_REACTORS
330
355
102
}
330
355
100
AcDbVisualStyle
  2
Shaded with edges
 70
    26
177
     3
291
     0
 70
    58
 90
        2
176
     1
 90
        2
176
     1
 90
        1
176
     1
 90
        2
176
     1
 40
0.6
176
     1
 40
30.0
176
     1
 62
     7
420
 16777215
176
     1
 90
        1
176
     1
 90
       10
176
     1
 62
     7
176
     1
 62
   257
176
     1
 90
        2
176
     1
 90
        1
176
     1
 40
1.0
176
     1
 90
        8
176
     1
 62
   257
176
     1
 40
1.0
176
     1
 90
        1
176
     1
 90
        6
176
     1
 90
        2
176
     1
 62
     7
176
     1
 90
        3
176
     1
 90
        0
176
     1
 90
        0
176
     1
290
     0
176
     1
 90
        5
176
     1
 40
0.0
176
     1
 90
        0
176
     1
290
     0
176
     1
290
     1
176
     1
290
     1
176
     1
290
     0
176
     1
290
     0
176
     1
290
     0
176
     1
290
     0
176
     1
290
     0
176
     1
290
     0
176
     1
 90
       50
176
     1
 40
0.0
176
     1
 40
1.0
176
     1
 90
        0
176
     1
 62
    18
420
        0
176
     1
 90
       50
176
     1
 90
        3
176
     1
 62
     5
420
      255
176
     1
290
     0
176
     1
 90
       50
176
     1
 90
       50
176
     1
 90
       50
176
     1
290
     0
176
     1
 90
       50
176
     1
 62
   256
176
     0
 40
1.0
176
     0
 90
        2
176
     1
  1
strokes_ogs.tif
176
     1
290
     0
176
     1
 40
1.0
176
     1
 40
1.0
176
     1
  0
VISUALSTYLE
  5
369
102
{ACAD_REACTORS
330
355
102
}
330
355
100
AcDbVisualStyle
  2
Shades of Gray
 70
    23
177
     3
291
     0
 70
    58
 90
        2
176
     1
 90
        2
176
     1
 90
        3
176
     1
 90
        0
176
     1
 40
0.6
176
     1
 40
30.0
176
     1
 62
     7
420
 16777215
176
     1
 90
        2
176
     1
 90
        2
176
     1
 62
     7
176
     1
 62
     7
176
     1
 90
        1
176
     1
 90
        1
176
     1
 40
40.0
176
     1
 90
        8
176
     1
 62
     7
176
     1
 40
1.0
176
     1
 90
        1
176
     1
 90
        6
176
     1
 90
        2
176
     1
 62
     7
176
     1
 90
        3
176
     1
 90
        0
176
     1
 90
        0
176
     1
290
     0
176
     1
 90
        1
176
     1
 40
0.0
176
     1
 90
        0
176
     1
290
     0
176
     1
290
     1
176
     1
290
     1
176
     1
290
     0
176
     1
290
     0
176
     1
290
     0
176
     1
290
     0
176
     1
290
     0
176
     1
290
     0
176
     1
 90
       50
176
     1
 40
0.0
176
     1
 40
1.0
176
     1
 90
        0
176
     1
 62
    18
420
        0
176
     1
 90
       50
176
     1
 90
        3
176
     1
 62
     5
420
      255
176
     1
290
     0
176
     1
 90
       50
176
     1
 90
       50
176
     1
 90
       50
176
     1
290
     0
176
     1
 90
       50
176
     1
 62
   256
176
     0
 40
1.0
176
     0
 90
        2
176
     1
  1
strokes_ogs.tif
176
     1
290
     0
176
     1
 40
1.0
176
     1
 40
1.0
176
     1
  0
VISUALSTYLE
  5
36A
102
{ACAD_REACTORS
330
355
102
}
330
355
100
AcDbVisualStyle
  2
Sketchy
 70
    24
177
     3
291
     0
 70
    58
 90
        1
176
     1
 90
        2
176
     1
 90
        2
176
     1
 90
        0
176
     1
 40
0.6
176
     1
 40
30.0
176
     1
 62
     7
420
 16777215
176
     1
 90
        2
176
     1
 90
        2
176
     1
 62
     7
176
     1
 62
     7
176
     1
 90
        1
176
     1
 90
        1
176
     1
 40
40.0
176
     1
 90
       11
176
     1
 62
     7
176
     1
 40
1.0
176
     1
 90
        1
176
     1
 90
        6
176
     1
 90
        2
176
     1
 62
     7
176
     1
 90
        6
176
     1
 90
        0
176
     1
 90
        0
176
     1
290
     0
176
     1
 90
        1
176
     1
 40
0.0
176
     1
 90
        0
176
     1
290
     0
176
     1
290
     1
176
     1
290
     1
176
     1
290
     0
176
     1
290
     0
176
     1
290
     0
176
     1
290
     0
176
     1
290
     0
176
     1
290
     0
176
     1
 90
       50
176
     1
 40
0.0
176
     1
 40
1.0
176
     1
 90
        0
176
     1
 62
    18
420
        0
176
     1
 90
       50
176
     1
 90
        3
176
     1
 62
     5
420
      255
176
     1
290
     0
176
     1
 90
       50
176
     1
 90
       50
176
     1
 90
       50
176
     1
290
     0
176
     1
 90
       50
176
     1
 62
   256
176
     0
 40
1.0
176
     0
 90
        2
176
     1
  1
strokes_ogs.tif
176
     1
290
     0
176
     1
 40
1.0
176
     1
 40
1.0
176
     1
  0
VISUALSTYLE
  5
362
102
{ACAD_REACTORS
330
355
102
}
330
355
100
AcDbVisualStyle
  2
Thicken
 70
    13
177
     3
291
     1
 70
    58
 90
        2
176
     1
 90
        2
176
     1
 90
        0
176
     1
 90
        0
176
     1
 40
0.6
176
     1
 40
30.0
176
     1
 62
     7
420
 16777215
176
     1
 90
        1
176
     1
 90
        4
176
     1
 62
     7
176
     1
 62
   257
176
     1
 90
        1
176
     1
 90
        1
176
     1
 40
1.0
176
     1
 90
       12
176
     1
 62
     7
176
     1
 40
1.0
176
     1
 90
        1
176
     1
 90
        6
176
     1
 90
        2
176
     1
 62
     7
176
     1
 90
        5
176
     1
 90
        0
176
     1
 90
        0
176
     1
290
     0
176
     1
 90
        1
176
     1
 40
0.0
176
     1
 90
        0
176
     1
290
     0
176
     1
290
     1
176
     1
290
     1
176
     1
290
     0
176
     1
290
     0
176
     1
290
     0
176
     1
290
     0
176
     1
290
     0
176
     1
290
     0
176
     1
 90
       50
176
     1
 40
0.0
176
     1
 40
1.0
176
     1
 90
        0
176
     1
 62
    18
420
        0
176
     1
 90
       50
176
     1
 90
        3
176
     1
 62
     5
420
      255
176
     1
290
     0
176
     1
 90
       50
176
     1
 90
       50
176
     1
 90
       50
176
     1
290
     0
176
     1
 90
       50
176
     1
 62
   256
176
     0
 40
1.0
176
     0
 90
        2
176
     1
  1
strokes_ogs.tif
176
     1
290
     0
176
     1
 40
1.0
176
     1
 40
1.0
176
     1
  0
VISUALSTYLE
  5
35B
102
{ACAD_REACTORS
330
355
102
}
330
355
100
AcDbVisualStyle
  2
Wireframe
 70
     5
177
     3
291
     0
 70
    58
 90
        0
176
     1
 90
        2
176
     1
 90
        0
176
     1
 90
        0
176
     1
 40
0.6
176
     1
 40
30.0
176
     1
 62
     7
420
 16777215
176
     1
 90
        1
176
     1
 90
        4
176
     1
 62
     7
176
     1
 62
   257
176
     1
 90
        1
176
     1
 90
        1
176
     1
 40
1.0
176
     1
 90
        0
176
     1
 62
   257
176
     1
 40
1.0
176
     1
 90
        1
176
     1
 90
        6
176
     1
 90
        2
176
     1
 62
     7
176
     1
 90
        3
176
     1
 90
        0
176
     1
 90
        0
176
     1
290
     0
176
     1
 90
        1
176
     1
 40
0.0
176
     1
 90
        0
176
     1
290
     0
176
     1
290
     1
176
     1
290
     1
176
     1
290
     0
176
     1
290
     0
176
     1
290
     0
176
     1
290
     0
176
     1
290
     0
176
     1
290
     0
176
     1
 90
       50
176
     1
 40
0.0
176
     1
 40
1.0
176
     1
 90
        0
176
     1
 62
    18
420
        0
176
     1
 90
       50
176
     1
 90
        3
176
     1
 62
     5
420
      255
176
     1
290
     0
176
     1
 90
       50
176
     1
 90
       50
176
     1
 90
       50
176
     1
290
     0
176
     1
 90
       50
176
     1
 62
   256
176
     0
 40
1.0
176
     0
 90
        2
176
     1
  1
strokes_ogs.tif
176
     1
290
     0
176
     1
 40
1.0
176
     1
 40
1.0
176
     1
  0
VISUALSTYLE
  5
36B
102
{ACAD_REACTORS
330
355
102
}
330
355
100
AcDbVisualStyle
  2
X-Ray
 70
    25
177
     3
291
     0
 70
    58
 90
        2
176
     1
 90
        2
176
     1
 90
        1
176
     1
 90
        1
176
     1
 40
0.5
176
     1
 40
30.0
176
     1
 62
     7
420
 16777215
176
     1
 90
        1
176
     1
 90
        0
176
     1
 62
     7
176
     1
 62
   257
176
     1
 90
        1
176
     1
 90
        1
176
     1
 40
1.0
176
     1
 90
        8
176
     1
 62
     7
176
     1
 40
1.0
176
     1
 90
        1
176
     1
 90
        6
176
     1
 90
        2
176
     1
 62
     7
176
     1
 90
        3
176
     1
 90
        0
176
     1
 90
        0
176
     1
290
     0
176
     1
 90
       13
176
     1
 40
0.0
176
     1
 90
        0
176
     1
290
     0
176
     1
290
     1
176
     1
290
     1
176
     1
290
     0
176
     1
290
     0
176
     1
290
     0
176
     1
290
     0
176
     1
290
     0
176
     1
290
     0
176
     1
 90
       50
176
     1
 40
0.0
176
     1
 40
1.0
176
     1
 90
        0
176
     1
 62
    18
420
        0
176
     1
 90
       50
176
     1
 90
        3
176
     1
 62
     5
420
      255
176
     1
290
     0
176
     1
 90
       50
176
     1
 90
       50
176
     1
 90
       50
176
     1
290
     0
176
     1
 90
       50
176
     1
 62
   256
176
     0
 40
1.0
176
     0
 90
        2
176
     1
  1
strokes_ogs.tif
176
     1
290
     0
176
     1
 40
1.0
176
     1
 40
1.0
176
     1
  0
DICTIONARYVAR
  5
378
102
{ACAD_REACTORS
330
377
102
}
330
377
100
DictionaryVariables
280
     0
  1
1:1
  0
DICTIONARYVAR
  5
37D
102
{ACAD_REACTORS
330
377
102
}
330
377
100
DictionaryVariables
280
     0
  1
Standard
  0
DICTIONARYVAR
  5
37C
102
{ACAD_REACTORS
330
377
102
}
330
377
100
DictionaryVariables
280
     0
  1
Standard
  0
DICTIONARYVAR
  5
37E
102
{ACAD_REACTORS
330
377
102
}
330
377
100
DictionaryVariables
280
     0
  1
0
  0
DICTIONARY
  5
379
330
373
100
AcDbDictionary
280
     1
281
     1
  3
ACAD_ROUNDTRIP_2008_TABLESTYLE_CELLSTYLEMAP
360
37A
  0
CELLSTYLEMAP
  5
37A
102
{ACAD_REACTORS
330
379
102
}
330
379
100
AcDbCellStyleMap
 90
        3
300
CELLSTYLE
  1
TABLEFORMAT_BEGIN
 90
        5
170
     1
 91
        0
 92
    32768
 62
   257
 93
        1
300
CONTENTFORMAT
  1
CONTENTFORMAT_BEGIN
 90
        0
 91
        0
 92
        4
 93
        0
300

 40
0.0
140
1.0
 94
        5
 62
     0
340
11
144
6.0
309
CONTENTFORMAT_END
171
     1
301
MARGIN
  1
CELLMARGIN_BEGIN
 40
1.5
 40
1.5
 40
1.5
 40
1.5
 40
1.5
 40
1.5
309
CELLMARGIN_END
 94
        6
 95
        1
302
GRIDFORMAT
  1
GRIDFORMAT_BEGIN
 90
        0
 91
        1
 62
     0
 92
       -2
340
14
 93
        0
 40
0.045
309
GRIDFORMAT_END
 95
        2
302
GRIDFORMAT
  1
GRIDFORMAT_BEGIN
 90
        0
 91
        1
 62
     0
 92
       -2
340
14
 93
        0
 40
0.045
309
GRIDFORMAT_END
 95
        4
302
GRIDFORMAT
  1
GRIDFORMAT_BEGIN
 90
        0
 91
        1
 62
     0
 92
       -2
340
14
 93
        0
 40
0.045
309
GRIDFORMAT_END
 95
        8
302
GRIDFORMAT
  1
GRIDFORMAT_BEGIN
 90
        0
 91
        1
 62
     0
 92
       -2
340
14
 93
        0
 40
0.045
309
GRIDFORMAT_END
 95
       16
302
GRIDFORMAT
  1
GRIDFORMAT_BEGIN
 90
        0
 91
        1
 62
     0
 92
       -2
340
14
 93
        0
 40
0.045
309
GRIDFORMAT_END
 95
       32
302
GRIDFORMAT
  1
GRIDFORMAT_BEGIN
 90
        0
 91
        1
 62
     0
 92
       -2
340
14
 93
        0
 40
0.045
309
GRIDFORMAT_END
309
TABLEFORMAT_END
  1
CELLSTYLE_BEGIN
 90
        1
 91
        1
300
_TITLE
309
CELLSTYLE_END
300
CELLSTYLE
  1
TABLEFORMAT_BEGIN
 90
        5
170
     1
 91
        0
 92
        0
 62
   257
 93
        1
300
CONTENTFORMAT
  1
CONTENTFORMAT_BEGIN
 90
        0
 91
        0
 92
        4
 93
        0
300

 40
0.0
140
1.0
 94
        5
 62
     0
340
11
144
4.5
309
CONTENTFORMAT_END
171
     1
301
MARGIN
  1
CELLMARGIN_BEGIN
 40
1.5
 40
1.5
 40
1.5
 40
1.5
 40
1.5
 40
1.5
309
CELLMARGIN_END
 94
        6
 95
        1
302
GRIDFORMAT
  1
GRIDFORMAT_BEGIN
 90
        0
 91
        1
 62
     0
 92
       -2
340
14
 93
        0
 40
0.045
309
GRIDFORMAT_END
 95
        2
302
GRIDFORMAT
  1
GRIDFORMAT_BEGIN
 90
        0
 91
        1
 62
     0
 92
       -2
340
14
 93
        0
 40
0.045
309
GRIDFORMAT_END
 95
        4
302
GRIDFORMAT
  1
GRIDFORMAT_BEGIN
 90
        0
 91
        1
 62
     0
 92
       -2
340
14
 93
        0
 40
0.045
309
GRIDFORMAT_END
 95
        8
302
GRIDFORMAT
  1
GRIDFORMAT_BEGIN
 90
        0
 91
        1
 62
     0
 92
       -2
340
14
 93
        0
 40
0.045
309
GRIDFORMAT_END
 95
       16
302
GRIDFORMAT
  1
GRIDFORMAT_BEGIN
 90
        0
 91
        1
 62
     0
 92
       -2
340
14
 93
        0
 40
0.045
309
GRIDFORMAT_END
 95
       32
302
GRIDFORMAT
  1
GRIDFORMAT_BEGIN
 90
        0
 91
        1
 62
     0
 92
       -2
340
14
 93
        0
 40
0.045
309
GRIDFORMAT_END
309
TABLEFORMAT_END
  1
CELLSTYLE_BEGIN
 90
        2
 91
        1
300
_HEADER
309
CELLSTYLE_END
300
CELLSTYLE
  1
TABLEFORMAT_BEGIN
 90
        5
170
     1
 91
        0
 92
        0
 62
   257
 93
        1
300
CONTENTFORMAT
  1
CONTENTFORMAT_BEGIN
 90
        0
 91
        0
 92
        4
 93
        0
300

 40
0.0
140
1.0
 94
        2
 62
     0
340
11
144
4.5
309
CONTENTFORMAT_END
171
     1
301
MARGIN
  1
CELLMARGIN_BEGIN
 40
1.5
 40
1.5
 40
1.5
 40
1.5
 40
1.5
 40
1.5
309
CELLMARGIN_END
 94
        6
 95
        1
302
GRIDFORMAT
  1
GRIDFORMAT_BEGIN
 90
        0
 91
        1
 62
     0
 92
       -2
340
14
 93
        0
 40
0.045
309
GRIDFORMAT_END
 95
        2
302
GRIDFORMAT
  1
GRIDFORMAT_BEGIN
 90
        0
 91
        1
 62
     0
 92
       -2
340
14
 93
        0
 40
0.045
309
GRIDFORMAT_END
 95
        4
302
GRIDFORMAT
  1
GRIDFORMAT_BEGIN
 90
        0
 91
        1
 62
     0
 92
       -2
340
14
 93
        0
 40
0.045
309
GRIDFORMAT_END
 95
        8
302
GRIDFORMAT
  1
GRIDFORMAT_BEGIN
 90
        0
 91
        1
 62
     0
 92
       -2
340
14
 93
        0
 40
0.045
309
GRIDFORMAT_END
 95
       16
302
GRIDFORMAT
  1
GRIDFORMAT_BEGIN
 90
        0
 91
        1
 62
     0
 92
       -2
340
14
 93
        0
 40
0.045
309
GRIDFORMAT_END
 95
       32
302
GRIDFORMAT
  1
GRIDFORMAT_BEGIN
 90
        0
 91
        1
 62
     0
 92
       -2
340
14
 93
        0
 40
0.045
309
GRIDFORMAT_END
309
TABLEFORMAT_END
  1
CELLSTYLE_BEGIN
 90
        3
 91
        2
300
_DATA
309
CELLSTYLE_END
  0
ENDSEC
  0
EOF
