999
DXF file: 39e_c_010.dxf
999
Pro/ENGINEER 2016360 by Parametric Technology Corporation
  0
SECTION
  2
HEADER
  9
$ACADVER
  1
AC1014
  9
$DWGCODEPAGE
  3
ANSI_1252
  9
$EXTMAX
 10
420.0
 20
297.0
 30
0.0
  9
$EXTMIN
 10
0.0
 20
0.0
 30
0.0
  9
$LIMMIN
 10
0.0
 20
0.0
  9
$LIMMAX
 10
420.0
 20
297.0
  9
$VIEWCTR
 10
210.0
 20
148.5
  9
$VIEWSIZE
 40
297.0
  9
$CLAYER
  8
0
  9
$LTSCALE
 40
23.1
  9
$CELTYPE
  6
BYLAYER
  9
$DIMSCALE
 40
1.0
  9
$DIMASZ
 40
2.5
  9
$DIMEXO
 40
0.75
  9
$DIMDLI
 40
15.96
  9
$DIMEXE
 40
0.75
  9
$DIMCEN
 40
3.78
  9
$DIMLFAC
 40
1.0
  9
$DIMBLK
  1
_CLOSED
  9
$DIMALT
 70
0
  9
$DIMALTF
 40
25.4
  9
$DIMTXT
 40
3.0
  9
$DIMTOL
 70
1
  9
$DIMLIM
 70
0
  9
$DIMTFAC
 40
1.0
  9
$DIMTP
 40
0.01
  9
$DIMTM
 40
0.01
  9
$DIMGAP
 40
0.625
  9
$AUNITS
 70
0
  9
$PDMODE
 70
3
  9
$PDSIZE
 40
0.3125
  9
$HANDSEED
  5
6AE
  9
$TILEMODE
 70
1
  9
$MEASUREMENT
 70
1
  0
ENDSEC
  0
SECTION
  2
CLASSES
  0
ENDSEC
  0
SECTION
  2
TABLES
  0
TABLE
  2
VPORT
  5
8
100
AcDbSymbolTable
 70
2
  0
VPORT
  5
1F4
100
AcDbSymbolTableRecord
100
AcDbViewportTableRecord
  2
*ACTIVE
 70
0
 10
0.0
 20
0.0
 11
1.0
 21
1.0
 12
210.0
 22
148.5
 13
0.0
 23
0.0
 14
1.0
 24
1.0
 15
0.0
 25
0.0
 16
0.0
 26
0.0
 36
1.0
 17
0.0
 27
0.0
 37
0.0
 40
297.0
 41
1.4141414141
 42
50.0
 43
0.0
 44
0.0
 50
0.0
 51
0.0
 71
0
 72
100
 73
1
 74
1
 75
0
 76
0
 77
0
 78
0
  0
ENDTAB
  0
TABLE
  2
LTYPE
  5
5
100
AcDbSymbolTable
 70
6
  0
LTYPE
  5
14
100
AcDbSymbolTableRecord
100
AcDbLinetypeTableRecord
  2
BYBLOCK
 70
0
  3

 72
65
 73
0
 40
0.0
  0
LTYPE
  5
15
100
AcDbSymbolTableRecord
100
AcDbLinetypeTableRecord
  2
BYLAYER
 70
0
  3

 72
65
 73
0
 40
0.0
  0
LTYPE
  5
16
100
AcDbSymbolTableRecord
100
AcDbLinetypeTableRecord
  2
CONTINUOUS
 70
64
  3
Solid line
 72
65
 73
0
 40
0.0
  0
LTYPE
  5
1F5
100
AcDbSymbolTableRecord
100
AcDbLinetypeTableRecord
  2
CENTER
 70
64
  3
____ _ ____ _ ____ _ ____ _ ____ _ ____ _ ____
 72
65
 73
4
 40
0.6
 49
0.375
 74
0
 49
-0.075
 74
0
 49
0.075
 74
0
 49
-0.075
 74
0
  0
LTYPE
  5
1F6
100
AcDbSymbolTableRecord
100
AcDbLinetypeTableRecord
  2
HIDDEN
 70
64
  3
- - - - - - - - - - - - - - - - - - - -
 72
65
 73
2
 40
0.2
 49
0.1
 74
0
 49
-0.1
 74
0
  0
LTYPE
  5
1F7
100
AcDbSymbolTableRecord
100
AcDbLinetypeTableRecord
  2
PHANTOM
 70
64
  3
_____ _ _ _____ _ _ _____ _ _ _____
 72
65
 73
6
 40
0.8
 49
0.45
 74
0
 49
-0.05
 74
0
 49
0.1
 74
0
 49
-0.05
 74
0
 49
0.1
 74
0
 49
-0.05
 74
0
  0
LTYPE
  5
1F8
100
AcDbSymbolTableRecord
100
AcDbLinetypeTableRecord
  2
DOT
 70
64
  3
. . . . . . . . . . . . . . . . . . . .
 72
65
 73
2
 40
0.2
 49
0.1
 74
0
 49
-0.1
 74
0
  0
LTYPE
  5
1F9
100
AcDbSymbolTableRecord
100
AcDbLinetypeTableRecord
  2
DASHED
 70
64
  3
- - - - - - - - - - - - - - - - - - - -
 72
65
 73
2
 40
0.2
 49
0.1
 74
0
 49
-0.1
 74
0
  0
ENDTAB
  0
TABLE
  2
LAYER
  5
2
100
AcDbSymbolTable
 70
36
  0
LAYER
  5
10
100
AcDbSymbolTableRecord
100
AcDbLayerTableRecord
  2
0
 70
0
 62
7
  6
CONTINUOUS
  0
LAYER
  5
1FA
100
AcDbSymbolTableRecord
100
AcDbLayerTableRecord
  2
DEFAULT_1
 70
0
 62
7
  6
CENTER
  0
LAYER
  5
1FB
100
AcDbSymbolTableRecord
100
AcDbLayerTableRecord
  2
DEFAULT_2
 70
0
 62
8
  6
HIDDEN
  0
LAYER
  5
1FC
100
AcDbSymbolTableRecord
100
AcDbLayerTableRecord
  2
DEFAULT_3
 70
0
 62
7
  6
PHANTOM
  0
LAYER
  5
1FD
100
AcDbSymbolTableRecord
100
AcDbLayerTableRecord
  2
1_ALL_PLANES
 70
0
 62
7
  6
CONTINUOUS
  0
LAYER
  5
1FE
100
AcDbSymbolTableRecord
100
AcDbLayerTableRecord
  2
2_ALL_CSYS
 70
0
 62
7
  6
CONTINUOUS
  0
LAYER
  5
1FF
100
AcDbSymbolTableRecord
100
AcDbLayerTableRecord
  2
3_ALL_AXES
 70
0
 62
7
  6
CONTINUOUS
  0
LAYER
  5
200
100
AcDbSymbolTableRecord
100
AcDbLayerTableRecord
  2
4_ALL_POINTS
 70
0
 62
7
  6
CONTINUOUS
  0
LAYER
  5
201
100
AcDbSymbolTableRecord
100
AcDbLayerTableRecord
  2
5_ALL_CURVES
 70
0
 62
7
  6
CONTINUOUS
  0
LAYER
  5
202
100
AcDbSymbolTableRecord
100
AcDbLayerTableRecord
  2
5__COSTRUZIONE
 70
0
 62
7
  6
CONTINUOUS
  0
LAYER
  5
203
100
AcDbSymbolTableRecord
100
AcDbLayerTableRecord
  2
6_ALL_SURFS
 70
0
 62
7
  6
CONTINUOUS
  0
LAYER
  5
204
100
AcDbSymbolTableRecord
100
AcDbLayerTableRecord
  2
6__APPOGGIO
 70
0
 62
7
  6
CONTINUOUS
  0
LAYER
  5
205
100
AcDbSymbolTableRecord
100
AcDbLayerTableRecord
  2
6__COSTRUZIONE
 70
0
 62
7
  6
CONTINUOUS
  0
LAYER
  5
206
100
AcDbSymbolTableRecord
100
AcDbLayerTableRecord
  2
7_ALL_FEATURES
 70
0
 62
7
  6
CONTINUOUS
  0
LAYER
  5
207
100
AcDbSymbolTableRecord
100
AcDbLayerTableRecord
  2
9_SOLID
 70
0
 62
7
  6
CONTINUOUS
  0
LAYER
  5
208
100
AcDbSymbolTableRecord
100
AcDbLayerTableRecord
  2
XXX_SOLIDO
 70
0
 62
7
  6
CONTINUOUS
  0
ENDTAB
  0
TABLE
  2
STYLE
  5
3
100
AcDbSymbolTable
 70
1
  0
STYLE
  5
11
100
AcDbSymbolTableRecord
100
AcDbTextStyleTableRecord
  2
STANDARD
 70
0
 40
0.0
 41
1.0
 50
0.0
 71
0
 42
0.2
  3
arial.ttf
  4

  0
STYLE
  5
209
100
AcDbSymbolTableRecord
100
AcDbTextStyleTableRecord
  2
TEXTSTYLE_1
 70
0
 40
0.0
 41
0.8
 50
0.0
 71
0
 42
0.2
  3
gdt
  4

  0
STYLE
  5
20A
100
AcDbSymbolTableRecord
100
AcDbTextStyleTableRecord
  2
TEXTSTYLE_2
 70
0
 40
0.0
 41
0.85
 50
0.0
 71
0
 42
0.2
  3
txt
  4

  0
ENDTAB
  0
TABLE
  2
VIEW
  5
6
100
AcDbSymbolTable
 70
0
  0
ENDTAB
  0
TABLE
  2
UCS
  5
7
100
AcDbSymbolTable
 70
0
  0
ENDTAB
  0
TABLE
  2
APPID
  5
9
100
AcDbSymbolTable
 70
1
  0
APPID
  5
20B
100
AcDbSymbolTableRecord
100
AcDbRegAppTableRecord
  2
ACAD
 70
0
  0
ENDTAB
  0
TABLE
  2
BLOCK_RECORD
  5
1
100
AcDbSymbolTable
 70
0
  0
BLOCK_RECORD
  5
1F
100
AcDbSymbolTableRecord
100
AcDbBlockTableRecord
  2
*MODEL_SPACE
  0
BLOCK_RECORD
  5
1B
100
AcDbSymbolTableRecord
100
AcDbBlockTableRecord
  2
*PAPER_SPACE
  0
BLOCK_RECORD
  5
20C
100
AcDbSymbolTableRecord
100
AcDbBlockTableRecord
  2
_CLOSED
  0
BLOCK_RECORD
  5
20D
100
AcDbSymbolTableRecord
100
AcDbBlockTableRecord
  2
*D0
  0
BLOCK_RECORD
  5
20E
100
AcDbSymbolTableRecord
100
AcDbBlockTableRecord
  2
*D1
  0
BLOCK_RECORD
  5
20F
100
AcDbSymbolTableRecord
100
AcDbBlockTableRecord
  2
*D2
  0
BLOCK_RECORD
  5
210
100
AcDbSymbolTableRecord
100
AcDbBlockTableRecord
  2
LOGO2_BL0
  0
ENDTAB
  0
TABLE
  2
DIMSTYLE
  5
A
100
AcDbSymbolTable
 70
1
  0
DIMSTYLE
105
211
100
AcDbSymbolTableRecord
100
AcDbDimStyleTableRecord
  2
STANDARD
 70
0
  3

  4

  5
_CLOSED
  6
_CLOSED
  7
_CLOSED
 40
1.0
 41
2.5
 42
0.75
 43
0.38
 44
0.75
 45
0.0
 46
0.0
 47
0.01
 48
0.01
140
3.0
141
0.09
142
0.0
143
25.4
144
1.0
145
0.0
146
1.0
147
0.625
 71
1.0
 72
0.0
 73
0
 74
0
 75
0
 76
0
 77
1
 78
8
 79
2
170
0
171
1
172
0
173
0
174
0
175
0
176
0
177
0
178
0
270
2
179
2
271
2
272
2
273
2
274
2
275
0
280
0
281
0
282
0
283
1
284
8
285
0
286
0
287
3
288
0
340
11
  0
DIMSTYLE
105
212
100
AcDbSymbolTableRecord
100
AcDbDimStyleTableRecord
  2
DIMSTYLE_1
 70
0
  3

  4

  5
_CLOSED
  6
_CLOSED
  7
_CLOSED
 40
1.0
 41
2.5
 42
0.75
 43
0.38
 44
0.75
 45
0.0
 46
0.0
 47
0.3
 48
0.3
140
3.0
141
0.09
142
0.0
143
25.4
144
1.0
145
0.0
146
1.0
147
0.75
 71
0.0
 72
0.0
 73
0
 74
0
 75
0
 76
0
 77
1
 78
8
 79
2
170
0
171
1
172
0
173
0
174
0
175
0
176
0
177
0
178
0
270
2
179
2
271
2
272
2
273
2
274
2
275
0
280
0
281
0
282
0
283
1
284
8
285
0
286
0
287
3
288
0
340
11
  0
DIMSTYLE
105
213
100
AcDbSymbolTableRecord
100
AcDbDimStyleTableRecord
  2
DIMSTYLE_2
 70
0
  3

  4

  5
_CLOSED
  6
_CLOSED
  7
_CLOSED
 40
1.0
 41
2.5
 42
0.75
 43
0.38
 44
0.75
 45
0.0
 46
0.0
 47
0.5
 48
0.5
140
3.0
141
0.09
142
0.0
143
25.4
144
1.0
145
0.0
146
1.0
147
0.75
 71
0.0
 72
0.0
 73
0
 74
0
 75
0
 76
0
 77
1
 78
8
 79
2
170
0
171
1
172
0
173
0
174
0
175
0
176
0
177
0
178
0
270
2
179
1
271
1
272
1
273
2
274
2
275
0
280
0
281
0
282
0
283
1
284
8
285
0
286
0
287
3
288
0
340
11
  0
ENDTAB
  0
ENDSEC
  0
SECTION
  2
BLOCKS
  0
BLOCK
  5
20
100
AcDbEntity
  8
0
100
AcDbBlockBegin
  2
*MODEL_SPACE
 70
0
 10
0.0
 20
0.0
 30
0.0
  3
*MODEL_SPACE
  1

  0
ENDBLK
  5
21
100
AcDbEntity
  8
0
100
AcDbBlockEnd
  0
BLOCK
  5
1C
100
AcDbEntity
  8
0
100
AcDbBlockBegin
  2
*PAPER_SPACE
 70
0
 10
0.0
 20
0.0
 30
0.0
  3
*PAPER_SPACE
  1

  0
ENDBLK
  5
1D
100
AcDbEntity
  8
0
100
AcDbBlockEnd
  0
BLOCK
  5
214
100
AcDbEntity
  8
0
100
AcDbBlockBegin
 62
2
  6
CONTINUOUS
  2
LOGO2_BL0
 70
64
 10
333.6475659158
 20
36.9217920391
  3
LOGO2_BL0
  1

  0
LINE
  5
215
100
AcDbEntity
  8
0
100
AcDbLine
 62
7
  6
CONTINUOUS
 10
325.390491144
 20
40.1172833779
 11
324.0861502147
 21
40.1172833779
  0
LINE
  5
216
100
AcDbEntity
  8
0
100
AcDbLine
 62
7
  6
CONTINUOUS
 10
324.0861502147
 20
40.1172833779
 11
324.0861502147
 21
29.6582173181
  0
LINE
  5
217
100
AcDbEntity
  8
0
100
AcDbLine
 62
7
  6
CONTINUOUS
 10
324.0861502147
 20
29.6582173181
 11
328.567205103
 21
29.6582173181
  0
LINE
  5
218
100
AcDbEntity
  8
0
100
AcDbLine
 62
7
  6
CONTINUOUS
 10
328.567205103
 20
29.6582173181
 11
328.567205103
 21
30.8510716431
  0
LINE
  5
219
100
AcDbEntity
  8
0
100
AcDbLine
 62
7
  6
CONTINUOUS
 10
328.567205103
 20
30.8510716431
 11
325.390491144
 21
30.8510716431
  0
LINE
  5
21A
100
AcDbEntity
  8
0
100
AcDbLine
 62
7
  6
CONTINUOUS
 10
325.390491144
 20
30.8510716431
 11
325.390491144
 21
40.1172833779
  0
LINE
  5
21B
100
AcDbEntity
  8
0
100
AcDbLine
 62
7
  6
CONTINUOUS
 10
340.3268173604
 20
40.1172833779
 11
339.0229998423
 21
40.1172833779
  0
LINE
  5
21C
100
AcDbEntity
  8
0
100
AcDbLine
 62
7
  6
CONTINUOUS
 10
339.0229998423
 20
40.1172833779
 11
339.0229998423
 21
29.6582173181
  0
LINE
  5
21D
100
AcDbEntity
  8
0
100
AcDbLine
 62
7
  6
CONTINUOUS
 10
339.0229998423
 20
29.6582173181
 11
343.5041855834
 21
29.6582173181
  0
LINE
  5
21E
100
AcDbEntity
  8
0
100
AcDbLine
 62
7
  6
CONTINUOUS
 10
343.5041855834
 20
29.6582173181
 11
343.5041855834
 21
30.8510716431
  0
LINE
  5
21F
100
AcDbEntity
  8
0
100
AcDbLine
 62
7
  6
CONTINUOUS
 10
343.5041855834
 20
30.8510716431
 11
340.3268173604
 21
30.8510716431
  0
LINE
  5
220
100
AcDbEntity
  8
0
100
AcDbLine
 62
7
  6
CONTINUOUS
 10
340.3268173604
 20
30.8510716431
 11
340.3268173604
 21
40.1172833779
  0
LWPOLYLINE
  5
221
100
AcDbEntity
  8
0
100
AcDbPolyline
 62
7
  6
CONTINUOUS
 90
2
 70
0
 43
0.2
 10
322.4405451256
 20
26.3146660112
 10
322.4405451256
 20
24.4576027618
  0
LWPOLYLINE
  5
222
100
AcDbEntity
  8
0
100
AcDbPolyline
 62
7
  6
CONTINUOUS
 90
2
 70
0
 43
0.2
 10
322.4405451256
 20
24.4576027618
 10
323.236261136
 20
24.4576027618
  0
LWPOLYLINE
  5
223
100
AcDbEntity
  8
0
100
AcDbPolyline
 62
7
  6
CONTINUOUS
 90
2
 70
0
 43
0.2
 10
323.236261136
 20
24.4576027618
 10
323.236261136
 20
24.6695843334
  0
LWPOLYLINE
  5
224
100
AcDbEntity
  8
0
100
AcDbPolyline
 62
7
  6
CONTINUOUS
 90
2
 70
0
 43
0.2
 10
323.236261136
 20
24.6695843334
 10
322.6721546205
 20
24.6695843334
  0
LWPOLYLINE
  5
225
100
AcDbEntity
  8
0
100
AcDbPolyline
 62
7
  6
CONTINUOUS
 90
2
 70
0
 43
0.2
 10
322.6721546205
 20
24.6695843334
 10
322.6721546205
 20
26.3146660112
  0
LWPOLYLINE
  5
226
100
AcDbEntity
  8
0
100
AcDbPolyline
 62
7
  6
CONTINUOUS
 90
2
 70
0
 43
0.2
 10
322.6721546205
 20
26.3146660112
 10
322.4405451256
 20
26.3146660112
  0
SPLINE
  5
227
100
AcDbEntity
  8
0
100
AcDbSpline
 62
7
  6
CONTINUOUS
 70
2
 71
3
 72
35
 73
31
 74
0
 42
0.0000001
 43
0.0000001
 44
0.0000000001
 40
0.0
 40
0.0
 40
0.0
 40
0.0
 40
1.0
 40
1.0
 40
1.0
 40
2.0
 40
2.0
 40
2.0
 40
3.0
 40
3.0
 40
3.0
 40
4.0
 40
4.0
 40
4.0
 40
5.0
 40
5.0
 40
5.0
 40
6.0
 40
6.0
 40
6.0
 40
7.0
 40
7.0
 40
7.0
 40
8.0
 40
8.0
 40
8.0
 40
9.0
 40
9.0
 40
9.0
 40
10.0
 40
10.0
 40
10.0
 40
10.0
 10
324.6345543915
 20
25.6101544177
 30
0.0
 10
324.6345543915
 20
25.6101544177
 30
0.0
 10
324.6345543915
 20
24.9480391385
 30
0.0
 10
324.6345543915
 20
24.9480391385
 30
0.0
 10
324.6345543915
 20
24.6329455432
 30
0.0
 10
324.7824180804
 20
24.4183469152
 30
0.0
 10
325.1225045647
 20
24.4183469152
 30
0.0
 10
325.4620676377
 20
24.4183469152
 30
0.0
 10
325.6101930321
 20
24.6329455432
 30
0.0
 10
325.6101930321
 20
24.9480391385
 30
0.0
 10
325.6101930321
 20
24.9480391385
 30
0.0
 10
325.6101930321
 20
25.6101544177
 30
0.0
 10
325.6101930321
 20
25.6101544177
 30
0.0
 10
325.6101930321
 20
25.6101544177
 30
0.0
 10
325.3881357933
 20
25.6101544177
 30
0.0
 10
325.3881357933
 20
25.6101544177
 30
0.0
 10
325.3881357933
 20
25.6101544177
 30
0.0
 10
325.3881357933
 20
24.9731628803
 30
0.0
 10
325.3881357933
 20
24.9731628803
 30
0.0
 10
325.3881357933
 20
24.7873518732
 30
0.0
 10
325.3414213358
 20
24.6245709626
 30
0.0
 10
325.1225045647
 20
24.6245709626
 30
0.0
 10
324.9030643822
 20
24.6245709626
 30
0.0
 10
324.8563499248
 20
24.7873518732
 30
0.0
 10
324.8563499248
 20
24.9731628803
 30
0.0
 10
324.8563499248
 20
24.9731628803
 30
0.0
 10
324.8563499248
 20
25.6101544177
 30
0.0
 10
324.8563499248
 20
25.6101544177
 30
0.0
 10
324.8563499248
 20
25.6101544177
 30
0.0
 10
324.6345543915
 20
25.6101544177
 30
0.0
 10
324.6345543915
 20
25.6101544177
 30
0.0
  0
SPLINE
  5
228
100
AcDbEntity
  8
0
100
AcDbSpline
 62
7
  6
CONTINUOUS
 70
2
 71
3
 72
35
 73
31
 74
0
 42
0.0000001
 43
0.0000001
 44
0.0000000001
 40
0.0
 40
0.0
 40
0.0
 40
0.0
 40
1.0
 40
1.0
 40
1.0
 40
2.0
 40
2.0
 40
2.0
 40
3.0
 40
3.0
 40
3.0
 40
4.0
 40
4.0
 40
4.0
 40
5.0
 40
5.0
 40
5.0
 40
6.0
 40
6.0
 40
6.0
 40
7.0
 40
7.0
 40
7.0
 40
8.0
 40
8.0
 40
8.0
 40
9.0
 40
9.0
 40
9.0
 40
10.0
 40
10.0
 40
10.0
 40
10.0
 10
328.0333255893
 20
25.5688049259
 30
0.0
 10
327.9448690817
 20
25.6200992322
 30
0.0
 10
327.831419685
 20
25.645222974
 30
0.0
 10
327.72778425
 20
25.645222974
 30
0.0
 10
327.3729113969
 20
25.645222974
 30
0.0
 10
327.0974662066
 20
25.3814236849
 30
0.0
 10
327.0974662066
 20
25.0239337753
 30
0.0
 10
327.0974662066
 20
24.6790057366
 30
0.0
 10
327.3759210118
 20
24.4188703265
 30
0.0
 10
327.7154840848
 20
24.4188703265
 30
0.0
 10
327.831419685
 20
24.4188703265
 30
0.0
 10
327.9321763579
 20
24.4408536006
 30
0.0
 10
328.0333255893
 20
24.4947649632
 30
0.0
 10
328.0333255893
 20
24.4947649632
 30
0.0
 10
328.0333255893
 20
24.7774070587
 30
0.0
 10
328.0333255893
 20
24.7774070587
 30
0.0
 10
327.9494489304
 20
24.6842398494
 30
0.0
 10
327.8459443483
 20
24.6250943739
 30
0.0
 10
327.7178394356
 20
24.6250943739
 30
0.0
 10
327.4841362955
 20
24.6250943739
 30
0.0
 10
327.3188691814
 20
24.7972966876
 30
0.0
 10
327.3188691814
 20
25.0338785897
 30
0.0
 10
327.3188691814
 20
25.2458601613
 30
0.0
 10
327.4866224991
 20
25.437952104
 30
0.0
 10
327.7034456251
 20
25.437952104
 30
0.0
 10
327.8362612394
 20
25.437952104
 30
0.0
 10
327.9448690817
 20
25.3840407413
 30
0.0
 10
328.0333255893
 20
25.2830223628
 30
0.0
 10
328.0333255893
 20
25.2830223628
 30
0.0
 10
328.0333255893
 20
25.5688049259
 30
0.0
 10
328.0333255893
 20
25.5688049259
 30
0.0
  0
SPLINE
  5
229
100
AcDbEntity
  8
0
100
AcDbSpline
 62
7
  6
CONTINUOUS
 70
2
 71
3
 72
32
 73
28
 74
0
 42
0.0000001
 43
0.0000001
 44
0.0000000001
 40
0.0
 40
0.0
 40
0.0
 40
0.0
 40
1.0
 40
1.0
 40
1.0
 40
2.0
 40
2.0
 40
2.0
 40
3.0
 40
3.0
 40
3.0
 40
4.0
 40
4.0
 40
4.0
 40
5.0
 40
5.0
 40
5.0
 40
6.0
 40
6.0
 40
6.0
 40
7.0
 40
7.0
 40
7.0
 40
8.0
 40
8.0
 40
8.0
 40
9.0
 40
9.0
 40
9.0
 40
9.0
 10
330.5651968416
 20
24.9972397996
 30
0.0
 10
330.5651968416
 20
24.9972397996
 30
0.0
 10
330.5651968416
 20
25.0312615333
 30
0.0
 10
330.5651968416
 20
25.0312615333
 30
0.0
 10
330.5651968416
 20
25.3735725156
 30
0.0
 10
330.3923402638
 20
25.645222974
 30
0.0
 10
330.0256906566
 20
25.645222974
 30
0.0
 10
329.6540686422
 20
25.645222974
 30
0.0
 10
329.4643320504
 20
25.3788066284
 30
0.0
 10
329.4643320504
 20
25.0239337753
 30
0.0
 10
329.4643320504
 20
24.6842398494
 30
0.0
 10
329.6784072671
 20
24.4183469152
 30
0.0
 10
330.030532211
 20
24.4183469152
 30
0.0
 10
330.2545522422
 20
24.4183469152
 30
0.0
 10
330.4567198522
 20
24.5340208098
 30
0.0
 10
330.5651968416
 20
24.7334405105
 30
0.0
 10
330.5651968416
 20
24.7334405105
 30
0.0
 10
330.3775538949
 20
24.8402164132
 30
0.0
 10
330.3775538949
 20
24.8402164132
 30
0.0
 10
330.2940697945
 20
24.7015124219
 30
0.0
 10
330.2028653775
 20
24.6156729707
 30
0.0
 10
330.0332801203
 20
24.6156729707
 30
0.0
 10
329.8212985487
 20
24.6156729707
 30
0.0
 10
329.6883520816
 20
24.8004371554
 30
0.0
 10
329.6859967308
 20
24.9972397996
 30
0.0
 10
329.6859967308
 20
24.9972397996
 30
0.0
 10
330.5651968416
 20
24.9972397996
 30
0.0
 10
330.5651968416
 20
24.9972397996
 30
0.0
  0
SPLINE
  5
22A
100
AcDbEntity
  8
0
100
AcDbSpline
 62
7
  6
CONTINUOUS
 70
2
 71
3
 72
14
 73
10
 74
0
 42
0.0000001
 43
0.0000001
 44
0.0000000001
 40
0.0
 40
0.0
 40
0.0
 40
0.0
 40
1.0
 40
1.0
 40
1.0
 40
2.0
 40
2.0
 40
2.0
 40
3.0
 40
3.0
 40
3.0
 40
3.0
 10
329.6980351904
 20
25.1647314117
 30
0.0
 10
329.7256451358
 20
25.3296059674
 30
0.0
 10
329.8534883429
 20
25.45260762
 30
0.0
 10
330.0256906566
 20
25.45260762
 30
0.0
 10
330.2028653775
 20
25.45260762
 30
0.0
 10
330.3163147742
 20
25.3369337254
 30
0.0
 10
330.3435321612
 20
25.1647314117
 30
0.0
 10
330.3435321612
 20
25.1647314117
 30
0.0
 10
329.6980351904
 20
25.1647314117
 30
0.0
 10
329.6980351904
 20
25.1647314117
 30
0.0
  0
SPLINE
  5
22B
100
AcDbEntity
  8
0
100
AcDbSpline
 62
7
  6
CONTINUOUS
 70
2
 71
3
 72
20
 73
16
 74
0
 42
0.0000001
 43
0.0000001
 44
0.0000000001
 40
0.0
 40
0.0
 40
0.0
 40
0.0
 40
1.0
 40
1.0
 40
1.0
 40
2.0
 40
2.0
 40
2.0
 40
3.0
 40
3.0
 40
3.0
 40
4.0
 40
4.0
 40
4.0
 40
5.0
 40
5.0
 40
5.0
 40
5.0
 10
332.5892282918
 20
25.3740959269
 30
0.0
 10
332.5892282918
 20
25.3740959269
 30
0.0
 10
333.0003678584
 20
24.8716210905
 30
0.0
 10
333.0003678584
 20
24.8716210905
 30
0.0
 10
332.8843014053
 20
24.7559471959
 30
0.0
 10
332.7465133838
 20
24.6256177852
 30
0.0
 10
332.5745727757
 20
24.6256177852
 30
0.0
 10
332.3971363491
 20
24.6256177852
 30
0.0
 10
332.229644737
 20
24.7899689296
 30
0.0
 10
332.229644737
 20
24.9668819449
 30
0.0
 10
332.229644737
 20
25.1448417828
 30
0.0
 10
332.4394018106
 20
25.2709839031
 30
0.0
 10
332.566983312
 20
25.3589169995
 30
0.0
 10
332.566983312
 20
25.3589169995
 30
0.0
 10
332.5892282918
 20
25.3740959269
 30
0.0
 10
332.5892282918
 20
25.3740959269
 30
0.0
  0
SPLINE
  5
22C
100
AcDbEntity
  8
0
100
AcDbSpline
 62
7
  6
CONTINUOUS
 70
2
 71
3
 72
23
 73
19
 74
0
 42
0.0000001
 43
0.0000001
 44
0.0000000001
 40
0.0
 40
0.0
 40
0.0
 40
0.0
 40
1.0
 40
1.0
 40
1.0
 40
2.0
 40
2.0
 40
2.0
 40
3.0
 40
3.0
 40
3.0
 40
4.0
 40
4.0
 40
4.0
 40
5.0
 40
5.0
 40
5.0
 40
6.0
 40
6.0
 40
6.0
 40
6.0
 10
332.6385598056
 20
25.6651126029
 30
0.0
 10
332.6385598056
 20
25.6651126029
 30
0.0
 10
332.5769281265
 20
25.7436242961
 30
0.0
 10
332.5769281265
 20
25.7436242961
 30
0.0
 10
332.5230167639
 20
25.8121911748
 30
0.0
 10
332.4662266391
 20
25.8812814648
 30
0.0
 10
332.4662266391
 20
25.9749720853
 30
0.0
 10
332.4662266391
 20
26.0937864477
 30
0.0
 10
332.5621417576
 20
26.1712513183
 30
0.0
 10
332.6731049506
 20
26.1712513183
 30
0.0
 10
332.7963683089
 20
26.1712513183
 30
0.0
 10
332.889666371
 20
26.1000673831
 30
0.0
 10
332.889666371
 20
25.9697379725
 30
0.0
 10
332.889666371
 20
25.8346978602
 30
0.0
 10
332.7615614583
 20
25.7582798122
 30
0.0
 10
332.6680016906
 20
25.6844788206
 30
0.0
 10
332.6680016906
 20
25.6844788206
 30
0.0
 10
332.6385598056
 20
25.6651126029
 30
0.0
 10
332.6385598056
 20
25.6651126029
 30
0.0
  0
SPLINE
  5
22D
100
AcDbEntity
  8
0
100
AcDbSpline
 62
7
  6
CONTINUOUS
 70
2
 71
3
 72
50
 73
46
 74
0
 42
0.0000001
 43
0.0000001
 44
0.0000000001
 40
0.0
 40
0.0
 40
0.0
 40
0.0
 40
1.0
 40
1.0
 40
1.0
 40
2.0
 40
2.0
 40
2.0
 40
3.0
 40
3.0
 40
3.0
 40
4.0
 40
4.0
 40
4.0
 40
5.0
 40
5.0
 40
5.0
 40
6.0
 40
6.0
 40
6.0
 40
7.0
 40
7.0
 40
7.0
 40
8.0
 40
8.0
 40
8.0
 40
9.0
 40
9.0
 40
9.0
 40
10.0
 40
10.0
 40
10.0
 40
11.0
 40
11.0
 40
11.0
 40
12.0
 40
12.0
 40
12.0
 40
13.0
 40
13.0
 40
13.0
 40
14.0
 40
14.0
 40
14.0
 40
15.0
 40
15.0
 40
15.0
 40
15.0
 10
333.3407160483
 20
24.4581261731
 30
0.0
 10
333.3407160483
 20
24.4581261731
 30
0.0
 10
333.626106053
 20
24.4581261731
 30
0.0
 10
333.626106053
 20
24.4581261731
 30
0.0
 10
333.626106053
 20
24.4581261731
 30
0.0
 10
333.2937398852
 20
24.8690040341
 30
0.0
 10
333.2937398852
 20
24.8690040341
 30
0.0
 10
333.2937398852
 20
24.8690040341
 30
0.0
 10
333.5202461201
 20
25.1348969683
 30
0.0
 10
333.5202461201
 20
25.1348969683
 30
0.0
 10
333.5202461201
 20
25.1348969683
 30
0.0
 10
333.3719898728
 20
25.2877330644
 30
0.0
 10
333.3719898728
 20
25.2877330644
 30
0.0
 10
333.3719898728
 20
25.2877330644
 30
0.0
 10
333.1560827165
 20
25.0364956462
 30
0.0
 10
333.1560827165
 20
25.0364956462
 30
0.0
 10
333.1560827165
 20
25.0364956462
 30
0.0
 10
332.7690200692
 20
25.5044253375
 30
0.0
 10
332.7690200692
 20
25.5044253375
 30
0.0
 10
332.9244732216
 20
25.6185289983
 30
0.0
 10
333.1067512026
 20
25.7582798122
 30
0.0
 10
333.1067512026
 20
25.9676443273
 30
0.0
 10
333.1067512026
 20
26.2115539874
 30
0.0
 10
332.9047144455
 20
26.3549686803
 30
0.0
 10
332.6782082107
 20
26.3549686803
 30
0.0
 10
332.4340368449
 20
26.3549686803
 30
0.0
 10
332.2496652188
 20
26.2042262294
 30
0.0
 10
332.2496652188
 20
25.9477546984
 30
0.0
 10
332.2496652188
 20
25.7902079007
 30
0.0
 10
332.3483282465
 20
25.652550732
 30
0.0
 10
332.4536647682
 20
25.541587539
 30
0.0
 10
332.4536647682
 20
25.541587539
 30
0.0
 10
332.3381217264
 20
25.4578417329
 30
0.0
 10
332.3381217264
 20
25.4578417329
 30
0.0
 10
332.1604235942
 20
25.3296059674
 30
0.0
 10
332.0130833166
 20
25.2018936131
 30
0.0
 10
332.0130833166
 20
24.9647882997
 30
0.0
 10
332.0130833166
 20
24.6444605916
 30
0.0
 10
332.2716484929
 20
24.4183469152
 30
0.0
 10
332.5820313866
 20
24.4183469152
 30
0.0
 10
332.8009481577
 20
24.4183469152
 30
0.0
 10
332.9981433604
 20
24.543442213
 30
0.0
 10
333.1384175856
 20
24.7093635913
 30
0.0
 10
333.1384175856
 20
24.7093635913
 30
0.0
 10
333.3407160483
 20
24.4581261731
 30
0.0
 10
333.3407160483
 20
24.4581261731
 30
0.0
  0
LWPOLYLINE
  5
22E
100
AcDbEntity
  8
0
100
AcDbPolyline
 62
7
  6
CONTINUOUS
 90
2
 70
0
 43
0.2
 10
335.276160138
 20
26.3146660112
 10
335.0448123488
 20
26.3146660112
  0
LWPOLYLINE
  5
22F
100
AcDbEntity
  8
0
100
AcDbPolyline
 62
7
  6
CONTINUOUS
 90
2
 70
0
 43
0.2
 10
335.0448123488
 20
26.3146660112
 10
335.0448123488
 20
24.4576027618
  0
LWPOLYLINE
  5
230
100
AcDbEntity
  8
0
100
AcDbPolyline
 62
7
  6
CONTINUOUS
 90
2
 70
0
 43
0.2
 10
335.0448123488
 20
24.4576027618
 10
335.8401358007
 20
24.4576027618
  0
LWPOLYLINE
  5
231
100
AcDbEntity
  8
0
100
AcDbPolyline
 62
7
  6
CONTINUOUS
 90
2
 70
0
 43
0.2
 10
335.8401358007
 20
24.4576027618
 10
335.8401358007
 20
24.6695843334
  0
LWPOLYLINE
  5
232
100
AcDbEntity
  8
0
100
AcDbPolyline
 62
7
  6
CONTINUOUS
 90
2
 70
0
 43
0.2
 10
335.8401358007
 20
24.6695843334
 10
335.276160138
 20
24.6695843334
  0
LWPOLYLINE
  5
233
100
AcDbEntity
  8
0
100
AcDbPolyline
 62
7
  6
CONTINUOUS
 90
2
 70
0
 43
0.2
 10
335.276160138
 20
24.6695843334
 10
335.276160138
 20
26.3146660112
  0
LWPOLYLINE
  5
234
100
AcDbEntity
  8
0
100
AcDbPolyline
 62
7
  6
CONTINUOUS
 90
2
 70
0
 43
0.2
 10
337.5192392122
 20
25.6101544177
 10
337.2980979431
 20
25.6101544177
  0
LWPOLYLINE
  5
235
100
AcDbEntity
  8
0
100
AcDbPolyline
 62
7
  6
CONTINUOUS
 90
2
 70
0
 43
0.2
 10
337.2980979431
 20
25.6101544177
 10
337.2980979431
 20
24.4581261731
  0
LWPOLYLINE
  5
236
100
AcDbEntity
  8
0
100
AcDbPolyline
 62
7
  6
CONTINUOUS
 90
2
 70
0
 43
0.2
 10
337.2980979431
 20
24.4581261731
 10
337.5192392122
 20
24.4581261731
  0
LWPOLYLINE
  5
237
100
AcDbEntity
  8
0
100
AcDbPolyline
 62
7
  6
CONTINUOUS
 90
2
 70
0
 43
0.2
 10
337.5192392122
 20
24.4581261731
 10
337.5192392122
 20
25.6101544177
  0
LWPOLYLINE
  5
238
100
AcDbEntity
  8
0
100
AcDbPolyline
 62
7
  6
CONTINUOUS
 90
2
 70
1
 43
0.2
 10
337.256215935
 20
26.1401083467
 42
1.0
 10
337.5613829259
 20
26.1401083467
 42
1.0
  0
SPLINE
  5
239
100
AcDbEntity
  8
0
100
AcDbSpline
 62
7
  6
CONTINUOUS
 70
2
 71
3
 72
17
 73
13
 74
0
 42
0.0000001
 43
0.0000001
 44
0.0000000001
 40
0.0
 40
0.0
 40
0.0
 40
0.0
 40
1.0
 40
1.0
 40
1.0
 40
2.0
 40
2.0
 40
2.0
 40
3.0
 40
3.0
 40
3.0
 40
4.0
 40
4.0
 40
4.0
 40
4.0
 10
339.6495231538
 20
24.6156729707
 30
0.0
 10
339.4155583082
 20
24.6156729707
 30
0.0
 10
339.2852288975
 20
24.8177097279
 30
0.0
 10
339.2852288975
 20
25.0338785897
 30
0.0
 10
339.2852288975
 20
25.2484772178
 30
0.0
 10
339.4210541267
 20
25.4473735072
 30
0.0
 10
339.6495231538
 20
25.4473735072
 30
0.0
 10
339.888983818
 20
25.4473735072
 30
0.0
 10
340.0245473416
 20
25.2584220322
 30
0.0
 10
340.0245473416
 20
25.0338785897
 30
0.0
 10
340.0245473416
 20
24.8077649134
 30
0.0
 10
339.8913391688
 20
24.6156729707
 30
0.0
 10
339.6495231538
 20
24.6156729707
 30
0.0
  0
SPLINE
  5
23A
100
AcDbEntity
  8
0
100
AcDbSpline
 62
7
  6
CONTINUOUS
 70
2
 71
3
 72
50
 73
46
 74
0
 42
0.0000001
 43
0.0000001
 44
0.0000000001
 40
0.0
 40
0.0
 40
0.0
 40
0.0
 40
1.0
 40
1.0
 40
1.0
 40
2.0
 40
2.0
 40
2.0
 40
3.0
 40
3.0
 40
3.0
 40
4.0
 40
4.0
 40
4.0
 40
5.0
 40
5.0
 40
5.0
 40
6.0
 40
6.0
 40
6.0
 40
7.0
 40
7.0
 40
7.0
 40
8.0
 40
8.0
 40
8.0
 40
9.0
 40
9.0
 40
9.0
 40
10.0
 40
10.0
 40
10.0
 40
11.0
 40
11.0
 40
11.0
 40
12.0
 40
12.0
 40
12.0
 40
13.0
 40
13.0
 40
13.0
 40
14.0
 40
14.0
 40
14.0
 40
15.0
 40
15.0
 40
15.0
 40
15.0
 10
340.2336501511
 20
25.610677829
 30
0.0
 10
340.2336501511
 20
25.610677829
 30
0.0
 10
340.0119854707
 20
25.610677829
 30
0.0
 10
340.0119854707
 20
25.610677829
 30
0.0
 10
340.0119854707
 20
25.610677829
 30
0.0
 10
340.0119854707
 20
25.4133517734
 30
0.0
 10
340.0119854707
 20
25.4133517734
 30
0.0
 10
340.0119854707
 20
25.4133517734
 30
0.0
 10
340.0072747691
 20
25.4133517734
 30
0.0
 10
340.0072747691
 20
25.4133517734
 30
0.0
 10
339.9159394994
 20
25.556243055
 30
0.0
 10
339.778020625
 20
25.6446995627
 30
0.0
 10
339.6052949
 20
25.6446995627
 30
0.0
 10
339.2729287322
 20
25.6446995627
 30
0.0
 10
339.0638259227
 20
25.3568233544
 30
0.0
 10
339.0638259227
 20
25.0412063478
 30
0.0
 10
339.0638259227
 20
24.7114572364
 30
0.0
 10
339.2608902726
 20
24.4183469152
 30
0.0
 10
339.6157631258
 20
24.4183469152
 30
0.0
 10
339.778020625
 20
24.4183469152
 30
0.0
 10
339.9180331445
 20
24.5068034229
 30
0.0
 10
340.0072747691
 20
24.6376562448
 30
0.0
 10
340.0072747691
 20
24.6376562448
 30
0.0
 10
340.0119854707
 20
24.6376562448
 30
0.0
 10
340.0119854707
 20
24.6376562448
 30
0.0
 10
340.0119854707
 20
24.6376562448
 30
0.0
 10
340.0119854707
 20
24.4183469152
 30
0.0
 10
340.0119854707
 20
24.4183469152
 30
0.0
 10
340.0119854707
 20
24.1817650131
 30
0.0
 10
339.9554570516
 20
23.9949071833
 30
0.0
 10
339.6822363593
 20
23.9949071833
 30
0.0
 10
339.4799378966
 20
23.9949071833
 30
0.0
 10
339.3373083206
 20
24.1131981344
 30
0.0
 10
339.3373083206
 20
24.3194221818
 30
0.0
 10
339.3373083206
 20
24.3194221818
 30
0.0
 10
339.1156436402
 20
24.3194221818
 30
0.0
 10
339.1156436402
 20
24.3194221818
 30
0.0
 10
339.1206160475
 20
23.9949071833
 30
0.0
 10
339.351702131
 20
23.7981045391
 30
0.0
 10
339.6720298392
 20
23.7981045391
 30
0.0
 10
340.1200699016
 20
23.7981045391
 30
0.0
 10
340.2336501511
 20
24.083363691
 30
0.0
 10
340.2336501511
 20
24.4801094472
 30
0.0
 10
340.2336501511
 20
24.4801094472
 30
0.0
 10
340.2336501511
 20
25.610677829
 30
0.0
 10
340.2336501511
 20
25.610677829
 30
0.0
  0
SPLINE
  5
23B
100
AcDbEntity
  8
0
100
AcDbSpline
 62
7
  6
CONTINUOUS
 70
2
 71
3
 72
44
 73
40
 74
0
 42
0.0000001
 43
0.0000001
 44
0.0000000001
 40
0.0
 40
0.0
 40
0.0
 40
0.0
 40
1.0
 40
1.0
 40
1.0
 40
2.0
 40
2.0
 40
2.0
 40
3.0
 40
3.0
 40
3.0
 40
4.0
 40
4.0
 40
4.0
 40
5.0
 40
5.0
 40
5.0
 40
6.0
 40
6.0
 40
6.0
 40
7.0
 40
7.0
 40
7.0
 40
8.0
 40
8.0
 40
8.0
 40
9.0
 40
9.0
 40
9.0
 40
10.0
 40
10.0
 40
10.0
 40
11.0
 40
11.0
 40
11.0
 40
12.0
 40
12.0
 40
12.0
 40
13.0
 40
13.0
 40
13.0
 40
13.0
 10
341.8025754865
 20
26.5957378727
 30
0.0
 10
341.8025754865
 20
26.5957378727
 30
0.0
 10
341.8025754865
 20
24.4576027618
 30
0.0
 10
341.8025754865
 20
24.4576027618
 30
0.0
 10
341.8025754865
 20
24.4576027618
 30
0.0
 10
342.0239784613
 20
24.4576027618
 30
0.0
 10
342.0239784613
 20
24.4576027618
 30
0.0
 10
342.0239784613
 20
24.4576027618
 30
0.0
 10
342.0239784613
 20
24.9872949851
 30
0.0
 10
342.0239784613
 20
24.9872949851
 30
0.0
 10
342.0239784613
 20
25.1971829116
 30
0.0
 10
342.0239784613
 20
25.4478969184
 30
0.0
 10
342.3092376132
 20
25.4478969184
 30
0.0
 10
342.5361364065
 20
25.4478969184
 30
0.0
 10
342.5630920878
 20
25.3149504513
 30
0.0
 10
342.5630920878
 20
25.1186712184
 30
0.0
 10
342.5630920878
 20
25.1186712184
 30
0.0
 10
342.5630920878
 20
24.4576027618
 30
0.0
 10
342.5630920878
 20
24.4576027618
 30
0.0
 10
342.5630920878
 20
24.4576027618
 30
0.0
 10
342.7850184738
 20
24.4576027618
 30
0.0
 10
342.7850184738
 20
24.4576027618
 30
0.0
 10
342.7850184738
 20
24.4576027618
 30
0.0
 10
342.7850184738
 20
25.1448417828
 30
0.0
 10
342.7850184738
 20
25.1448417828
 30
0.0
 10
342.7850184738
 20
25.4253902331
 30
0.0
 10
342.7010109621
 20
25.645222974
 30
0.0
 10
342.3759725524
 20
25.645222974
 30
0.0
 10
342.2362217385
 20
25.645222974
 30
0.0
 10
342.0980411585
 20
25.5787497404
 30
0.0
 10
342.0286891629
 20
25.4557480878
 30
0.0
 10
342.0286891629
 20
25.4557480878
 30
0.0
 10
342.0239784613
 20
25.4557480878
 30
0.0
 10
342.0239784613
 20
25.4557480878
 30
0.0
 10
342.0239784613
 20
25.4557480878
 30
0.0
 10
342.0239784613
 20
26.5957378727
 30
0.0
 10
342.0239784613
 20
26.5957378727
 30
0.0
 10
342.0239784613
 20
26.5957378727
 30
0.0
 10
341.8025754865
 20
26.5957378727
 30
0.0
 10
341.8025754865
 20
26.5957378727
 30
0.0
  0
LWPOLYLINE
  5
23C
100
AcDbEntity
  8
0
100
AcDbPolyline
 62
7
  6
CONTINUOUS
 90
2
 70
0
 43
0.2
 10
344.6248091507
 20
25.403406959
 10
344.8412397182
 20
25.403406959
  0
LWPOLYLINE
  5
23D
100
AcDbEntity
  8
0
100
AcDbPolyline
 62
7
  6
CONTINUOUS
 90
2
 70
0
 43
0.2
 10
344.8412397182
 20
25.403406959
 10
344.8412397182
 20
25.6101544177
  0
LWPOLYLINE
  5
23E
100
AcDbEntity
  8
0
100
AcDbPolyline
 62
7
  6
CONTINUOUS
 90
2
 70
0
 43
0.2
 10
344.8412397182
 20
25.6101544177
 10
344.6248091507
 20
25.6101544177
  0
LWPOLYLINE
  5
23F
100
AcDbEntity
  8
0
100
AcDbPolyline
 62
7
  6
CONTINUOUS
 90
2
 70
0
 43
0.2
 10
344.6248091507
 20
25.6101544177
 10
344.6248091507
 20
26.0508667221
  0
LWPOLYLINE
  5
240
100
AcDbEntity
  8
0
100
AcDbPolyline
 62
7
  6
CONTINUOUS
 90
2
 70
0
 43
0.2
 10
344.6248091507
 20
26.0508667221
 10
344.4031444703
 20
26.0508667221
  0
LWPOLYLINE
  5
241
100
AcDbEntity
  8
0
100
AcDbPolyline
 62
7
  6
CONTINUOUS
 90
2
 70
0
 43
0.2
 10
344.4031444703
 20
26.0508667221
 10
344.4031444703
 20
25.6101544177
  0
LWPOLYLINE
  5
242
100
AcDbEntity
  8
0
100
AcDbPolyline
 62
7
  6
CONTINUOUS
 90
2
 70
0
 43
0.2
 10
344.4031444703
 20
25.6101544177
 10
344.2824981684
 20
25.6101544177
  0
LWPOLYLINE
  5
243
100
AcDbEntity
  8
0
100
AcDbPolyline
 62
7
  6
CONTINUOUS
 90
2
 70
0
 43
0.2
 10
344.2824981684
 20
25.6101544177
 10
344.2824981684
 20
25.403406959
  0
LWPOLYLINE
  5
244
100
AcDbEntity
  8
0
100
AcDbPolyline
 62
7
  6
CONTINUOUS
 90
2
 70
0
 43
0.2
 10
344.2824981684
 20
25.403406959
 10
344.4031444703
 20
25.403406959
  0
LWPOLYLINE
  5
245
100
AcDbEntity
  8
0
100
AcDbPolyline
 62
7
  6
CONTINUOUS
 90
2
 70
0
 43
0.2
 10
344.4031444703
 20
25.403406959
 10
344.4031444703
 20
24.4576027618
  0
LWPOLYLINE
  5
246
100
AcDbEntity
  8
0
100
AcDbPolyline
 62
7
  6
CONTINUOUS
 90
2
 70
0
 43
0.2
 10
344.4031444703
 20
24.4576027618
 10
344.6248091507
 20
24.4576027618
  0
LWPOLYLINE
  5
247
100
AcDbEntity
  8
0
100
AcDbPolyline
 62
7
  6
CONTINUOUS
 90
2
 70
0
 43
0.2
 10
344.6248091507
 20
24.4576027618
 10
344.6248091507
 20
25.403406959
  0
SPLINE
  5
248
100
AcDbEntity
  8
0
100
AcDbSpline
 62
7
  6
CONTINUOUS
 70
2
 71
3
 72
20
 73
16
 74
0
 42
0.0000001
 43
0.0000001
 44
0.0000000001
 40
0.0
 40
0.0
 40
0.0
 40
0.0
 40
1.0
 40
1.0
 40
1.0
 40
2.0
 40
2.0
 40
2.0
 40
3.0
 40
3.0
 40
3.0
 40
4.0
 40
4.0
 40
4.0
 40
5.0
 40
5.0
 40
5.0
 40
5.0
 10
332.4068194579
 20
34.8185292052
 30
0.0
 10
332.4068194579
 20
34.8185292052
 30
0.0
 10
334.7231761124
 20
31.988967783
 30
0.0
 10
334.7231761124
 20
31.988967783
 30
0.0
 10
334.071529059
 20
31.3367973183
 30
0.0
 10
333.294655855
 20
30.6008810475
 30
0.0
 10
332.3234662104
 20
30.6008810475
 30
0.0
 10
331.3249283259
 20
30.6008810475
 30
0.0
 10
330.3816103324
 20
31.5304594948
 30
0.0
 10
330.3816103324
 20
32.5296516433
 30
0.0
 10
330.3816103324
 20
33.5288437919
 30
0.0
 10
331.5604634055
 20
34.2354490305
 30
0.0
 10
332.2819858658
 20
34.7353068104
 30
0.0
 10
332.2819858658
 20
34.7353068104
 30
0.0
 10
332.4068194579
 20
34.8185292052
 30
0.0
 10
332.4068194579
 20
34.8185292052
 30
0.0
  0
SPLINE
  5
249
100
AcDbEntity
  8
0
100
AcDbSpline
 62
7
  6
CONTINUOUS
 70
2
 71
3
 72
23
 73
19
 74
0
 42
0.0000001
 43
0.0000001
 44
0.0000000001
 40
0.0
 40
0.0
 40
0.0
 40
0.0
 40
1.0
 40
1.0
 40
1.0
 40
2.0
 40
2.0
 40
2.0
 40
3.0
 40
3.0
 40
3.0
 40
4.0
 40
4.0
 40
4.0
 40
5.0
 40
5.0
 40
5.0
 40
6.0
 40
6.0
 40
6.0
 40
6.0
 10
332.6842274405
 20
36.4562831249
 30
0.0
 10
332.6842274405
 20
36.4562831249
 30
0.0
 10
332.3377291679
 20
36.8996124858
 30
0.0
 10
332.3377291679
 20
36.8996124858
 30
0.0
 10
332.031926123
 20
37.2877219557
 30
0.0
 10
331.7130377959
 20
37.6762239841
 30
0.0
 10
331.7130377959
 20
38.2031682982
 30
0.0
 10
331.7130377959
 20
38.8693400148
 30
0.0
 10
332.2543759204
 20
39.3130619341
 30
0.0
 10
332.8782821755
 20
39.3130619341
 30
0.0
 10
333.5720638376
 20
39.3130619341
 30
0.0
 10
334.0992698573
 20
38.9108203594
 30
0.0
 10
334.0992698573
 20
38.1758200584
 30
0.0
 10
334.0992698573
 20
37.4125555479
 30
0.0
 10
333.3780091026
 20
36.9824423221
 30
0.0
 10
332.8509339357
 20
36.5667229067
 30
0.0
 10
332.8509339357
 20
36.5667229067
 30
0.0
 10
332.6842274405
 20
36.4562831249
 30
0.0
 10
332.6842274405
 20
36.4562831249
 30
0.0
  0
SPLINE
  5
24A
100
AcDbEntity
  8
0
100
AcDbSpline
 62
7
  6
CONTINUOUS
 70
2
 71
3
 72
50
 73
46
 74
0
 42
0.0000001
 43
0.0000001
 44
0.0000000001
 40
0.0
 40
0.0
 40
0.0
 40
0.0
 40
1.0
 40
1.0
 40
1.0
 40
2.0
 40
2.0
 40
2.0
 40
3.0
 40
3.0
 40
3.0
 40
4.0
 40
4.0
 40
4.0
 40
5.0
 40
5.0
 40
5.0
 40
6.0
 40
6.0
 40
6.0
 40
7.0
 40
7.0
 40
7.0
 40
8.0
 40
8.0
 40
8.0
 40
9.0
 40
9.0
 40
9.0
 40
10.0
 40
10.0
 40
10.0
 40
11.0
 40
11.0
 40
11.0
 40
12.0
 40
12.0
 40
12.0
 40
13.0
 40
13.0
 40
13.0
 40
14.0
 40
14.0
 40
14.0
 40
15.0
 40
15.0
 40
15.0
 40
15.0
 10
336.6378146034
 20
29.6576939068
 30
0.0
 10
336.6378146034
 20
29.6576939068
 30
0.0
 10
338.247042608
 20
29.6576939068
 30
0.0
 10
338.247042608
 20
29.6576939068
 30
0.0
 10
338.247042608
 20
29.6576939068
 30
0.0
 10
336.3740153144
 20
31.9748356782
 30
0.0
 10
336.3740153144
 20
31.9748356782
 30
0.0
 10
336.3740153144
 20
31.9748356782
 30
0.0
 10
337.6503537398
 20
33.4723153728
 30
0.0
 10
337.6503537398
 20
33.4723153728
 30
0.0
 10
337.6503537398
 20
33.4723153728
 30
0.0
 10
336.8181297921
 20
34.3333269413
 30
0.0
 10
336.8181297921
 20
34.3333269413
 30
0.0
 10
336.8181297921
 20
34.3333269413
 30
0.0
 10
335.5975346688
 20
32.9180228189
 30
0.0
 10
335.5975346688
 20
32.9180228189
 30
0.0
 10
335.5975346688
 20
32.9180228189
 30
0.0
 10
333.4196203
 20
35.5533986534
 30
0.0
 10
333.4196203
 20
35.5533986534
 30
0.0
 10
334.2931937394
 20
36.1914370133
 30
0.0
 10
335.3198649806
 20
36.9824423221
 30
0.0
 10
335.3198649806
 20
38.1612953952
 30
0.0
 10
335.3198649806
 20
39.5349883202
 30
0.0
 10
334.1819688408
 20
40.3394714696
 30
0.0
 10
332.9066772379
 20
40.3394714696
 30
0.0
 10
331.5332460185
 20
40.3394714696
 30
0.0
 10
330.4923118197
 20
39.49324627
 30
0.0
 10
330.4923118197
 20
38.0505939078
 30
0.0
 10
330.4923118197
 20
37.1630192164
 30
0.0
 10
331.0476511962
 20
36.3861460124
 30
0.0
 10
331.6438166531
 20
35.7617163459
 30
0.0
 10
331.6438166531
 20
35.7617163459
 30
0.0
 10
330.991907894
 20
35.2901227756
 30
0.0
 10
330.991907894
 20
35.2901227756
 30
0.0
 10
329.9933700096
 20
34.5688620209
 30
0.0
 10
329.1604917978
 20
33.8476012662
 30
0.0
 10
329.1604917978
 20
32.5160429498
 30
0.0
 10
329.1604917978
 20
30.7123676518
 30
0.0
 10
330.6175379704
 20
29.4357675207
 30
0.0
 10
332.3650774077
 20
29.4357675207
 30
0.0
 10
333.5999354886
 20
29.4357675207
 30
0.0
 10
334.7093057133
 20
30.1439429932
 30
0.0
 10
335.5001801693
 20
31.0724746179
 30
0.0
 10
335.5001801693
 20
31.0724746179
 30
0.0
 10
336.6378146034
 20
29.6576939068
 30
0.0
 10
336.6378146034
 20
29.6576939068
 30
0.0
  0
LINE
  5
24B
100
AcDbEntity
  8
0
100
AcDbLine
 62
7
  6
CONTINUOUS
 10
322.4406759784
 20
27.6315688114
 11
344.8545867061
 21
27.6315688114
  0
LINE
  5
24C
100
AcDbEntity
  8
0
100
AcDbLine
 62
7
  6
CONTINUOUS
 10
344.8545867061
 20
27.6315688114
 11
344.8545867061
 21
50.0454795391
  0
LINE
  5
24D
100
AcDbEntity
  8
0
100
AcDbLine
 62
7
  6
CONTINUOUS
 10
344.8545867061
 20
50.0454795391
 11
322.4406759784
 21
50.0454795391
  0
LINE
  5
24E
100
AcDbEntity
  8
0
100
AcDbLine
 62
7
  6
CONTINUOUS
 10
322.4406759784
 20
50.0454795391
 11
322.4406759784
 21
27.6315688114
  0
ENDBLK
  5
24F
100
AcDbEntity
  8
0
  6
BYBLOCK
 62
0
100
AcDbBlockEnd
  0
BLOCK
  5
250
100
AcDbEntity
  8
0
100
AcDbBlockBegin
  2
_CLOSED
 70
64
 10
0.0
 20
0.0
  3
_CLOSED
  1

  0
LINE
  5
251
100
AcDbEntity
  8
0
  6
BYBLOCK
 62
0
100
AcDbLine
 10
0.0
 20
0.0
 11
-1.0
 21
0.2
  0
LINE
  5
252
100
AcDbEntity
  8
0
  6
BYBLOCK
 62
0
100
AcDbLine
 10
-1.0
 20
0.2
 11
-1.0
 21
-0.2
  0
LINE
  5
253
100
AcDbEntity
  8
0
  6
BYBLOCK
 62
0
100
AcDbLine
 10
-1.0
 20
-0.2
 11
0.0
 21
0.0
  0
LINE
  5
254
100
AcDbEntity
  8
0
  6
BYBLOCK
 62
0
100
AcDbLine
 10
-1.0
 20
0.0
 11
0.0
 21
0.0
  0
ENDBLK
  5
255
100
AcDbEntity
  8
0
  6
BYBLOCK
 62
0
100
AcDbBlockEnd
  0
BLOCK
  5
256
100
AcDbEntity
  8
0
100
AcDbBlockBegin
 62
2
  6
CONTINUOUS
  2
*D0
 70
65
 10
0.0
 20
0.0
  3
*D0
  1

  0
MTEXT
  5
257
100
AcDbEntity
  8
0
100
AcDbMText
 62
2
  6
CONTINUOUS
  7
STANDARD
 71
2
 72
1
 10
36.8817909999
 20
197.6442524799
 30
0.0
 11
1.0
 21
0.0
 31
0.0
  1
46
 40
3.0
 41
4.6617100372
  0
LINE
  5
258
100
AcDbEntity
  8
0
100
AcDbLine
 62
2
  6
CONTINUOUS
 10
13.8817909999
 20
185.7490257382
 11
13.8817909999
 21
194.6442524799
  0
LINE
  5
259
100
AcDbEntity
  8
0
100
AcDbLine
 62
2
  6
CONTINUOUS
 10
59.8817909999
 20
185.9671859629
 11
59.8817909999
 21
194.6442524799
  0
LINE
  5
25A
100
AcDbEntity
  8
0
100
AcDbLine
 62
2
  6
CONTINUOUS
 10
13.8817909999
 20
193.8942524799
 11
36.8817909999
 21
193.8942524799
  0
LINE
  5
25B
100
AcDbEntity
  8
0
100
AcDbLine
 62
2
  6
CONTINUOUS
 10
59.8817909999
 20
193.8942524799
 11
36.8817909999
 21
193.8942524799
  0
INSERT
  5
25C
100
AcDbEntity
  8
0
100
AcDbBlockReference
 62
2
  6
CONTINUOUS
  2
_CLOSED
 10
13.8817909999
 20
193.8942524799
 41
2.5
 42
2.5
 43
2.5
 50
180.0
  0
INSERT
  5
25D
100
AcDbEntity
  8
0
100
AcDbBlockReference
 62
2
  6
CONTINUOUS
  2
_CLOSED
 10
59.8817909999
 20
193.8942524799
 41
2.5
 42
2.5
 43
2.5
  0
ENDBLK
  5
25E
100
AcDbEntity
  8
0
  6
BYBLOCK
 62
0
100
AcDbBlockEnd
  0
BLOCK
  5
25F
100
AcDbEntity
  8
0
100
AcDbBlockBegin
 62
2
  6
CONTINUOUS
  2
*D1
 70
65
 10
0.0
 20
0.0
  3
*D1
  1

  0
MTEXT
  5
260
100
AcDbEntity
  8
0
100
AcDbMText
 62
2
  6
CONTINUOUS
  7
STANDARD
 71
2
 72
1
 10
156.9019813951
 20
197.6442524799
 30
0.0
 11
1.0
 21
0.0
 31
0.0
  1
157
 40
3.0
 41
6.9925650558
  0
LINE
  5
261
100
AcDbEntity
  8
0
100
AcDbLine
 62
2
  6
CONTINUOUS
 10
235.385259335
 20
185.7490257382
 11
235.385259335
 21
194.6442524799
  0
LINE
  5
262
100
AcDbEntity
  8
0
100
AcDbLine
 62
2
  6
CONTINUOUS
 10
78.4187034552
 20
185.7490257382
 11
78.4187034552
 21
194.6442524799
  0
LINE
  5
263
100
AcDbEntity
  8
0
100
AcDbLine
 62
2
  6
CONTINUOUS
 10
235.385259335
 20
193.8942524799
 11
156.9019813951
 21
193.8942524799
  0
LINE
  5
264
100
AcDbEntity
  8
0
100
AcDbLine
 62
2
  6
CONTINUOUS
 10
78.4187034552
 20
193.8942524799
 11
156.9019813951
 21
193.8942524799
  0
INSERT
  5
265
100
AcDbEntity
  8
0
100
AcDbBlockReference
 62
2
  6
CONTINUOUS
  2
_CLOSED
 10
235.385259335
 20
193.8942524799
 41
2.5
 42
2.5
 43
2.5
  0
INSERT
  5
266
100
AcDbEntity
  8
0
100
AcDbBlockReference
 62
2
  6
CONTINUOUS
  2
_CLOSED
 10
78.4187034552
 20
193.8942524799
 41
2.5
 42
2.5
 43
2.5
 50
180.0
  0
ENDBLK
  5
267
100
AcDbEntity
  8
0
  6
BYBLOCK
 62
0
100
AcDbBlockEnd
  0
BLOCK
  5
268
100
AcDbEntity
  8
0
100
AcDbBlockBegin
 62
2
  6
CONTINUOUS
  2
*D2
 70
65
 10
0.0
 20
0.0
  3
*D2
  1

  0
MTEXT
  5
269
100
AcDbEntity
  8
0
100
AcDbMText
 62
2
  6
CONTINUOUS
  7
STANDARD
 71
2
 72
1
 10
64.8059623768
 20
108.7678741086
 30
0.0
 11
0.0
 21
1.0
 31
0.0
  1
143,1
 40
3.0
 41
10.4832713755
  0
LINE
  5
26A
100
AcDbEntity
  8
0
100
AcDbLine
 62
2
  6
CONTINUOUS
 10
74.8637085295
 20
180.3011520485
 11
67.8059623768
 21
180.3011520485
  0
LINE
  5
26B
100
AcDbEntity
  8
0
100
AcDbLine
 62
2
  6
CONTINUOUS
 10
75.2218160576
 20
37.2345961686
 11
67.8059623768
 21
37.2345961686
  0
LINE
  5
26C
100
AcDbEntity
  8
0
100
AcDbLine
 62
2
  6
CONTINUOUS
 10
68.5559623768
 20
180.3011520485
 11
68.5559623768
 21
108.7678741086
  0
LINE
  5
26D
100
AcDbEntity
  8
0
100
AcDbLine
 62
2
  6
CONTINUOUS
 10
68.5559623768
 20
37.2345961686
 11
68.5559623768
 21
108.7678741086
  0
INSERT
  5
26E
100
AcDbEntity
  8
0
100
AcDbBlockReference
 62
2
  6
CONTINUOUS
  2
_CLOSED
 10
68.5559623768
 20
180.3011520485
 41
2.5
 42
2.5
 43
2.5
 50
90.0
  0
INSERT
  5
26F
100
AcDbEntity
  8
0
100
AcDbBlockReference
 62
2
  6
CONTINUOUS
  2
_CLOSED
 10
68.5559623768
 20
37.2345961686
 41
2.5
 42
2.5
 43
2.5
 50
270.0
  0
ENDBLK
  5
270
100
AcDbEntity
  8
0
  6
BYBLOCK
 62
0
100
AcDbBlockEnd
  0
ENDSEC
  0
SECTION
  2
ENTITIES
  0
DIMENSION
  5
271
100
AcDbEntity
  8
0
100
AcDbDimension
 62
2
  6
CONTINUOUS
  2
*D0
 10
59.8817909999
 20
193.8942524799
 11
36.8068306732
 21
193.8942524799
 70
160
  3
DIMSTYLE_1
100
AcDbAlignedDimension
 13
13.8817909999
 23
184.9990257382
 14
59.8817909999
 24
185.2171859629
100
AcDbRotatedDimension
  0
DIMENSION
  5
272
100
AcDbEntity
  8
0
100
AcDbDimension
 62
2
  6
CONTINUOUS
  2
*D1
 10
78.4187034552
 20
193.8942524799
 11
157.0308709717
 21
193.8942524799
 70
160
  3
DIMSTYLE_2
100
AcDbAlignedDimension
 13
235.385259335
 23
184.9990257382
 14
78.4187034552
 24
184.9990257382
 50
180.0
100
AcDbRotatedDimension
  0
DIMENSION
  5
273
100
AcDbEntity
  8
0
100
AcDbDimension
 62
2
  6
CONTINUOUS
  2
*D2
 10
68.5559623768
 20
37.2345961686
 11
68.5559623768
 21
108.6053717167
 70
160
  3
DIMSTYLE_2
100
AcDbAlignedDimension
 13
75.6137085295
 23
180.3011520485
 14
75.9718160576
 24
37.2345961686
 50
270.0
100
AcDbRotatedDimension
  0
LINE
  5
274
100
AcDbEntity
  8
0
100
AcDbLine
 62
2
  6
CONTINUOUS
 10
319.8215188711
 20
50.4217920391
 11
409.8215188711
 21
50.4217920391
  0
LINE
  5
275
100
AcDbEntity
  8
0
100
AcDbLine
 62
2
  6
CONTINUOUS
 10
319.8215188711
 20
50.4217920391
 11
319.8215188711
 21
10.4217920391
  0
LINE
  5
276
100
AcDbEntity
  8
0
100
AcDbLine
 62
2
  6
CONTINUOUS
 10
349.8215188711
 20
44.4217920391
 11
409.8215188711
 21
44.4217920391
  0
LINE
  5
277
100
AcDbEntity
  8
0
100
AcDbLine
 62
2
  6
CONTINUOUS
 10
349.8215188711
 20
38.4217920391
 11
409.8215188711
 21
38.4217920391
  0
LINE
  5
278
100
AcDbEntity
  8
0
100
AcDbLine
 62
2
  6
CONTINUOUS
 10
349.8215188711
 20
28.4217920391
 11
409.8215188711
 21
28.4217920391
  0
LINE
  5
279
100
AcDbEntity
  8
0
100
AcDbLine
 62
2
  6
CONTINUOUS
 10
319.8215188711
 20
23.4217920391
 11
409.8215188711
 21
23.4217920391
  0
LINE
  5
27A
100
AcDbEntity
  8
0
100
AcDbLine
 62
2
  6
CONTINUOUS
 10
319.8215188711
 20
10.4217920391
 11
409.8215188711
 21
10.4217920391
  0
LINE
  5
27B
100
AcDbEntity
  8
0
100
AcDbLine
 62
2
  6
CONTINUOUS
 10
349.8215188711
 20
50.4217920391
 11
349.8215188711
 21
23.4217920391
  0
LINE
  5
27C
100
AcDbEntity
  8
0
100
AcDbLine
 62
2
  6
CONTINUOUS
 10
389.8215188711
 20
50.4217920391
 11
389.8215188711
 21
38.4217920391
  0
LINE
  5
27D
100
AcDbEntity
  8
0
100
AcDbLine
 62
2
  6
CONTINUOUS
 10
409.8215188711
 20
50.4217920391
 11
409.8215188711
 21
10.4217920391
  0
INSERT
  5
27E
100
AcDbEntity
  8
0
100
AcDbBlockReference
 62
2
  6
CONTINUOUS
  2
LOGO2_BL0
 10
333.6475659158
 20
36.9217920391
  0
MTEXT
  5
27F
100
AcDbEntity
  8
9_SOLID
100
AcDbMText
 62
2
  6
CONTINUOUS
  7
TEXTSTYLE_2
 71
1
 72
1
 10
351.3090188711
 20
48.9217920391
 30
0.0
 11
1.0
 21
0.0
 31
0.0
  1
39E_C_010
 40
3.0
 41
31.2857142857
  0
MTEXT
  5
280
100
AcDbEntity
  8
0
100
AcDbMText
 62
2
  6
CONTINUOUS
  7
TEXTSTYLE_2
 71
1
 72
1
 10
391.3090188711
 20
49.1717920391
 30
0.0
 11
1.0
 21
0.0
 31
0.0
  1
Rev:00
 40
3.5
 41
22.75
  0
MTEXT
  5
281
100
AcDbEntity
  8
9_SOLID
100
AcDbMText
 62
2
  6
CONTINUOUS
  7
TEXTSTYLE_2
 71
1
 72
1
 10
351.3090188711
 20
42.6717920391
 30
0.0
 11
1.0
 21
0.0
 31
0.0
  1
Scale:1:1
 40
3.5
 41
28.375
  0
MTEXT
  5
282
100
AcDbEntity
  8
9_SOLID
100
AcDbMText
 62
2
  6
CONTINUOUS
  7
TEXTSTYLE_2
 71
1
 72
1
 10
391.3090188711
 20
43.1717920391
 30
0.0
 11
1.0
 21
0.0
 31
0.0
  1
A3
 40
3.5
 41
9.25
  0
MTEXT
  5
283
100
AcDbEntity
  8
0
100
AcDbMText
 62
2
  6
CONTINUOUS
  7
TEXTSTYLE_2
 71
1
 72
1
 10
351.3090188711
 20
35.1717920391
 30
0.0
 11
1.0
 21
0.0
 31
0.0
  1
PASITO 1.2
 40
3.5
 41
40.0
  0
MTEXT
  5
284
100
AcDbEntity
  8
0
100
AcDbMText
 62
2
  6
CONTINUOUS
  7
TEXTSTYLE_2
 71
1
 72
1
 10
351.3090188711
 20
27.1717920391
 30
0.0
 11
1.0
 21
0.0
 31
0.0
  1
DATE:28/08/18
 40
2.5
 41
37.1428571429
  0
MTEXT
  5
285
100
AcDbEntity
  8
9_SOLID
100
AcDbMText
 62
2
  6
CONTINUOUS
  7
TEXTSTYLE_2
 71
1
 72
1
 10
321.3090188711
 20
23.1092920391
 30
0.0
 11
1.0
 21
0.0
 31
0.0
  1
Any integral or partial reproductions are prohibited \Pwithout prior authorisation of L {\Ftxt.shx;\W0.190476;\H2.250000; }& L Luce & Light s.r.l., \Pin accordance with the law in force. \PAll rights reserved.
 40
2.25
 41
134.5982142857
  0
LINE
  5
286
100
AcDbEntity
  8
0
100
AcDbLine
 62
7
  6
CONTINUOUS
 10
0.0
 20
0.0
 11
0.0
 21
297.0
  0
LINE
  5
287
100
AcDbEntity
  8
0
100
AcDbLine
 62
7
  6
CONTINUOUS
 10
0.0
 20
0.0
 11
420.0
 21
0.0
  0
LINE
  5
288
100
AcDbEntity
  8
0
100
AcDbLine
 62
7
  6
CONTINUOUS
 10
0.0
 20
297.0
 11
420.0
 21
297.0
  0
LINE
  5
289
100
AcDbEntity
  8
0
100
AcDbLine
 62
7
  6
CONTINUOUS
 10
420.0
 20
0.0
 11
420.0
 21
297.0
  0
LWPOLYLINE
  5
28A
100
AcDbEntity
  8
7_ALL_FEATURES
100
AcDbPolyline
 62
7
  6
CONTINUOUS
 90
8
 70
0
 10
78.4183467858
 20
41.233644277
 10
78.4449953282
 20
40.4073834965
 10
78.6660672079
 20
39.4063377463
 10
79.1231804947
 20
38.5728160401
 10
79.7804487004
 20
37.9213871948
 10
80.6181262717
 20
37.4717953999
 10
81.6210921742
 20
37.2585535746
 10
82.4177515635
 20
37.2342396852
  0
LINE
  5
28B
100
AcDbEntity
  8
7_ALL_FEATURES
100
AcDbLine
 62
7
  6
CONTINUOUS
 10
78.4183464533
 20
176.3021039402
 11
78.4183464533
 21
41.233644277
  0
LINE
  5
28C
100
AcDbEntity
  8
7_ALL_FEATURES
100
AcDbLine
 62
9
  6
CONTINUOUS
 10
78.4187034552
 20
41.233644277
 11
78.4187034552
 21
176.3021039402
  0
LINE
  5
28D
100
AcDbEntity
  8
7_ALL_FEATURES
100
AcDbLine
 62
9
  6
CONTINUOUS
 10
79.362540813
 20
175.3582665824
 11
79.362540813
 21
42.1774816347
  0
LINE
  5
28E
100
AcDbEntity
  8
7_ALL_FEATURES
100
AcDbLine
 62
9
  6
CONTINUOUS
 10
80.3623028401
 20
175.3582665824
 11
80.3623028401
 21
42.1774816347
  0
LINE
  5
28F
100
AcDbEntity
  8
7_ALL_FEATURES
100
AcDbLine
 62
9
  6
CONTINUOUS
 10
82.4177515635
 20
180.3015090503
 11
82.4177515635
 21
180.3011520485
  0
LINE
  5
290
100
AcDbEntity
  8
7_ALL_FEATURES
100
AcDbLine
 62
9
  6
CONTINUOUS
 10
82.4177515635
 20
37.2342391668
 11
82.4177515635
 21
37.2345961686
  0
LWPOLYLINE
  5
291
100
AcDbEntity
  8
7_ALL_FEATURES
100
AcDbPolyline
 62
7
  6
CONTINUOUS
 90
8
 70
0
 10
231.3862112267
 20
37.2342394992
 10
232.2124720069
 20
37.2608880416
 10
233.2135177569
 20
37.4819599211
 10
234.0470394631
 20
37.9390732075
 10
234.6984683079
 20
38.5963414133
 10
235.1480601029
 20
39.4340189852
 10
235.361301932
 20
40.4369848855
 10
235.3856158185
 20
41.233644277
  0
LINE
  5
292
100
AcDbEntity
  8
7_ALL_FEATURES
100
AcDbLine
 62
7
  6
CONTINUOUS
 10
89.9145811904
 20
119.1322584891
 11
89.4434003844
 21
130.9766930921
  0
LINE
  5
293
100
AcDbEntity
  8
7_ALL_FEATURES
100
AcDbLine
 62
9
  6
CONTINUOUS
 10
88.8364021475
 20
131.0838103156
 11
88.8364021475
 21
47.7711085451
  0
LINE
  5
294
100
AcDbEntity
  8
7_ALL_FEATURES
100
AcDbLine
 62
9
  6
CONTINUOUS
 10
89.336283161
 20
131.0838103156
 11
89.336283161
 21
49.5400940544
  0
LINE
  5
295
100
AcDbEntity
  8
7_ALL_FEATURES
100
AcDbLine
 62
7
  6
CONTINUOUS
 10
89.9519813951
 20
131.9001654252
 11
89.9519813951
 21
119.1322584891
  0
LINE
  5
296
100
AcDbEntity
  8
7_ALL_FEATURES
100
AcDbLine
 62
9
  6
CONTINUOUS
 10
90.1309367696
 20
131.9741529142
 11
90.1309367696
 21
119.1322584891
  0
LINE
  5
297
100
AcDbEntity
  8
7_ALL_FEATURES
100
AcDbLine
 62
9
  6
CONTINUOUS
 10
90.3360451881
 20
132.0835723427
 11
90.3360451881
 21
132.5834533562
  0
LINE
  5
298
100
AcDbEntity
  8
7_ALL_FEATURES
100
AcDbLine
 62
9
  6
CONTINUOUS
 10
91.430491292
 20
132.0178741086
 11
91.430491292
 21
119.1322584891
  0
LINE
  5
299
100
AcDbEntity
  8
7_ALL_FEATURES
100
AcDbLine
 62
9
  6
CONTINUOUS
 10
95.3601628244
 20
119.1322584891
 11
95.3601628244
 21
120.6209159624
  0
LINE
  5
29A
100
AcDbEntity
  8
7_ALL_FEATURES
100
AcDbLine
 62
9
  6
CONTINUOUS
 10
95.6600600219
 20
119.1322584891
 11
95.6600600219
 21
120.7842824443
  0
LINE
  5
29B
100
AcDbEntity
  8
7_ALL_FEATURES
100
AcDbLine
 62
7
  6
CONTINUOUS
 10
89.3453269377
 20
50.9679020395
 11
89.3442679162
 21
49.7326223759
  0
LINE
  5
29C
100
AcDbEntity
  8
7_ALL_FEATURES
100
AcDbLine
 62
7
  6
CONTINUOUS
 10
89.3574106194
 20
52.469008177
 11
89.3563515979
 21
51.2337285134
  0
LINE
  5
29D
100
AcDbEntity
  8
7_ALL_FEATURES
100
AcDbLine
 62
7
  6
CONTINUOUS
 10
89.3694943011
 20
53.9701143145
 11
89.3684352795
 21
52.7348346508
  0
LINE
  5
29E
100
AcDbEntity
  8
7_ALL_FEATURES
100
AcDbLine
 62
7
  6
CONTINUOUS
 10
89.3815779828
 20
55.4712204519
 11
89.3805189612
 21
54.2359407883
  0
LINE
  5
29F
100
AcDbEntity
  8
7_ALL_FEATURES
100
AcDbLine
 62
7
  6
CONTINUOUS
 10
89.3936616644
 20
56.9723265894
 11
89.3926026429
 21
55.7370469258
  0
LINE
  5
2A0
100
AcDbEntity
  8
7_ALL_FEATURES
100
AcDbLine
 62
7
  6
CONTINUOUS
 10
89.4057453461
 20
58.4734327269
 11
89.4046863246
 21
57.2381530633
  0
LINE
  5
2A1
100
AcDbEntity
  8
7_ALL_FEATURES
100
AcDbLine
 62
7
  6
CONTINUOUS
 10
89.4178290278
 20
59.9745388644
 11
89.4167700063
 21
58.7392592008
  0
LINE
  5
2A2
100
AcDbEntity
  8
7_ALL_FEATURES
100
AcDbLine
 62
7
  6
CONTINUOUS
 10
89.4299127095
 20
61.4756450018
 11
89.428853688
 21
60.2403653382
  0
LINE
  5
2A3
100
AcDbEntity
  8
7_ALL_FEATURES
100
AcDbLine
 62
7
  6
CONTINUOUS
 10
89.4419963912
 20
62.9767511393
 11
89.4409373696
 21
61.7414714757
  0
LINE
  5
2A4
100
AcDbEntity
  8
7_ALL_FEATURES
100
AcDbLine
 62
7
  6
CONTINUOUS
 10
89.4540800729
 20
64.4778572768
 11
89.4530210513
 21
63.2425776132
  0
LINE
  5
2A5
100
AcDbEntity
  8
7_ALL_FEATURES
100
AcDbLine
 62
7
  6
CONTINUOUS
 10
89.4661637545
 20
65.9789634143
 11
89.465104733
 21
64.7436837507
  0
LINE
  5
2A6
100
AcDbEntity
  8
7_ALL_FEATURES
100
AcDbLine
 62
7
  6
CONTINUOUS
 10
89.4782474362
 20
67.4800695517
 11
89.4771884147
 21
66.2447898881
  0
LINE
  5
2A7
100
AcDbEntity
  8
7_ALL_FEATURES
100
AcDbLine
 62
7
  6
CONTINUOUS
 10
89.4903311179
 20
68.9811756892
 11
89.4892720964
 21
67.7458960256
  0
LINE
  5
2A8
100
AcDbEntity
  8
7_ALL_FEATURES
100
AcDbLine
 62
7
  6
CONTINUOUS
 10
89.5024147996
 20
70.4822818267
 11
89.5013557781
 21
69.2470021631
  0
LINE
  5
2A9
100
AcDbEntity
  8
7_ALL_FEATURES
100
AcDbLine
 62
7
  6
CONTINUOUS
 10
89.5144984813
 20
71.9833879642
 11
89.5134394597
 21
70.7481083006
  0
LINE
  5
2AA
100
AcDbEntity
  8
7_ALL_FEATURES
100
AcDbLine
 62
7
  6
CONTINUOUS
 10
89.526582163
 20
73.4844941016
 11
89.5255231414
 21
72.249214438
  0
LINE
  5
2AB
100
AcDbEntity
  8
7_ALL_FEATURES
100
AcDbLine
 62
7
  6
CONTINUOUS
 10
89.5386658446
 20
74.9856002391
 11
89.5376068231
 21
73.7503205755
  0
LINE
  5
2AC
100
AcDbEntity
  8
7_ALL_FEATURES
100
AcDbLine
 62
7
  6
CONTINUOUS
 10
89.5507495263
 20
76.4867063766
 11
89.5496905048
 21
75.251426713
  0
LINE
  5
2AD
100
AcDbEntity
  8
7_ALL_FEATURES
100
AcDbLine
 62
7
  6
CONTINUOUS
 10
89.562833208
 20
77.9878125141
 11
89.5617741865
 21
76.7525328505
  0
LINE
  5
2AE
100
AcDbEntity
  8
7_ALL_FEATURES
100
AcDbLine
 62
7
  6
CONTINUOUS
 10
89.5749168897
 20
79.4889186515
 11
89.5738578681
 21
78.2536389879
  0
LINE
  5
2AF
100
AcDbEntity
  8
7_ALL_FEATURES
100
AcDbLine
 62
7
  6
CONTINUOUS
 10
89.5870005714
 20
80.990024789
 11
89.5859415498
 21
79.7547451254
  0
LINE
  5
2B0
100
AcDbEntity
  8
7_ALL_FEATURES
100
AcDbLine
 62
7
  6
CONTINUOUS
 10
89.5990842531
 20
82.4911309265
 11
89.5980252315
 21
81.2558512629
  0
LINE
  5
2B1
100
AcDbEntity
  8
7_ALL_FEATURES
100
AcDbLine
 62
7
  6
CONTINUOUS
 10
89.6111679347
 20
83.992237064
 11
89.6101089132
 21
82.7569574004
  0
LINE
  5
2B2
100
AcDbEntity
  8
7_ALL_FEATURES
100
AcDbLine
 62
7
  6
CONTINUOUS
 10
89.6232516164
 20
85.4933432014
 11
89.6221925949
 21
84.2580635378
  0
LINE
  5
2B3
100
AcDbEntity
  8
7_ALL_FEATURES
100
AcDbLine
 62
7
  6
CONTINUOUS
 10
89.6353352981
 20
86.9944493389
 11
89.6342762766
 21
85.7591696753
  0
LINE
  5
2B4
100
AcDbEntity
  8
7_ALL_FEATURES
100
AcDbLine
 62
7
  6
CONTINUOUS
 10
89.6474189798
 20
88.4955554764
 11
89.6463599582
 21
87.2602758128
  0
LINE
  5
2B5
100
AcDbEntity
  8
7_ALL_FEATURES
100
AcDbLine
 62
7
  6
CONTINUOUS
 10
89.6595026615
 20
89.9966616139
 11
89.6584436399
 21
88.7613819503
  0
LINE
  5
2B6
100
AcDbEntity
  8
7_ALL_FEATURES
100
AcDbLine
 62
7
  6
CONTINUOUS
 10
89.6715863432
 20
91.4977677514
 11
89.6705273216
 21
90.2624880877
  0
LINE
  5
2B7
100
AcDbEntity
  8
7_ALL_FEATURES
100
AcDbLine
 62
7
  6
CONTINUOUS
 10
89.6836700248
 20
92.9988738888
 11
89.6826110033
 21
91.7635942252
  0
LINE
  5
2B8
100
AcDbEntity
  8
7_ALL_FEATURES
100
AcDbLine
 62
7
  6
CONTINUOUS
 10
89.6957537065
 20
94.4999800263
 11
89.694694685
 21
93.2647003627
  0
LINE
  5
2B9
100
AcDbEntity
  8
7_ALL_FEATURES
100
AcDbLine
 62
7
  6
CONTINUOUS
 10
89.7078373882
 20
96.0010861638
 11
89.7067783667
 21
94.7658065002
  0
LINE
  5
2BA
100
AcDbEntity
  8
7_ALL_FEATURES
100
AcDbLine
 62
7
  6
CONTINUOUS
 10
89.7199210699
 20
97.5021923013
 11
89.7188620483
 21
96.2669126377
  0
LINE
  5
2BB
100
AcDbEntity
  8
7_ALL_FEATURES
100
AcDbLine
 62
7
  6
CONTINUOUS
 10
89.7320047516
 20
99.0032984387
 11
89.73094573
 21
97.7680187751
  0
LINE
  5
2BC
100
AcDbEntity
  8
7_ALL_FEATURES
100
AcDbLine
 62
7
  6
CONTINUOUS
 10
89.7440884333
 20
100.5044045762
 11
89.7430294117
 21
99.2691249126
  0
LINE
  5
2BD
100
AcDbEntity
  8
7_ALL_FEATURES
100
AcDbLine
 62
7
  6
CONTINUOUS
 10
89.7561721149
 20
102.0055107137
 11
89.7551130934
 21
100.7702310501
  0
LINE
  5
2BE
100
AcDbEntity
  8
7_ALL_FEATURES
100
AcDbLine
 62
7
  6
CONTINUOUS
 10
89.7682557966
 20
103.5066168512
 11
89.7671967751
 21
102.2713371876
  0
LINE
  5
2BF
100
AcDbEntity
  8
7_ALL_FEATURES
100
AcDbLine
 62
7
  6
CONTINUOUS
 10
89.7803394783
 20
105.0077229886
 11
89.7792804568
 21
103.772443325
  0
LINE
  5
2C0
100
AcDbEntity
  8
7_ALL_FEATURES
100
AcDbLine
 62
7
  6
CONTINUOUS
 10
89.79242316
 20
106.5088291261
 11
89.7913641384
 21
105.2735494625
  0
LINE
  5
2C1
100
AcDbEntity
  8
7_ALL_FEATURES
100
AcDbLine
 62
7
  6
CONTINUOUS
 10
89.8045068417
 20
108.0099352636
 11
89.8034478201
 21
106.7746556
  0
LINE
  5
2C2
100
AcDbEntity
  8
7_ALL_FEATURES
100
AcDbLine
 62
7
  6
CONTINUOUS
 10
89.8165905233
 20
109.5110414011
 11
89.8155315018
 21
108.2757617375
  0
LINE
  5
2C3
100
AcDbEntity
  8
7_ALL_FEATURES
100
AcDbLine
 62
7
  6
CONTINUOUS
 10
89.828674205
 20
111.0121475385
 11
89.8276151835
 21
109.7768678749
  0
LINE
  5
2C4
100
AcDbEntity
  8
7_ALL_FEATURES
100
AcDbLine
 62
7
  6
CONTINUOUS
 10
89.8407578867
 20
112.513253676
 11
89.8396988652
 21
111.2779740124
  0
LINE
  5
2C5
100
AcDbEntity
  8
7_ALL_FEATURES
100
AcDbLine
 62
7
  6
CONTINUOUS
 10
89.8528415684
 20
114.0143598135
 11
89.8517825469
 21
112.7790801499
  0
LINE
  5
2C6
100
AcDbEntity
  8
7_ALL_FEATURES
100
AcDbLine
 62
7
  6
CONTINUOUS
 10
89.8649252501
 20
115.515465951
 11
89.8638662285
 21
114.2801862874
  0
LINE
  5
2C7
100
AcDbEntity
  8
7_ALL_FEATURES
100
AcDbLine
 62
7
  6
CONTINUOUS
 10
89.8770089318
 20
117.0165720884
 11
89.8759499102
 21
115.7812924248
  0
LINE
  5
2C8
100
AcDbEntity
  8
7_ALL_FEATURES
100
AcDbLine
 62
7
  6
CONTINUOUS
 10
89.8890926134
 20
118.5176782259
 11
89.8880335919
 21
117.2823985623
  0
LINE
  5
2C9
100
AcDbEntity
  8
7_ALL_FEATURES
100
AcDbLine
 62
7
  6
CONTINUOUS
 10
89.9145811904
 20
119.1322584891
 11
89.8890926134
 21
118.5176782259
  0
LINE
  5
2CA
100
AcDbEntity
  8
7_ALL_FEATURES
100
AcDbLine
 62
7
  6
CONTINUOUS
 10
89.8880335919
 20
117.2823985623
 11
89.8770089318
 21
117.0165720884
  0
LINE
  5
2CB
100
AcDbEntity
  8
7_ALL_FEATURES
100
AcDbLine
 62
7
  6
CONTINUOUS
 10
89.8759499102
 20
115.7812924248
 11
89.8649252501
 21
115.515465951
  0
LINE
  5
2CC
100
AcDbEntity
  8
7_ALL_FEATURES
100
AcDbLine
 62
7
  6
CONTINUOUS
 10
89.8638662285
 20
114.2801862874
 11
89.8528415684
 21
114.0143598135
  0
LINE
  5
2CD
100
AcDbEntity
  8
7_ALL_FEATURES
100
AcDbLine
 62
7
  6
CONTINUOUS
 10
89.8517825469
 20
112.7790801499
 11
89.8407578867
 21
112.513253676
  0
LINE
  5
2CE
100
AcDbEntity
  8
7_ALL_FEATURES
100
AcDbLine
 62
7
  6
CONTINUOUS
 10
89.8396988652
 20
111.2779740124
 11
89.828674205
 21
111.0121475385
  0
LINE
  5
2CF
100
AcDbEntity
  8
7_ALL_FEATURES
100
AcDbLine
 62
7
  6
CONTINUOUS
 10
89.8276151835
 20
109.7768678749
 11
89.8165905233
 21
109.5110414011
  0
LINE
  5
2D0
100
AcDbEntity
  8
7_ALL_FEATURES
100
AcDbLine
 62
7
  6
CONTINUOUS
 10
89.8155315018
 20
108.2757617375
 11
89.8045068417
 21
108.0099352636
  0
LINE
  5
2D1
100
AcDbEntity
  8
7_ALL_FEATURES
100
AcDbLine
 62
7
  6
CONTINUOUS
 10
89.8034478201
 20
106.7746556
 11
89.79242316
 21
106.5088291261
  0
LINE
  5
2D2
100
AcDbEntity
  8
7_ALL_FEATURES
100
AcDbLine
 62
7
  6
CONTINUOUS
 10
89.7913641384
 20
105.2735494625
 11
89.7803394783
 21
105.0077229886
  0
LINE
  5
2D3
100
AcDbEntity
  8
7_ALL_FEATURES
100
AcDbLine
 62
7
  6
CONTINUOUS
 10
89.7792804568
 20
103.772443325
 11
89.7682557966
 21
103.5066168512
  0
LINE
  5
2D4
100
AcDbEntity
  8
7_ALL_FEATURES
100
AcDbLine
 62
7
  6
CONTINUOUS
 10
89.7671967751
 20
102.2713371876
 11
89.7561721149
 21
102.0055107137
  0
LINE
  5
2D5
100
AcDbEntity
  8
7_ALL_FEATURES
100
AcDbLine
 62
7
  6
CONTINUOUS
 10
89.7551130934
 20
100.7702310501
 11
89.7440884333
 21
100.5044045762
  0
LINE
  5
2D6
100
AcDbEntity
  8
7_ALL_FEATURES
100
AcDbLine
 62
7
  6
CONTINUOUS
 10
89.7430294117
 20
99.2691249126
 11
89.7320047516
 21
99.0032984387
  0
LINE
  5
2D7
100
AcDbEntity
  8
7_ALL_FEATURES
100
AcDbLine
 62
7
  6
CONTINUOUS
 10
89.73094573
 20
97.7680187751
 11
89.7199210699
 21
97.5021923013
  0
LINE
  5
2D8
100
AcDbEntity
  8
7_ALL_FEATURES
100
AcDbLine
 62
7
  6
CONTINUOUS
 10
89.7188620483
 20
96.2669126377
 11
89.7078373882
 21
96.0010861638
  0
LINE
  5
2D9
100
AcDbEntity
  8
7_ALL_FEATURES
100
AcDbLine
 62
7
  6
CONTINUOUS
 10
89.7067783667
 20
94.7658065002
 11
89.6957537065
 21
94.4999800263
  0
LINE
  5
2DA
100
AcDbEntity
  8
7_ALL_FEATURES
100
AcDbLine
 62
7
  6
CONTINUOUS
 10
89.694694685
 20
93.2647003627
 11
89.6836700248
 21
92.9988738888
  0
LINE
  5
2DB
100
AcDbEntity
  8
7_ALL_FEATURES
100
AcDbLine
 62
7
  6
CONTINUOUS
 10
89.6826110033
 20
91.7635942252
 11
89.6715863432
 21
91.4977677514
  0
LINE
  5
2DC
100
AcDbEntity
  8
7_ALL_FEATURES
100
AcDbLine
 62
7
  6
CONTINUOUS
 10
89.6705273216
 20
90.2624880877
 11
89.6595026615
 21
89.9966616139
  0
LINE
  5
2DD
100
AcDbEntity
  8
7_ALL_FEATURES
100
AcDbLine
 62
7
  6
CONTINUOUS
 10
89.6584436399
 20
88.7613819503
 11
89.6474189798
 21
88.4955554764
  0
LINE
  5
2DE
100
AcDbEntity
  8
7_ALL_FEATURES
100
AcDbLine
 62
7
  6
CONTINUOUS
 10
89.6463599582
 20
87.2602758128
 11
89.6353352981
 21
86.9944493389
  0
LINE
  5
2DF
100
AcDbEntity
  8
7_ALL_FEATURES
100
AcDbLine
 62
7
  6
CONTINUOUS
 10
89.6342762766
 20
85.7591696753
 11
89.6232516164
 21
85.4933432014
  0
LINE
  5
2E0
100
AcDbEntity
  8
7_ALL_FEATURES
100
AcDbLine
 62
7
  6
CONTINUOUS
 10
89.6221925949
 20
84.2580635378
 11
89.6111679347
 21
83.992237064
  0
LINE
  5
2E1
100
AcDbEntity
  8
7_ALL_FEATURES
100
AcDbLine
 62
7
  6
CONTINUOUS
 10
89.6101089132
 20
82.7569574004
 11
89.5990842531
 21
82.4911309265
  0
LINE
  5
2E2
100
AcDbEntity
  8
7_ALL_FEATURES
100
AcDbLine
 62
7
  6
CONTINUOUS
 10
89.5980252315
 20
81.2558512629
 11
89.5870005714
 21
80.990024789
  0
LINE
  5
2E3
100
AcDbEntity
  8
7_ALL_FEATURES
100
AcDbLine
 62
7
  6
CONTINUOUS
 10
89.5859415498
 20
79.7547451254
 11
89.5749168897
 21
79.4889186515
  0
LINE
  5
2E4
100
AcDbEntity
  8
7_ALL_FEATURES
100
AcDbLine
 62
7
  6
CONTINUOUS
 10
89.5738578681
 20
78.2536389879
 11
89.562833208
 21
77.9878125141
  0
LINE
  5
2E5
100
AcDbEntity
  8
7_ALL_FEATURES
100
AcDbLine
 62
7
  6
CONTINUOUS
 10
89.5617741865
 20
76.7525328505
 11
89.5507495263
 21
76.4867063766
  0
LINE
  5
2E6
100
AcDbEntity
  8
7_ALL_FEATURES
100
AcDbLine
 62
7
  6
CONTINUOUS
 10
89.5496905048
 20
75.251426713
 11
89.5386658446
 21
74.9856002391
  0
LINE
  5
2E7
100
AcDbEntity
  8
7_ALL_FEATURES
100
AcDbLine
 62
7
  6
CONTINUOUS
 10
89.5376068231
 20
73.7503205755
 11
89.526582163
 21
73.4844941016
  0
LINE
  5
2E8
100
AcDbEntity
  8
7_ALL_FEATURES
100
AcDbLine
 62
7
  6
CONTINUOUS
 10
89.5255231414
 20
72.249214438
 11
89.5144984813
 21
71.9833879642
  0
LINE
  5
2E9
100
AcDbEntity
  8
7_ALL_FEATURES
100
AcDbLine
 62
7
  6
CONTINUOUS
 10
89.5134394597
 20
70.7481083006
 11
89.5024147996
 21
70.4822818267
  0
LINE
  5
2EA
100
AcDbEntity
  8
7_ALL_FEATURES
100
AcDbLine
 62
7
  6
CONTINUOUS
 10
89.5013557781
 20
69.2470021631
 11
89.4903311179
 21
68.9811756892
  0
LINE
  5
2EB
100
AcDbEntity
  8
7_ALL_FEATURES
100
AcDbLine
 62
7
  6
CONTINUOUS
 10
89.4892720964
 20
67.7458960256
 11
89.4782474362
 21
67.4800695517
  0
LINE
  5
2EC
100
AcDbEntity
  8
7_ALL_FEATURES
100
AcDbLine
 62
7
  6
CONTINUOUS
 10
89.4771884147
 20
66.2447898881
 11
89.4661637545
 21
65.9789634143
  0
LINE
  5
2ED
100
AcDbEntity
  8
7_ALL_FEATURES
100
AcDbLine
 62
7
  6
CONTINUOUS
 10
89.465104733
 20
64.7436837507
 11
89.4540800729
 21
64.4778572768
  0
LINE
  5
2EE
100
AcDbEntity
  8
7_ALL_FEATURES
100
AcDbLine
 62
7
  6
CONTINUOUS
 10
89.4530210513
 20
63.2425776132
 11
89.4419963912
 21
62.9767511393
  0
LINE
  5
2EF
100
AcDbEntity
  8
7_ALL_FEATURES
100
AcDbLine
 62
7
  6
CONTINUOUS
 10
89.4409373696
 20
61.7414714757
 11
89.4299127095
 21
61.4756450018
  0
LINE
  5
2F0
100
AcDbEntity
  8
7_ALL_FEATURES
100
AcDbLine
 62
7
  6
CONTINUOUS
 10
89.428853688
 20
60.2403653382
 11
89.4178290278
 21
59.9745388644
  0
LINE
  5
2F1
100
AcDbEntity
  8
7_ALL_FEATURES
100
AcDbLine
 62
7
  6
CONTINUOUS
 10
89.4167700063
 20
58.7392592008
 11
89.4057453461
 21
58.4734327269
  0
LINE
  5
2F2
100
AcDbEntity
  8
7_ALL_FEATURES
100
AcDbLine
 62
7
  6
CONTINUOUS
 10
89.4046863246
 20
57.2381530633
 11
89.3936616644
 21
56.9723265894
  0
LINE
  5
2F3
100
AcDbEntity
  8
7_ALL_FEATURES
100
AcDbLine
 62
7
  6
CONTINUOUS
 10
89.3926026429
 20
55.7370469258
 11
89.3815779828
 21
55.4712204519
  0
LINE
  5
2F4
100
AcDbEntity
  8
7_ALL_FEATURES
100
AcDbLine
 62
7
  6
CONTINUOUS
 10
89.3805189612
 20
54.2359407883
 11
89.3694943011
 21
53.9701143145
  0
LINE
  5
2F5
100
AcDbEntity
  8
7_ALL_FEATURES
100
AcDbLine
 62
7
  6
CONTINUOUS
 10
89.3684352795
 20
52.7348346508
 11
89.3574106194
 21
52.469008177
  0
LINE
  5
2F6
100
AcDbEntity
  8
7_ALL_FEATURES
100
AcDbLine
 62
7
  6
CONTINUOUS
 10
89.3563515979
 20
51.2337285134
 11
89.3453269377
 21
50.9679020395
  0
LINE
  5
2F7
100
AcDbEntity
  8
7_ALL_FEATURES
100
AcDbLine
 62
7
  6
CONTINUOUS
 10
89.3442679162
 20
49.7326223759
 11
89.336283161
 21
49.5400940544
  0
LINE
  5
2F8
100
AcDbEntity
  8
7_ALL_FEATURES
100
AcDbLine
 62
9
  6
CONTINUOUS
 10
95.7034106897
 20
119.1322584891
 11
95.7118423099
 21
119.3193034697
  0
LINE
  5
2F9
100
AcDbEntity
  8
7_ALL_FEATURES
100
AcDbLine
 62
7
  6
CONTINUOUS
 10
82.4177515635
 20
37.2342391668
 11
231.3862112267
 21
37.2342391668
  0
LINE
  5
2FA
100
AcDbEntity
  8
7_ALL_FEATURES
100
AcDbLine
 62
9
  6
CONTINUOUS
 10
231.3862112267
 20
37.2345961686
 11
82.4177515635
 21
37.2345961686
  0
LINE
  5
2FB
100
AcDbEntity
  8
7_ALL_FEATURES
100
AcDbLine
 62
9
  6
CONTINUOUS
 10
83.3615889213
 20
38.1784335264
 11
230.4423738689
 21
38.1784335264
  0
LINE
  5
2FC
100
AcDbEntity
  8
7_ALL_FEATURES
100
AcDbLine
 62
9
  6
CONTINUOUS
 10
83.3615889213
 20
39.1781955535
 11
230.4423738689
 21
39.1781955535
  0
LINE
  5
2FD
100
AcDbEntity
  8
7_ALL_FEATURES
100
AcDbLine
 62
9
  6
CONTINUOUS
 10
235.3856163369
 20
41.233644277
 11
235.385259335
 21
41.233644277
  0
LINE
  5
2FE
100
AcDbEntity
  8
7_ALL_FEATURES
100
AcDbLine
 62
9
  6
CONTINUOUS
 10
78.4183464533
 20
41.233644277
 11
78.4187034552
 21
41.233644277
  0
LINE
  5
2FF
100
AcDbEntity
  8
7_ALL_FEATURES
100
AcDbLine
 62
9
  6
CONTINUOUS
 10
102.1005521006
 20
119.1322584891
 11
102.0921204803
 21
119.3193034697
  0
LINE
  5
300
100
AcDbEntity
  8
7_ALL_FEATURES
100
AcDbLine
 62
9
  6
CONTINUOUS
 10
100.8965859879
 20
131.1169478376
 11
100.8662719701
 21
132.0178741086
  0
LINE
  5
301
100
AcDbEntity
  8
7_ALL_FEATURES
100
AcDbLine
 62
9
  6
CONTINUOUS
 10
101.1866582355
 20
131.543933224
 11
101.1707112564
 21
132.0178741086
  0
LINE
  5
302
100
AcDbEntity
  8
6_ALL_SURFS
100
AcDbLine
 62
9
  6
CONTINUOUS
 10
95.7118423099
 20
119.3193034697
 11
95.7118423099
 21
120.5144501217
  0
LINE
  5
303
100
AcDbEntity
  8
7_ALL_FEATURES
100
AcDbLine
 62
9
  6
CONTINUOUS
 10
96.3174873066
 20
131.3820300182
 11
96.3174873066
 21
132.0178741086
  0
LINE
  5
304
100
AcDbEntity
  8
7_ALL_FEATURES
100
AcDbLine
 62
9
  6
CONTINUOUS
 10
96.3928491713
 20
121.7381388776
 11
96.3928491713
 21
121.60754018
  0
LINE
  5
305
100
AcDbEntity
  8
6_ALL_SURFS
100
AcDbLine
 62
9
  6
CONTINUOUS
 10
96.4615853036
 20
119.1322584891
 11
96.4615853036
 21
121.2493630704
  0
LINE
  5
306
100
AcDbEntity
  8
7_ALL_FEATURES
100
AcDbLine
 62
9
  6
CONTINUOUS
 10
96.6173045547
 20
131.543933224
 11
96.6173045547
 21
132.0178741086
  0
LINE
  5
307
100
AcDbEntity
  8
7_ALL_FEATURES
100
AcDbLine
 62
9
  6
CONTINUOUS
 10
96.9073768024
 20
130.8176786225
 11
96.9073768024
 21
131.1169478376
  0
LINE
  5
308
100
AcDbEntity
  8
7_ALL_FEATURES
100
AcDbLine
 62
9
  6
CONTINUOUS
 10
100.8965859879
 20
130.8176786225
 11
100.8965859879
 21
131.1169478376
  0
LINE
  5
309
100
AcDbEntity
  8
7_ALL_FEATURES
100
AcDbLine
 62
9
  6
CONTINUOUS
 10
101.1866582355
 20
132.0178741086
 11
101.1866582355
 21
131.543933224
  0
LINE
  5
30A
100
AcDbEntity
  8
6_ALL_SURFS
100
AcDbLine
 62
9
  6
CONTINUOUS
 10
101.3423774866
 20
119.1322584891
 11
101.3423774866
 21
121.2493630704
  0
LINE
  5
30B
100
AcDbEntity
  8
7_ALL_FEATURES
100
AcDbLine
 62
9
  6
CONTINUOUS
 10
101.4111136189
 20
121.7381388776
 11
101.4111136189
 21
121.60754018
  0
LINE
  5
30C
100
AcDbEntity
  8
7_ALL_FEATURES
100
AcDbLine
 62
9
  6
CONTINUOUS
 10
101.4864754836
 20
132.0178741086
 11
101.4864754836
 21
131.3820300182
  0
LINE
  5
30D
100
AcDbEntity
  8
6_ALL_SURFS
100
AcDbLine
 62
9
  6
CONTINUOUS
 10
102.0921204803
 20
120.5144501217
 11
102.0921204803
 21
119.3193034697
  0
LINE
  5
30E
100
AcDbEntity
  8
7_ALL_FEATURES
100
AcDbLine
 62
9
  6
CONTINUOUS
 10
102.1439027683
 20
120.7842824443
 11
102.1439027683
 21
119.1322584891
  0
LINE
  5
30F
100
AcDbEntity
  8
7_ALL_FEATURES
100
AcDbLine
 62
9
  6
CONTINUOUS
 10
102.4437999658
 20
120.6209159624
 11
102.4437999658
 21
119.1322584891
  0
LINE
  5
310
100
AcDbEntity
  8
7_ALL_FEATURES
100
AcDbLine
 62
9
  6
CONTINUOUS
 10
96.6332515338
 20
132.0178741086
 11
96.6173045547
 21
131.543933224
  0
LINE
  5
311
100
AcDbEntity
  8
7_ALL_FEATURES
100
AcDbLine
 62
9
  6
CONTINUOUS
 10
96.9376908201
 20
132.0178741086
 11
96.9073768024
 21
131.1169478376
  0
LINE
  5
312
100
AcDbEntity
  8
7_ALL_FEATURES
100
AcDbLine
 62
9
  6
CONTINUOUS
 10
101.3423774866
 20
121.2493630704
 11
101.4111136189
 21
121.60754018
  0
LINE
  5
313
100
AcDbEntity
  8
7_ALL_FEATURES
100
AcDbLine
 62
9
  6
CONTINUOUS
 10
102.0921204803
 20
120.5144501217
 11
102.1439027683
 21
120.7842824443
  0
LINE
  5
314
100
AcDbEntity
  8
7_ALL_FEATURES
100
AcDbLine
 62
9
  6
CONTINUOUS
 10
224.9675606428
 20
47.7711085451
 11
88.8364021475
 21
47.7711085451
  0
LINE
  5
315
100
AcDbEntity
  8
7_ALL_FEATURES
100
AcDbLine
 62
9
  6
CONTINUOUS
 10
224.525066824
 20
48.2136023638
 11
89.2788959662
 21
48.2136023638
  0
LINE
  5
316
100
AcDbEntity
  8
7_ALL_FEATURES
100
AcDbLine
 62
7
  6
CONTINUOUS
 10
224.5087632748
 20
48.2315162384
 11
89.2951995155
 21
48.2315162384
  0
LINE
  5
317
100
AcDbEntity
  8
7_ALL_FEATURES
100
AcDbLine
 62
7
  6
CONTINUOUS
 10
224.4906616438
 20
49.466795902
 11
89.3133011464
 21
49.466795902
  0
LINE
  5
318
100
AcDbEntity
  8
7_ALL_FEATURES
100
AcDbLine
 62
7
  6
CONTINUOUS
 10
224.459694874
 20
49.7326223759
 11
89.3442679162
 21
49.7326223759
  0
LINE
  5
319
100
AcDbEntity
  8
7_ALL_FEATURES
100
AcDbLine
 62
7
  6
CONTINUOUS
 10
224.4586358525
 20
50.9679020395
 11
89.3453269377
 21
50.9679020395
  0
LINE
  5
31A
100
AcDbEntity
  8
7_ALL_FEATURES
100
AcDbLine
 62
7
  6
CONTINUOUS
 10
224.4476111924
 20
51.2337285134
 11
89.3563515979
 21
51.2337285134
  0
LINE
  5
31B
100
AcDbEntity
  8
7_ALL_FEATURES
100
AcDbLine
 62
9
  6
CONTINUOUS
 10
95.6600600219
 20
120.7842824443
 11
95.7118423099
 21
120.5144501217
  0
LINE
  5
31C
100
AcDbEntity
  8
7_ALL_FEATURES
100
AcDbLine
 62
9
  6
CONTINUOUS
 10
96.3928491713
 20
121.60754018
 11
96.4615853036
 21
121.2493630704
  0
LINE
  5
31D
100
AcDbEntity
  8
7_ALL_FEATURES
100
AcDbLine
 62
7
  6
CONTINUOUS
 10
224.4465521708
 20
52.469008177
 11
89.3574106194
 21
52.469008177
  0
LINE
  5
31E
100
AcDbEntity
  8
7_ALL_FEATURES
100
AcDbLine
 62
7
  6
CONTINUOUS
 10
224.4355275107
 20
52.7348346508
 11
89.3684352795
 21
52.7348346508
  0
LINE
  5
31F
100
AcDbEntity
  8
7_ALL_FEATURES
100
AcDbLine
 62
7
  6
CONTINUOUS
 10
224.4344684891
 20
53.9701143145
 11
89.3694943011
 21
53.9701143145
  0
LINE
  5
320
100
AcDbEntity
  8
7_ALL_FEATURES
100
AcDbLine
 62
7
  6
CONTINUOUS
 10
224.423443829
 20
54.2359407883
 11
89.3805189612
 21
54.2359407883
  0
LINE
  5
321
100
AcDbEntity
  8
7_ALL_FEATURES
100
AcDbLine
 62
7
  6
CONTINUOUS
 10
224.4223848075
 20
55.4712204519
 11
89.3815779828
 21
55.4712204519
  0
LINE
  5
322
100
AcDbEntity
  8
7_ALL_FEATURES
100
AcDbLine
 62
7
  6
CONTINUOUS
 10
224.4113601473
 20
55.7370469258
 11
89.3926026429
 21
55.7370469258
  0
LINE
  5
323
100
AcDbEntity
  8
7_ALL_FEATURES
100
AcDbLine
 62
7
  6
CONTINUOUS
 10
224.4103011258
 20
56.9723265894
 11
89.3936616644
 21
56.9723265894
  0
LINE
  5
324
100
AcDbEntity
  8
7_ALL_FEATURES
100
AcDbLine
 62
7
  6
CONTINUOUS
 10
224.3992764656
 20
57.2381530633
 11
89.4046863246
 21
57.2381530633
  0
LINE
  5
325
100
AcDbEntity
  8
7_ALL_FEATURES
100
AcDbLine
 62
7
  6
CONTINUOUS
 10
224.3982174441
 20
58.4734327269
 11
89.4057453461
 21
58.4734327269
  0
LINE
  5
326
100
AcDbEntity
  8
7_ALL_FEATURES
100
AcDbLine
 62
7
  6
CONTINUOUS
 10
224.387192784
 20
58.7392592008
 11
89.4167700063
 21
58.7392592008
  0
LINE
  5
327
100
AcDbEntity
  8
7_ALL_FEATURES
100
AcDbLine
 62
7
  6
CONTINUOUS
 10
224.3861337624
 20
59.9745388644
 11
89.4178290278
 21
59.9745388644
  0
LINE
  5
328
100
AcDbEntity
  8
7_ALL_FEATURES
100
AcDbLine
 62
7
  6
CONTINUOUS
 10
224.3751091023
 20
60.2403653382
 11
89.428853688
 21
60.2403653382
  0
LINE
  5
329
100
AcDbEntity
  8
7_ALL_FEATURES
100
AcDbLine
 62
7
  6
CONTINUOUS
 10
224.3740500807
 20
61.4756450018
 11
89.4299127095
 21
61.4756450018
  0
LINE
  5
32A
100
AcDbEntity
  8
7_ALL_FEATURES
100
AcDbLine
 62
7
  6
CONTINUOUS
 10
224.3630254206
 20
61.7414714757
 11
89.4409373696
 21
61.7414714757
  0
LINE
  5
32B
100
AcDbEntity
  8
7_ALL_FEATURES
100
AcDbLine
 62
7
  6
CONTINUOUS
 10
224.361966399
 20
62.9767511393
 11
89.4419963912
 21
62.9767511393
  0
LINE
  5
32C
100
AcDbEntity
  8
7_ALL_FEATURES
100
AcDbLine
 62
7
  6
CONTINUOUS
 10
224.3509417389
 20
63.2425776132
 11
89.4530210513
 21
63.2425776132
  0
LINE
  5
32D
100
AcDbEntity
  8
7_ALL_FEATURES
100
AcDbLine
 62
7
  6
CONTINUOUS
 10
224.3498827174
 20
64.4778572768
 11
89.4540800729
 21
64.4778572768
  0
LINE
  5
32E
100
AcDbEntity
  8
7_ALL_FEATURES
100
AcDbLine
 62
7
  6
CONTINUOUS
 10
224.3388580572
 20
64.7436837507
 11
89.465104733
 21
64.7436837507
  0
LINE
  5
32F
100
AcDbEntity
  8
7_ALL_FEATURES
100
AcDbLine
 62
7
  6
CONTINUOUS
 10
224.3377990357
 20
65.9789634143
 11
89.4661637545
 21
65.9789634143
  0
LINE
  5
330
100
AcDbEntity
  8
7_ALL_FEATURES
100
AcDbLine
 62
7
  6
CONTINUOUS
 10
224.3267743755
 20
66.2447898881
 11
89.4771884147
 21
66.2447898881
  0
LINE
  5
331
100
AcDbEntity
  8
7_ALL_FEATURES
100
AcDbLine
 62
7
  6
CONTINUOUS
 10
224.325715354
 20
67.4800695517
 11
89.4782474362
 21
67.4800695517
  0
LINE
  5
332
100
AcDbEntity
  8
7_ALL_FEATURES
100
AcDbLine
 62
7
  6
CONTINUOUS
 10
224.3146906939
 20
67.7458960256
 11
89.4892720964
 21
67.7458960256
  0
LINE
  5
333
100
AcDbEntity
  8
7_ALL_FEATURES
100
AcDbLine
 62
7
  6
CONTINUOUS
 10
224.3136316723
 20
68.9811756892
 11
89.4903311179
 21
68.9811756892
  0
LINE
  5
334
100
AcDbEntity
  8
7_ALL_FEATURES
100
AcDbLine
 62
7
  6
CONTINUOUS
 10
224.3026070122
 20
69.2470021631
 11
89.5013557781
 21
69.2470021631
  0
LINE
  5
335
100
AcDbEntity
  8
7_ALL_FEATURES
100
AcDbLine
 62
7
  6
CONTINUOUS
 10
224.3015479906
 20
70.4822818267
 11
89.5024147996
 21
70.4822818267
  0
LINE
  5
336
100
AcDbEntity
  8
7_ALL_FEATURES
100
AcDbLine
 62
7
  6
CONTINUOUS
 10
224.2905233305
 20
70.7481083006
 11
89.5134394597
 21
70.7481083006
  0
LINE
  5
337
100
AcDbEntity
  8
7_ALL_FEATURES
100
AcDbLine
 62
7
  6
CONTINUOUS
 10
224.2894643089
 20
71.9833879642
 11
89.5144984813
 21
71.9833879642
  0
LINE
  5
338
100
AcDbEntity
  8
7_ALL_FEATURES
100
AcDbLine
 62
7
  6
CONTINUOUS
 10
224.2784396488
 20
72.249214438
 11
89.5255231414
 21
72.249214438
  0
LINE
  5
339
100
AcDbEntity
  8
7_ALL_FEATURES
100
AcDbLine
 62
7
  6
CONTINUOUS
 10
224.2773806273
 20
73.4844941016
 11
89.526582163
 21
73.4844941016
  0
LINE
  5
33A
100
AcDbEntity
  8
7_ALL_FEATURES
100
AcDbLine
 62
7
  6
CONTINUOUS
 10
224.2663559671
 20
73.7503205755
 11
89.5376068231
 21
73.7503205755
  0
LINE
  5
33B
100
AcDbEntity
  8
7_ALL_FEATURES
100
AcDbLine
 62
7
  6
CONTINUOUS
 10
224.2652969456
 20
74.9856002391
 11
89.5386658446
 21
74.9856002391
  0
LINE
  5
33C
100
AcDbEntity
  8
7_ALL_FEATURES
100
AcDbLine
 62
7
  6
CONTINUOUS
 10
224.2542722854
 20
75.251426713
 11
89.5496905048
 21
75.251426713
  0
LINE
  5
33D
100
AcDbEntity
  8
7_ALL_FEATURES
100
AcDbLine
 62
9
  6
CONTINUOUS
 10
132.0808612616
 20
130.2469566488
 11
132.0808612616
 21
132.0178741086
  0
LINE
  5
33E
100
AcDbEntity
  8
7_ALL_FEATURES
100
AcDbLine
 62
9
  6
CONTINUOUS
 10
132.5806899241
 20
130.5192341187
 11
132.5806899241
 21
132.0178741086
  0
LINE
  5
33F
100
AcDbEntity
  8
7_ALL_FEATURES
100
AcDbLine
 62
7
  6
CONTINUOUS
 10
132.6019813951
 20
132.0178741086
 11
132.6019813951
 21
130.9739074233
  0
LINE
  5
340
100
AcDbEntity
  8
3_ALL_AXES
100
AcDbLine
 62
7
  6
CONTINUOUS
 10
132.9019813951
 20
132.0178741086
 11
132.9019813951
 21
131.6616391691
  0
LINE
  5
341
100
AcDbEntity
  8
7_ALL_FEATURES
100
AcDbLine
 62
9
  6
CONTINUOUS
 10
132.899029577
 20
129.8216272835
 11
132.9149895252
 21
130.2879840424
  0
LINE
  5
342
100
AcDbEntity
  8
7_ALL_FEATURES
100
AcDbLine
 62
9
  6
CONTINUOUS
 10
132.5806899241
 20
130.5192341187
 11
132.6019813951
 21
130.9739074233
  0
LINE
  5
343
100
AcDbEntity
  8
7_ALL_FEATURES
100
AcDbLine
 62
7
  6
CONTINUOUS
 10
224.2532132639
 20
76.4867063766
 11
89.5507495263
 21
76.4867063766
  0
LINE
  5
344
100
AcDbEntity
  8
7_ALL_FEATURES
100
AcDbLine
 62
7
  6
CONTINUOUS
 10
224.2421886038
 20
76.7525328505
 11
89.5617741865
 21
76.7525328505
  0
LINE
  5
345
100
AcDbEntity
  8
7_ALL_FEATURES
100
AcDbLine
 62
7
  6
CONTINUOUS
 10
224.2411295822
 20
77.9878125141
 11
89.562833208
 21
77.9878125141
  0
LINE
  5
346
100
AcDbEntity
  8
7_ALL_FEATURES
100
AcDbLine
 62
7
  6
CONTINUOUS
 10
224.2301049221
 20
78.2536389879
 11
89.5738578681
 21
78.2536389879
  0
LINE
  5
347
100
AcDbEntity
  8
7_ALL_FEATURES
100
AcDbLine
 62
7
  6
CONTINUOUS
 10
224.2290459005
 20
79.4889186515
 11
89.5749168897
 21
79.4889186515
  0
LINE
  5
348
100
AcDbEntity
  8
7_ALL_FEATURES
100
AcDbLine
 62
7
  6
CONTINUOUS
 10
224.2180212404
 20
79.7547451254
 11
89.5859415498
 21
79.7547451254
  0
LINE
  5
349
100
AcDbEntity
  8
7_ALL_FEATURES
100
AcDbLine
 62
7
  6
CONTINUOUS
 10
224.2169622189
 20
80.990024789
 11
89.5870005714
 21
80.990024789
  0
LINE
  5
34A
100
AcDbEntity
  8
7_ALL_FEATURES
100
AcDbLine
 62
7
  6
CONTINUOUS
 10
224.2059375587
 20
81.2558512629
 11
89.5980252315
 21
81.2558512629
  0
LINE
  5
34B
100
AcDbEntity
  8
7_ALL_FEATURES
100
AcDbLine
 62
7
  6
CONTINUOUS
 10
224.2048785372
 20
82.4911309265
 11
89.5990842531
 21
82.4911309265
  0
LINE
  5
34C
100
AcDbEntity
  8
7_ALL_FEATURES
100
AcDbLine
 62
7
  6
CONTINUOUS
 10
224.193853877
 20
82.7569574004
 11
89.6101089132
 21
82.7569574004
  0
LINE
  5
34D
100
AcDbEntity
  8
7_ALL_FEATURES
100
AcDbLine
 62
9
  6
CONTINUOUS
 10
89.4434003844
 20
130.9766930921
 11
89.336283161
 21
131.0838103156
  0
LINE
  5
34E
100
AcDbEntity
  8
7_ALL_FEATURES
100
AcDbLine
 62
9
  6
CONTINUOUS
 10
90.4017434222
 20
132.0178741086
 11
90.3360451881
 21
132.0835723427
  0
LINE
  5
34F
100
AcDbEntity
  8
7_ALL_FEATURES
100
AcDbLine
 62
7
  6
CONTINUOUS
 10
224.1927948555
 20
83.992237064
 11
89.6111679347
 21
83.992237064
  0
LINE
  5
350
100
AcDbEntity
  8
7_ALL_FEATURES
100
AcDbLine
 62
7
  6
CONTINUOUS
 10
224.1817701953
 20
84.2580635378
 11
89.6221925949
 21
84.2580635378
  0
LINE
  5
351
100
AcDbEntity
  8
7_ALL_FEATURES
100
AcDbLine
 62
7
  6
CONTINUOUS
 10
224.1807111738
 20
85.4933432014
 11
89.6232516164
 21
85.4933432014
  0
LINE
  5
352
100
AcDbEntity
  8
7_ALL_FEATURES
100
AcDbLine
 62
7
  6
CONTINUOUS
 10
224.1696865137
 20
85.7591696753
 11
89.6342762766
 21
85.7591696753
  0
LINE
  5
353
100
AcDbEntity
  8
7_ALL_FEATURES
100
AcDbLine
 62
7
  6
CONTINUOUS
 10
224.1686274921
 20
86.9944493389
 11
89.6353352981
 21
86.9944493389
  0
LINE
  5
354
100
AcDbEntity
  8
7_ALL_FEATURES
100
AcDbLine
 62
7
  6
CONTINUOUS
 10
224.157602832
 20
87.2602758128
 11
89.6463599582
 21
87.2602758128
  0
LINE
  5
355
100
AcDbEntity
  8
7_ALL_FEATURES
100
AcDbLine
 62
7
  6
CONTINUOUS
 10
224.1565438104
 20
88.4955554764
 11
89.6474189798
 21
88.4955554764
  0
LINE
  5
356
100
AcDbEntity
  8
7_ALL_FEATURES
100
AcDbLine
 62
7
  6
CONTINUOUS
 10
224.1455191503
 20
88.7613819503
 11
89.6584436399
 21
88.7613819503
  0
LINE
  5
357
100
AcDbEntity
  8
7_ALL_FEATURES
100
AcDbLine
 62
7
  6
CONTINUOUS
 10
224.1444601288
 20
89.9966616139
 11
89.6595026615
 21
89.9966616139
  0
LINE
  5
358
100
AcDbEntity
  8
7_ALL_FEATURES
100
AcDbLine
 62
7
  6
CONTINUOUS
 10
224.1334354686
 20
90.2624880877
 11
89.6705273216
 21
90.2624880877
  0
LINE
  5
359
100
AcDbEntity
  8
7_ALL_FEATURES
100
AcDbLine
 62
9
  6
CONTINUOUS
 10
144.9019813951
 20
130.3336283591
 11
144.9019813951
 21
130.152074104
  0
LINE
  5
35A
100
AcDbEntity
  8
7_ALL_FEATURES
100
AcDbLine
 62
9
  6
CONTINUOUS
 10
78.4187034552
 20
41.233644277
 11
79.362540813
 21
42.1774816347
  0
LINE
  5
35B
100
AcDbEntity
  8
7_ALL_FEATURES
100
AcDbLine
 62
7
  6
CONTINUOUS
 10
89.2788959662
 20
48.2136023638
 11
88.8364021475
 21
47.7711085451
  0
LWPOLYLINE
  5
35C
100
AcDbEntity
  8
7_ALL_FEATURES
100
AcDbPolyline
 62
7
  6
CONTINUOUS
 90
14
 70
0
 10
174.9137933547
 20
128.0763195837
 10
175.03335804
 20
128.1640259593
 10
175.3757590388
 20
128.4338755224
 10
175.7031432813
 20
128.7204825748
 10
176.0147877059
 20
129.0231259444
 10
176.3100019909
 20
129.3410579292
 10
176.5881244202
 20
129.6735084587
 10
176.8485014071
 20
130.0196506733
 10
177.0905040854
 20
130.3786168923
 10
177.3135348942
 20
130.7494930991
 10
177.5170371155
 20
131.1313347278
 10
177.7005175507
 20
131.5232064095
 10
177.8635188889
 20
131.924145482
 10
177.896083515
 20
132.0178741086
  0
LINE
  5
35D
100
AcDbEntity
  8
7_ALL_FEATURES
100
AcDbLine
 62
7
  6
CONTINUOUS
 10
224.1323764471
 20
91.4977677514
 11
89.6715863432
 21
91.4977677514
  0
LINE
  5
35E
100
AcDbEntity
  8
7_ALL_FEATURES
100
AcDbLine
 62
7
  6
CONTINUOUS
 10
224.1213517869
 20
91.7635942252
 11
89.6826110033
 21
91.7635942252
  0
LINE
  5
35F
100
AcDbEntity
  8
7_ALL_FEATURES
100
AcDbLine
 62
7
  6
CONTINUOUS
 10
224.1202927654
 20
92.9988738888
 11
89.6836700248
 21
92.9988738888
  0
LINE
  5
360
100
AcDbEntity
  8
7_ALL_FEATURES
100
AcDbLine
 62
7
  6
CONTINUOUS
 10
224.1092681052
 20
93.2647003627
 11
89.694694685
 21
93.2647003627
  0
LINE
  5
361
100
AcDbEntity
  8
7_ALL_FEATURES
100
AcDbLine
 62
7
  6
CONTINUOUS
 10
224.1082090837
 20
94.4999800263
 11
89.6957537065
 21
94.4999800263
  0
LINE
  5
362
100
AcDbEntity
  8
7_ALL_FEATURES
100
AcDbLine
 62
7
  6
CONTINUOUS
 10
224.0971844236
 20
94.7658065002
 11
89.7067783667
 21
94.7658065002
  0
LINE
  5
363
100
AcDbEntity
  8
7_ALL_FEATURES
100
AcDbLine
 62
7
  6
CONTINUOUS
 10
224.096125402
 20
96.0010861638
 11
89.7078373882
 21
96.0010861638
  0
LINE
  5
364
100
AcDbEntity
  8
7_ALL_FEATURES
100
AcDbLine
 62
7
  6
CONTINUOUS
 10
224.0851007419
 20
96.2669126377
 11
89.7188620483
 21
96.2669126377
  0
LINE
  5
365
100
AcDbEntity
  8
7_ALL_FEATURES
100
AcDbLine
 62
7
  6
CONTINUOUS
 10
224.0840417203
 20
97.5021923013
 11
89.7199210699
 21
97.5021923013
  0
LINE
  5
366
100
AcDbEntity
  8
7_ALL_FEATURES
100
AcDbLine
 62
7
  6
CONTINUOUS
 10
224.0730170602
 20
97.7680187751
 11
89.73094573
 21
97.7680187751
  0
LWPOLYLINE
  5
367
100
AcDbEntity
  8
7_ALL_FEATURES
100
AcDbPolyline
 62
7
  6
CONTINUOUS
 90
14
 70
0
 10
135.9078966821
 20
132.0178741086
 10
135.940857833
 20
131.9230468876
 10
136.1039202785
 20
131.5221196629
 10
136.2874618224
 20
131.1302629722
 10
136.4910249937
 20
130.7484395522
 10
136.7141164199
 20
130.3775848021
 10
136.956179203
 20
130.0186433321
 10
137.2166155315
 20
129.6725292463
 10
137.4947962907
 20
129.3401102841
 10
137.7900677259
 20
129.0222132315
 10
138.1017683139
 20
128.7196077739
 10
138.4292075923
 20
128.4330416147
 10
138.7716625201
 20
128.1632358172
 10
138.890169558
 20
128.0763194974
  0
LINE
  5
368
100
AcDbEntity
  8
7_ALL_FEATURES
100
AcDbLine
 62
9
  6
CONTINUOUS
 10
82.4177515635
 20
37.2345961686
 11
83.3615889213
 21
38.1784335264
  0
LINE
  5
369
100
AcDbEntity
  8
7_ALL_FEATURES
100
AcDbLine
 62
9
  6
CONTINUOUS
 10
231.3862112267
 20
180.3011520485
 11
230.4423738689
 21
179.3573146907
  0
LINE
  5
36A
100
AcDbEntity
  8
7_ALL_FEATURES
100
AcDbLine
 62
7
  6
CONTINUOUS
 10
224.0719580387
 20
99.0032984387
 11
89.7320047516
 21
99.0032984387
  0
LINE
  5
36B
100
AcDbEntity
  8
7_ALL_FEATURES
100
AcDbLine
 62
7
  6
CONTINUOUS
 10
224.0609333785
 20
99.2691249126
 11
89.7430294117
 21
99.2691249126
  0
LINE
  5
36C
100
AcDbEntity
  8
7_ALL_FEATURES
100
AcDbLine
 62
7
  6
CONTINUOUS
 10
224.059874357
 20
100.5044045762
 11
89.7440884333
 21
100.5044045762
  0
LINE
  5
36D
100
AcDbEntity
  8
7_ALL_FEATURES
100
AcDbLine
 62
7
  6
CONTINUOUS
 10
224.0488496968
 20
100.7702310501
 11
89.7551130934
 21
100.7702310501
  0
LINE
  5
36E
100
AcDbEntity
  8
7_ALL_FEATURES
100
AcDbLine
 62
7
  6
CONTINUOUS
 10
224.0477906753
 20
102.0055107137
 11
89.7561721149
 21
102.0055107137
  0
LINE
  5
36F
100
AcDbEntity
  8
7_ALL_FEATURES
100
AcDbLine
 62
7
  6
CONTINUOUS
 10
224.0367660151
 20
102.2713371876
 11
89.7671967751
 21
102.2713371876
  0
LINE
  5
370
100
AcDbEntity
  8
7_ALL_FEATURES
100
AcDbLine
 62
7
  6
CONTINUOUS
 10
224.0357069936
 20
103.5066168512
 11
89.7682557966
 21
103.5066168512
  0
LINE
  5
371
100
AcDbEntity
  8
7_ALL_FEATURES
100
AcDbLine
 62
7
  6
CONTINUOUS
 10
224.0246823335
 20
103.772443325
 11
89.7792804568
 21
103.772443325
  0
LINE
  5
372
100
AcDbEntity
  8
7_ALL_FEATURES
100
AcDbLine
 62
7
  6
CONTINUOUS
 10
224.0236233119
 20
105.0077229886
 11
89.7803394783
 21
105.0077229886
  0
LINE
  5
373
100
AcDbEntity
  8
7_ALL_FEATURES
100
AcDbLine
 62
7
  6
CONTINUOUS
 10
224.0125986518
 20
105.2735494625
 11
89.7913641384
 21
105.2735494625
  0
LINE
  5
374
100
AcDbEntity
  8
7_ALL_FEATURES
100
AcDbLine
 62
7
  6
CONTINUOUS
 10
224.0115396302
 20
106.5088291261
 11
89.79242316
 21
106.5088291261
  0
LINE
  5
375
100
AcDbEntity
  8
7_ALL_FEATURES
100
AcDbLine
 62
9
  6
CONTINUOUS
 10
79.362540813
 20
175.3582665824
 11
78.4187034552
 21
176.3021039402
  0
LINE
  5
376
100
AcDbEntity
  8
7_ALL_FEATURES
100
AcDbLine
 62
9
  6
CONTINUOUS
 10
83.3615889213
 20
179.3573146907
 11
82.4177515635
 21
180.3011520485
  0
LINE
  5
377
100
AcDbEntity
  8
7_ALL_FEATURES
100
AcDbLine
 62
9
  6
CONTINUOUS
 10
235.385259335
 20
176.3021039402
 11
234.4414219773
 21
175.3582665824
  0
LINE
  5
378
100
AcDbEntity
  8
7_ALL_FEATURES
100
AcDbLine
 62
7
  6
CONTINUOUS
 10
224.0005149701
 20
106.7746556
 11
89.8034478201
 21
106.7746556
  0
LINE
  5
379
100
AcDbEntity
  8
7_ALL_FEATURES
100
AcDbLine
 62
7
  6
CONTINUOUS
 10
223.9994559486
 20
108.0099352636
 11
89.8045068417
 21
108.0099352636
  0
LINE
  5
37A
100
AcDbEntity
  8
7_ALL_FEATURES
100
AcDbLine
 62
7
  6
CONTINUOUS
 10
223.9884312884
 20
108.2757617375
 11
89.8155315018
 21
108.2757617375
  0
LINE
  5
37B
100
AcDbEntity
  8
7_ALL_FEATURES
100
AcDbLine
 62
7
  6
CONTINUOUS
 10
223.9873722669
 20
109.5110414011
 11
89.8165905233
 21
109.5110414011
  0
LINE
  5
37C
100
AcDbEntity
  8
7_ALL_FEATURES
100
AcDbLine
 62
7
  6
CONTINUOUS
 10
223.9763476067
 20
109.7768678749
 11
89.8276151835
 21
109.7768678749
  0
LINE
  5
37D
100
AcDbEntity
  8
7_ALL_FEATURES
100
AcDbLine
 62
7
  6
CONTINUOUS
 10
223.9752885852
 20
111.0121475385
 11
89.828674205
 21
111.0121475385
  0
LINE
  5
37E
100
AcDbEntity
  8
7_ALL_FEATURES
100
AcDbLine
 62
7
  6
CONTINUOUS
 10
223.9642639251
 20
111.2779740124
 11
89.8396988652
 21
111.2779740124
  0
LINE
  5
37F
100
AcDbEntity
  8
7_ALL_FEATURES
100
AcDbLine
 62
7
  6
CONTINUOUS
 10
223.9632049035
 20
112.513253676
 11
89.8407578867
 21
112.513253676
  0
LINE
  5
380
100
AcDbEntity
  8
7_ALL_FEATURES
100
AcDbLine
 62
7
  6
CONTINUOUS
 10
223.9521802434
 20
112.7790801499
 11
89.8517825469
 21
112.7790801499
  0
LINE
  5
381
100
AcDbEntity
  8
7_ALL_FEATURES
100
AcDbLine
 62
7
  6
CONTINUOUS
 10
223.9511212218
 20
114.0143598135
 11
89.8528415684
 21
114.0143598135
  0
LINE
  5
382
100
AcDbEntity
  8
7_ALL_FEATURES
100
AcDbLine
 62
7
  6
CONTINUOUS
 10
223.9400965617
 20
114.2801862874
 11
89.8638662285
 21
114.2801862874
  0
LINE
  5
383
100
AcDbEntity
  8
7_ALL_FEATURES
100
AcDbLine
 62
9
  6
CONTINUOUS
 10
231.3862112267
 20
37.2345961686
 11
230.4423738689
 21
38.1784335264
  0
LINE
  5
384
100
AcDbEntity
  8
7_ALL_FEATURES
100
AcDbLine
 62
7
  6
CONTINUOUS
 10
224.525066824
 20
48.2136023638
 11
224.9675606428
 21
47.7711085451
  0
LINE
  5
385
100
AcDbEntity
  8
7_ALL_FEATURES
100
AcDbLine
 62
9
  6
CONTINUOUS
 10
168.9019813951
 20
130.1520869256
 11
168.9019813951
 21
130.3336411807
  0
LINE
  5
386
100
AcDbEntity
  8
7_ALL_FEATURES
100
AcDbLine
 62
7
  6
CONTINUOUS
 10
223.9390375401
 20
115.515465951
 11
89.8649252501
 21
115.515465951
  0
LINE
  5
387
100
AcDbEntity
  8
7_ALL_FEATURES
100
AcDbLine
 62
7
  6
CONTINUOUS
 10
223.92801288
 20
115.7812924248
 11
89.8759499102
 21
115.7812924248
  0
LINE
  5
388
100
AcDbEntity
  8
7_ALL_FEATURES
100
AcDbLine
 62
7
  6
CONTINUOUS
 10
223.9269538585
 20
117.0165720884
 11
89.8770089318
 21
117.0165720884
  0
LINE
  5
389
100
AcDbEntity
  8
7_ALL_FEATURES
100
AcDbLine
 62
7
  6
CONTINUOUS
 10
223.9159291983
 20
117.2823985623
 11
89.8880335919
 21
117.2823985623
  0
LINE
  5
38A
100
AcDbEntity
  8
7_ALL_FEATURES
100
AcDbLine
 62
7
  6
CONTINUOUS
 10
223.9148701768
 20
118.5176782259
 11
89.8890926134
 21
118.5176782259
  0
LINE
  5
38B
100
AcDbEntity
  8
7_ALL_FEATURES
100
AcDbLine
 62
7
  6
CONTINUOUS
 10
223.8893815998
 20
119.1322584891
 11
89.9145811904
 21
119.1322584891
  0
LINE
  5
38C
100
AcDbEntity
  8
6_ALL_SURFS
100
AcDbLine
 62
9
  6
CONTINUOUS
 10
101.3423774866
 20
119.7277196745
 11
96.4615853036
 21
119.7277196745
  0
LINE
  5
38D
100
AcDbEntity
  8
6_ALL_SURFS
100
AcDbLine
 62
9
  6
CONTINUOUS
 10
212.4615853036
 20
119.7277196745
 11
217.3423774866
 21
119.7277196745
  0
LINE
  5
38E
100
AcDbEntity
  8
6_ALL_SURFS
100
AcDbLine
 62
9
  6
CONTINUOUS
 10
217.3423774866
 20
120.9228663265
 11
212.4615853036
 21
120.9228663265
  0
LINE
  5
38F
100
AcDbEntity
  8
6_ALL_SURFS
100
AcDbLine
 62
9
  6
CONTINUOUS
 10
96.4615853036
 20
120.9228663265
 11
101.3423774866
 21
120.9228663265
  0
LINE
  5
390
100
AcDbEntity
  8
6_ALL_SURFS
100
AcDbLine
 62
9
  6
CONTINUOUS
 10
217.3423774866
 20
121.2493630704
 11
212.4615853036
 21
121.2493630704
  0
LINE
  5
391
100
AcDbEntity
  8
6_ALL_SURFS
100
AcDbLine
 62
9
  6
CONTINUOUS
 10
96.4615853036
 20
121.2493630704
 11
101.3423774866
 21
121.2493630704
  0
LINE
  5
392
100
AcDbEntity
  8
7_ALL_FEATURES
100
AcDbLine
 62
9
  6
CONTINUOUS
 10
96.3928491713
 20
121.60754018
 11
101.4111136189
 21
121.60754018
  0
LINE
  5
393
100
AcDbEntity
  8
7_ALL_FEATURES
100
AcDbLine
 62
9
  6
CONTINUOUS
 10
212.3928491713
 20
121.60754018
 11
217.4111136189
 21
121.60754018
  0
LINE
  5
394
100
AcDbEntity
  8
7_ALL_FEATURES
100
AcDbLine
 62
9
  6
CONTINUOUS
 10
96.3928491713
 20
121.7381388776
 11
101.4111136189
 21
121.7381388776
  0
LINE
  5
395
100
AcDbEntity
  8
7_ALL_FEATURES
100
AcDbLine
 62
9
  6
CONTINUOUS
 10
212.3928491713
 20
121.7381388776
 11
217.4111136189
 21
121.7381388776
  0
LINE
  5
396
100
AcDbEntity
  8
7_ALL_FEATURES
100
AcDbLine
 62
9
  6
CONTINUOUS
 10
235.385259335
 20
41.233644277
 11
234.4414219773
 21
42.1774816347
  0
LINE
  5
397
100
AcDbEntity
  8
3_ALL_AXES
100
AcDbLine
 62
7
  6
CONTINUOUS
 10
180.9019813951
 20
131.6616391691
 11
180.9019813951
 21
132.0178741086
  0
LINE
  5
398
100
AcDbEntity
  8
7_ALL_FEATURES
100
AcDbLine
 62
7
  6
CONTINUOUS
 10
181.2019813951
 20
130.9739074233
 11
181.2019813951
 21
132.0178741086
  0
LINE
  5
399
100
AcDbEntity
  8
7_ALL_FEATURES
100
AcDbLine
 62
9
  6
CONTINUOUS
 10
181.2232728661
 20
132.0178741086
 11
181.2232728661
 21
130.5192341187
  0
LINE
  5
39A
100
AcDbEntity
  8
7_ALL_FEATURES
100
AcDbLine
 62
9
  6
CONTINUOUS
 10
181.2232728661
 20
130.5192341187
 11
181.2019813951
 21
130.9739074233
  0
LINE
  5
39B
100
AcDbEntity
  8
7_ALL_FEATURES
100
AcDbLine
 62
9
  6
CONTINUOUS
 10
180.9049332132
 20
129.8216272835
 11
180.888973265
 21
130.2879840424
  0
LINE
  5
39C
100
AcDbEntity
  8
7_ALL_FEATURES
100
AcDbLine
 62
9
  6
CONTINUOUS
 10
181.7231015286
 20
132.0178741086
 11
181.7231015286
 21
130.2469566488
  0
LINE
  5
39D
100
AcDbEntity
  8
7_ALL_FEATURES
100
AcDbLine
 62
9
  6
CONTINUOUS
 10
223.4679176021
 20
132.0835723427
 11
223.402219368
 21
132.0178741086
  0
LINE
  5
39E
100
AcDbEntity
  8
7_ALL_FEATURES
100
AcDbLine
 62
9
  6
CONTINUOUS
 10
224.4676796292
 20
131.0838103156
 11
224.4019813951
 21
131.0181120815
  0
LINE
  5
39F
100
AcDbEntity
  8
7_ALL_FEATURES
100
AcDbLine
 62
9
  6
CONTINUOUS
 10
216.8965859879
 20
130.8176786225
 11
212.9073768024
 21
130.8176786225
  0
LINE
  5
3A0
100
AcDbEntity
  8
7_ALL_FEATURES
100
AcDbLine
 62
9
  6
CONTINUOUS
 10
100.8965859879
 20
130.8176786225
 11
96.9073768024
 21
130.8176786225
  0
LINE
  5
3A1
100
AcDbEntity
  8
7_ALL_FEATURES
100
AcDbLine
 62
9
  6
CONTINUOUS
 10
89.336283161
 20
131.0838103156
 11
88.8364021475
 21
131.0838103156
  0
LINE
  5
3A2
100
AcDbEntity
  8
7_ALL_FEATURES
100
AcDbLine
 62
9
  6
CONTINUOUS
 10
224.4676796292
 20
131.0838103156
 11
224.9675606428
 21
131.0838103156
  0
LINE
  5
3A3
100
AcDbEntity
  8
7_ALL_FEATURES
100
AcDbLine
 62
9
  6
CONTINUOUS
 10
216.8965859879
 20
131.1169478376
 11
212.9073768024
 21
131.1169478376
  0
LINE
  5
3A4
100
AcDbEntity
  8
7_ALL_FEATURES
100
AcDbLine
 62
9
  6
CONTINUOUS
 10
100.8965859879
 20
131.1169478376
 11
96.9073768024
 21
131.1169478376
  0
LINE
  5
3A5
100
AcDbEntity
  8
7_ALL_FEATURES
100
AcDbLine
 62
9
  6
CONTINUOUS
 10
224.2857370662
 20
131.4608429786
 11
223.8519813951
 21
131.4608429786
  0
LINE
  5
3A6
100
AcDbEntity
  8
7_ALL_FEATURES
100
AcDbLine
 62
9
  6
CONTINUOUS
 10
89.9519813951
 20
131.4608429786
 11
89.5419016772
 21
131.4608429786
  0
LINE
  5
3A7
100
AcDbEntity
  8
7_ALL_FEATURES
100
AcDbLine
 62
7
  6
CONTINUOUS
 10
223.402219368
 20
132.0178741086
 11
90.4017434222
 21
132.0178741086
  0
LINE
  5
3A8
100
AcDbEntity
  8
7_ALL_FEATURES
100
AcDbLine
 62
9
  6
CONTINUOUS
 10
223.4679176021
 20
132.0835723427
 11
90.3360451881
 21
132.0835723427
  0
LINE
  5
3A9
100
AcDbEntity
  8
7_ALL_FEATURES
100
AcDbLine
 62
9
  6
CONTINUOUS
 10
223.4679176021
 20
132.5834533562
 11
90.3360451881
 21
132.5834533562
  0
LINE
  5
3AA
100
AcDbEntity
  8
7_ALL_FEATURES
100
AcDbLine
 62
9
  6
CONTINUOUS
 10
211.3601628244
 20
119.1322584891
 11
211.3601628244
 21
120.6209159624
  0
LINE
  5
3AB
100
AcDbEntity
  8
7_ALL_FEATURES
100
AcDbLine
 62
9
  6
CONTINUOUS
 10
211.6600600219
 20
119.1322584891
 11
211.6600600219
 21
120.7842824443
  0
LINE
  5
3AC
100
AcDbEntity
  8
6_ALL_SURFS
100
AcDbLine
 62
9
  6
CONTINUOUS
 10
211.7118423099
 20
120.5144501217
 11
211.7118423099
 21
119.3193034697
  0
LINE
  5
3AD
100
AcDbEntity
  8
7_ALL_FEATURES
100
AcDbLine
 62
9
  6
CONTINUOUS
 10
212.3174873066
 20
131.3820300182
 11
212.3174873066
 21
132.0178741086
  0
LINE
  5
3AE
100
AcDbEntity
  8
7_ALL_FEATURES
100
AcDbLine
 62
9
  6
CONTINUOUS
 10
212.3928491713
 20
121.7381388776
 11
212.3928491713
 21
121.60754018
  0
LINE
  5
3AF
100
AcDbEntity
  8
7_ALL_FEATURES
100
AcDbLine
 62
9
  6
CONTINUOUS
 10
212.6173045547
 20
131.543933224
 11
212.6332515338
 21
132.0178741086
  0
LINE
  5
3B0
100
AcDbEntity
  8
7_ALL_FEATURES
100
AcDbLine
 62
9
  6
CONTINUOUS
 10
212.9073768024
 20
131.1169478376
 11
212.9376908201
 21
132.0178741086
  0
LINE
  5
3B1
100
AcDbEntity
  8
7_ALL_FEATURES
100
AcDbLine
 62
9
  6
CONTINUOUS
 10
211.7034106897
 20
119.1322584891
 11
211.7118423099
 21
119.3193034697
  0
LINE
  5
3B2
100
AcDbEntity
  8
7_ALL_FEATURES
100
AcDbLine
 62
9
  6
CONTINUOUS
 10
218.1005521006
 20
119.1322584891
 11
218.0921204803
 21
119.3193034697
  0
LINE
  5
3B3
100
AcDbEntity
  8
7_ALL_FEATURES
100
AcDbLine
 62
9
  6
CONTINUOUS
 10
216.8662719701
 20
132.0178741086
 11
216.8965859879
 21
131.1169478376
  0
LINE
  5
3B4
100
AcDbEntity
  8
7_ALL_FEATURES
100
AcDbLine
 62
9
  6
CONTINUOUS
 10
217.1707112564
 20
132.0178741086
 11
217.1866582355
 21
131.543933224
  0
LINE
  5
3B5
100
AcDbEntity
  8
6_ALL_SURFS
100
AcDbLine
 62
9
  6
CONTINUOUS
 10
212.4615853036
 20
119.1322584891
 11
212.4615853036
 21
121.2493630704
  0
LINE
  5
3B6
100
AcDbEntity
  8
7_ALL_FEATURES
100
AcDbLine
 62
9
  6
CONTINUOUS
 10
212.6173045547
 20
131.543933224
 11
212.6173045547
 21
132.0178741086
  0
LINE
  5
3B7
100
AcDbEntity
  8
7_ALL_FEATURES
100
AcDbLine
 62
9
  6
CONTINUOUS
 10
212.9073768024
 20
130.8176786225
 11
212.9073768024
 21
131.1169478376
  0
LINE
  5
3B8
100
AcDbEntity
  8
7_ALL_FEATURES
100
AcDbLine
 62
9
  6
CONTINUOUS
 10
216.8965859879
 20
130.8176786225
 11
216.8965859879
 21
131.1169478376
  0
LINE
  5
3B9
100
AcDbEntity
  8
7_ALL_FEATURES
100
AcDbLine
 62
9
  6
CONTINUOUS
 10
217.1866582355
 20
132.0178741086
 11
217.1866582355
 21
131.543933224
  0
LINE
  5
3BA
100
AcDbEntity
  8
6_ALL_SURFS
100
AcDbLine
 62
9
  6
CONTINUOUS
 10
217.3423774866
 20
119.1322584891
 11
217.3423774866
 21
121.2493630704
  0
LINE
  5
3BB
100
AcDbEntity
  8
7_ALL_FEATURES
100
AcDbLine
 62
9
  6
CONTINUOUS
 10
217.4111136189
 20
121.7381388776
 11
217.4111136189
 21
121.60754018
  0
LINE
  5
3BC
100
AcDbEntity
  8
7_ALL_FEATURES
100
AcDbLine
 62
9
  6
CONTINUOUS
 10
217.4864754836
 20
132.0178741086
 11
217.4864754836
 21
131.3820300182
  0
LINE
  5
3BD
100
AcDbEntity
  8
6_ALL_SURFS
100
AcDbLine
 62
9
  6
CONTINUOUS
 10
218.0921204803
 20
119.3193034697
 11
218.0921204803
 21
120.5144501217
  0
LINE
  5
3BE
100
AcDbEntity
  8
7_ALL_FEATURES
100
AcDbLine
 62
9
  6
CONTINUOUS
 10
218.1439027683
 20
120.7842824443
 11
218.1439027683
 21
119.1322584891
  0
LINE
  5
3BF
100
AcDbEntity
  8
7_ALL_FEATURES
100
AcDbLine
 62
9
  6
CONTINUOUS
 10
218.4437999658
 20
120.6209159624
 11
218.4437999658
 21
119.1322584891
  0
LINE
  5
3C0
100
AcDbEntity
  8
7_ALL_FEATURES
100
AcDbLine
 62
9
  6
CONTINUOUS
 10
217.4111136189
 20
121.60754018
 11
217.3423774866
 21
121.2493630704
  0
LINE
  5
3C1
100
AcDbEntity
  8
7_ALL_FEATURES
100
AcDbLine
 62
9
  6
CONTINUOUS
 10
218.1439027683
 20
120.7842824443
 11
218.0921204803
 21
120.5144501217
  0
LINE
  5
3C2
100
AcDbEntity
  8
7_ALL_FEATURES
100
AcDbLine
 62
9
  6
CONTINUOUS
 10
211.7118423099
 20
120.5144501217
 11
211.6600600219
 21
120.7842824443
  0
LINE
  5
3C3
100
AcDbEntity
  8
7_ALL_FEATURES
100
AcDbLine
 62
9
  6
CONTINUOUS
 10
212.4615853036
 20
121.2493630704
 11
212.3928491713
 21
121.60754018
  0
LINE
  5
3C4
100
AcDbEntity
  8
7_ALL_FEATURES
100
AcDbLine
 62
7
  6
CONTINUOUS
 10
224.459694874
 20
49.7326223759
 11
224.4676796292
 21
49.5400940544
  0
LINE
  5
3C5
100
AcDbEntity
  8
7_ALL_FEATURES
100
AcDbLine
 62
7
  6
CONTINUOUS
 10
224.4476111924
 20
51.2337285134
 11
224.4586358525
 21
50.9679020395
  0
LINE
  5
3C6
100
AcDbEntity
  8
7_ALL_FEATURES
100
AcDbLine
 62
7
  6
CONTINUOUS
 10
224.4355275107
 20
52.7348346508
 11
224.4465521708
 21
52.469008177
  0
LINE
  5
3C7
100
AcDbEntity
  8
7_ALL_FEATURES
100
AcDbLine
 62
7
  6
CONTINUOUS
 10
224.423443829
 20
54.2359407883
 11
224.4344684891
 21
53.9701143145
  0
LINE
  5
3C8
100
AcDbEntity
  8
7_ALL_FEATURES
100
AcDbLine
 62
7
  6
CONTINUOUS
 10
224.4113601473
 20
55.7370469258
 11
224.4223848075
 21
55.4712204519
  0
LINE
  5
3C9
100
AcDbEntity
  8
7_ALL_FEATURES
100
AcDbLine
 62
7
  6
CONTINUOUS
 10
224.4103011258
 20
56.9723265894
 11
224.3992764656
 21
57.2381530633
  0
LINE
  5
3CA
100
AcDbEntity
  8
7_ALL_FEATURES
100
AcDbLine
 62
7
  6
CONTINUOUS
 10
224.387192784
 20
58.7392592008
 11
224.3982174441
 21
58.4734327269
  0
LINE
  5
3CB
100
AcDbEntity
  8
7_ALL_FEATURES
100
AcDbLine
 62
7
  6
CONTINUOUS
 10
224.3751091023
 20
60.2403653382
 11
224.3861337624
 21
59.9745388644
  0
LINE
  5
3CC
100
AcDbEntity
  8
7_ALL_FEATURES
100
AcDbLine
 62
7
  6
CONTINUOUS
 10
224.3630254206
 20
61.7414714757
 11
224.3740500807
 21
61.4756450018
  0
LINE
  5
3CD
100
AcDbEntity
  8
7_ALL_FEATURES
100
AcDbLine
 62
7
  6
CONTINUOUS
 10
224.3509417389
 20
63.2425776132
 11
224.361966399
 21
62.9767511393
  0
LINE
  5
3CE
100
AcDbEntity
  8
7_ALL_FEATURES
100
AcDbLine
 62
7
  6
CONTINUOUS
 10
224.3388580572
 20
64.7436837507
 11
224.3498827174
 21
64.4778572768
  0
LINE
  5
3CF
100
AcDbEntity
  8
7_ALL_FEATURES
100
AcDbLine
 62
7
  6
CONTINUOUS
 10
224.3267743755
 20
66.2447898881
 11
224.3377990357
 21
65.9789634143
  0
LINE
  5
3D0
100
AcDbEntity
  8
7_ALL_FEATURES
100
AcDbLine
 62
7
  6
CONTINUOUS
 10
224.3146906939
 20
67.7458960256
 11
224.325715354
 21
67.4800695517
  0
LINE
  5
3D1
100
AcDbEntity
  8
7_ALL_FEATURES
100
AcDbLine
 62
7
  6
CONTINUOUS
 10
224.3026070122
 20
69.2470021631
 11
224.3136316723
 21
68.9811756892
  0
LINE
  5
3D2
100
AcDbEntity
  8
7_ALL_FEATURES
100
AcDbLine
 62
7
  6
CONTINUOUS
 10
224.2905233305
 20
70.7481083006
 11
224.3015479906
 21
70.4822818267
  0
LINE
  5
3D3
100
AcDbEntity
  8
7_ALL_FEATURES
100
AcDbLine
 62
7
  6
CONTINUOUS
 10
224.2784396488
 20
72.249214438
 11
224.2894643089
 21
71.9833879642
  0
LINE
  5
3D4
100
AcDbEntity
  8
7_ALL_FEATURES
100
AcDbLine
 62
7
  6
CONTINUOUS
 10
224.2663559671
 20
73.7503205755
 11
224.2773806273
 21
73.4844941016
  0
LINE
  5
3D5
100
AcDbEntity
  8
7_ALL_FEATURES
100
AcDbLine
 62
7
  6
CONTINUOUS
 10
224.2542722854
 20
75.251426713
 11
224.2652969456
 21
74.9856002391
  0
LINE
  5
3D6
100
AcDbEntity
  8
7_ALL_FEATURES
100
AcDbLine
 62
7
  6
CONTINUOUS
 10
224.2421886038
 20
76.7525328505
 11
224.2532132639
 21
76.4867063766
  0
LINE
  5
3D7
100
AcDbEntity
  8
7_ALL_FEATURES
100
AcDbLine
 62
7
  6
CONTINUOUS
 10
224.2301049221
 20
78.2536389879
 11
224.2411295822
 21
77.9878125141
  0
LINE
  5
3D8
100
AcDbEntity
  8
7_ALL_FEATURES
100
AcDbLine
 62
7
  6
CONTINUOUS
 10
224.2180212404
 20
79.7547451254
 11
224.2290459005
 21
79.4889186515
  0
LINE
  5
3D9
100
AcDbEntity
  8
7_ALL_FEATURES
100
AcDbLine
 62
7
  6
CONTINUOUS
 10
224.2059375587
 20
81.2558512629
 11
224.2169622189
 21
80.990024789
  0
LINE
  5
3DA
100
AcDbEntity
  8
7_ALL_FEATURES
100
AcDbLine
 62
7
  6
CONTINUOUS
 10
224.193853877
 20
82.7569574004
 11
224.2048785372
 21
82.4911309265
  0
LINE
  5
3DB
100
AcDbEntity
  8
7_ALL_FEATURES
100
AcDbLine
 62
7
  6
CONTINUOUS
 10
224.1817701953
 20
84.2580635378
 11
224.1927948555
 21
83.992237064
  0
LINE
  5
3DC
100
AcDbEntity
  8
7_ALL_FEATURES
100
AcDbLine
 62
7
  6
CONTINUOUS
 10
224.1696865137
 20
85.7591696753
 11
224.1807111738
 21
85.4933432014
  0
LINE
  5
3DD
100
AcDbEntity
  8
7_ALL_FEATURES
100
AcDbLine
 62
7
  6
CONTINUOUS
 10
224.157602832
 20
87.2602758128
 11
224.1686274921
 21
86.9944493389
  0
LINE
  5
3DE
100
AcDbEntity
  8
7_ALL_FEATURES
100
AcDbLine
 62
7
  6
CONTINUOUS
 10
224.1455191503
 20
88.7613819503
 11
224.1565438104
 21
88.4955554764
  0
LINE
  5
3DF
100
AcDbEntity
  8
7_ALL_FEATURES
100
AcDbLine
 62
7
  6
CONTINUOUS
 10
224.1334354686
 20
90.2624880877
 11
224.1444601288
 21
89.9966616139
  0
LINE
  5
3E0
100
AcDbEntity
  8
7_ALL_FEATURES
100
AcDbLine
 62
7
  6
CONTINUOUS
 10
224.1213517869
 20
91.7635942252
 11
224.1323764471
 21
91.4977677514
  0
LINE
  5
3E1
100
AcDbEntity
  8
7_ALL_FEATURES
100
AcDbLine
 62
7
  6
CONTINUOUS
 10
224.1092681052
 20
93.2647003627
 11
224.1202927654
 21
92.9988738888
  0
LINE
  5
3E2
100
AcDbEntity
  8
7_ALL_FEATURES
100
AcDbLine
 62
7
  6
CONTINUOUS
 10
224.0971844236
 20
94.7658065002
 11
224.1082090837
 21
94.4999800263
  0
LINE
  5
3E3
100
AcDbEntity
  8
7_ALL_FEATURES
100
AcDbLine
 62
7
  6
CONTINUOUS
 10
224.0851007419
 20
96.2669126377
 11
224.096125402
 21
96.0010861638
  0
LINE
  5
3E4
100
AcDbEntity
  8
7_ALL_FEATURES
100
AcDbLine
 62
7
  6
CONTINUOUS
 10
224.0730170602
 20
97.7680187751
 11
224.0840417203
 21
97.5021923013
  0
LINE
  5
3E5
100
AcDbEntity
  8
7_ALL_FEATURES
100
AcDbLine
 62
7
  6
CONTINUOUS
 10
224.0609333785
 20
99.2691249126
 11
224.0719580387
 21
99.0032984387
  0
LINE
  5
3E6
100
AcDbEntity
  8
7_ALL_FEATURES
100
AcDbLine
 62
7
  6
CONTINUOUS
 10
224.0488496968
 20
100.7702310501
 11
224.059874357
 21
100.5044045762
  0
LINE
  5
3E7
100
AcDbEntity
  8
7_ALL_FEATURES
100
AcDbLine
 62
7
  6
CONTINUOUS
 10
224.0367660151
 20
102.2713371876
 11
224.0477906753
 21
102.0055107137
  0
LINE
  5
3E8
100
AcDbEntity
  8
7_ALL_FEATURES
100
AcDbLine
 62
7
  6
CONTINUOUS
 10
224.0246823335
 20
103.772443325
 11
224.0357069936
 21
103.5066168512
  0
LINE
  5
3E9
100
AcDbEntity
  8
7_ALL_FEATURES
100
AcDbLine
 62
7
  6
CONTINUOUS
 10
224.0125986518
 20
105.2735494625
 11
224.0236233119
 21
105.0077229886
  0
LINE
  5
3EA
100
AcDbEntity
  8
7_ALL_FEATURES
100
AcDbLine
 62
7
  6
CONTINUOUS
 10
224.0005149701
 20
106.7746556
 11
224.0115396302
 21
106.5088291261
  0
LINE
  5
3EB
100
AcDbEntity
  8
7_ALL_FEATURES
100
AcDbLine
 62
7
  6
CONTINUOUS
 10
223.9884312884
 20
108.2757617375
 11
223.9994559486
 21
108.0099352636
  0
LINE
  5
3EC
100
AcDbEntity
  8
7_ALL_FEATURES
100
AcDbLine
 62
7
  6
CONTINUOUS
 10
223.9763476067
 20
109.7768678749
 11
223.9873722669
 21
109.5110414011
  0
LINE
  5
3ED
100
AcDbEntity
  8
7_ALL_FEATURES
100
AcDbLine
 62
7
  6
CONTINUOUS
 10
223.9642639251
 20
111.2779740124
 11
223.9752885852
 21
111.0121475385
  0
LINE
  5
3EE
100
AcDbEntity
  8
7_ALL_FEATURES
100
AcDbLine
 62
7
  6
CONTINUOUS
 10
223.9521802434
 20
112.7790801499
 11
223.9632049035
 21
112.513253676
  0
LINE
  5
3EF
100
AcDbEntity
  8
7_ALL_FEATURES
100
AcDbLine
 62
7
  6
CONTINUOUS
 10
223.9400965617
 20
114.2801862874
 11
223.9511212218
 21
114.0143598135
  0
LINE
  5
3F0
100
AcDbEntity
  8
7_ALL_FEATURES
100
AcDbLine
 62
7
  6
CONTINUOUS
 10
223.92801288
 20
115.7812924248
 11
223.9390375401
 21
115.515465951
  0
LINE
  5
3F1
100
AcDbEntity
  8
7_ALL_FEATURES
100
AcDbLine
 62
7
  6
CONTINUOUS
 10
223.9159291983
 20
117.2823985623
 11
223.9269538585
 21
117.0165720884
  0
LINE
  5
3F2
100
AcDbEntity
  8
7_ALL_FEATURES
100
AcDbLine
 62
7
  6
CONTINUOUS
 10
223.8893815998
 20
119.1322584891
 11
223.9148701768
 21
118.5176782259
  0
LINE
  5
3F3
100
AcDbEntity
  8
7_ALL_FEATURES
100
AcDbLine
 62
7
  6
CONTINUOUS
 10
223.9148701768
 20
118.5176782259
 11
223.9159291983
 21
117.2823985623
  0
LINE
  5
3F4
100
AcDbEntity
  8
7_ALL_FEATURES
100
AcDbLine
 62
7
  6
CONTINUOUS
 10
223.9269538585
 20
117.0165720884
 11
223.92801288
 21
115.7812924248
  0
LINE
  5
3F5
100
AcDbEntity
  8
7_ALL_FEATURES
100
AcDbLine
 62
7
  6
CONTINUOUS
 10
223.9390375401
 20
115.515465951
 11
223.9400965617
 21
114.2801862874
  0
LINE
  5
3F6
100
AcDbEntity
  8
7_ALL_FEATURES
100
AcDbLine
 62
7
  6
CONTINUOUS
 10
223.9511212218
 20
114.0143598135
 11
223.9521802434
 21
112.7790801499
  0
LINE
  5
3F7
100
AcDbEntity
  8
7_ALL_FEATURES
100
AcDbLine
 62
7
  6
CONTINUOUS
 10
223.9632049035
 20
112.513253676
 11
223.9642639251
 21
111.2779740124
  0
LINE
  5
3F8
100
AcDbEntity
  8
7_ALL_FEATURES
100
AcDbLine
 62
7
  6
CONTINUOUS
 10
223.9752885852
 20
111.0121475385
 11
223.9763476067
 21
109.7768678749
  0
LINE
  5
3F9
100
AcDbEntity
  8
7_ALL_FEATURES
100
AcDbLine
 62
7
  6
CONTINUOUS
 10
223.9873722669
 20
109.5110414011
 11
223.9884312884
 21
108.2757617375
  0
LINE
  5
3FA
100
AcDbEntity
  8
7_ALL_FEATURES
100
AcDbLine
 62
7
  6
CONTINUOUS
 10
223.9994559486
 20
108.0099352636
 11
224.0005149701
 21
106.7746556
  0
LINE
  5
3FB
100
AcDbEntity
  8
7_ALL_FEATURES
100
AcDbLine
 62
7
  6
CONTINUOUS
 10
224.0115396302
 20
106.5088291261
 11
224.0125986518
 21
105.2735494625
  0
LINE
  5
3FC
100
AcDbEntity
  8
7_ALL_FEATURES
100
AcDbLine
 62
7
  6
CONTINUOUS
 10
224.0236233119
 20
105.0077229886
 11
224.0246823335
 21
103.772443325
  0
LINE
  5
3FD
100
AcDbEntity
  8
7_ALL_FEATURES
100
AcDbLine
 62
7
  6
CONTINUOUS
 10
224.0357069936
 20
103.5066168512
 11
224.0367660151
 21
102.2713371876
  0
LINE
  5
3FE
100
AcDbEntity
  8
7_ALL_FEATURES
100
AcDbLine
 62
7
  6
CONTINUOUS
 10
224.0477906753
 20
102.0055107137
 11
224.0488496968
 21
100.7702310501
  0
LINE
  5
3FF
100
AcDbEntity
  8
7_ALL_FEATURES
100
AcDbLine
 62
7
  6
CONTINUOUS
 10
224.059874357
 20
100.5044045762
 11
224.0609333785
 21
99.2691249126
  0
LINE
  5
400
100
AcDbEntity
  8
7_ALL_FEATURES
100
AcDbLine
 62
7
  6
CONTINUOUS
 10
224.0719580387
 20
99.0032984387
 11
224.0730170602
 21
97.7680187751
  0
LINE
  5
401
100
AcDbEntity
  8
7_ALL_FEATURES
100
AcDbLine
 62
7
  6
CONTINUOUS
 10
224.0840417203
 20
97.5021923013
 11
224.0851007419
 21
96.2669126377
  0
LINE
  5
402
100
AcDbEntity
  8
7_ALL_FEATURES
100
AcDbLine
 62
7
  6
CONTINUOUS
 10
224.096125402
 20
96.0010861638
 11
224.0971844236
 21
94.7658065002
  0
LINE
  5
403
100
AcDbEntity
  8
7_ALL_FEATURES
100
AcDbLine
 62
7
  6
CONTINUOUS
 10
224.1082090837
 20
94.4999800263
 11
224.1092681052
 21
93.2647003627
  0
LINE
  5
404
100
AcDbEntity
  8
7_ALL_FEATURES
100
AcDbLine
 62
7
  6
CONTINUOUS
 10
224.1202927654
 20
92.9988738888
 11
224.1213517869
 21
91.7635942252
  0
LINE
  5
405
100
AcDbEntity
  8
7_ALL_FEATURES
100
AcDbLine
 62
7
  6
CONTINUOUS
 10
224.1323764471
 20
91.4977677514
 11
224.1334354686
 21
90.2624880877
  0
LINE
  5
406
100
AcDbEntity
  8
7_ALL_FEATURES
100
AcDbLine
 62
7
  6
CONTINUOUS
 10
224.1444601288
 20
89.9966616139
 11
224.1455191503
 21
88.7613819503
  0
LINE
  5
407
100
AcDbEntity
  8
7_ALL_FEATURES
100
AcDbLine
 62
7
  6
CONTINUOUS
 10
224.1565438104
 20
88.4955554764
 11
224.157602832
 21
87.2602758128
  0
LINE
  5
408
100
AcDbEntity
  8
7_ALL_FEATURES
100
AcDbLine
 62
7
  6
CONTINUOUS
 10
224.1686274921
 20
86.9944493389
 11
224.1696865137
 21
85.7591696753
  0
LINE
  5
409
100
AcDbEntity
  8
7_ALL_FEATURES
100
AcDbLine
 62
7
  6
CONTINUOUS
 10
224.1807111738
 20
85.4933432014
 11
224.1817701953
 21
84.2580635378
  0
LINE
  5
40A
100
AcDbEntity
  8
7_ALL_FEATURES
100
AcDbLine
 62
7
  6
CONTINUOUS
 10
224.1927948555
 20
83.992237064
 11
224.193853877
 21
82.7569574004
  0
LINE
  5
40B
100
AcDbEntity
  8
7_ALL_FEATURES
100
AcDbLine
 62
7
  6
CONTINUOUS
 10
224.2048785372
 20
82.4911309265
 11
224.2059375587
 21
81.2558512629
  0
LINE
  5
40C
100
AcDbEntity
  8
7_ALL_FEATURES
100
AcDbLine
 62
7
  6
CONTINUOUS
 10
224.2169622189
 20
80.990024789
 11
224.2180212404
 21
79.7547451254
  0
LINE
  5
40D
100
AcDbEntity
  8
7_ALL_FEATURES
100
AcDbLine
 62
7
  6
CONTINUOUS
 10
224.2290459005
 20
79.4889186515
 11
224.2301049221
 21
78.2536389879
  0
LINE
  5
40E
100
AcDbEntity
  8
7_ALL_FEATURES
100
AcDbLine
 62
7
  6
CONTINUOUS
 10
224.2411295822
 20
77.9878125141
 11
224.2421886038
 21
76.7525328505
  0
LINE
  5
40F
100
AcDbEntity
  8
7_ALL_FEATURES
100
AcDbLine
 62
7
  6
CONTINUOUS
 10
224.2532132639
 20
76.4867063766
 11
224.2542722854
 21
75.251426713
  0
LINE
  5
410
100
AcDbEntity
  8
7_ALL_FEATURES
100
AcDbLine
 62
7
  6
CONTINUOUS
 10
224.2652969456
 20
74.9856002391
 11
224.2663559671
 21
73.7503205755
  0
LINE
  5
411
100
AcDbEntity
  8
7_ALL_FEATURES
100
AcDbLine
 62
7
  6
CONTINUOUS
 10
224.2773806273
 20
73.4844941016
 11
224.2784396488
 21
72.249214438
  0
LINE
  5
412
100
AcDbEntity
  8
7_ALL_FEATURES
100
AcDbLine
 62
7
  6
CONTINUOUS
 10
224.2894643089
 20
71.9833879642
 11
224.2905233305
 21
70.7481083006
  0
LINE
  5
413
100
AcDbEntity
  8
7_ALL_FEATURES
100
AcDbLine
 62
7
  6
CONTINUOUS
 10
224.3015479906
 20
70.4822818267
 11
224.3026070122
 21
69.2470021631
  0
LINE
  5
414
100
AcDbEntity
  8
7_ALL_FEATURES
100
AcDbLine
 62
7
  6
CONTINUOUS
 10
224.3136316723
 20
68.9811756892
 11
224.3146906939
 21
67.7458960256
  0
LINE
  5
415
100
AcDbEntity
  8
7_ALL_FEATURES
100
AcDbLine
 62
7
  6
CONTINUOUS
 10
224.325715354
 20
67.4800695517
 11
224.3267743755
 21
66.2447898881
  0
LINE
  5
416
100
AcDbEntity
  8
7_ALL_FEATURES
100
AcDbLine
 62
7
  6
CONTINUOUS
 10
224.3377990357
 20
65.9789634143
 11
224.3388580572
 21
64.7436837507
  0
LINE
  5
417
100
AcDbEntity
  8
7_ALL_FEATURES
100
AcDbLine
 62
7
  6
CONTINUOUS
 10
224.3498827174
 20
64.4778572768
 11
224.3509417389
 21
63.2425776132
  0
LINE
  5
418
100
AcDbEntity
  8
7_ALL_FEATURES
100
AcDbLine
 62
7
  6
CONTINUOUS
 10
224.361966399
 20
62.9767511393
 11
224.3630254206
 21
61.7414714757
  0
LINE
  5
419
100
AcDbEntity
  8
7_ALL_FEATURES
100
AcDbLine
 62
7
  6
CONTINUOUS
 10
224.3740500807
 20
61.4756450018
 11
224.3751091023
 21
60.2403653382
  0
LINE
  5
41A
100
AcDbEntity
  8
7_ALL_FEATURES
100
AcDbLine
 62
7
  6
CONTINUOUS
 10
224.3861337624
 20
59.9745388644
 11
224.387192784
 21
58.7392592008
  0
LINE
  5
41B
100
AcDbEntity
  8
7_ALL_FEATURES
100
AcDbLine
 62
7
  6
CONTINUOUS
 10
224.3982174441
 20
58.4734327269
 11
224.3992764656
 21
57.2381530633
  0
LINE
  5
41C
100
AcDbEntity
  8
7_ALL_FEATURES
100
AcDbLine
 62
7
  6
CONTINUOUS
 10
224.4103011258
 20
56.9723265894
 11
224.4113601473
 21
55.7370469258
  0
LINE
  5
41D
100
AcDbEntity
  8
7_ALL_FEATURES
100
AcDbLine
 62
7
  6
CONTINUOUS
 10
224.4223848075
 20
55.4712204519
 11
224.423443829
 21
54.2359407883
  0
LINE
  5
41E
100
AcDbEntity
  8
7_ALL_FEATURES
100
AcDbLine
 62
7
  6
CONTINUOUS
 10
224.4344684891
 20
53.9701143145
 11
224.4355275107
 21
52.7348346508
  0
LINE
  5
41F
100
AcDbEntity
  8
7_ALL_FEATURES
100
AcDbLine
 62
7
  6
CONTINUOUS
 10
224.4465521708
 20
52.469008177
 11
224.4476111924
 21
51.2337285134
  0
LINE
  5
420
100
AcDbEntity
  8
7_ALL_FEATURES
100
AcDbLine
 62
7
  6
CONTINUOUS
 10
224.4586358525
 20
50.9679020395
 11
224.459694874
 21
49.7326223759
  0
LINE
  5
421
100
AcDbEntity
  8
7_ALL_FEATURES
100
AcDbLine
 62
9
  6
CONTINUOUS
 10
222.3734714982
 20
119.1322584891
 11
222.3734714982
 21
132.0178741086
  0
LINE
  5
422
100
AcDbEntity
  8
7_ALL_FEATURES
100
AcDbLine
 62
9
  6
CONTINUOUS
 10
223.4679176021
 20
132.0835723427
 11
223.4679176021
 21
132.5834533562
  0
LINE
  5
423
100
AcDbEntity
  8
7_ALL_FEATURES
100
AcDbLine
 62
9
  6
CONTINUOUS
 10
223.6730260207
 20
119.1322584891
 11
223.6730260207
 21
131.9640150481
  0
LINE
  5
424
100
AcDbEntity
  8
7_ALL_FEATURES
100
AcDbLine
 62
7
  6
CONTINUOUS
 10
223.8519813951
 20
119.1322584891
 11
223.8519813951
 21
131.8969319612
  0
LINE
  5
425
100
AcDbEntity
  8
7_ALL_FEATURES
100
AcDbLine
 62
9
  6
CONTINUOUS
 10
224.4676796292
 20
49.5400940544
 11
224.4676796292
 21
131.0838103156
  0
LINE
  5
426
100
AcDbEntity
  8
7_ALL_FEATURES
100
AcDbLine
 62
9
  6
CONTINUOUS
 10
224.9675606428
 20
47.7711085451
 11
224.9675606428
 21
131.0838103156
  0
LINE
  5
427
100
AcDbEntity
  8
7_ALL_FEATURES
100
AcDbLine
 62
7
  6
CONTINUOUS
 10
224.0463102654
 20
123.077095148
 11
224.0677281286
 21
123.6151800989
  0
LINE
  5
428
100
AcDbEntity
  8
7_ALL_FEATURES
100
AcDbLine
 62
7
  6
CONTINUOUS
 10
223.8893815998
 20
119.1322584891
 11
224.0677250563
 21
123.6154369131
  0
LINE
  5
429
100
AcDbEntity
  8
7_ALL_FEATURES
100
AcDbLine
 62
7
  6
CONTINUOUS
 10
224.3623199753
 20
131.0214244459
 11
224.3688644531
 21
131.1861168981
  0
LINE
  5
42A
100
AcDbEntity
  8
7_ALL_FEATURES
100
AcDbLine
 62
7
  6
CONTINUOUS
 10
224.3623408113
 20
131.0196853947
 11
224.3688834381
 21
131.1845308527
  0
LINE
  5
42B
100
AcDbEntity
  8
7_ALL_FEATURES
100
AcDbLine
 62
9
  6
CONTINUOUS
 10
235.3856163369
 20
176.3021039402
 11
235.385259335
 21
176.3021039402
  0
LINE
  5
42C
100
AcDbEntity
  8
7_ALL_FEATURES
100
AcDbLine
 62
9
  6
CONTINUOUS
 10
78.4183464533
 20
176.3021039402
 11
78.4187034552
 21
176.3021039402
  0
LINE
  5
42D
100
AcDbEntity
  8
7_ALL_FEATURES
100
AcDbLine
 62
9
  6
CONTINUOUS
 10
231.3862112267
 20
180.3015090503
 11
231.3862112267
 21
180.3011520485
  0
LINE
  5
42E
100
AcDbEntity
  8
7_ALL_FEATURES
100
AcDbLine
 62
9
  6
CONTINUOUS
 10
231.3862112267
 20
37.2342391668
 11
231.3862112267
 21
37.2345961686
  0
LINE
  5
42F
100
AcDbEntity
  8
7_ALL_FEATURES
100
AcDbLine
 62
9
  6
CONTINUOUS
 10
233.4416599502
 20
42.1774816347
 11
233.4416599502
 21
175.3582665824
  0
LINE
  5
430
100
AcDbEntity
  8
7_ALL_FEATURES
100
AcDbLine
 62
9
  6
CONTINUOUS
 10
234.4414219773
 20
42.1774816347
 11
234.4414219773
 21
175.3582665824
  0
LINE
  5
431
100
AcDbEntity
  8
7_ALL_FEATURES
100
AcDbLine
 62
9
  6
CONTINUOUS
 10
235.385259335
 20
176.3021039402
 11
235.385259335
 21
41.233644277
  0
LINE
  5
432
100
AcDbEntity
  8
7_ALL_FEATURES
100
AcDbLine
 62
7
  6
CONTINUOUS
 10
235.3856163369
 20
41.233644277
 11
235.3856163369
 21
176.3021039402
  0
LWPOLYLINE
  5
433
100
AcDbEntity
  8
7_ALL_FEATURES
100
AcDbPolyline
 62
7
  6
CONTINUOUS
 90
8
 70
0
 10
82.4177515635
 20
180.3015087141
 10
81.5874375901
 20
180.2744805382
 10
80.578060726
 20
180.0491328725
 10
79.7381971269
 20
179.5824331946
 10
79.0871162456
 20
178.914316288
 10
78.6449213076
 20
178.0711776217
 10
78.4403619909
 20
177.0754039287
 10
78.4183468037
 20
176.3021039402
  0
LINE
  5
434
100
AcDbEntity
  8
7_ALL_FEATURES
100
AcDbLine
 62
9
  6
CONTINUOUS
 10
230.4423738689
 20
178.3575526636
 11
83.3615889213
 21
178.3575526636
  0
LINE
  5
435
100
AcDbEntity
  8
7_ALL_FEATURES
100
AcDbLine
 62
9
  6
CONTINUOUS
 10
230.4423738689
 20
179.3573146907
 11
83.3615889213
 21
179.3573146907
  0
LINE
  5
436
100
AcDbEntity
  8
7_ALL_FEATURES
100
AcDbLine
 62
9
  6
CONTINUOUS
 10
82.4177515635
 20
180.3011520485
 11
231.3862112267
 21
180.3011520485
  0
LINE
  5
437
100
AcDbEntity
  8
7_ALL_FEATURES
100
AcDbLine
 62
7
  6
CONTINUOUS
 10
231.3862112267
 20
180.3015090503
 11
82.4177515635
 21
180.3015090503
  0
LWPOLYLINE
  5
438
100
AcDbEntity
  8
7_ALL_FEATURES
100
AcDbPolyline
 62
7
  6
CONTINUOUS
 90
8
 70
0
 10
235.3856160044
 20
176.3021039402
 10
235.358967462
 20
177.1283647206
 10
235.1378955824
 20
178.1294104708
 10
234.6807822959
 20
178.9629321771
 10
234.0235140893
 20
179.6143610217
 10
233.185836519
 20
180.0639528185
 10
232.1828706141
 20
180.2771946448
 10
231.3862112267
 20
180.3015085319
  0
LINE
  5
439
100
AcDbEntity
  8
7_ALL_FEATURES
100
AcDbLine
 62
7
  6
CONTINUOUS
 10
80.2154170897
 20
227.9726664972
 11
80.2096315313
 21
228.1936080558
  0
LINE
  5
43A
100
AcDbEntity
  8
7_ALL_FEATURES
100
AcDbLine
 62
9
  6
CONTINUOUS
 10
81.2019813951
 20
227.9726664972
 11
81.2019813951
 21
228.4857549713
  0
LINE
  5
43B
100
AcDbEntity
  8
6_ALL_SURFS
100
AcDbLine
 62
9
  6
CONTINUOUS
 10
81.2019813951
 20
227.4857549713
 11
81.2019813951
 21
227.9726664972
  0
LINE
  5
43C
100
AcDbEntity
  8
7_ALL_FEATURES
100
AcDbLine
 62
7
  6
CONTINUOUS
 10
78.4187034552
 20
229.2521161351
 11
79.362540813
 21
272.5075698564
  0
LINE
  5
43D
100
AcDbEntity
  8
7_ALL_FEATURES
100
AcDbLine
 62
9
  6
CONTINUOUS
 10
82.4177515635
 20
228.4857549713
 11
82.4177515635
 21
229.2521161351
  0
LINE
  5
43E
100
AcDbEntity
  8
7_ALL_FEATURES
100
AcDbLine
 62
9
  6
CONTINUOUS
 10
84.6019813951
 20
228.4857549713
 11
84.6019813951
 21
227.9726664972
  0
LINE
  5
43F
100
AcDbEntity
  8
6_ALL_SURFS
100
AcDbLine
 62
9
  6
CONTINUOUS
 10
84.6019813951
 20
227.4857549713
 11
84.6019813951
 21
227.9726664972
  0
LINE
  5
440
100
AcDbEntity
  8
7_ALL_FEATURES
100
AcDbLine
 62
9
  6
CONTINUOUS
 10
82.4177515635
 20
229.2521161351
 11
83.3615889213
 21
272.5075698564
  0
LINE
  5
441
100
AcDbEntity
  8
6_ALL_SURFS
100
AcDbLine
 62
7
  6
CONTINUOUS
 10
85.1885457006
 20
227.9726664972
 11
85.1945555679
 21
228.2021740703
  0
LWPOLYLINE
  5
442
100
AcDbEntity
  8
7_ALL_FEATURES
100
AcDbPolyline
 62
7
  6
CONTINUOUS
 90
3
 70
0
 10
85.1945563356
 20
228.2021945238
 10
85.2288911367
 20
228.3314276602
 10
85.3155211704
 20
228.4306479761
  0
LINE
  5
443
100
AcDbEntity
  8
7_ALL_FEATURES
100
AcDbLine
 62
9
  6
CONTINUOUS
 10
85.1876317869
 20
228.1936080558
 11
85.194556101
 21
228.2021944304
  0
LINE
  5
444
100
AcDbEntity
  8
6_ALL_SURFS
100
AcDbLine
 62
7
  6
CONTINUOUS
 10
233.0887170381
 20
227.4857549713
 11
229.1155517717
 21
227.4857549713
  0
LINE
  5
445
100
AcDbEntity
  8
6_ALL_SURFS
100
AcDbLine
 62
7
  6
CONTINUOUS
 10
80.7152457521
 20
227.4857549713
 11
84.6884110185
 21
227.4857549713
  0
LINE
  5
446
100
AcDbEntity
  8
7_ALL_FEATURES
100
AcDbLine
 62
3
  6
CONTINUOUS
 10
84.6887170381
 20
227.4857549713
 11
229.1152457521
 21
227.4857549713
  0
LINE
  5
447
100
AcDbEntity
  8
6_ALL_SURFS
100
AcDbLine
 62
9
  6
CONTINUOUS
 10
233.5885457006
 20
227.9726664972
 11
228.6154170897
 21
227.9726664972
  0
LINE
  5
448
100
AcDbEntity
  8
6_ALL_SURFS
100
AcDbLine
 62
9
  6
CONTINUOUS
 10
80.2154170897
 20
227.9726664972
 11
85.1885457006
 21
227.9726664972
  0
LINE
  5
449
100
AcDbEntity
  8
7_ALL_FEATURES
100
AcDbLine
 62
9
  6
CONTINUOUS
 10
233.5943312589
 20
228.1936080558
 11
228.6163310033
 21
228.1936080558
  0
LINE
  5
44A
100
AcDbEntity
  8
7_ALL_FEATURES
100
AcDbLine
 62
9
  6
CONTINUOUS
 10
85.1876317869
 20
228.1936080558
 11
80.2096315313
 21
228.1936080558
  0
LINE
  5
44B
100
AcDbEntity
  8
7_ALL_FEATURES
100
AcDbLine
 62
7
  6
CONTINUOUS
 10
234.6354378147
 20
228.4857549713
 11
79.1685249755
 21
228.4857549713
  0
LINE
  5
44C
100
AcDbEntity
  8
7_ALL_FEATURES
100
AcDbLine
 62
9
  6
CONTINUOUS
 10
231.3862112267
 20
229.2521161351
 11
82.4177515635
 21
229.2521161351
  0
LWPOLYLINE
  5
44D
100
AcDbEntity
  8
7_ALL_FEATURES
100
AcDbPolyline
 62
7
  6
CONTINUOUS
 90
5
 70
0
 10
228.3200467681
 20
228.485755642
 10
228.4003863138
 20
228.4739957877
 10
228.5033880458
 20
228.4190722695
 10
228.5800137921
 20
228.321758103
 10
228.6094049725
 20
228.2022284331
  0
LWPOLYLINE
  5
44E
100
AcDbEntity
  8
7_ALL_FEATURES
100
AcDbPolyline
 62
7
  6
CONTINUOUS
 90
3
 70
0
 10
85.3155211704
 20
228.4306479761
 10
85.4268225301
 20
228.4798393946
 10
85.4838061335
 20
228.4857565629
  0
LINE
  5
44F
100
AcDbEntity
  8
7_ALL_FEATURES
100
AcDbLine
 62
9
  6
CONTINUOUS
 10
154.256230084
 20
228.4857549713
 11
154.256230084
 21
227.4857549713
  0
LINE
  5
450
100
AcDbEntity
  8
7_ALL_FEATURES
100
AcDbLine
 62
9
  6
CONTINUOUS
 10
155.2483868257
 20
228.4857549713
 11
155.2483868257
 21
227.4857549713
  0
LINE
  5
451
100
AcDbEntity
  8
7_ALL_FEATURES
100
AcDbLine
 62
9
  6
CONTINUOUS
 10
158.5555759645
 20
228.4857549713
 11
158.5555759645
 21
227.4857549713
  0
LINE
  5
452
100
AcDbEntity
  8
7_ALL_FEATURES
100
AcDbLine
 62
9
  6
CONTINUOUS
 10
159.5477327062
 20
228.4857549713
 11
159.5477327062
 21
227.4857549713
  0
LINE
  5
453
100
AcDbEntity
  8
7_ALL_FEATURES
100
AcDbLine
 62
9
  6
CONTINUOUS
 10
83.3615889213
 20
272.5075698564
 11
230.4423738689
 21
272.5075698564
  0
LINE
  5
454
100
AcDbEntity
  8
7_ALL_FEATURES
100
AcDbLine
 62
7
  6
CONTINUOUS
 10
80.3623028401
 20
273.4857549713
 11
233.4416599502
 21
273.4857549713
  0
LINE
  5
455
100
AcDbEntity
  8
7_ALL_FEATURES
100
AcDbLine
 62
7
  6
CONTINUOUS
 10
233.6800838787
 20
273.4752867016
 11
233.4416599502
 21
273.4857549713
  0
LINE
  5
456
100
AcDbEntity
  8
6_ALL_SURFS
100
AcDbLine
 62
7
  6
CONTINUOUS
 10
228.6094074538
 20
228.2021652309
 11
228.6154170897
 21
227.9726664972
  0
LINE
  5
457
100
AcDbEntity
  8
7_ALL_FEATURES
100
AcDbLine
 62
7
  6
CONTINUOUS
 10
228.6094042857
 20
228.2022881121
 11
228.6094055582
 21
228.2022376287
  0
LWPOLYLINE
  5
458
100
AcDbEntity
  8
7_ALL_FEATURES
100
AcDbPolyline
 62
7
  6
CONTINUOUS
 90
6
 70
0
 10
234.4407285304
 20
272.50761183
 10
234.4269705578
 20
272.7313037063
 10
234.3333575151
 20
273.034717896
 10
234.1342204667
 20
273.2825465909
 10
233.8616128823
 20
273.4347513527
 10
233.6797907314
 20
273.4752010024
  0
LINE
  5
459
100
AcDbEntity
  8
7_ALL_FEATURES
100
AcDbLine
 62
9
  6
CONTINUOUS
 10
231.3862112267
 20
229.2521161351
 11
230.4423738689
 21
272.5075698564
  0
LINE
  5
45A
100
AcDbEntity
  8
7_ALL_FEATURES
100
AcDbLine
 62
7
  6
CONTINUOUS
 10
235.385259335
 20
229.2521161351
 11
234.4414219773
 21
272.5075698564
  0
LINE
  5
45B
100
AcDbEntity
  8
7_ALL_FEATURES
100
AcDbLine
 62
9
  6
CONTINUOUS
 10
229.2019813951
 20
228.4857549713
 11
229.2019813951
 21
227.9726664972
  0
LINE
  5
45C
100
AcDbEntity
  8
6_ALL_SURFS
100
AcDbLine
 62
9
  6
CONTINUOUS
 10
229.2019813951
 20
227.4857549713
 11
229.2019813951
 21
227.9726664972
  0
LINE
  5
45D
100
AcDbEntity
  8
7_ALL_FEATURES
100
AcDbLine
 62
9
  6
CONTINUOUS
 10
231.3862112267
 20
228.4857549713
 11
231.3862112267
 21
229.2521161351
  0
LINE
  5
45E
100
AcDbEntity
  8
7_ALL_FEATURES
100
AcDbLine
 62
9
  6
CONTINUOUS
 10
232.6019813951
 20
227.9726664972
 11
232.6019813951
 21
228.4857549713
  0
LINE
  5
45F
100
AcDbEntity
  8
6_ALL_SURFS
100
AcDbLine
 62
9
  6
CONTINUOUS
 10
232.6019813951
 20
227.4857549713
 11
232.6019813951
 21
227.9726664972
  0
LINE
  5
460
100
AcDbEntity
  8
7_ALL_FEATURES
100
AcDbLine
 62
7
  6
CONTINUOUS
 10
233.5885457006
 20
227.9726664972
 11
233.5943312589
 21
228.1936080558
  0
LINE
  5
461
100
AcDbEntity
  8
7_ALL_FEATURES
100
AcDbLine
 62
7
  6
CONTINUOUS
 10
59.394879474
 20
39.0313098031
 11
59.1739379154
 21
39.0255242448
  0
LINE
  5
462
100
AcDbEntity
  8
6_ALL_SURFS
100
AcDbLine
 62
9
  6
CONTINUOUS
 10
59.8817909999
 20
40.0178741086
 11
59.394879474
 21
40.0178741086
  0
LINE
  5
463
100
AcDbEntity
  8
7_ALL_FEATURES
100
AcDbLine
 62
9
  6
CONTINUOUS
 10
58.8817909999
 20
40.0178741086
 11
59.394879474
 21
40.0178741086
  0
LINE
  5
464
100
AcDbEntity
  8
7_ALL_FEATURES
100
AcDbLine
 62
7
  6
CONTINUOUS
 10
58.1154298361
 20
37.2345961686
 11
14.8599761149
 21
38.1784335264
  0
LWPOLYLINE
  5
465
100
AcDbEntity
  8
7_ALL_FEATURES
100
AcDbPolyline
 62
7
  6
CONTINUOUS
 90
3
 70
0
 10
14.3328280748
 20
38.2864979888
 10
14.6362422644
 20
38.192884946
 10
14.8599341413
 20
38.1791269733
  0
LINE
  5
466
100
AcDbEntity
  8
7_ALL_FEATURES
100
AcDbLine
 62
7
  6
CONTINUOUS
 10
14.1576362592
 20
38.4272693434
 11
14.3328280748
 21
38.2864979888
  0
LINE
  5
467
100
AcDbEntity
  8
7_ALL_FEATURES
100
AcDbLine
 62
9
  6
CONTINUOUS
 10
58.8817909999
 20
41.233644277
 11
58.1154298361
 21
41.233644277
  0
LINE
  5
468
100
AcDbEntity
  8
6_ALL_SURFS
100
AcDbLine
 62
9
  6
CONTINUOUS
 10
59.8817909999
 20
43.4178741086
 11
59.394879474
 21
43.4178741086
  0
LINE
  5
469
100
AcDbEntity
  8
7_ALL_FEATURES
100
AcDbLine
 62
9
  6
CONTINUOUS
 10
58.8817909999
 20
43.4178741086
 11
59.394879474
 21
43.4178741086
  0
LINE
  5
46A
100
AcDbEntity
  8
7_ALL_FEATURES
100
AcDbLine
 62
9
  6
CONTINUOUS
 10
58.1154298361
 20
41.233644277
 11
14.8599761149
 21
42.1774816347
  0
LINE
  5
46B
100
AcDbEntity
  8
6_ALL_SURFS
100
AcDbLine
 62
7
  6
CONTINUOUS
 10
59.394879474
 20
44.004438414
 11
59.165371901
 21
44.0104482813
  0
LWPOLYLINE
  5
46C
100
AcDbEntity
  8
7_ALL_FEATURES
100
AcDbPolyline
 62
7
  6
CONTINUOUS
 90
3
 70
0
 10
59.1653514456
 20
44.0104490491
 10
59.0361183374
 20
44.0447838361
 10
58.9368979191
 20
44.1314139888
  0
LINE
  5
46D
100
AcDbEntity
  8
7_ALL_FEATURES
100
AcDbLine
 62
7
  6
CONTINUOUS
 10
13.9327946185
 20
38.7582426217
 11
14.0647600072
 21
38.5218849316
  0
LINE
  5
46E
100
AcDbEntity
  8
7_ALL_FEATURES
100
AcDbLine
 62
9
  6
CONTINUOUS
 10
59.1653759743
 20
173.5253000425
 11
59.1739379154
 21
173.5322237167
  0
LINE
  5
46F
100
AcDbEntity
  8
7_ALL_FEATURES
100
AcDbLine
 62
7
  6
CONTINUOUS
 10
13.8923449714
 20
38.9400647514
 11
13.9327946185
 21
38.7582426217
  0
LINE
  5
470
100
AcDbEntity
  8
7_ALL_FEATURES
100
AcDbLine
 62
9
  6
CONTINUOUS
 10
59.1739379154
 20
44.0035245004
 11
59.1653517109
 21
44.01044881
  0
LINE
  5
471
100
AcDbEntity
  8
7_ALL_FEATURES
100
AcDbLine
 62
7
  6
CONTINUOUS
 10
59.0364018178
 20
44.0447085207
 11
58.9961738842
 21
44.0796596625
  0
LINE
  5
472
100
AcDbEntity
  8
7_ALL_FEATURES
100
AcDbLine
 62
7
  6
CONTINUOUS
 10
13.8922592722
 20
38.9397716042
 11
13.8817909999
 21
39.1781955535
  0
LINE
  5
473
100
AcDbEntity
  8
7_ALL_FEATURES
100
AcDbLine
 62
7
  6
CONTINUOUS
 10
13.8922592694
 20
178.5959765904
 11
13.8817909999
 21
178.3575526636
  0
LINE
  5
474
100
AcDbEntity
  8
7_ALL_FEATURES
100
AcDbLine
 62
7
  6
CONTINUOUS
 10
13.8817909999
 20
178.3561651306
 11
13.8923447357
 21
178.5956815792
  0
LINE
  5
475
100
AcDbEntity
  8
7_ALL_FEATURES
100
AcDbLine
 62
7
  6
CONTINUOUS
 10
13.8817909999
 20
39.1781955535
 11
13.8817909999
 21
178.3575526636
  0
LINE
  5
476
100
AcDbEntity
  8
7_ALL_FEATURES
100
AcDbLine
 62
9
  6
CONTINUOUS
 10
14.8599761149
 20
42.1774816347
 11
14.8599761149
 21
175.3582665824
  0
LINE
  5
477
100
AcDbEntity
  8
7_ALL_FEATURES
100
AcDbLine
 62
7
  6
CONTINUOUS
 10
58.8817909999
 20
87.378035023
 11
59.8817909999
 21
87.378035023
  0
LINE
  5
478
100
AcDbEntity
  8
7_ALL_FEATURES
100
AcDbLine
 62
9
  6
CONTINUOUS
 10
58.8817909999
 20
88.878035023
 11
59.8817909999
 21
88.878035023
  0
LINE
  5
479
100
AcDbEntity
  8
7_ALL_FEATURES
100
AcDbLine
 62
9
  6
CONTINUOUS
 10
59.3689037176
 20
133.1384216891
 11
58.8817909999
 21
132.8098600123
  0
LWPOLYLINE
  5
47A
100
AcDbEntity
  8
7_ALL_FEATURES
100
AcDbPolyline
 62
7
  6
CONTINUOUS
 90
3
 70
0
 10
58.9368979191
 20
44.1314139888
 10
58.88770652
 20
44.2427155169
 10
58.8817894083
 20
44.2996988455
  0
LINE
  5
47B
100
AcDbEntity
  8
7_ALL_FEATURES
100
AcDbLine
 62
9
  6
CONTINUOUS
 10
58.8817909999
 20
106.9294707596
 11
59.8817909999
 21
106.9294707596
  0
LINE
  5
47C
100
AcDbEntity
  8
7_ALL_FEATURES
100
AcDbLine
 62
9
  6
CONTINUOUS
 10
58.8817909999
 20
107.8036280357
 11
59.8817909999
 21
107.8036280357
  0
LINE
  5
47D
100
AcDbEntity
  8
7_ALL_FEATURES
100
AcDbLine
 62
7
  6
CONTINUOUS
 10
59.8817909999
 20
108.7678741086
 11
58.8817909999
 21
108.7678741086
  0
LINE
  5
47E
100
AcDbEntity
  8
7_ALL_FEATURES
100
AcDbLine
 62
9
  6
CONTINUOUS
 10
58.8817909999
 20
109.7321201814
 11
59.8817909999
 21
109.7321201814
  0
LINE
  5
47F
100
AcDbEntity
  8
7_ALL_FEATURES
100
AcDbLine
 62
9
  6
CONTINUOUS
 10
58.8817909999
 20
110.6062774576
 11
59.8817909999
 21
110.6062774576
  0
LWPOLYLINE
  5
480
100
AcDbEntity
  8
7_ALL_FEATURES
100
AcDbPolyline
 62
7
  6
CONTINUOUS
 90
5
 70
0
 10
58.8817894551
 20
173.2360471334
 10
58.8879352505
 20
173.2941203221
 10
58.9374072813
 20
173.4050305041
 10
59.0366243556
 20
173.4912330434
 10
59.1653259901
 20
173.5252986086
  0
LINE
  5
481
100
AcDbEntity
  8
7_ALL_FEATURES
100
AcDbLine
 62
9
  6
CONTINUOUS
 10
58.1154298361
 20
176.3021039402
 11
58.1154298361
 21
41.233644277
  0
LINE
  5
482
100
AcDbEntity
  8
7_ALL_FEATURES
100
AcDbLine
 62
7
  6
CONTINUOUS
 10
58.8817909999
 20
179.5513305282
 11
58.8817909999
 21
37.9844176889
  0
LINE
  5
483
100
AcDbEntity
  8
6_ALL_SURFS
100
AcDbLine
 62
7
  6
CONTINUOUS
 10
58.8817909999
 20
157.3414615577
 11
58.8817909999
 21
157.9442866594
  0
LINE
  5
484
100
AcDbEntity
  8
7_ALL_FEATURES
100
AcDbLine
 62
9
  6
CONTINUOUS
 10
59.1739379154
 20
178.5102239723
 11
59.1739379154
 21
173.5322237167
  0
LINE
  5
485
100
AcDbEntity
  8
7_ALL_FEATURES
100
AcDbLine
 62
9
  6
CONTINUOUS
 10
59.1739379154
 20
44.0035245004
 11
59.1739379154
 21
39.0255242448
  0
LINE
  5
486
100
AcDbEntity
  8
6_ALL_SURFS
100
AcDbLine
 62
9
  6
CONTINUOUS
 10
59.394879474
 20
44.004438414
 11
59.394879474
 21
39.0313098031
  0
LINE
  5
487
100
AcDbEntity
  8
6_ALL_SURFS
100
AcDbLine
 62
9
  6
CONTINUOUS
 10
59.394879474
 20
173.5313098031
 11
59.394879474
 21
178.504438414
  0
LINE
  5
488
100
AcDbEntity
  8
7_ALL_FEATURES
100
AcDbLine
 62
3
  6
CONTINUOUS
 10
59.8817909999
 20
131.4608429786
 11
59.8817909999
 21
87.378035023
  0
LINE
  5
489
100
AcDbEntity
  8
6_ALL_SURFS
100
AcDbLine
 62
7
  6
CONTINUOUS
 10
59.8817909999
 20
43.5043016146
 11
59.8817909999
 21
39.5311384656
  0
LINE
  5
48A
100
AcDbEntity
  8
6_ALL_SURFS
100
AcDbLine
 62
7
  6
CONTINUOUS
 10
59.8817909999
 20
174.0314466025
 11
59.8817909999
 21
178.0046097515
  0
LINE
  5
48B
100
AcDbEntity
  8
7_ALL_FEATURES
100
AcDbLine
 62
9
  6
CONTINUOUS
 10
59.8817909999
 20
131.4608429786
 11
58.8817909999
 21
131.4608429786
  0
LINE
  5
48C
100
AcDbEntity
  8
7_ALL_FEATURES
100
AcDbLine
 62
3
  6
CONTINUOUS
 10
58.8817909999
 20
133.8605959915
 11
59.3689037176
 21
133.1384216891
  0
LINE
  5
48D
100
AcDbEntity
  8
6_ALL_SURFS
100
AcDbLine
 62
7
  6
CONTINUOUS
 10
59.1653790117
 20
173.525300122
 11
59.394879474
 21
173.5313098031
  0
LINE
  5
48E
100
AcDbEntity
  8
7_ALL_FEATURES
100
AcDbLine
 62
7
  6
CONTINUOUS
 10
59.1653296069
 20
173.5252988766
 11
59.1653759743
 21
173.5253000425
  0
LINE
  5
48F
100
AcDbEntity
  8
7_ALL_FEATURES
100
AcDbLine
 62
9
  6
CONTINUOUS
 10
58.1154298361
 20
176.3021039402
 11
14.8599761149
 21
175.3582665824
  0
LINE
  5
490
100
AcDbEntity
  8
6_ALL_SURFS
100
AcDbLine
 62
9
  6
CONTINUOUS
 10
59.8817909999
 20
174.1178741086
 11
59.394879474
 21
174.1178741086
  0
LINE
  5
491
100
AcDbEntity
  8
7_ALL_FEATURES
100
AcDbLine
 62
9
  6
CONTINUOUS
 10
58.8817909999
 20
174.1178741086
 11
59.394879474
 21
174.1178741086
  0
LINE
  5
492
100
AcDbEntity
  8
7_ALL_FEATURES
100
AcDbLine
 62
9
  6
CONTINUOUS
 10
58.8817909999
 20
176.3021039402
 11
58.1154298361
 21
176.3021039402
  0
LINE
  5
493
100
AcDbEntity
  8
6_ALL_SURFS
100
AcDbLine
 62
9
  6
CONTINUOUS
 10
59.8817909999
 20
177.5178741086
 11
59.394879474
 21
177.5178741086
  0
LINE
  5
494
100
AcDbEntity
  8
7_ALL_FEATURES
100
AcDbLine
 62
9
  6
CONTINUOUS
 10
58.8817909999
 20
177.5178741086
 11
59.394879474
 21
177.5178741086
  0
LWPOLYLINE
  5
495
100
AcDbEntity
  8
7_ALL_FEATURES
100
AcDbPolyline
 62
7
  6
CONTINUOUS
 90
6
 70
0
 10
14.8599341413
 20
179.3566212438
 10
14.6362422647
 20
179.3428632712
 10
14.3328280751
 20
179.2492502285
 10
14.0849993802
 20
179.05011318
 10
13.9327946185
 20
178.7775055956
 10
13.8923449686
 20
178.5956834431
  0
LINE
  5
496
100
AcDbEntity
  8
7_ALL_FEATURES
100
AcDbLine
 62
7
  6
CONTINUOUS
 10
58.1154298361
 20
180.3011520485
 11
14.8599761149
 21
179.3573146907
  0
LINE
  5
497
100
AcDbEntity
  8
7_ALL_FEATURES
100
AcDbLine
 62
7
  6
CONTINUOUS
 10
59.394879474
 20
178.504438414
 11
59.1739379154
 21
178.5102239723
  0
LWPOLYLINE
  5
498
100
AcDbEntity
  8
7_ALL_FEATURES
100
AcDbPolyline
 62
7
  6
CONTINUOUS
 90
68
 70
0
 10
251.3713466691
 20
242.1658468706
 10
251.340644373
 20
242.1498136107
 10
251.3040169158
 20
242.1301867546
 10
251.2661834343
 20
242.1092532862
 10
251.2287554205
 20
242.0878277952
 10
251.1915495687
 20
242.0657805615
 10
251.1545010706
 20
242.0430475697
 10
251.117560305
 20
242.0195720199
 10
251.0807063572
 20
241.9953130122
 10
251.0439426875
 20
241.9702446431
 10
251.0072911623
 20
241.9443539407
 10
250.9707872633
 20
241.9176392223
 10
250.9344766518
 20
241.8901090605
 10
250.898412798
 20
241.8617817746
 10
250.8626501397
 20
241.8326809995
 10
250.8271749328
 20
241.8027767307
 10
250.7919797556
 20
241.7720413133
 10
250.7570710307
 20
241.7404569298
 10
250.7224566617
 20
241.7080056892
 10
250.6881461152
 20
241.6746696982
 10
250.6541504863
 20
241.6404311848
 10
250.6204824663
 20
241.6052725646
 10
250.5871562973
 20
241.5691765003
 10
250.5541877249
 20
241.5321259635
 10
250.5215939516
 20
241.4941043001
 10
250.4893935906
 20
241.4550953
 10
250.4576066183
 20
241.4150832712
 10
250.4262543265
 20
241.3740531186
 10
250.3953592721
 20
241.3319904279
 10
250.3649452254
 20
241.2888815547
 10
250.3350371133
 20
241.244713719
 10
250.3056609587
 20
241.1994751046
 10
250.276843335
 20
241.1531541771
 10
250.2486036991
 20
241.1057265753
 10
250.2209568809
 20
241.0571565871
 10
250.1939202121
 20
241.0074079667
 10
250.1675136987
 20
240.9564443802
 10
250.1417599706
 20
240.9042295484
 10
250.116684216
 20
240.8507274203
 10
250.0923140967
 20
240.7959023843
 10
250.0686796417
 20
240.7397195249
 10
250.045819059
 20
240.682160357
 10
250.0237828522
 20
240.6232399145
 10
250.0026185677
 20
240.5629735165
 10
249.9823714734
 20
240.5013792109
 10
249.9630842918
 20
240.4384781778
 10
249.9447968888
 20
240.3742951919
 10
249.9275459208
 20
240.3088591746
 10
249.9113644273
 20
240.2422038217
 10
249.896281345
 20
240.1743679992
 10
249.8823209804
 20
240.1053957241
 10
249.869502418
 20
240.0353359803
 10
249.8578388118
 20
239.9642423665
 10
249.8473333838
 20
239.8921494182
 10
249.8379722018
 20
239.8190026649
 10
249.8297516534
 20
239.7448627183
 10
249.8226591862
 20
239.6698111527
 10
249.8166688514
 20
239.593930817
 10
249.8117394487
 20
239.5173037415
 10
249.8078124861
 20
239.4400086764
 10
249.8048099694
 20
239.3621181999
 10
249.8026328147
 20
239.2836950851
 10
249.8011618512
 20
239.2047902174
 10
249.8002606664
 20
239.1254430181
 10
249.7997793955
 20
239.0456825053
 10
249.7995594881
 20
238.9655287289
 10
249.7994395451
 20
238.8849945047
 10
249.7994202745
 20
238.8728446784
  0
LINE
  5
499
100
AcDbEntity
  8
7_ALL_FEATURES
100
AcDbLine
 62
7
  6
CONTINUOUS
 10
251.3814544392
 20
242.1710653867
 11
251.3713466691
 21
242.1658468706
  0
LINE
  5
49A
100
AcDbEntity
  8
7_ALL_FEATURES
100
AcDbLine
 62
9
  6
CONTINUOUS
 10
253.4334267483
 20
242.3555624612
 11
274.2437664801
 21
253.0848255937
  0
LINE
  5
49B
100
AcDbEntity
  8
7_ALL_FEATURES
100
AcDbLine
 62
7
  6
CONTINUOUS
 10
251.3821523322
 20
242.1713671223
 11
272.1944635504
 21
252.9016463926
  0
LWPOLYLINE
  5
49C
100
AcDbEntity
  8
7_ALL_FEATURES
100
AcDbPolyline
 62
7
  6
CONTINUOUS
 90
8
 70
0
 10
249.7994359366
 20
110.2219575008
 10
249.8178162786
 20
109.4815296151
 10
249.9970273429
 20
108.5028468176
 10
250.3761206821
 20
107.6602141024
 10
250.9306822761
 20
106.9600455756
 10
251.6504825657
 20
106.4208827211
 10
252.5311023876
 20
106.0784950076
 10
253.2337010214
 20
105.9498798715
  0
LINE
  5
49D
100
AcDbEntity
  8
7_ALL_FEATURES
100
AcDbLine
 62
9
  6
CONTINUOUS
 10
249.7994359366
 20
110.2219575008
 11
249.799420233
 21
110.2233456967
  0
LINE
  5
49E
100
AcDbEntity
  8
7_ALL_FEATURES
100
AcDbLine
 62
7
  6
CONTINUOUS
 10
249.7986427814
 20
238.8728007978
 11
249.7986427814
 21
110.2233596284
  0
LINE
  5
49F
100
AcDbEntity
  8
7_ALL_FEATURES
100
AcDbLine
 62
9
  6
CONTINUOUS
 10
250.3468762513
 20
238.6616605972
 11
250.3468762513
 21
110.0189008508
  0
LINE
  5
4A0
100
AcDbEntity
  8
7_ALL_FEATURES
100
AcDbLine
 62
9
  6
CONTINUOUS
 10
257.6856615257
 20
194.7991906988
 11
257.6856615257
 21
114.3253004008
  0
LINE
  5
4A1
100
AcDbEntity
  8
7_ALL_FEATURES
100
AcDbLine
 62
9
  6
CONTINUOUS
 10
258.363117461
 20
194.8441284331
 11
258.363117461
 21
116.0789469249
  0
LWPOLYLINE
  5
4A2
100
AcDbEntity
  8
7_ALL_FEATURES
100
AcDbPolyline
 62
7
  6
CONTINUOUS
 90
36
 70
0
 10
380.7157921465
 20
86.9003596589
 10
380.779987929
 20
86.8910066444
 10
380.8437063904
 20
86.8819624272
 10
380.9069585872
 20
86.8733397575
 10
380.9697496884
 20
86.8652421746
 10
381.0320725487
 20
86.8577630245
 10
381.0939012828
 20
86.8509847277
 10
381.1552346875
 20
86.8449734064
 10
381.216068715
 20
86.8397827852
 10
381.2763974184
 20
86.8354551448
 10
381.3362151156
 20
86.8320229698
 10
381.3955169071
 20
86.8295106839
 10
381.454299067
 20
86.8279361284
 10
381.5125593599
 20
86.8273118161
 10
381.5702972848
 20
86.8276459927
 10
381.6275142491
 20
86.8289435382
 10
381.6842136779
 20
86.8312067302
 10
381.7404097831
 20
86.8344364686
 10
381.7961247143
 20
86.8386333652
 10
381.8513159921
 20
86.8437913168
 10
381.9059412529
 20
86.8498996056
 10
381.9599652046
 20
86.8569439086
 10
382.0133597242
 20
86.8649069762
 10
382.066104062
 20
86.8737693334
 10
382.1181852589
 20
86.8835100511
 10
382.1695987414
 20
86.8941076115
 10
382.2203490769
 20
86.905540845
 10
382.270450901
 20
86.9177899286
 10
382.3199296618
 20
86.9308373267
 10
382.3688209177
 20
86.9446682055
 10
382.4171639825
 20
86.959268662
 10
382.4650224559
 20
86.9746314457
 10
382.5118189994
 20
86.990523289
 10
382.5567947716
 20
87.0065906335
 10
382.5990646561
 20
87.0223593526
 10
382.6285980194
 20
87.033694706
  0
LINE
  5
4A3
100
AcDbEntity
  8
7_ALL_FEATURES
100
AcDbLine
 62
7
  6
CONTINUOUS
 10
380.6196421107
 20
86.914547649
 11
380.7157921465
 21
86.9003596589
  0
LINE
  5
4A4
100
AcDbEntity
  8
7_ALL_FEATURES
100
AcDbLine
 62
7
  6
CONTINUOUS
 10
253.2390392703
 20
105.948129055
 11
380.6195215637
 21
86.9137597121
  0
LINE
  5
4A5
100
AcDbEntity
  8
7_ALL_FEATURES
100
AcDbLine
 62
9
  6
CONTINUOUS
 10
252.9443341908
 20
106.7336767848
 11
380.3200303641
 21
87.7000226282
  0
LINE
  5
4A6
100
AcDbEntity
  8
7_ALL_FEATURES
100
AcDbLine
 62
9
  6
CONTINUOUS
 10
253.2390392703
 20
105.948129055
 11
253.2335751554
 21
105.9490196898
  0
LINE
  5
4A7
100
AcDbEntity
  8
7_ALL_FEATURES
100
AcDbLine
 62
7
  6
CONTINUOUS
 10
258.5781848109
 20
117.5498341847
 11
258.5530005362
 21
116.3459040434
  0
LINE
  5
4A8
100
AcDbEntity
  8
7_ALL_FEATURES
100
AcDbLine
 62
7
  6
CONTINUOUS
 10
258.8655432319
 20
119.122355653
 11
258.8403589572
 21
117.9184255117
  0
LINE
  5
4A9
100
AcDbEntity
  8
7_ALL_FEATURES
100
AcDbLine
 62
7
  6
CONTINUOUS
 10
259.1529016528
 20
120.6948771213
 11
259.1277173782
 21
119.4909469799
  0
LINE
  5
4AA
100
AcDbEntity
  8
7_ALL_FEATURES
100
AcDbLine
 62
7
  6
CONTINUOUS
 10
259.4402600738
 20
122.2673985895
 11
259.4150757992
 21
121.0634684482
  0
LINE
  5
4AB
100
AcDbEntity
  8
7_ALL_FEATURES
100
AcDbLine
 62
7
  6
CONTINUOUS
 10
259.7276184948
 20
123.8399200578
 11
259.7024342201
 21
122.6359899164
  0
LINE
  5
4AC
100
AcDbEntity
  8
7_ALL_FEATURES
100
AcDbLine
 62
7
  6
CONTINUOUS
 10
260.0149769157
 20
125.412441526
 11
259.9897926411
 21
124.2085113847
  0
LINE
  5
4AD
100
AcDbEntity
  8
7_ALL_FEATURES
100
AcDbLine
 62
7
  6
CONTINUOUS
 10
260.3023353367
 20
126.9849629943
 11
260.2771510621
 21
125.781032853
  0
LINE
  5
4AE
100
AcDbEntity
  8
7_ALL_FEATURES
100
AcDbLine
 62
7
  6
CONTINUOUS
 10
260.5896937577
 20
128.5574844626
 11
260.564509483
 21
127.3535543212
  0
LINE
  5
4AF
100
AcDbEntity
  8
7_ALL_FEATURES
100
AcDbLine
 62
7
  6
CONTINUOUS
 10
260.8770521787
 20
130.1300059308
 11
260.851867904
 21
128.9260757895
  0
LINE
  5
4B0
100
AcDbEntity
  8
7_ALL_FEATURES
100
AcDbLine
 62
7
  6
CONTINUOUS
 10
261.1644105996
 20
131.7025273991
 11
261.139226325
 21
130.4985972578
  0
LINE
  5
4B1
100
AcDbEntity
  8
7_ALL_FEATURES
100
AcDbLine
 62
7
  6
CONTINUOUS
 10
261.4517690206
 20
133.2750488674
 11
261.426584746
 21
132.071118726
  0
LINE
  5
4B2
100
AcDbEntity
  8
7_ALL_FEATURES
100
AcDbLine
 62
7
  6
CONTINUOUS
 10
261.7391274416
 20
134.8475703356
 11
261.7139431669
 21
133.6436401943
  0
LINE
  5
4B3
100
AcDbEntity
  8
7_ALL_FEATURES
100
AcDbLine
 62
7
  6
CONTINUOUS
 10
262.0264858625
 20
136.4200918039
 11
262.0013015879
 21
135.2161616625
  0
LINE
  5
4B4
100
AcDbEntity
  8
7_ALL_FEATURES
100
AcDbLine
 62
7
  6
CONTINUOUS
 10
262.3138442835
 20
137.9926132721
 11
262.2886600089
 21
136.7886831308
  0
LINE
  5
4B5
100
AcDbEntity
  8
7_ALL_FEATURES
100
AcDbLine
 62
7
  6
CONTINUOUS
 10
262.6012027045
 20
139.5651347404
 11
262.5760184298
 21
138.3612045991
  0
LINE
  5
4B6
100
AcDbEntity
  8
7_ALL_FEATURES
100
AcDbLine
 62
7
  6
CONTINUOUS
 10
262.8885611254
 20
141.1376562087
 11
262.8633768508
 21
139.9337260673
  0
LINE
  5
4B7
100
AcDbEntity
  8
7_ALL_FEATURES
100
AcDbLine
 62
7
  6
CONTINUOUS
 10
263.1759195464
 20
142.7101776769
 11
263.1507352718
 21
141.5062475356
  0
LINE
  5
4B8
100
AcDbEntity
  8
7_ALL_FEATURES
100
AcDbLine
 62
7
  6
CONTINUOUS
 10
263.4632779674
 20
144.2826991452
 11
263.4380936927
 21
143.0787690038
  0
LINE
  5
4B9
100
AcDbEntity
  8
7_ALL_FEATURES
100
AcDbLine
 62
7
  6
CONTINUOUS
 10
263.7506363884
 20
145.8552206134
 11
263.7254521137
 21
144.6512904721
  0
LINE
  5
4BA
100
AcDbEntity
  8
7_ALL_FEATURES
100
AcDbLine
 62
7
  6
CONTINUOUS
 10
264.0379948093
 20
147.4277420817
 11
264.0128105347
 21
146.2238119404
  0
LINE
  5
4BB
100
AcDbEntity
  8
7_ALL_FEATURES
100
AcDbLine
 62
7
  6
CONTINUOUS
 10
264.3253532303
 20
149.00026355
 11
264.3001689557
 21
147.7963334086
  0
LINE
  5
4BC
100
AcDbEntity
  8
7_ALL_FEATURES
100
AcDbLine
 62
7
  6
CONTINUOUS
 10
264.6127116513
 20
150.5727850182
 11
264.5875273766
 21
149.3688548769
  0
LINE
  5
4BD
100
AcDbEntity
  8
7_ALL_FEATURES
100
AcDbLine
 62
7
  6
CONTINUOUS
 10
264.9000700722
 20
152.1453064865
 11
264.8748857976
 21
150.9413763452
  0
LINE
  5
4BE
100
AcDbEntity
  8
7_ALL_FEATURES
100
AcDbLine
 62
7
  6
CONTINUOUS
 10
265.1874284932
 20
153.7178279548
 11
265.1622442186
 21
152.5138978134
  0
LINE
  5
4BF
100
AcDbEntity
  8
7_ALL_FEATURES
100
AcDbLine
 62
7
  6
CONTINUOUS
 10
265.4747869142
 20
155.290349423
 11
265.4496026395
 21
154.0864192817
  0
LINE
  5
4C0
100
AcDbEntity
  8
7_ALL_FEATURES
100
AcDbLine
 62
7
  6
CONTINUOUS
 10
265.7621453352
 20
156.8628708913
 11
265.7369610605
 21
155.6589407499
  0
LINE
  5
4C1
100
AcDbEntity
  8
7_ALL_FEATURES
100
AcDbLine
 62
7
  6
CONTINUOUS
 10
266.0495037561
 20
158.4353923595
 11
266.0243194815
 21
157.2314622182
  0
LINE
  5
4C2
100
AcDbEntity
  8
7_ALL_FEATURES
100
AcDbLine
 62
7
  6
CONTINUOUS
 10
266.3368621771
 20
160.0079138278
 11
266.3116779025
 21
158.8039836865
  0
LINE
  5
4C3
100
AcDbEntity
  8
7_ALL_FEATURES
100
AcDbLine
 62
7
  6
CONTINUOUS
 10
266.6242205981
 20
161.5804352961
 11
266.5990363234
 21
160.3765051547
  0
LINE
  5
4C4
100
AcDbEntity
  8
7_ALL_FEATURES
100
AcDbLine
 62
9
  6
CONTINUOUS
 10
375.5787030292
 20
96.7086321755
 11
257.6856615257
 21
114.3253004008
  0
LINE
  5
4C5
100
AcDbEntity
  8
7_ALL_FEATURES
100
AcDbLine
 62
9
  6
CONTINUOUS
 10
375.3290885111
 20
97.2532009111
 11
258.2024687836
 21
114.7553433086
  0
LINE
  5
4C6
100
AcDbEntity
  8
7_ALL_FEATURES
100
AcDbLine
 62
7
  6
CONTINUOUS
 10
375.3319935608
 20
97.2802460214
 11
258.233612409
 21
114.77816875
  0
LINE
  5
4C7
100
AcDbEntity
  8
7_ALL_FEATURES
100
AcDbLine
 62
7
  6
CONTINUOUS
 10
375.3405842236
 20
98.4866557337
 11
258.2735560164
 21
115.9798934154
  0
LINE
  5
4C8
100
AcDbEntity
  8
7_ALL_FEATURES
100
AcDbLine
 62
7
  6
CONTINUOUS
 10
375.3287030292
 20
98.8961989433
 11
258.5530005362
 21
116.3459040434
  0
LINE
  5
4C9
100
AcDbEntity
  8
7_ALL_FEATURES
100
AcDbLine
 62
7
  6
CONTINUOUS
 10
375.3287030292
 20
100.1038923518
 11
258.5781848109
 21
117.5498341847
  0
LINE
  5
4CA
100
AcDbEntity
  8
7_ALL_FEATURES
100
AcDbLine
 62
7
  6
CONTINUOUS
 10
375.3287030292
 20
100.5116601636
 11
258.8403589572
 21
117.9184255117
  0
LINE
  5
4CB
100
AcDbEntity
  8
7_ALL_FEATURES
100
AcDbLine
 62
9
  6
CONTINUOUS
 10
272.1466729645
 20
189.1654687836
 11
272.1466729645
 21
192.4963172191
  0
LINE
  5
4CC
100
AcDbEntity
  8
7_ALL_FEATURES
100
AcDbLine
 62
7
  6
CONTINUOUS
 10
272.2114951165
 20
189.1654687836
 11
272.2114951165
 21
192.3397198563
  0
LINE
  5
4CD
100
AcDbEntity
  8
7_ALL_FEATURES
100
AcDbLine
 62
9
  6
CONTINUOUS
 10
273.3943082571
 20
189.4822797283
 11
273.3943082571
 21
188.9743699566
  0
LINE
  5
4CE
100
AcDbEntity
  8
7_ALL_FEATURES
100
AcDbLine
 62
7
  6
CONTINUOUS
 10
273.4867631903
 20
189.2589270895
 11
273.4867631903
 21
188.9605544857
  0
LINE
  5
4CF
100
AcDbEntity
  8
7_ALL_FEATURES
100
AcDbLine
 62
7
  6
CONTINUOUS
 10
266.911579019
 20
163.1529567643
 11
266.8863947444
 21
161.949026623
  0
LINE
  5
4D0
100
AcDbEntity
  8
7_ALL_FEATURES
100
AcDbLine
 62
7
  6
CONTINUOUS
 10
267.19893744
 20
164.7254782326
 11
267.1737531654
 21
163.5215480913
  0
LINE
  5
4D1
100
AcDbEntity
  8
7_ALL_FEATURES
100
AcDbLine
 62
7
  6
CONTINUOUS
 10
267.486295861
 20
166.2979997009
 11
267.4611115863
 21
165.0940695595
  0
LINE
  5
4D2
100
AcDbEntity
  8
7_ALL_FEATURES
100
AcDbLine
 62
7
  6
CONTINUOUS
 10
267.7736542819
 20
167.8705211691
 11
267.7484700073
 21
166.6665910278
  0
LINE
  5
4D3
100
AcDbEntity
  8
7_ALL_FEATURES
100
AcDbLine
 62
7
  6
CONTINUOUS
 10
268.0610127029
 20
169.4430426374
 11
268.0358284283
 21
168.239112496
  0
LINE
  5
4D4
100
AcDbEntity
  8
7_ALL_FEATURES
100
AcDbLine
 62
7
  6
CONTINUOUS
 10
268.3483711239
 20
171.0155641056
 11
268.3231868492
 21
169.8116339643
  0
LINE
  5
4D5
100
AcDbEntity
  8
7_ALL_FEATURES
100
AcDbLine
 62
7
  6
CONTINUOUS
 10
268.6357295449
 20
172.5880855739
 11
268.6105452702
 21
171.3841554326
  0
LINE
  5
4D6
100
AcDbEntity
  8
7_ALL_FEATURES
100
AcDbLine
 62
7
  6
CONTINUOUS
 10
268.9230879658
 20
174.1606070422
 11
268.8979036912
 21
172.9566769008
  0
LINE
  5
4D7
100
AcDbEntity
  8
7_ALL_FEATURES
100
AcDbLine
 62
7
  6
CONTINUOUS
 10
269.2104463868
 20
175.7331285104
 11
269.1852621122
 21
174.5291983691
  0
LINE
  5
4D8
100
AcDbEntity
  8
7_ALL_FEATURES
100
AcDbLine
 62
7
  6
CONTINUOUS
 10
269.4978048078
 20
177.3056499787
 11
269.4726205331
 21
176.1017198373
  0
LINE
  5
4D9
100
AcDbEntity
  8
7_ALL_FEATURES
100
AcDbLine
 62
7
  6
CONTINUOUS
 10
269.7851632287
 20
178.8781714469
 11
269.7599789541
 21
177.6742413056
  0
LINE
  5
4DA
100
AcDbEntity
  8
7_ALL_FEATURES
100
AcDbLine
 62
7
  6
CONTINUOUS
 10
270.0725216497
 20
180.4506929152
 11
270.0473373751
 21
179.2467627739
  0
LINE
  5
4DB
100
AcDbEntity
  8
7_ALL_FEATURES
100
AcDbLine
 62
7
  6
CONTINUOUS
 10
270.3598800707
 20
182.0232143835
 11
270.334695796
 21
180.8192842421
  0
LINE
  5
4DC
100
AcDbEntity
  8
7_ALL_FEATURES
100
AcDbLine
 62
7
  6
CONTINUOUS
 10
270.6472384917
 20
183.5957358517
 11
270.622054217
 21
182.3918057104
  0
LINE
  5
4DD
100
AcDbEntity
  8
7_ALL_FEATURES
100
AcDbLine
 62
7
  6
CONTINUOUS
 10
270.9345969126
 20
185.16825732
 11
270.909412638
 21
183.9643271787
  0
LINE
  5
4DE
100
AcDbEntity
  8
7_ALL_FEATURES
100
AcDbLine
 62
7
  6
CONTINUOUS
 10
271.2219553336
 20
186.7407787883
 11
271.196771059
 21
185.5368486469
  0
LINE
  5
4DF
100
AcDbEntity
  8
7_ALL_FEATURES
100
AcDbLine
 62
7
  6
CONTINUOUS
 10
271.5093137546
 20
188.3133002565
 11
271.4841294799
 21
187.1093701152
  0
LINE
  5
4E0
100
AcDbEntity
  8
7_ALL_FEATURES
100
AcDbLine
 62
7
  6
CONTINUOUS
 10
272.1154499813
 20
189.1654687836
 11
271.5093137546
 21
188.3133002565
  0
LINE
  5
4E1
100
AcDbEntity
  8
7_ALL_FEATURES
100
AcDbLine
 62
7
  6
CONTINUOUS
 10
271.4841294799
 20
187.1093701152
 11
271.2219553336
 21
186.7407787883
  0
LINE
  5
4E2
100
AcDbEntity
  8
7_ALL_FEATURES
100
AcDbLine
 62
7
  6
CONTINUOUS
 10
271.196771059
 20
185.5368486469
 11
270.9345969126
 21
185.16825732
  0
LINE
  5
4E3
100
AcDbEntity
  8
7_ALL_FEATURES
100
AcDbLine
 62
7
  6
CONTINUOUS
 10
270.909412638
 20
183.9643271787
 11
270.6472384917
 21
183.5957358517
  0
LINE
  5
4E4
100
AcDbEntity
  8
7_ALL_FEATURES
100
AcDbLine
 62
7
  6
CONTINUOUS
 10
270.622054217
 20
182.3918057104
 11
270.3598800707
 21
182.0232143835
  0
LINE
  5
4E5
100
AcDbEntity
  8
7_ALL_FEATURES
100
AcDbLine
 62
7
  6
CONTINUOUS
 10
270.334695796
 20
180.8192842421
 11
270.0725216497
 21
180.4506929152
  0
LINE
  5
4E6
100
AcDbEntity
  8
7_ALL_FEATURES
100
AcDbLine
 62
7
  6
CONTINUOUS
 10
375.3287030292
 20
101.7193535721
 11
258.8655432319
 21
119.122355653
  0
LINE
  5
4E7
100
AcDbEntity
  8
7_ALL_FEATURES
100
AcDbLine
 62
7
  6
CONTINUOUS
 10
375.3287030292
 20
102.1271213838
 11
259.1277173782
 21
119.4909469799
  0
LINE
  5
4E8
100
AcDbEntity
  8
7_ALL_FEATURES
100
AcDbLine
 62
7
  6
CONTINUOUS
 10
375.3287030292
 20
103.3348147923
 11
259.1529016528
 21
120.6948771213
  0
LINE
  5
4E9
100
AcDbEntity
  8
7_ALL_FEATURES
100
AcDbLine
 62
7
  6
CONTINUOUS
 10
375.3287030292
 20
103.7425826041
 11
259.4150757992
 21
121.0634684482
  0
LINE
  5
4EA
100
AcDbEntity
  8
7_ALL_FEATURES
100
AcDbLine
 62
7
  6
CONTINUOUS
 10
375.3287030292
 20
104.9502760126
 11
259.4402600738
 21
122.2673985895
  0
LINE
  5
4EB
100
AcDbEntity
  8
7_ALL_FEATURES
100
AcDbLine
 62
7
  6
CONTINUOUS
 10
375.3287030292
 20
105.3580438244
 11
259.7024342201
 21
122.6359899164
  0
LINE
  5
4EC
100
AcDbEntity
  8
7_ALL_FEATURES
100
AcDbLine
 62
7
  6
CONTINUOUS
 10
375.3287030292
 20
106.5657372329
 11
259.7276184948
 21
123.8399200578
  0
LINE
  5
4ED
100
AcDbEntity
  8
7_ALL_FEATURES
100
AcDbLine
 62
7
  6
CONTINUOUS
 10
375.3287030292
 20
106.9735050446
 11
259.9897926411
 21
124.2085113847
  0
LINE
  5
4EE
100
AcDbEntity
  8
7_ALL_FEATURES
100
AcDbLine
 62
7
  6
CONTINUOUS
 10
375.3287030292
 20
108.1811984531
 11
260.0149769157
 21
125.412441526
  0
LINE
  5
4EF
100
AcDbEntity
  8
7_ALL_FEATURES
100
AcDbLine
 62
7
  6
CONTINUOUS
 10
375.3287030292
 20
108.5889662649
 11
260.2771510621
 21
125.781032853
  0
LINE
  5
4F0
100
AcDbEntity
  8
7_ALL_FEATURES
100
AcDbLine
 62
9
  6
CONTINUOUS
 10
278.3047045737
 20
188.2406131406
 11
278.9949582917
 21
189.4292563926
  0
LINE
  5
4F1
100
AcDbEntity
  8
7_ALL_FEATURES
100
AcDbLine
 62
9
  6
CONTINUOUS
 10
279.4174856598
 20
188.0743311026
 11
279.8538802513
 21
188.8258192479
  0
LINE
  5
4F2
100
AcDbEntity
  8
7_ALL_FEATURES
100
AcDbLine
 62
7
  6
CONTINUOUS
 10
270.0473373751
 20
179.2467627739
 11
269.7851632287
 21
178.8781714469
  0
LINE
  5
4F3
100
AcDbEntity
  8
7_ALL_FEATURES
100
AcDbLine
 62
7
  6
CONTINUOUS
 10
269.7599789541
 20
177.6742413056
 11
269.4978048078
 21
177.3056499787
  0
LINE
  5
4F4
100
AcDbEntity
  8
7_ALL_FEATURES
100
AcDbLine
 62
7
  6
CONTINUOUS
 10
269.4726205331
 20
176.1017198373
 11
269.2104463868
 21
175.7331285104
  0
LINE
  5
4F5
100
AcDbEntity
  8
7_ALL_FEATURES
100
AcDbLine
 62
7
  6
CONTINUOUS
 10
269.1852621122
 20
174.5291983691
 11
268.9230879658
 21
174.1606070422
  0
LINE
  5
4F6
100
AcDbEntity
  8
7_ALL_FEATURES
100
AcDbLine
 62
7
  6
CONTINUOUS
 10
268.8979036912
 20
172.9566769008
 11
268.6357295449
 21
172.5880855739
  0
LINE
  5
4F7
100
AcDbEntity
  8
7_ALL_FEATURES
100
AcDbLine
 62
7
  6
CONTINUOUS
 10
268.6105452702
 20
171.3841554326
 11
268.3483711239
 21
171.0155641056
  0
LINE
  5
4F8
100
AcDbEntity
  8
7_ALL_FEATURES
100
AcDbLine
 62
7
  6
CONTINUOUS
 10
268.3231868492
 20
169.8116339643
 11
268.0610127029
 21
169.4430426374
  0
LINE
  5
4F9
100
AcDbEntity
  8
7_ALL_FEATURES
100
AcDbLine
 62
7
  6
CONTINUOUS
 10
268.0358284283
 20
168.239112496
 11
267.7736542819
 21
167.8705211691
  0
LINE
  5
4FA
100
AcDbEntity
  8
7_ALL_FEATURES
100
AcDbLine
 62
7
  6
CONTINUOUS
 10
267.7484700073
 20
166.6665910278
 11
267.486295861
 21
166.2979997009
  0
LINE
  5
4FB
100
AcDbEntity
  8
7_ALL_FEATURES
100
AcDbLine
 62
7
  6
CONTINUOUS
 10
267.4611115863
 20
165.0940695595
 11
267.19893744
 21
164.7254782326
  0
LINE
  5
4FC
100
AcDbEntity
  8
7_ALL_FEATURES
100
AcDbLine
 62
7
  6
CONTINUOUS
 10
267.1737531654
 20
163.5215480913
 11
266.911579019
 21
163.1529567643
  0
LINE
  5
4FD
100
AcDbEntity
  8
7_ALL_FEATURES
100
AcDbLine
 62
7
  6
CONTINUOUS
 10
258.8523307957
 20
195.6406132579
 11
258.8488657592
 21
195.639265586
  0
LINE
  5
4FE
100
AcDbEntity
  8
7_ALL_FEATURES
100
AcDbLine
 62
9
  6
CONTINUOUS
 10
260.1307171276
 20
195.5262496176
 11
258.363117461
 21
194.8441284331
  0
LINE
  5
4FF
100
AcDbEntity
  8
7_ALL_FEATURES
100
AcDbLine
 62
7
  6
CONTINUOUS
 10
375.3287030292
 20
109.7966596734
 11
260.3023353367
 21
126.9849629943
  0
LINE
  5
500
100
AcDbEntity
  8
7_ALL_FEATURES
100
AcDbLine
 62
7
  6
CONTINUOUS
 10
375.3287030292
 20
110.2044274851
 11
260.564509483
 21
127.3535543212
  0
LINE
  5
501
100
AcDbEntity
  8
7_ALL_FEATURES
100
AcDbLine
 62
7
  6
CONTINUOUS
 10
375.3287030292
 20
111.4121208936
 11
260.5896937577
 21
128.5574844626
  0
LINE
  5
502
100
AcDbEntity
  8
7_ALL_FEATURES
100
AcDbLine
 62
7
  6
CONTINUOUS
 10
375.3287030292
 20
111.8198887054
 11
260.851867904
 21
128.9260757895
  0
LINE
  5
503
100
AcDbEntity
  8
7_ALL_FEATURES
100
AcDbLine
 62
7
  6
CONTINUOUS
 10
375.3287030292
 20
113.0275821139
 11
260.8770521787
 21
130.1300059308
  0
LINE
  5
504
100
AcDbEntity
  8
7_ALL_FEATURES
100
AcDbLine
 62
7
  6
CONTINUOUS
 10
375.3287030292
 20
113.4353499256
 11
261.139226325
 21
130.4985972578
  0
LINE
  5
505
100
AcDbEntity
  8
7_ALL_FEATURES
100
AcDbLine
 62
7
  6
CONTINUOUS
 10
375.3287030292
 20
114.6430433341
 11
261.1644105996
 21
131.7025273991
  0
LINE
  5
506
100
AcDbEntity
  8
7_ALL_FEATURES
100
AcDbLine
 62
7
  6
CONTINUOUS
 10
375.3287030292
 20
115.0508111459
 11
261.426584746
 21
132.071118726
  0
LINE
  5
507
100
AcDbEntity
  8
7_ALL_FEATURES
100
AcDbLine
 62
7
  6
CONTINUOUS
 10
375.3287030292
 20
116.2585045544
 11
261.4517690206
 21
133.2750488674
  0
LINE
  5
508
100
AcDbEntity
  8
7_ALL_FEATURES
100
AcDbLine
 62
7
  6
CONTINUOUS
 10
375.3287030292
 20
116.6662723661
 11
261.7139431669
 21
133.6436401943
  0
LINE
  5
509
100
AcDbEntity
  8
7_ALL_FEATURES
100
AcDbLine
 62
7
  6
CONTINUOUS
 10
266.8863947444
 20
161.949026623
 11
266.6242205981
 21
161.5804352961
  0
LINE
  5
50A
100
AcDbEntity
  8
7_ALL_FEATURES
100
AcDbLine
 62
7
  6
CONTINUOUS
 10
266.5990363234
 20
160.3765051547
 11
266.3368621771
 21
160.0079138278
  0
LINE
  5
50B
100
AcDbEntity
  8
7_ALL_FEATURES
100
AcDbLine
 62
7
  6
CONTINUOUS
 10
266.3116779025
 20
158.8039836865
 11
266.0495037561
 21
158.4353923595
  0
LINE
  5
50C
100
AcDbEntity
  8
7_ALL_FEATURES
100
AcDbLine
 62
7
  6
CONTINUOUS
 10
266.0243194815
 20
157.2314622182
 11
265.7621453352
 21
156.8628708913
  0
LINE
  5
50D
100
AcDbEntity
  8
7_ALL_FEATURES
100
AcDbLine
 62
7
  6
CONTINUOUS
 10
265.7369610605
 20
155.6589407499
 11
265.4747869142
 21
155.290349423
  0
LINE
  5
50E
100
AcDbEntity
  8
7_ALL_FEATURES
100
AcDbLine
 62
7
  6
CONTINUOUS
 10
265.4496026395
 20
154.0864192817
 11
265.1874284932
 21
153.7178279548
  0
LINE
  5
50F
100
AcDbEntity
  8
7_ALL_FEATURES
100
AcDbLine
 62
7
  6
CONTINUOUS
 10
265.1622442186
 20
152.5138978134
 11
264.9000700722
 21
152.1453064865
  0
LINE
  5
510
100
AcDbEntity
  8
7_ALL_FEATURES
100
AcDbLine
 62
7
  6
CONTINUOUS
 10
264.8748857976
 20
150.9413763452
 11
264.6127116513
 21
150.5727850182
  0
LINE
  5
511
100
AcDbEntity
  8
7_ALL_FEATURES
100
AcDbLine
 62
7
  6
CONTINUOUS
 10
264.5875273766
 20
149.3688548769
 11
264.3253532303
 21
149.00026355
  0
LINE
  5
512
100
AcDbEntity
  8
7_ALL_FEATURES
100
AcDbLine
 62
7
  6
CONTINUOUS
 10
264.3001689557
 20
147.7963334086
 11
264.0379948093
 21
147.4277420817
  0
LINE
  5
513
100
AcDbEntity
  8
7_ALL_FEATURES
100
AcDbLine
 62
7
  6
CONTINUOUS
 10
264.0128105347
 20
146.2238119404
 11
263.7506363884
 21
145.8552206134
  0
LINE
  5
514
100
AcDbEntity
  8
7_ALL_FEATURES
100
AcDbLine
 62
7
  6
CONTINUOUS
 10
263.7254521137
 20
144.6512904721
 11
263.4632779674
 21
144.2826991452
  0
LWPOLYLINE
  5
515
100
AcDbEntity
  8
7_ALL_FEATURES
100
AcDbPolyline
 62
7
  6
CONTINUOUS
 90
3
 70
0
 10
258.8489154936
 20
195.6392879152
 10
258.937228593
 20
195.6658070236
 10
259.1605268735
 20
195.6712244193
  0
LINE
  5
516
100
AcDbEntity
  8
7_ALL_FEATURES
100
AcDbLine
 62
7
  6
CONTINUOUS
 10
375.3287030292
 20
117.8739657746
 11
261.7391274416
 21
134.8475703356
  0
LINE
  5
517
100
AcDbEntity
  8
7_ALL_FEATURES
100
AcDbLine
 62
7
  6
CONTINUOUS
 10
375.3287030292
 20
118.2817335864
 11
262.0013015879
 21
135.2161616625
  0
LINE
  5
518
100
AcDbEntity
  8
7_ALL_FEATURES
100
AcDbLine
 62
7
  6
CONTINUOUS
 10
375.3287030292
 20
119.4894269949
 11
262.0264858625
 21
136.4200918039
  0
LINE
  5
519
100
AcDbEntity
  8
7_ALL_FEATURES
100
AcDbLine
 62
7
  6
CONTINUOUS
 10
375.3287030292
 20
119.8971948067
 11
262.2886600089
 21
136.7886831308
  0
LINE
  5
51A
100
AcDbEntity
  8
7_ALL_FEATURES
100
AcDbLine
 62
7
  6
CONTINUOUS
 10
375.3287030292
 20
121.1048882152
 11
262.3138442835
 21
137.9926132721
  0
LINE
  5
51B
100
AcDbEntity
  8
7_ALL_FEATURES
100
AcDbLine
 62
7
  6
CONTINUOUS
 10
375.3287030292
 20
121.5126560269
 11
262.5760184298
 21
138.3612045991
  0
LINE
  5
51C
100
AcDbEntity
  8
7_ALL_FEATURES
100
AcDbLine
 62
7
  6
CONTINUOUS
 10
375.3287030292
 20
122.7203494354
 11
262.6012027045
 21
139.5651347404
  0
LINE
  5
51D
100
AcDbEntity
  8
7_ALL_FEATURES
100
AcDbLine
 62
7
  6
CONTINUOUS
 10
375.3287030292
 20
123.1281172472
 11
262.8633768508
 21
139.9337260673
  0
LINE
  5
51E
100
AcDbEntity
  8
7_ALL_FEATURES
100
AcDbLine
 62
7
  6
CONTINUOUS
 10
375.3287030292
 20
124.3358106557
 11
262.8885611254
 21
141.1376562087
  0
LINE
  5
51F
100
AcDbEntity
  8
7_ALL_FEATURES
100
AcDbLine
 62
9
  6
CONTINUOUS
 10
271.661084401
 20
189.7035236889
 11
271.8119838139
 21
189.3458875329
  0
LINE
  5
520
100
AcDbEntity
  8
7_ALL_FEATURES
100
AcDbLine
 62
7
  6
CONTINUOUS
 10
271.6020148952
 20
193.8121022489
 11
273.6184153427
 21
188.9408818039
  0
LINE
  5
521
100
AcDbEntity
  8
7_ALL_FEATURES
100
AcDbLine
 62
9
  6
CONTINUOUS
 10
272.1109365028
 20
193.7360544771
 11
274.1273369503
 21
188.8648340321
  0
LINE
  5
522
100
AcDbEntity
  8
7_ALL_FEATURES
100
AcDbLine
 62
9
  6
CONTINUOUS
 10
277.5305323259
 20
188.3562971153
 11
276.8825847109
 21
189.921609042
  0
LINE
  5
523
100
AcDbEntity
  8
7_ALL_FEATURES
100
AcDbLine
 62
9
  6
CONTINUOUS
 10
278.012916171
 20
188.2842148614
 11
277.2634036873
 21
190.0948872103
  0
LINE
  5
524
100
AcDbEntity
  8
6_ALL_SURFS
100
AcDbLine
 62
9
  6
CONTINUOUS
 10
278.9949582917
 20
189.4292563926
 11
278.5918899939
 21
190.4029888352
  0
LINE
  5
525
100
AcDbEntity
  8
7_ALL_FEATURES
100
AcDbLine
 62
7
  6
CONTINUOUS
 10
263.4380936927
 20
143.0787690038
 11
263.1759195464
 21
142.7101776769
  0
LINE
  5
526
100
AcDbEntity
  8
7_ALL_FEATURES
100
AcDbLine
 62
7
  6
CONTINUOUS
 10
263.1507352718
 20
141.5062475356
 11
262.8885611254
 21
141.1376562087
  0
LINE
  5
527
100
AcDbEntity
  8
7_ALL_FEATURES
100
AcDbLine
 62
7
  6
CONTINUOUS
 10
262.8633768508
 20
139.9337260673
 11
262.6012027045
 21
139.5651347404
  0
LINE
  5
528
100
AcDbEntity
  8
7_ALL_FEATURES
100
AcDbLine
 62
7
  6
CONTINUOUS
 10
262.5760184298
 20
138.3612045991
 11
262.3138442835
 21
137.9926132721
  0
LINE
  5
529
100
AcDbEntity
  8
7_ALL_FEATURES
100
AcDbLine
 62
7
  6
CONTINUOUS
 10
262.2886600089
 20
136.7886831308
 11
262.0264858625
 21
136.4200918039
  0
LINE
  5
52A
100
AcDbEntity
  8
7_ALL_FEATURES
100
AcDbLine
 62
7
  6
CONTINUOUS
 10
262.0013015879
 20
135.2161616625
 11
261.7391274416
 21
134.8475703356
  0
LINE
  5
52B
100
AcDbEntity
  8
7_ALL_FEATURES
100
AcDbLine
 62
7
  6
CONTINUOUS
 10
261.7139431669
 20
133.6436401943
 11
261.4517690206
 21
133.2750488674
  0
LINE
  5
52C
100
AcDbEntity
  8
7_ALL_FEATURES
100
AcDbLine
 62
7
  6
CONTINUOUS
 10
261.426584746
 20
132.071118726
 11
261.1644105996
 21
131.7025273991
  0
LINE
  5
52D
100
AcDbEntity
  8
7_ALL_FEATURES
100
AcDbLine
 62
7
  6
CONTINUOUS
 10
261.139226325
 20
130.4985972578
 11
260.8770521787
 21
130.1300059308
  0
LINE
  5
52E
100
AcDbEntity
  8
7_ALL_FEATURES
100
AcDbLine
 62
7
  6
CONTINUOUS
 10
260.851867904
 20
128.9260757895
 11
260.5896937577
 21
128.5574844626
  0
LINE
  5
52F
100
AcDbEntity
  8
7_ALL_FEATURES
100
AcDbLine
 62
7
  6
CONTINUOUS
 10
260.564509483
 20
127.3535543212
 11
260.3023353367
 21
126.9849629943
  0
LINE
  5
530
100
AcDbEntity
  8
7_ALL_FEATURES
100
AcDbLine
 62
7
  6
CONTINUOUS
 10
375.3287030292
 20
124.7435784674
 11
263.1507352718
 21
141.5062475356
  0
LINE
  5
531
100
AcDbEntity
  8
7_ALL_FEATURES
100
AcDbLine
 62
7
  6
CONTINUOUS
 10
375.3287030292
 20
125.9512718759
 11
263.1759195464
 21
142.7101776769
  0
LINE
  5
532
100
AcDbEntity
  8
7_ALL_FEATURES
100
AcDbLine
 62
7
  6
CONTINUOUS
 10
375.3287030292
 20
126.3590396877
 11
263.4380936927
 21
143.0787690038
  0
LINE
  5
533
100
AcDbEntity
  8
7_ALL_FEATURES
100
AcDbLine
 62
7
  6
CONTINUOUS
 10
375.3287030292
 20
127.5667330962
 11
263.4632779674
 21
144.2826991452
  0
LINE
  5
534
100
AcDbEntity
  8
7_ALL_FEATURES
100
AcDbLine
 62
7
  6
CONTINUOUS
 10
375.3287030292
 20
127.9745009079
 11
263.7254521137
 21
144.6512904721
  0
LINE
  5
535
100
AcDbEntity
  8
7_ALL_FEATURES
100
AcDbLine
 62
7
  6
CONTINUOUS
 10
375.3287030292
 20
129.1821943164
 11
263.7506363884
 21
145.8552206134
  0
LINE
  5
536
100
AcDbEntity
  8
7_ALL_FEATURES
100
AcDbLine
 62
7
  6
CONTINUOUS
 10
375.3287030292
 20
129.5899621282
 11
264.0128105347
 21
146.2238119404
  0
LINE
  5
537
100
AcDbEntity
  8
7_ALL_FEATURES
100
AcDbLine
 62
7
  6
CONTINUOUS
 10
375.3287030292
 20
130.7976555367
 11
264.0379948093
 21
147.4277420817
  0
LINE
  5
538
100
AcDbEntity
  8
7_ALL_FEATURES
100
AcDbLine
 62
7
  6
CONTINUOUS
 10
375.3287030292
 20
131.2054233484
 11
264.3001689557
 21
147.7963334086
  0
LINE
  5
539
100
AcDbEntity
  8
7_ALL_FEATURES
100
AcDbLine
 62
7
  6
CONTINUOUS
 10
375.3287030292
 20
132.4131167569
 11
264.3253532303
 21
149.00026355
  0
LINE
  5
53A
100
AcDbEntity
  8
6_ALL_SURFS
100
AcDbLine
 62
9
  6
CONTINUOUS
 10
279.9470057326
 20
189.8624518132
 11
279.7757075817
 21
190.2762739069
  0
LINE
  5
53B
100
AcDbEntity
  8
7_ALL_FEATURES
100
AcDbLine
 62
9
  6
CONTINUOUS
 10
283.0171944265
 20
189.0049189416
 11
283.6651420415
 21
187.4396070149
  0
LINE
  5
53C
100
AcDbEntity
  8
7_ALL_FEATURES
100
AcDbLine
 62
7
  6
CONTINUOUS
 10
283.5476985936
 20
187.4571565007
 11
282.8642443251
 21
189.1082462591
  0
LINE
  5
53D
100
AcDbEntity
  8
7_ALL_FEATURES
100
AcDbLine
 62
7
  6
CONTINUOUS
 10
260.2771510621
 20
125.781032853
 11
260.0149769157
 21
125.412441526
  0
LINE
  5
53E
100
AcDbEntity
  8
7_ALL_FEATURES
100
AcDbLine
 62
7
  6
CONTINUOUS
 10
259.9897926411
 20
124.2085113847
 11
259.7276184948
 21
123.8399200578
  0
LINE
  5
53F
100
AcDbEntity
  8
7_ALL_FEATURES
100
AcDbLine
 62
7
  6
CONTINUOUS
 10
259.7024342201
 20
122.6359899164
 11
259.4402600738
 21
122.2673985895
  0
LINE
  5
540
100
AcDbEntity
  8
7_ALL_FEATURES
100
AcDbLine
 62
7
  6
CONTINUOUS
 10
259.4150757992
 20
121.0634684482
 11
259.1529016528
 21
120.6948771213
  0
LINE
  5
541
100
AcDbEntity
  8
7_ALL_FEATURES
100
AcDbLine
 62
7
  6
CONTINUOUS
 10
259.1277173782
 20
119.4909469799
 11
258.8655432319
 21
119.122355653
  0
LINE
  5
542
100
AcDbEntity
  8
7_ALL_FEATURES
100
AcDbLine
 62
7
  6
CONTINUOUS
 10
258.8403589572
 20
117.9184255117
 11
258.5781848109
 21
117.5498341847
  0
LINE
  5
543
100
AcDbEntity
  8
7_ALL_FEATURES
100
AcDbLine
 62
7
  6
CONTINUOUS
 10
258.5530005362
 20
116.3459040434
 11
258.363117461
 21
116.0789469249
  0
LINE
  5
544
100
AcDbEntity
  8
7_ALL_FEATURES
100
AcDbLine
 62
9
  6
CONTINUOUS
 10
403.254236911
 20
233.8068883535
 11
380.8091229215
 21
223.3219083046
  0
LINE
  5
545
100
AcDbEntity
  8
7_ALL_FEATURES
100
AcDbLine
 62
7
  6
CONTINUOUS
 10
375.3287030292
 20
132.8208845687
 11
264.5875273766
 21
149.3688548769
  0
LINE
  5
546
100
AcDbEntity
  8
7_ALL_FEATURES
100
AcDbLine
 62
7
  6
CONTINUOUS
 10
375.3287030292
 20
134.0285779772
 11
264.6127116513
 21
150.5727850182
  0
LINE
  5
547
100
AcDbEntity
  8
7_ALL_FEATURES
100
AcDbLine
 62
7
  6
CONTINUOUS
 10
375.3287030292
 20
134.436345789
 11
264.8748857976
 21
150.9413763452
  0
LINE
  5
548
100
AcDbEntity
  8
7_ALL_FEATURES
100
AcDbLine
 62
7
  6
CONTINUOUS
 10
375.3287030292
 20
135.6440391975
 11
264.9000700722
 21
152.1453064865
  0
LINE
  5
549
100
AcDbEntity
  8
7_ALL_FEATURES
100
AcDbLine
 62
7
  6
CONTINUOUS
 10
375.3287030292
 20
136.0518070092
 11
265.1622442186
 21
152.5138978134
  0
LINE
  5
54A
100
AcDbEntity
  8
7_ALL_FEATURES
100
AcDbLine
 62
7
  6
CONTINUOUS
 10
375.3287030292
 20
137.2595004177
 11
265.1874284932
 21
153.7178279548
  0
LINE
  5
54B
100
AcDbEntity
  8
7_ALL_FEATURES
100
AcDbLine
 62
7
  6
CONTINUOUS
 10
375.3287030292
 20
137.6672682295
 11
265.4496026395
 21
154.0864192817
  0
LINE
  5
54C
100
AcDbEntity
  8
7_ALL_FEATURES
100
AcDbLine
 62
7
  6
CONTINUOUS
 10
375.3287030292
 20
138.874961638
 11
265.4747869142
 21
155.290349423
  0
LINE
  5
54D
100
AcDbEntity
  8
7_ALL_FEATURES
100
AcDbLine
 62
7
  6
CONTINUOUS
 10
375.3287030292
 20
139.2827294497
 11
265.7369610605
 21
155.6589407499
  0
LINE
  5
54E
100
AcDbEntity
  8
7_ALL_FEATURES
100
AcDbLine
 62
9
  6
CONTINUOUS
 10
406.7175141638
 20
229.4265895987
 11
384.2724001743
 21
218.9416095499
  0
LINE
  5
54F
100
AcDbEntity
  8
7_ALL_FEATURES
100
AcDbLine
 62
7
  6
CONTINUOUS
 10
375.3287030292
 20
140.4904228582
 11
265.7621453352
 21
156.8628708913
  0
LINE
  5
550
100
AcDbEntity
  8
7_ALL_FEATURES
100
AcDbLine
 62
7
  6
CONTINUOUS
 10
375.3287030292
 20
140.89819067
 11
266.0243194815
 21
157.2314622182
  0
LINE
  5
551
100
AcDbEntity
  8
7_ALL_FEATURES
100
AcDbLine
 62
7
  6
CONTINUOUS
 10
375.3287030292
 20
142.1058840785
 11
266.0495037561
 21
158.4353923595
  0
LINE
  5
552
100
AcDbEntity
  8
7_ALL_FEATURES
100
AcDbLine
 62
7
  6
CONTINUOUS
 10
375.3287030292
 20
142.5136518902
 11
266.3116779025
 21
158.8039836865
  0
LINE
  5
553
100
AcDbEntity
  8
7_ALL_FEATURES
100
AcDbLine
 62
7
  6
CONTINUOUS
 10
375.3287030292
 20
143.7213452987
 11
266.3368621771
 21
160.0079138278
  0
LINE
  5
554
100
AcDbEntity
  8
7_ALL_FEATURES
100
AcDbLine
 62
7
  6
CONTINUOUS
 10
375.3287030292
 20
144.1291131105
 11
266.5990363234
 21
160.3765051547
  0
LINE
  5
555
100
AcDbEntity
  8
7_ALL_FEATURES
100
AcDbLine
 62
7
  6
CONTINUOUS
 10
375.3287030292
 20
145.336806519
 11
266.6242205981
 21
161.5804352961
  0
LINE
  5
556
100
AcDbEntity
  8
7_ALL_FEATURES
100
AcDbLine
 62
7
  6
CONTINUOUS
 10
375.3287030292
 20
145.7445743307
 11
266.8863947444
 21
161.949026623
  0
LINE
  5
557
100
AcDbEntity
  8
7_ALL_FEATURES
100
AcDbLine
 62
7
  6
CONTINUOUS
 10
375.3287030292
 20
146.9522677392
 11
266.911579019
 21
163.1529567643
  0
LINE
  5
558
100
AcDbEntity
  8
7_ALL_FEATURES
100
AcDbLine
 62
7
  6
CONTINUOUS
 10
375.3287030292
 20
147.360035551
 11
267.1737531654
 21
163.5215480913
  0
LINE
  5
559
100
AcDbEntity
  8
7_ALL_FEATURES
100
AcDbLine
 62
7
  6
CONTINUOUS
 10
375.3287030292
 20
148.5677289595
 11
267.19893744
 21
164.7254782326
  0
LINE
  5
55A
100
AcDbEntity
  8
7_ALL_FEATURES
100
AcDbLine
 62
7
  6
CONTINUOUS
 10
375.3287030292
 20
148.9754967713
 11
267.4611115863
 21
165.0940695595
  0
LINE
  5
55B
100
AcDbEntity
  8
7_ALL_FEATURES
100
AcDbLine
 62
7
  6
CONTINUOUS
 10
375.3287030292
 20
150.1831901798
 11
267.486295861
 21
166.2979997009
  0
LINE
  5
55C
100
AcDbEntity
  8
7_ALL_FEATURES
100
AcDbLine
 62
7
  6
CONTINUOUS
 10
375.3287030292
 20
150.5909579915
 11
267.7484700073
 21
166.6665910278
  0
LINE
  5
55D
100
AcDbEntity
  8
7_ALL_FEATURES
100
AcDbLine
 62
7
  6
CONTINUOUS
 10
375.3287030292
 20
151.7986514
 11
267.7736542819
 21
167.8705211691
  0
LINE
  5
55E
100
AcDbEntity
  8
7_ALL_FEATURES
100
AcDbLine
 62
7
  6
CONTINUOUS
 10
375.3287030292
 20
152.2064192118
 11
268.0358284283
 21
168.239112496
  0
LINE
  5
55F
100
AcDbEntity
  8
7_ALL_FEATURES
100
AcDbLine
 62
7
  6
CONTINUOUS
 10
375.3287030292
 20
153.4141126203
 11
268.0610127029
 21
169.4430426374
  0
LINE
  5
560
100
AcDbEntity
  8
7_ALL_FEATURES
100
AcDbLine
 62
7
  6
CONTINUOUS
 10
375.3287030292
 20
153.821880432
 11
268.3231868492
 21
169.8116339643
  0
LINE
  5
561
100
AcDbEntity
  8
7_ALL_FEATURES
100
AcDbLine
 62
7
  6
CONTINUOUS
 10
375.3287030292
 20
155.0295738405
 11
268.3483711239
 21
171.0155641056
  0
LINE
  5
562
100
AcDbEntity
  8
7_ALL_FEATURES
100
AcDbLine
 62
7
  6
CONTINUOUS
 10
375.3287030292
 20
155.4373416523
 11
268.6105452702
 21
171.3841554326
  0
LINE
  5
563
100
AcDbEntity
  8
7_ALL_FEATURES
100
AcDbLine
 62
7
  6
CONTINUOUS
 10
261.8482357894
 20
195.2696021001
 11
272.1154499813
 21
189.1654687836
  0
LINE
  5
564
100
AcDbEntity
  8
7_ALL_FEATURES
100
AcDbLine
 62
9
  6
CONTINUOUS
 10
268.0686266917
 20
191.9252351844
 11
271.661084401
 21
189.7035236889
  0
LINE
  5
565
100
AcDbEntity
  8
7_ALL_FEATURES
100
AcDbLine
 62
7
  6
CONTINUOUS
 10
375.3287030292
 20
156.6450350608
 11
268.6357295449
 21
172.5880855739
  0
LINE
  5
566
100
AcDbEntity
  8
7_ALL_FEATURES
100
AcDbLine
 62
7
  6
CONTINUOUS
 10
375.3287030292
 20
157.0528028725
 11
268.8979036912
 21
172.9566769008
  0
LINE
  5
567
100
AcDbEntity
  8
7_ALL_FEATURES
100
AcDbLine
 62
7
  6
CONTINUOUS
 10
375.3287030292
 20
158.260496281
 11
268.9230879658
 21
174.1606070422
  0
LINE
  5
568
100
AcDbEntity
  8
7_ALL_FEATURES
100
AcDbLine
 62
7
  6
CONTINUOUS
 10
375.3287030292
 20
158.6682640928
 11
269.1852621122
 21
174.5291983691
  0
LINE
  5
569
100
AcDbEntity
  8
7_ALL_FEATURES
100
AcDbLine
 62
7
  6
CONTINUOUS
 10
375.3287030292
 20
159.8759575013
 11
269.2104463868
 21
175.7331285104
  0
LINE
  5
56A
100
AcDbEntity
  8
7_ALL_FEATURES
100
AcDbLine
 62
7
  6
CONTINUOUS
 10
375.3287030292
 20
160.283725313
 11
269.4726205331
 21
176.1017198373
  0
LINE
  5
56B
100
AcDbEntity
  8
7_ALL_FEATURES
100
AcDbLine
 62
7
  6
CONTINUOUS
 10
375.3287030292
 20
161.4914187215
 11
269.4978048078
 21
177.3056499787
  0
LINE
  5
56C
100
AcDbEntity
  8
7_ALL_FEATURES
100
AcDbLine
 62
7
  6
CONTINUOUS
 10
375.3287030292
 20
161.8991865333
 11
269.7599789541
 21
177.6742413056
  0
LINE
  5
56D
100
AcDbEntity
  8
7_ALL_FEATURES
100
AcDbLine
 62
7
  6
CONTINUOUS
 10
375.3287030292
 20
163.1068799418
 11
269.7851632287
 21
178.8781714469
  0
LINE
  5
56E
100
AcDbEntity
  8
7_ALL_FEATURES
100
AcDbLine
 62
7
  6
CONTINUOUS
 10
375.3287030292
 20
163.5146477536
 11
270.0473373751
 21
179.2467627739
  0
LWPOLYLINE
  5
56F
100
AcDbEntity
  8
7_ALL_FEATURES
100
AcDbPolyline
 62
7
  6
CONTINUOUS
 90
7
 70
0
 10
281.9911917554
 20
189.9271047685
 10
282.1939693908
 20
189.8328796462
 10
282.3939775003
 20
189.6979905122
 10
282.5737857496
 20
189.5353600855
 10
282.7234622494
 20
189.3562811817
 10
282.8352759947
 20
189.1719199084
 10
282.8642443252
 20
189.108246259
  0
LINE
  5
570
100
AcDbEntity
  8
7_ALL_FEATURES
100
AcDbLine
 62
7
  6
CONTINUOUS
 10
375.3287030292
 20
164.7223411621
 11
270.0725216497
 21
180.4506929152
  0
LINE
  5
571
100
AcDbEntity
  8
7_ALL_FEATURES
100
AcDbLine
 62
7
  6
CONTINUOUS
 10
375.3287030292
 20
165.1301089738
 11
270.334695796
 21
180.8192842421
  0
LINE
  5
572
100
AcDbEntity
  8
7_ALL_FEATURES
100
AcDbLine
 62
7
  6
CONTINUOUS
 10
375.3287030292
 20
166.3378023823
 11
270.3598800707
 21
182.0232143835
  0
LINE
  5
573
100
AcDbEntity
  8
7_ALL_FEATURES
100
AcDbLine
 62
7
  6
CONTINUOUS
 10
375.3287030292
 20
166.7455701941
 11
270.622054217
 21
182.3918057104
  0
LINE
  5
574
100
AcDbEntity
  8
7_ALL_FEATURES
100
AcDbLine
 62
7
  6
CONTINUOUS
 10
375.3287030292
 20
167.9532636026
 11
270.6472384917
 21
183.5957358517
  0
LINE
  5
575
100
AcDbEntity
  8
7_ALL_FEATURES
100
AcDbLine
 62
7
  6
CONTINUOUS
 10
375.3287030292
 20
168.3610314143
 11
270.909412638
 21
183.9643271787
  0
LINE
  5
576
100
AcDbEntity
  8
7_ALL_FEATURES
100
AcDbLine
 62
7
  6
CONTINUOUS
 10
375.3287030292
 20
169.5687248228
 11
270.9345969126
 21
185.16825732
  0
LINE
  5
577
100
AcDbEntity
  8
7_ALL_FEATURES
100
AcDbLine
 62
7
  6
CONTINUOUS
 10
375.3287030292
 20
169.9764926346
 11
271.196771059
 21
185.5368486469
  0
LINE
  5
578
100
AcDbEntity
  8
7_ALL_FEATURES
100
AcDbLine
 62
7
  6
CONTINUOUS
 10
375.3287030292
 20
171.1841860431
 11
271.2219553336
 21
186.7407787883
  0
LINE
  5
579
100
AcDbEntity
  8
7_ALL_FEATURES
100
AcDbLine
 62
7
  6
CONTINUOUS
 10
375.3287030292
 20
171.5919538548
 11
271.4841294799
 21
187.1093701152
  0
LINE
  5
57A
100
AcDbEntity
  8
7_ALL_FEATURES
100
AcDbLine
 62
7
  6
CONTINUOUS
 10
281.8259476581
 20
189.9699082356
 11
281.9911917554
 21
189.9271047685
  0
LINE
  5
57B
100
AcDbEntity
  8
7_ALL_FEATURES
100
AcDbLine
 62
7
  6
CONTINUOUS
 10
375.3287030292
 20
172.7996472633
 11
271.5093137546
 21
188.3133002565
  0
LINE
  5
57C
100
AcDbEntity
  8
7_ALL_FEATURES
100
AcDbLine
 62
7
  6
CONTINUOUS
 10
375.3287030292
 20
173.7423902694
 11
272.1154499813
 21
189.1654687836
  0
LINE
  5
57D
100
AcDbEntity
  8
6_ALL_SURFS
100
AcDbLine
 62
9
  6
CONTINUOUS
 10
283.1873435129
 20
188.3277023483
 11
279.8538802513
 21
188.8258192479
  0
LINE
  5
57E
100
AcDbEntity
  8
6_ALL_SURFS
100
AcDbLine
 62
9
  6
CONTINUOUS
 10
282.6362741697
 20
189.4605964601
 11
279.9470057326
 21
189.8624518132
  0
LINE
  5
57F
100
AcDbEntity
  8
7_ALL_FEATURES
100
AcDbLine
 62
7
  6
CONTINUOUS
 10
277.4801482624
 20
190.6192976037
 11
281.8260930092
 21
189.9698863598
  0
LINE
  5
580
100
AcDbEntity
  8
7_ALL_FEATURES
100
AcDbLine
 62
9
  6
CONTINUOUS
 10
277.4001291357
 20
190.6982145396
 11
281.7460736302
 21
190.0488033334
  0
LINE
  5
581
100
AcDbEntity
  8
7_ALL_FEATURES
100
AcDbLine
 62
7
  6
CONTINUOUS
 10
374.4565365984
 20
178.4426296127
 11
259.1604963127
 21
195.6712289819
  0
LINE
  5
582
100
AcDbEntity
  8
7_ALL_FEATURES
100
AcDbLine
 62
9
  6
CONTINUOUS
 10
374.2799740594
 20
178.8251345066
 11
258.9843904955
 21
196.053666552
  0
LINE
  5
583
100
AcDbEntity
  8
7_ALL_FEATURES
100
AcDbLine
 62
7
  6
CONTINUOUS
 10
277.3779364138
 20
190.625489968
 11
277.4801776706
 21
190.6192932156
  0
LWPOLYLINE
  5
584
100
AcDbEntity
  8
7_ALL_FEATURES
100
AcDbPolyline
 62
7
  6
CONTINUOUS
 90
6
 70
0
 10
374.4565365982
 20
178.4426296127
 10
374.532415291
 20
178.4270016866
 10
374.8339780411
 20
178.2807756711
 10
375.0935971539
 20
178.015679426
 10
375.2688506841
 20
177.6662310718
 10
375.3287030292
 20
177.2945942877
  0
LINE
  5
585
100
AcDbEntity
  8
7_ALL_FEATURES
100
AcDbLine
 62
9
  6
CONTINUOUS
 10
277.2634036873
 20
190.0948872103
 11
278.5918899939
 21
190.4029888352
  0
LINE
  5
586
100
AcDbEntity
  8
7_ALL_FEATURES
100
AcDbLine
 62
7
  6
CONTINUOUS
 10
277.3207869647
 20
190.6181278044
 11
277.3208339937
 21
190.618138708
  0
LINE
  5
587
100
AcDbEntity
  8
7_ALL_FEATURES
100
AcDbLine
 62
7
  6
CONTINUOUS
 10
277.3209892706
 20
190.6181747101
 11
277.3779364138
 21
190.625489968
  0
LINE
  5
588
100
AcDbEntity
  8
7_ALL_FEATURES
100
AcDbLine
 62
7
  6
CONTINUOUS
 10
375.3287030292
 20
97.2389622614
 11
375.3287030292
 21
177.2945944076
  0
LINE
  5
589
100
AcDbEntity
  8
7_ALL_FEATURES
100
AcDbLine
 62
9
  6
CONTINUOUS
 10
375.5787030292
 20
96.7086321755
 11
375.5787030292
 21
177.1825224735
  0
LINE
  5
58A
100
AcDbEntity
  8
7_ALL_FEATURES
100
AcDbLine
 62
9
  6
CONTINUOUS
 10
382.9174883036
 20
90.2089743347
 11
382.9174883036
 21
218.8517340811
  0
LINE
  5
58B
100
AcDbEntity
  8
7_ALL_FEATURES
100
AcDbLine
 62
9
  6
CONTINUOUS
 10
384.2724001743
 20
90.2988498035
 11
384.2724001743
 21
218.9416095499
  0
LINE
  5
58C
100
AcDbEntity
  8
7_ALL_FEATURES
100
AcDbLine
 62
9
  6
CONTINUOUS
 10
380.3200303641
 20
222.1369581472
 11
252.9443341908
 21
241.1706123037
  0
LINE
  5
58D
100
AcDbEntity
  8
7_ALL_FEATURES
100
AcDbLine
 62
9
  6
CONTINUOUS
 10
380.8091229215
 20
223.3219083046
 11
253.4334267483
 21
242.3555624612
  0
LINE
  5
58E
100
AcDbEntity
  8
7_ALL_FEATURES
100
AcDbLine
 62
7
  6
CONTINUOUS
 10
274.4137128383
 20
253.120397196
 11
273.8336192754
 21
253.1936936799
  0
LINE
  5
58F
100
AcDbEntity
  8
7_ALL_FEATURES
100
AcDbLine
 62
9
  6
CONTINUOUS
 10
274.2437664801
 20
253.0848255937
 11
403.254236911
 21
233.8068883535
  0
LINE
  5
590
100
AcDbEntity
  8
7_ALL_FEATURES
100
AcDbLine
 62
7
  6
CONTINUOUS
 10
403.4211682964
 20
233.8429377015
 11
274.4106978654
 21
253.1208749417
  0
LINE
  5
591
100
AcDbEntity
  8
7_ALL_FEATURES
100
AcDbLine
 62
9
  6
CONTINUOUS
 10
406.7125732366
 20
229.5368928965
 11
406.7175141562
 21
229.4265895951
  0
LWPOLYLINE
  5
592
100
AcDbEntity
  8
7_ALL_FEATURES
100
AcDbPolyline
 62
7
  6
CONTINUOUS
 90
8
 70
0
 10
406.8664861971
 20
229.5439167315
 10
406.845658616
 20
230.3171296786
 10
406.6610080811
 20
231.3008566238
 10
406.2732008151
 20
232.149512248
 10
405.7099349971
 20
232.851086343
 10
404.9838020083
 20
233.386110406
 10
404.1003254127
 20
233.719721182
 10
403.4203565833
 20
233.8430570396
  0
LINE
  5
593
100
AcDbEntity
  8
7_ALL_FEATURES
100
AcDbLine
 62
9
  6
CONTINUOUS
 10
406.7174287334
 20
229.5362362119
 11
406.7175141638
 21
229.4265895984
  0
LINE
  5
594
100
AcDbEntity
  8
7_ALL_FEATURES
100
AcDbLine
 62
9
  6
CONTINUOUS
 10
406.7175141638
 20
229.4265895987
 11
406.7175141638
 21
98.9604760929
  0
LINE
  5
595
100
AcDbEntity
  8
7_ALL_FEATURES
100
AcDbLine
 62
7
  6
CONTINUOUS
 10
406.8664864139
 20
99.0776737685
 11
406.8664861971
 21
229.5439167315
  0
LINE
  5
596
100
AcDbEntity
  8
7_ALL_FEATURES
100
AcDbLine
 62
7
  6
CONTINUOUS
 10
406.8535482257
 20
98.4331256858
 11
406.8664786862
 21
99.078446178
  0
LWPOLYLINE
  5
597
100
AcDbEntity
  8
7_ALL_FEATURES
100
AcDbPolyline
 62
7
  6
CONTINUOUS
 90
3
 70
0
 10
273.8336192754
 20
253.1936936799
 10
272.987681884
 20
253.1656501805
 10
272.1946615612
 20
252.9017419821
  0
LWPOLYLINE
  5
598
100
AcDbEntity
  8
7_ALL_FEATURES
100
AcDbPolyline
 62
7
  6
CONTINUOUS
 90
6
 70
0
 10
405.0734547858
 20
95.6950433565
 10
405.2684595962
 20
95.7791479338
 10
405.9143557209
 20
96.2145812861
 10
406.3993748639
 20
96.8092167604
 10
406.7164832971
 20
97.5516481284
 10
406.8535482257
 20
98.4331256858
  0
LINE
  5
599
100
AcDbEntity
  8
7_ALL_FEATURES
100
AcDbLine
 62
7
  6
CONTINUOUS
 10
405.0737597319
 20
95.6951942659
 11
405.0727664998
 21
95.6948107129
  0
LINE
  5
59A
100
AcDbEntity
  8
7_ALL_FEATURES
100
AcDbLine
 62
9
  6
CONTINUOUS
 10
406.7175141638
 20
98.9604760929
 11
384.2724001743
 21
90.2988498035
  0
LINE
  5
59B
100
AcDbEntity
  8
7_ALL_FEATURES
100
AcDbLine
 62
7
  6
CONTINUOUS
 10
382.6267066702
 20
87.0328194213
 11
405.072685625
 21
95.6947795031
  0
ARC
  5
59C
100
AcDbEntity
  8
7_ALL_FEATURES
100
AcDbCircle
 62
7
  6
CONTINUOUS
 10
161.1285562816
 20
151.3350753671
 40
28.8696056882
100
AcDbArc
 50
312.6472012393
 51
313.1940432833
  0
ARC
  5
59D
100
AcDbEntity
  8
7_ALL_FEATURES
100
AcDbCircle
 62
7
  6
CONTINUOUS
 10
152.6754065081
 20
151.3350753665
 40
28.8696056874
100
AcDbArc
 50
226.8059567167
 51
227.3527987607
  0
ARC
  5
59E
100
AcDbEntity
  8
7_ALL_FEATURES
100
AcDbCircle
 62
9
  6
CONTINUOUS
 10
81.9238623927
 20
176.9105683493
 40
3.4775183916
100
AcDbArc
 50
159.1556362747
 51
165.979143921
  0
ARC
  5
59F
100
AcDbEntity
  8
7_ALL_FEATURES
100
AcDbCircle
 62
9
  6
CONTINUOUS
 10
231.9095304594
 20
176.9199409264
 40
3.4466883763
100
AcDbArc
 50
15.2788666347
 51
21.4403864977
  0
ARC
  5
5A0
100
AcDbEntity
  8
7_ALL_FEATURES
100
AcDbCircle
 62
9
  6
CONTINUOUS
 10
81.8944323293
 20
40.6158072905
 40
3.4466883748
100
AcDbArc
 50
195.2788666377
 51
201.4403865047
  0
ARC
  5
5A1
100
AcDbEntity
  8
7_ALL_FEATURES
100
AcDbCircle
 62
9
  6
CONTINUOUS
 10
232.0040482133
 20
40.7103250406
 40
3.4466883727
100
AcDbArc
 50
285.2788666046
 51
291.4403865255
  0
ARC
  5
5A2
100
AcDbEntity
  8
7_ALL_FEATURES
100
AcDbCircle
 62
9
  6
CONTINUOUS
 10
81.7981489926
 20
176.8304201705
 40
3.4414015337
100
AcDbArc
 50
105.7779815205
 51
111.5418780975
  0
ARC
  5
5A3
100
AcDbEntity
  8
7_ALL_FEATURES
100
AcDbCircle
 62
9
  6
CONTINUOUS
 10
231.932551816
 20
40.6085017136
 40
3.4228036518
100
AcDbArc
 50
338.8436415297
 51
345.3283140112
  0
ARC
  5
5A4
100
AcDbEntity
  8
7_ALL_FEATURES
100
AcDbCircle
 62
9
  6
CONTINUOUS
 10
81.7926089656
 20
40.6873036279
 40
3.4228035845
100
AcDbArc
 50
248.8436416778
 51
255.3283141447
  0
ARC
  5
5A5
100
AcDbEntity
  8
7_ALL_FEATURES
100
AcDbCircle
 62
9
  6
CONTINUOUS
 10
232.0113538265
 20
176.8484446258
 40
3.4228035506
100
AcDbArc
 50
68.8436414021
 51
75.3283145297
  0
ARC
  5
5A6
100
AcDbEntity
  8
7_ALL_FEATURES
100
AcDbCircle
 62
9
  6
CONTINUOUS
 10
81.7879746618
 20
176.9635257407
 40
3.3316807827
100
AcDbArc
 50
148.8821130754
 51
159.1752124137
  0
ARC
  5
5A7
100
AcDbEntity
  8
7_ALL_FEATURES
100
AcDbCircle
 62
9
  6
CONTINUOUS
 10
232.0175447749
 20
40.5740653834
 40
3.3311110518
100
AcDbArc
 50
327.8029766628
 51
338.8684117096
  0
ARC
  5
5A8
100
AcDbEntity
  8
7_ALL_FEATURES
100
AcDbCircle
 62
9
  6
CONTINUOUS
 10
232.0457901287
 20
176.9334375178
 40
3.3311110231
100
AcDbArc
 50
57.8029767573
 51
68.8684115451
  0
ARC
  5
5A9
100
AcDbEntity
  8
7_ALL_FEATURES
100
AcDbCircle
 62
9
  6
CONTINUOUS
 10
81.7581726332
 20
40.6023106622
 40
3.3311109773
100
AcDbArc
 50
237.8029770228
 51
248.8684118545
  0
ARC
  5
5AA
100
AcDbEntity
  8
7_ALL_FEATURES
100
AcDbCircle
 62
9
  6
CONTINUOUS
 10
81.7308262814
 20
176.989268872
 40
3.2696758674
100
AcDbArc
 50
129.0503889382
 51
143.2138628013
  0
ARC
  5
5AB
100
AcDbEntity
  8
7_ALL_FEATURES
100
AcDbCircle
 62
9
  6
CONTINUOUS
 10
81.7294461683
 20
40.5460188776
 40
3.2683317368
100
AcDbArc
 50
217.3579868571
 51
232.9473978745
  0
ARC
  5
5AC
100
AcDbEntity
  8
7_ALL_FEATURES
100
AcDbCircle
 62
9
  6
CONTINUOUS
 10
232.0745166315
 20
176.9897293452
 40
3.2683317259
100
AcDbArc
 50
37.3579869109
 51
52.9473980076
  0
ARC
  5
5AD
100
AcDbEntity
  8
7_ALL_FEATURES
100
AcDbCircle
 62
9
  6
CONTINUOUS
 10
232.0738366492
 20
40.5453388533
 40
3.2683317004
100
AcDbArc
 50
307.357986866
 51
322.9473980394
  0
ARC
  5
5AE
100
AcDbEntity
  8
7_ALL_FEATURES
100
AcDbCircle
 62
9
  6
CONTINUOUS
 10
232.0767468892
 20
176.9896186577
 40
3.2670767482
100
AcDbArc
 50
52.9797828587
 51
57.7374069651
  0
ARC
  5
5AF
100
AcDbEntity
  8
7_ALL_FEATURES
100
AcDbCircle
 62
9
  6
CONTINUOUS
 10
232.0737259583
 20
40.5431085976
 40
3.2670767267
100
AcDbArc
 50
322.9797829
 51
327.7374068366
  0
ARC
  5
5B0
100
AcDbEntity
  8
7_ALL_FEATURES
100
AcDbCircle
 62
9
  6
CONTINUOUS
 10
81.7272158671
 20
40.546129509
 40
3.2670766882
100
AcDbArc
 50
232.9797827427
 51
237.7374071922
  0
ARC
  5
5B1
100
AcDbEntity
  8
7_ALL_FEATURES
100
AcDbCircle
 62
9
  6
CONTINUOUS
 10
81.7257581147
 20
176.9928595425
 40
3.2636948465
100
AcDbArc
 50
127.2018835187
 51
129.0210051917
  0
ARC
  5
5B2
100
AcDbEntity
  8
7_ALL_FEATURES
100
AcDbCircle
 62
9
  6
CONTINUOUS
 10
81.7225323697
 20
40.5378886136
 40
3.2579036367
100
AcDbArc
 50
214.017385737
 51
217.3181147388
  0
ARC
  5
5B3
100
AcDbEntity
  8
7_ALL_FEATURES
100
AcDbCircle
 62
9
  6
CONTINUOUS
 10
232.0819668979
 20
40.5384250763
 40
3.2579036268
100
AcDbArc
 50
304.0173852852
 51
307.3181147304
  0
ARC
  5
5B4
100
AcDbEntity
  8
7_ALL_FEATURES
100
AcDbCircle
 62
9
  6
CONTINUOUS
 10
232.0814304291
 20
176.9978596101
 40
3.257903626
100
AcDbArc
 50
34.0173853598
 51
37.318114769
  0
ARC
  5
5B5
100
AcDbEntity
  8
7_ALL_FEATURES
100
AcDbCircle
 62
9
  6
CONTINUOUS
 10
81.7155889814
 20
177.0022299925
 40
3.249711412
100
AcDbArc
 50
143.2360021652
 51
148.806757471
  0
ARC
  5
5B6
100
AcDbEntity
  8
7_ALL_FEATURES
100
AcDbCircle
 62
7
  6
CONTINUOUS
 10
91.9019813951
 20
125.2678741086
 40
2.5
100
AcDbArc
 50
141.6640357545
 51
156.5975602847
  0
ARC
  5
5B7
100
AcDbEntity
  8
7_ALL_FEATURES
100
AcDbCircle
 62
7
  6
CONTINUOUS
 10
91.9019813951
 20
122.2678741086
 40
2.5
100
AcDbArc
 50
214.3085521485
 51
218.3359642455
  0
ARC
  5
5B8
100
AcDbEntity
  8
7_ALL_FEATURES
100
AcDbCircle
 62
7
  6
CONTINUOUS
 10
223.4019813951
 20
123.7678741086
 40
2.5
100
AcDbArc
 50
280.585922734
 51
283.4902695122
  0
ARC
  5
5B9
100
AcDbEntity
  8
7_ALL_FEATURES
100
AcDbCircle
 62
7
  6
CONTINUOUS
 10
223.4019813951
 20
123.7678741086
 40
2.5
100
AcDbArc
 50
72.1384389956
 51
79.414077266
  0
ARC
  5
5BA
100
AcDbEntity
  8
7_ALL_FEATURES
100
AcDbCircle
 62
7
  6
CONTINUOUS
 10
90.5168368614
 20
131.0198366806
 40
1.0743031412
100
AcDbArc
 50
171.3875364994
 51
182.3015947485
  0
ARC
  5
5BB
100
AcDbEntity
  8
6_ALL_SURFS
100
AcDbCircle
 62
7
  6
CONTINUOUS
 10
229.1152457521
 20
227.9857549713
 40
0.5
100
AcDbArc
 50
181.5
 51
270.0
  0
ARC
  5
5BC
100
AcDbEntity
  8
6_ALL_SURFS
100
AcDbCircle
 62
7
  6
CONTINUOUS
 10
84.6887170381
 20
227.9857549713
 40
0.5
100
AcDbArc
 50
270.0
 51
358.5
  0
ARC
  5
5BD
100
AcDbEntity
  8
6_ALL_SURFS
100
AcDbCircle
 62
7
  6
CONTINUOUS
 10
80.7152457521
 20
227.9857549713
 40
0.5
100
AcDbArc
 50
181.5
 51
270.0
  0
ARC
  5
5BE
100
AcDbEntity
  8
6_ALL_SURFS
100
AcDbCircle
 62
7
  6
CONTINUOUS
 10
233.0887170381
 20
227.9857549713
 40
0.5
100
AcDbArc
 50
270.0
 51
358.5
  0
ARC
  5
5BF
100
AcDbEntity
  8
7_ALL_FEATURES
100
AcDbCircle
 62
7
  6
CONTINUOUS
 10
79.9097343338
 20
228.1857549713
 40
0.3
100
AcDbArc
 50
1.5
 51
90.0
  0
ARC
  5
5C0
100
AcDbEntity
  8
7_ALL_FEATURES
100
AcDbCircle
 62
7
  6
CONTINUOUS
 10
233.8942284564
 20
228.1857549713
 40
0.3
100
AcDbArc
 50
90.0
 51
178.5
  0
ARC
  5
5C1
100
AcDbEntity
  8
7_ALL_FEATURES
100
AcDbCircle
 62
9
  6
CONTINUOUS
 10
85.4856774286
 20
228.1889901223
 40
0.2971462952
100
AcDbArc
 50
122.8240687773
 51
136.2641748695
  0
ARC
  5
5C2
100
AcDbEntity
  8
7_ALL_FEATURES
100
AcDbCircle
 62
9
  6
CONTINUOUS
 10
85.4834020967
 20
228.1916968785
 40
0.2936386701
100
AcDbArc
 50
112.5206597723
 51
122.7372734824
  0
ARC
  5
5C3
100
AcDbEntity
  8
7_ALL_FEATURES
100
AcDbCircle
 62
3
  6
CONTINUOUS
 10
56.8817909999
 20
131.4608429786
 40
3.0
100
AcDbArc
 50
0.0
 51
34.0
  0
ARC
  5
5C4
100
AcDbEntity
  8
6_ALL_SURFS
100
AcDbCircle
 62
7
  6
CONTINUOUS
 10
59.3817909999
 20
174.0311384656
 40
0.5
100
AcDbArc
 50
271.5
 51
360.0
  0
ARC
  5
5C5
100
AcDbEntity
  8
6_ALL_SURFS
100
AcDbCircle
 62
7
  6
CONTINUOUS
 10
59.3817909999
 20
43.5046097515
 40
0.5
100
AcDbArc
 50
0.0
 51
88.5
  0
ARC
  5
5C6
100
AcDbEntity
  8
6_ALL_SURFS
100
AcDbCircle
 62
7
  6
CONTINUOUS
 10
59.3817909999
 20
39.5311384656
 40
0.5
100
AcDbArc
 50
271.5
 51
360.0
  0
ARC
  5
5C7
100
AcDbEntity
  8
6_ALL_SURFS
100
AcDbCircle
 62
7
  6
CONTINUOUS
 10
59.3817909999
 20
178.0046097515
 40
0.5
100
AcDbArc
 50
0.0
 51
88.5
  0
ARC
  5
5C8
100
AcDbEntity
  8
7_ALL_FEATURES
100
AcDbCircle
 62
7
  6
CONTINUOUS
 10
59.1817909999
 20
38.7256270473
 40
0.3
100
AcDbArc
 50
91.5
 51
180.0
  0
ARC
  5
5C9
100
AcDbEntity
  8
7_ALL_FEATURES
100
AcDbCircle
 62
7
  6
CONTINUOUS
 10
59.1817909999
 20
178.8101211698
 40
0.3
100
AcDbArc
 50
180.0
 51
268.5
  0
ARC
  5
5CA
100
AcDbEntity
  8
7_ALL_FEATURES
100
AcDbCircle
 62
9
  6
CONTINUOUS
 10
59.1785558344
 20
44.3015701298
 40
0.2971462763
100
AcDbArc
 50
212.8240583399
 51
226.2641236893
  0
ARC
  5
5CB
100
AcDbEntity
  8
7_ALL_FEATURES
100
AcDbCircle
 62
9
  6
CONTINUOUS
 10
59.1758491057
 20
44.2992948169
 40
0.2936386848
100
AcDbArc
 50
202.5206374383
 51
212.7372631254
  0
ARC
  5
5CC
100
AcDbEntity
  8
7_ALL_FEATURES
100
AcDbCircle
 62
9
  6
CONTINUOUS
 10
175.2770990594
 20
42.0329617059
 40
176.2894246655
100
AcDbArc
 50
58.2402235021
 51
59.1239236853
  0
ARC
  5
5CD
100
AcDbEntity
  8
7_ALL_FEATURES
100
AcDbCircle
 62
9
  6
CONTINUOUS
 10
399.5974809429
 20
209.1985793969
 40
24.8785195281
100
AcDbArc
 50
81.1924377557
 51
81.5477877051
  0
ARC
  5
5CE
100
AcDbEntity
  8
3_ALL_AXES
100
AcDbCircle
 62
7
  6
CONTINUOUS
 10
335.9438197737
 20
204.7273597355
 40
21.42198121
100
AcDbArc
 50
278.2592158282
 51
280.0648471017
  0
ARC
  5
5CF
100
AcDbEntity
  8
7_ALL_FEATURES
100
AcDbCircle
 62
9
  6
CONTINUOUS
 10
337.8401048227
 20
192.8106907306
 40
8.8351899158
100
AcDbArc
 50
256.5023890247
 51
266.6965058571
  0
ARC
  5
5D0
100
AcDbEntity
  8
7_ALL_FEATURES
100
AcDbCircle
 62
9
  6
CONTINUOUS
 10
373.8391451142
 20
177.1720864556
 40
1.7400095373
100
AcDbArc
 50
5.0996819494
 51
15.9841347659
  0
ARC
  5
5D1
100
AcDbEntity
  8
7_ALL_FEATURES
100
AcDbCircle
 62
9
  6
CONTINUOUS
 10
373.937350412
 20
177.181538838
 40
1.6413529119
100
AcDbArc
 50
0.0343364117
 51
5.0757486411
  0
ARC
  5
5D2
100
AcDbEntity
  8
7_ALL_FEATURES
100
AcDbCircle
 62
9
  6
CONTINUOUS
 10
374.0476293777
 20
177.4540387639
 40
1.3927443454
100
AcDbArc
 50
61.8270920289
 51
68.5116490783
  0
ARC
  5
5D3
100
AcDbEntity
  8
7_ALL_FEATURES
100
AcDbCircle
 62
9
  6
CONTINUOUS
 10
277.2634968346
 20
189.7891806992
 40
0.919244749
100
AcDbArc
 50
81.4521463501
 51
85.8317713874
  0
ARC
  5
5D4
100
AcDbEntity
  8
6_ALL_SURFS
100
AcDbCircle
 62
9
  6
CONTINUOUS
 10
279.4168948289
 20
190.3469846979
 40
0.8269035259
100
AcDbArc
 50
172.6349497941
 51
176.1165253095
  0
ARC
  5
5D5
100
AcDbEntity
  8
6_ALL_SURFS
100
AcDbCircle
 62
9
  6
CONTINUOUS
 10
279.1790739854
 20
190.0470465054
 40
0.6866439995
100
AcDbArc
 50
144.1245981486
 51
148.7763705135
  0
ARC
  5
5D6
100
AcDbEntity
  8
7_ALL_FEATURES
100
AcDbCircle
 62
9
  6
CONTINUOUS
 10
277.4906905302
 20
190.689783235
 40
0.071256738
100
AcDbArc
 50
250.3078230544
 51
261.4935412843
  0
SPLINE
  5
5D7
100
AcDbEntity
  8
7_ALL_FEATURES
100
AcDbSpline
 62
7
  6
CONTINUOUS
 70
0
 71
3
 72
21
 73
17
 74
0
 42
0.0000001
 43
0.0000001
 44
0.0000000001
 40
0.0
 40
0.0
 40
0.0
 40
0.0
 40
0.061413573
 40
0.1232131711
 40
0.185379697
 40
0.2478793357
 40
0.3106644446
 40
0.3736752505
 40
0.5000000961
 40
0.6263249263
 40
0.6893357132
 40
0.7521207966
 40
0.8146204023
 40
0.8767868889
 40
0.9385864436
 40
1.0
 40
1.0
 40
1.0
 40
1.0
 10
138.8901723688
 20
128.0763172298
 30
0.0
 10
139.5272767728
 20
127.6174997855
 30
0.0
 10
140.8449139127
 20
126.7504440923
 30
0.0
 10
142.926883429
 20
125.6130761427
 30
0.0
 10
145.1060072106
 20
124.6403953845
 30
0.0
 10
147.3664919866
 20
123.8376276093
 30
0.0
 10
149.6926803404
 20
123.2088891068
 30
0.0
 10
152.8617092408
 20
122.6066198773
 30
0.0
 10
156.9019852279
 20
122.3041235732
 30
0.0
 10
160.9422608905
 20
122.6066208514
 30
0.0
 10
164.1112889063
 20
123.2088906115
 30
0.0
 10
166.4374761816
 20
123.8376292978
 30
0.0
 10
168.6979596415
 20
124.6403970357
 30
0.0
 10
170.8770819443
 20
125.6130774681
 30
0.0
 10
172.95905026
 20
126.7504449599
 30
0.0
 10
174.276686716
 20
127.6175002899
 30
0.0
 10
174.9137909478
 20
128.0763176104
 30
0.0
  0
SPLINE
  5
5D8
100
AcDbEntity
  8
3_ALL_AXES
100
AcDbSpline
 62
7
  6
CONTINUOUS
 70
0
 71
3
 72
23
 73
19
 74
0
 42
0.0000001
 43
0.0000001
 44
0.0000000001
 40
0.0
 40
0.0
 40
0.0
 40
0.0
 40
0.0590510252
 40
0.1193183454
 40
0.1807435557
 40
0.243216492
 40
0.3065824825
 40
0.3706505336
 40
0.4352020712
 40
0.5
 40
0.5647979288
 40
0.6293494664
 40
0.6934175175
 40
0.756783508
 40
0.8192564443
 40
0.8806816546
 40
0.9409489748
 40
1.0
 40
1.0
 40
1.0
 40
1.0
 10
132.9019813951
 20
131.6616391691
 30
0.0
 10
133.633091384
 20
130.9202643893
 30
0.0
 10
135.1971024844
 20
129.505422374
 30
0.0
 10
137.7823588404
 20
127.6320687147
 30
0.0
 10
140.6004519986
 20
126.0070126712
 30
0.0
 10
143.6165920444
 20
124.6500993278
 30
0.0
 10
146.7941502174
 20
123.5774655402
 30
0.0
 10
150.0944593334
 20
122.8019872436
 30
0.0
 10
153.4774310578
 20
122.3329488417
 30
0.0
 10
156.9019813951
 20
122.1759755229
 30
0.0
 10
160.3265317324
 20
122.3329488417
 30
0.0
 10
163.7095034568
 20
122.8019872436
 30
0.0
 10
167.0098125728
 20
123.5774655402
 30
0.0
 10
170.1873707459
 20
124.6500993278
 30
0.0
 10
173.2035107916
 20
126.0070126712
 30
0.0
 10
176.0216039498
 20
127.6320687147
 30
0.0
 10
178.6068603058
 20
129.505422374
 30
0.0
 10
180.1708714062
 20
130.9202643893
 30
0.0
 10
180.9019813951
 20
131.6616391691
 30
0.0
  0
SPLINE
  5
5D9
100
AcDbEntity
  8
7_ALL_FEATURES
100
AcDbSpline
 62
9
  6
CONTINUOUS
 70
0
 71
3
 72
16
 73
12
 74
0
 42
0.0000001
 43
0.0000001
 44
0.0000000001
 40
0.0
 40
0.0
 40
0.0
 40
0.0
 40
0.0703241355
 40
0.1403207579
 40
0.2786126403
 40
0.4135383926
 40
0.5438400352
 40
0.6684063775
 40
0.7863274178
 40
0.8969588911
 40
1.0
 40
1.0
 40
1.0
 40
1.0
 10
144.9019813951
 20
130.1520755474
 30
0.0
 10
144.7088204285
 20
130.1399983656
 30
0.0
 10
144.3229365102
 20
130.1227047099
 30
0.0
 10
143.5561029537
 20
130.1144768835
 30
0.0
 10
142.6114945767
 20
130.1535370573
 30
0.0
 10
141.5071237812
 20
130.2793343885
 30
0.0
 10
140.4525601342
 20
130.4821203497
 30
0.0
 10
139.4633324633
 20
130.7589172455
 30
0.0
 10
138.5538697473
 20
131.1058115103
 30
0.0
 10
137.7376786727
 20
131.517772698
 30
0.0
 10
137.2460104599
 20
131.8438513975
 30
0.0
 10
137.0214082356
 20
132.0169709821
 30
0.0
  0
SPLINE
  5
5DA
100
AcDbEntity
  8
7_ALL_FEATURES
100
AcDbSpline
 62
9
  6
CONTINUOUS
 70
0
 71
3
 72
23
 73
19
 74
0
 42
0.0000001
 43
0.0000001
 44
0.0000000001
 40
0.0
 40
0.0
 40
0.0
 40
0.0
 40
0.0873865298
 40
0.1721089053
 40
0.2538965006
 40
0.3325034602
 40
0.4077134282
 40
0.4793434096
 40
0.5472499793
 40
0.6113364507
 40
0.6715620296
 40
0.7279536833
 40
0.780620977
 40
0.8297739436
 40
0.8757432972
 40
0.9189994412
 40
0.9601634959
 40
1.0
 40
1.0
 40
1.0
 40
1.0
 10
168.9019813951
 20
130.1520755474
 30
0.0
 10
169.0500224929
 20
130.0226524057
 30
0.0
 10
169.3459635333
 20
129.7726837405
 30
0.0
 10
169.7963631854
 20
129.4209600697
 30
0.0
 10
170.2445133785
 20
129.0991498895
 30
0.0
 10
170.6882791641
 20
128.8087531191
 30
0.0
 10
171.1254609172
 20
128.5510092575
 30
0.0
 10
171.553888655
 20
128.3270067718
 30
0.0
 10
171.9714224869
 20
128.1376649364
 30
0.0
 10
172.3759691726
 20
127.9837342821
 30
0.0
 10
172.7654986529
 20
127.8658031979
 30
0.0
 10
173.1380589443
 20
127.7843055445
 30
0.0
 10
173.4917870875
 20
127.7395354801
 30
0.0
 10
173.8249146432
 20
127.7316747425
 30
0.0
 10
174.1357364985
 20
127.7608064302
 30
0.0
 10
174.4226025637
 20
127.8269560202
 30
0.0
 10
174.6837064456
 20
127.9299443651
 30
0.0
 10
174.8410437136
 20
128.0239284055
 30
0.0
 10
174.9137846914
 20
128.0763132181
 30
0.0
  0
SPLINE
  5
5DB
100
AcDbEntity
  8
7_ALL_FEATURES
100
AcDbSpline
 62
9
  6
CONTINUOUS
 70
0
 71
3
 72
16
 73
12
 74
0
 42
0.0000001
 43
0.0000001
 44
0.0000000001
 40
0.0
 40
0.0
 40
0.0
 40
0.0
 40
0.1030411201
 40
0.2136726021
 40
0.3315936483
 40
0.4561599934
 40
0.586461636
 40
0.7213873857
 40
0.8596792716
 40
0.9296758861
 40
1.0
 40
1.0
 40
1.0
 40
1.0
 10
176.7825531641
 20
132.0169699314
 30
0.0
 10
176.5579509117
 20
131.8438504317
 30
0.0
 10
176.0662826772
 20
131.517771896
 30
0.0
 10
175.2500916344
 20
131.1058109211
 30
0.0
 10
174.340629018
 20
130.7589168439
 30
0.0
 10
173.3514015057
 20
130.4821201014
 30
0.0
 10
172.2968380678
 20
130.2793342754
 30
0.0
 10
171.1924674968
 20
130.153536984
 30
0.0
 10
170.2478593428
 20
130.1144770034
 30
0.0
 10
169.4810260096
 20
130.1227045961
 30
0.0
 10
169.0951422761
 20
130.1399986073
 30
0.0
 10
168.9019813951
 20
130.1520755474
 30
0.0
  0
SPLINE
  5
5DC
100
AcDbEntity
  8
7_ALL_FEATURES
100
AcDbSpline
 62
9
  6
CONTINUOUS
 70
0
 71
3
 72
16
 73
12
 74
0
 42
0.0000001
 43
0.0000001
 44
0.0000000001
 40
0.0
 40
0.0
 40
0.0
 40
0.0
 40
0.114637163
 40
0.2334041178
 40
0.3557847625
 40
0.4811973394
 40
0.609008512
 40
0.7385461815
 40
0.869111333
 40
0.9345618396
 40
1.0
 40
1.0
 40
1.0
 40
1.0
 10
138.6711828546
 20
132.0174587961
 30
0.0
 10
138.8892776299
 20
131.8983405523
 30
0.0
 10
139.3417613191
 20
131.6710000191
 30
0.0
 10
140.051532696
 20
131.3681375531
 30
0.0
 10
140.7997148591
 20
131.0992205487
 30
0.0
 10
141.580325652
 20
130.8663461609
 30
0.0
 10
142.3871914647
 20
130.6713057463
 30
0.0
 10
143.2139036642
 20
130.5156003838
 30
0.0
 10
143.9133964426
 20
130.4197169627
 30
0.0
 10
144.4774183183
 20
130.3635543724
 30
0.0
 10
144.7604044478
 20
130.3424924272
 30
0.0
 10
144.9019813951
 20
130.3336397373
 30
0.0
  0
SPLINE
  5
5DD
100
AcDbEntity
  8
7_ALL_FEATURES
100
AcDbSpline
 62
9
  6
CONTINUOUS
 70
0
 71
3
 72
10
 73
6
 74
0
 42
0.0000001
 43
0.0000001
 44
0.0000000001
 40
0.0
 40
0.0
 40
0.0
 40
0.0
 40
0.2424586141
 40
0.4905895313
 40
1.0
 40
1.0
 40
1.0
 40
1.0
 10
144.9019813951
 20
130.3336397373
 30
0.0
 10
144.7546458432
 20
130.4624474466
 30
0.0
 10
144.4601539427
 20
130.7272512964
 30
0.0
 10
143.8733536942
 20
131.2815496285
 30
0.0
 10
143.4442436057
 20
131.7175680537
 30
0.0
 10
143.1625328692
 20
132.0170720662
 30
0.0
  0
SPLINE
  5
5DE
100
AcDbEntity
  8
7_ALL_FEATURES
100
AcDbSpline
 62
9
  6
CONTINUOUS
 70
0
 71
3
 72
16
 73
12
 74
0
 42
0.0000001
 43
0.0000001
 44
0.0000000001
 40
0.0
 40
0.0
 40
0.0
 40
0.0
 40
0.0654381798
 40
0.1308887091
 40
0.2614538611
 40
0.3909915348
 40
0.51880271
 40
0.6442152846
 40
0.7665959208
 40
0.8853628601
 40
1.0
 40
1.0
 40
1.0
 40
1.0
 10
168.9019813951
 20
130.3336397373
 30
0.0
 10
169.0435584979
 20
130.3424926151
 30
0.0
 10
169.3265449695
 20
130.363554504
 30
0.0
 10
169.8905674531
 20
130.4197169875
 30
0.0
 10
170.5900608851
 20
130.5156006736
 30
0.0
 10
171.4167738074
 20
130.6713062741
 30
0.0
 10
172.2236403048
 20
130.8663470139
 30
0.0
 10
173.0042517118
 20
131.0992217905
 30
0.0
 10
173.7524343978
 20
131.3681392433
 30
0.0
 10
174.4622061905
 20
131.6710022081
 30
0.0
 10
174.9146900961
 20
131.8983431195
 30
0.0
 10
175.1327849567
 20
132.017461559
 30
0.0
  0
SPLINE
  5
5DF
100
AcDbEntity
  8
7_ALL_FEATURES
100
AcDbSpline
 62
9
  6
CONTINUOUS
 70
0
 71
3
 72
10
 73
6
 74
0
 42
0.0000001
 43
0.0000001
 44
0.0000000001
 40
0.0
 40
0.0
 40
0.0
 40
0.0
 40
0.5094104244
 40
0.7575413411
 40
1.0
 40
1.0
 40
1.0
 40
1.0
 10
170.6414322259
 20
132.0170744966
 30
0.0
 10
170.3597211651
 20
131.7175700573
 30
0.0
 10
169.9306106551
 20
131.2815508972
 30
0.0
 10
169.3438093837
 20
130.7272520342
 30
0.0
 10
169.0493173658
 20
130.4624474339
 30
0.0
 10
168.9019813951
 20
130.3336397373
 30
0.0
  0
SPLINE
  5
5E0
100
AcDbEntity
  8
7_ALL_FEATURES
100
AcDbSpline
 62
9
  6
CONTINUOUS
 70
0
 71
3
 72
23
 73
19
 74
0
 42
0.0000001
 43
0.0000001
 44
0.0000000001
 40
0.0
 40
0.0
 40
0.0
 40
0.0
 40
0.0398365036
 40
0.0810005581
 40
0.124256702
 40
0.1702260554
 40
0.2193790217
 40
0.2720463148
 40
0.3284379677
 40
0.3886635457
 40
0.4527500158
 40
0.520656584
 40
0.5922865639
 40
0.6674965299
 40
0.7461034879
 40
0.827891073
 40
0.9126134495
 40
1.0
 40
1.0
 40
1.0
 40
1.0
 10
138.8901781144
 20
128.0763132071
 30
0.0
 10
138.9629190929
 20
128.0239283982
 30
0.0
 10
139.1202563623
 20
127.9299443653
 30
0.0
 10
139.3813602441
 20
127.8269560297
 30
0.0
 10
139.6682263076
 20
127.7608064463
 30
0.0
 10
139.9790481599
 20
127.731674762
 30
0.0
 10
140.3121757112
 20
127.7395355026
 30
0.0
 10
140.6659038486
 20
127.7843055666
 30
0.0
 10
141.038464133
 20
127.8658032177
 30
0.0
 10
141.4279936049
 20
127.9837342989
 30
0.0
 10
141.8325402817
 20
128.1376649467
 30
0.0
 10
142.2500741036
 20
128.3270067741
 30
0.0
 10
142.6785018316
 20
128.5510092496
 30
0.0
 10
143.1156835693
 20
128.8087531067
 30
0.0
 10
143.5594493533
 20
129.0991498225
 30
0.0
 10
144.0075994513
 20
129.4209600793
 30
0.0
 10
144.4579993158
 20
129.7726835296
 30
0.0
 10
144.753940071
 20
130.0226525957
 30
0.0
 10
144.9019813951
 20
130.1520755474
 30
0.0
  0
SPLINE
  5
5E1
100
AcDbEntity
  8
7_ALL_FEATURES
100
AcDbSpline
 62
9
  6
CONTINUOUS
 70
0
 71
3
 72
19
 73
15
 74
0
 42
0.0000001
 43
0.0000001
 44
0.0000000001
 40
0.0
 40
0.0
 40
0.0
 40
0.0
 40
0.0602820431
 40
0.1214011279
 40
0.1832790911
 40
0.2458189313
 40
0.3723367228
 40
0.5000000163
 40
0.6276633085
 40
0.754181096
 40
0.8167209333
 40
0.8785988931
 40
0.9397179687
 40
1.0
 40
1.0
 40
1.0
 40
1.0
 10
144.9019813951
 20
130.152074104
 30
0.0
 10
145.3245243474
 20
129.8667118971
 30
0.0
 10
146.1992803781
 20
129.326479463
 30
0.0
 10
147.579407441
 20
128.6173201419
 30
0.0
 10
149.0274404882
 20
128.0083216299
 30
0.0
 10
151.0414562332
 20
127.3334404388
 30
0.0
 10
153.6697564889
 20
126.7648642871
 30
0.0
 10
156.9019851606
 20
126.5364967427
 30
0.0
 10
160.1342137781
 20
126.7648653066
 30
0.0
 10
162.7625136419
 20
127.3334425135
 30
0.0
 10
164.7765293449
 20
128.0083239453
 30
0.0
 10
166.2245612219
 20
128.6173242479
 30
0.0
 10
167.6046908824
 20
129.3264791528
 30
0.0
 10
168.4794385254
 20
129.8667247745
 30
0.0
 10
168.9019813951
 20
130.1520869256
 30
0.0
  0
SPLINE
  5
5E2
100
AcDbEntity
  8
7_ALL_FEATURES
100
AcDbSpline
 62
9
  6
CONTINUOUS
 70
0
 71
3
 72
9
 73
5
 74
0
 42
0.0000001
 43
0.0000001
 44
0.0000000001
 40
0.0
 40
0.0
 40
0.0
 40
0.0
 40
0.4961452645
 40
1.0
 40
1.0
 40
1.0
 40
1.0
 10
168.9019813951
 20
130.3336411807
 30
0.0
 10
168.4228484636
 20
130.6572211386
 30
0.0
 10
167.4265280841
 20
131.2650683124
 30
0.0
 10
166.3803918483
 20
131.7821769444
 30
0.0
 10
165.8433976079
 20
132.0196187113
 30
0.0
  0
SPLINE
  5
5E3
100
AcDbEntity
  8
7_ALL_FEATURES
100
AcDbSpline
 62
9
  6
CONTINUOUS
 70
0
 71
3
 72
9
 73
5
 74
0
 42
0.0000001
 43
0.0000001
 44
0.0000000001
 40
0.0
 40
0.0
 40
0.0
 40
0.0
 40
0.5038544659
 40
1.0
 40
1.0
 40
1.0
 40
1.0
 10
147.9602766377
 20
132.0194911365
 30
0.0
 10
147.4233337198
 20
131.7820622115
 30
0.0
 10
146.3772935906
 20
131.264991095
 30
0.0
 10
145.3810723018
 20
130.6571799358
 30
0.0
 10
144.9019813951
 20
130.3336283591
 30
0.0
  0
SPLINE
  5
5E4
100
AcDbEntity
  8
3_ALL_AXES
100
AcDbSpline
 62
7
  6
CONTINUOUS
 70
0
 71
3
 72
14
 73
10
 74
0
 42
0.0000001
 43
0.0000001
 44
0.0000000001
 40
0.0
 40
0.0
 40
0.0
 40
0.0
 40
0.1202652502
 40
0.241974387
 40
0.3651104905
 40
0.4896336723
 40
0.6154831392
 40
0.7425787286
 40
1.0
 40
1.0
 40
1.0
 40
1.0
 10
133.0217450816
 20
132.0162588704
 30
0.0
 10
133.445027826
 20
131.5923213773
 30
0.0
 10
134.3248170327
 20
130.7669752529
 30
0.0
 10
135.7283470875
 20
129.608551505
 30
0.0
 10
137.2181167164
 20
128.5267732688
 30
0.0
 10
138.7879460079
 20
127.5261042581
 30
0.0
 10
140.4315795132
 20
126.6105299793
 30
0.0
 10
142.7214169071
 20
125.5038166779
 30
0.0
 10
144.5159759168
 20
124.8192100895
 30
0.0
 10
145.7372377086
 20
124.4283350925
 30
0.0
  0
SPLINE
  5
5E5
100
AcDbEntity
  8
3_ALL_AXES
100
AcDbSpline
 62
7
  6
CONTINUOUS
 70
0
 71
3
 72
14
 73
10
 74
0
 42
0.0000001
 43
0.0000001
 44
0.0000000001
 40
0.0
 40
0.0
 40
0.0
 40
0.0
 40
0.2574231268
 40
0.3845194583
 40
0.5103693572
 40
0.6348925614
 40
0.7580281997
 40
0.8797363289
 40
1.0
 40
1.0
 40
1.0
 40
1.0
 10
168.0606216831
 20
124.4263822625
 30
0.0
 10
169.2824869034
 20
124.8172047891
 30
0.0
 10
171.0779418806
 20
125.5018192644
 30
0.0
 10
173.3689195739
 20
126.6087140741
 30
0.0
 10
175.0133634304
 20
127.5245044022
 30
0.0
 10
176.5839530189
 20
128.525466247
 30
0.0
 10
178.0744246971
 20
129.6076096388
 30
0.0
 10
179.4785905315
 20
130.7664657001
 30
0.0
 10
180.3587591378
 20
131.5921452789
 30
0.0
 10
180.7822177086
 20
132.0162588704
 30
0.0
  0
SPLINE
  5
5E6
100
AcDbEntity
  8
7_ALL_FEATURES
100
AcDbSpline
 62
7
  6
CONTINUOUS
 70
0
 71
3
 72
9
 73
5
 74
0
 42
0.0000001
 43
0.0000001
 44
0.0000000001
 40
0.0
 40
0.0
 40
0.0
 40
0.0
 40
0.4938952523
 40
1.0
 40
1.0
 40
1.0
 40
1.0
 10
132.6019813951
 20
130.9739074233
 30
0.0
 10
132.6019813951
 20
130.8905467714
 30
0.0
 10
132.6270188561
 20
130.7208974798
 30
0.0
 10
132.6989060652
 20
130.5655336558
 30
0.0
 10
132.7445291021
 20
130.4933162527
 30
0.0
  0
SPLINE
  5
5E7
100
AcDbEntity
  8
7_ALL_FEATURES
100
AcDbSpline
 62
7
  6
CONTINUOUS
 70
0
 71
3
 72
9
 73
5
 74
0
 42
0.0000001
 43
0.0000001
 44
0.0000000001
 40
0.0
 40
0.0
 40
0.0
 40
0.0
 40
0.2463149023
 40
1.0
 40
1.0
 40
1.0
 40
1.0
 10
132.7445291021
 20
130.4933162527
 30
0.0
 10
132.756249475
 20
130.4747638951
 30
0.0
 10
132.806339764
 20
130.4010474433
 30
0.0
 10
132.8660373258
 20
130.3339441304
 30
0.0
 10
132.9149895252
 20
130.2879840424
 30
0.0
  0
SPLINE
  5
5E8
100
AcDbEntity
  8
7_ALL_FEATURES
100
AcDbSpline
 62
7
  6
CONTINUOUS
 70
0
 71
3
 72
9
 73
5
 74
0
 42
0.0000001
 43
0.0000001
 44
0.0000000001
 40
0.0
 40
0.0
 40
0.0
 40
0.0
 40
0.2558059873
 40
1.0
 40
1.0
 40
1.0
 40
1.0
 10
180.888973265
 20
130.2879840424
 30
0.0
 10
180.911322286
 20
130.3089670213
 30
0.0
 10
180.995282347
 20
130.3945089129
 30
0.0
 10
181.0649783182
 20
130.4943565613
 30
0.0
 10
181.1051561654
 20
130.5739772341
 30
0.0
  0
SPLINE
  5
5E9
100
AcDbEntity
  8
7_ALL_FEATURES
100
AcDbSpline
 62
7
  6
CONTINUOUS
 70
0
 71
3
 72
9
 73
5
 74
0
 42
0.0000001
 43
0.0000001
 44
0.0000000001
 40
0.0
 40
0.0
 40
0.0
 40
0.0
 40
0.2544702431
 40
1.0
 40
1.0
 40
1.0
 40
1.0
 10
181.1051561654
 20
130.5739772341
 30
0.0
 10
181.1209612257
 20
130.6052982137
 30
0.0
 10
181.1762905968
 20
130.7316741518
 30
0.0
 10
181.2019813951
 20
130.8711241667
 30
0.0
 10
181.2019813951
 20
130.9739074233
 30
0.0
  0
SPLINE
  5
5EA
100
AcDbEntity
  8
7_ALL_FEATURES
100
AcDbSpline
 62
7
  6
CONTINUOUS
 70
0
 71
3
 72
15
 73
11
 74
0
 42
0.0000001
 43
0.0000001
 44
0.0000000001
 40
0.0
 40
0.0
 40
0.0
 40
0.0
 40
0.119796773
 40
0.2438137441
 40
0.3710456143
 40
0.5
 40
0.6289543857
 40
0.7561862559
 40
0.880203227
 40
1.0
 40
1.0
 40
1.0
 40
1.0
 10
133.1167639991
 20
130.1003482491
 30
0.0
 10
134.6382507031
 20
128.6989396808
 30
0.0
 10
138.0481412257
 20
126.1720896438
 30
0.0
 10
143.8672650354
 20
123.4078424908
 30
0.0
 10
150.2433035926
 20
121.7016686594
 30
0.0
 10
156.9019813951
 20
121.1255679657
 30
0.0
 10
163.5606591976
 20
121.7016686594
 30
0.0
 10
169.9366977548
 20
123.4078424908
 30
0.0
 10
175.7558215646
 20
126.1720896438
 30
0.0
 10
179.1657120872
 20
128.6989396808
 30
0.0
 10
180.6871987911
 20
130.1003482491
 30
0.0
  0
SPLINE
  5
5EB
100
AcDbEntity
  8
6_ALL_SURFS
100
AcDbSpline
 62
9
  6
CONTINUOUS
 70
0
 71
3
 72
11
 73
7
 74
0
 42
0.0000001
 43
0.0000001
 44
0.0000000001
 40
0.0
 40
0.0
 40
0.0
 40
0.0
 40
0.2505611628
 40
0.5008517139
 40
0.7506456205
 40
1.0
 40
1.0
 40
1.0
 40
1.0
 10
212.4615853036
 20
121.2493630704
 30
0.0
 10
212.3650610154
 20
121.2491606785
 30
0.0
 10
212.1701415636
 20
121.2108224217
 30
0.0
 10
211.9227947003
 20
121.0478180705
 30
0.0
 10
211.7550193467
 20
120.8041853049
 30
0.0
 10
211.713467146
 20
120.6104959861
 30
0.0
 10
211.7118423099
 20
120.5144501217
 30
0.0
  0
SPLINE
  5
5EC
100
AcDbEntity
  8
6_ALL_SURFS
100
AcDbSpline
 62
9
  6
CONTINUOUS
 70
0
 71
3
 72
12
 73
8
 74
0
 42
0.0000001
 43
0.0000001
 44
0.0000000001
 40
0.0
 40
0.0
 40
0.0
 40
0.0
 40
0.1835285365
 40
0.2918366436
 40
0.4132405637
 40
0.6916008658
 40
1.0
 40
1.0
 40
1.0
 40
1.0
 10
211.7118423099
 20
120.5144501217
 30
0.0
 10
211.7144789972
 20
120.5707558291
 30
0.0
 10
211.7543646492
 20
120.6590689109
 30
0.0
 10
211.8459148096
 20
120.7472698642
 30
0.0
 10
211.9776263332
 20
120.832802083
 30
0.0
 10
212.186185159
 20
120.9040621362
 30
0.0
 10
212.3668661907
 20
120.9228663265
 30
0.0
 10
212.4615853036
 20
120.9228663265
 30
0.0
  0
SPLINE
  5
5ED
100
AcDbEntity
  8
7_ALL_FEATURES
100
AcDbSpline
 62
9
  6
CONTINUOUS
 70
0
 71
3
 72
11
 73
7
 74
0
 42
0.0000001
 43
0.0000001
 44
0.0000000001
 40
0.0
 40
0.0
 40
0.0
 40
0.0
 40
0.2917660535
 40
0.5474561672
 40
0.7786343265
 40
1.0
 40
1.0
 40
1.0
 40
1.0
 10
217.4111136189
 20
121.60754018
 30
0.0
 10
217.5294659413
 20
121.6076296309
 30
0.0
 10
217.7558500994
 20
121.5450172983
 30
0.0
 10
217.9923282743
 20
121.3225116564
 30
0.0
 10
218.1189544265
 20
121.0589855289
 30
0.0
 10
218.1444417126
 20
120.8740758828
 30
0.0
 10
218.1439027683
 20
120.7842824443
 30
0.0
  0
SPLINE
  5
5EE
100
AcDbEntity
  8
7_ALL_FEATURES
100
AcDbSpline
 62
9
  6
CONTINUOUS
 70
0
 71
3
 72
11
 73
7
 74
0
 42
0.0000001
 43
0.0000001
 44
0.0000000001
 40
0.0
 40
0.0
 40
0.0
 40
0.0
 40
0.221814931
 40
0.453448741
 40
0.7090814157
 40
1.0
 40
1.0
 40
1.0
 40
1.0
 10
211.6600600219
 20
120.7842824443
 30
0.0
 10
211.6595186395
 20
120.8742593226
 30
0.0
 10
211.685132641
 20
121.0595419474
 30
0.0
 10
211.8121538702
 20
121.3232994561
 30
0.0
 10
212.048851878
 20
121.5453186091
 30
0.0
 10
212.2748390326
 20
121.6076384795
 30
0.0
 10
212.3928491713
 20
121.60754018
 30
0.0
  0
SPLINE
  5
5EF
100
AcDbEntity
  8
6_ALL_SURFS
100
AcDbSpline
 62
9
  6
CONTINUOUS
 70
0
 71
3
 72
9
 73
5
 74
0
 42
0.0000001
 43
0.0000001
 44
0.0000000001
 40
0.0
 40
0.0
 40
0.0
 40
0.0
 40
0.2539098821
 40
1.0
 40
1.0
 40
1.0
 40
1.0
 10
218.0561228588
 20
119.1322498627
 30
0.0
 10
218.0620267607
 20
119.1473082109
 30
0.0
 10
218.0826028055
 20
119.2076215688
 30
0.0
 10
218.0920804917
 20
119.2717766643
 30
0.0
 10
218.0921204803
 20
119.3193034697
 30
0.0
  0
SPLINE
  5
5F0
100
AcDbEntity
  8
6_ALL_SURFS
100
AcDbSpline
 62
9
  6
CONTINUOUS
 70
0
 71
3
 72
12
 73
8
 74
0
 42
0.0000001
 43
0.0000001
 44
0.0000000001
 40
0.0
 40
0.0
 40
0.0
 40
0.0
 40
0.183534345
 40
0.2918430579
 40
0.4132463666
 40
0.6916038747
 40
1.0
 40
1.0
 40
1.0
 40
1.0
 10
218.0921204803
 20
119.3193034697
 30
0.0
 10
218.0894837098
 20
119.3756109531
 30
0.0
 10
218.0495949884
 20
119.4639250457
 30
0.0
 10
217.9580443741
 20
119.5521279164
 30
0.0
 10
217.8263312932
 20
119.6376564117
 30
0.0
 10
217.6177751864
 20
119.7089163561
 30
0.0
 10
217.4370956652
 20
119.7277196745
 30
0.0
 10
217.3423774866
 20
119.7277196745
 30
0.0
  0
SPLINE
  5
5F1
100
AcDbEntity
  8
6_ALL_SURFS
100
AcDbSpline
 62
9
  6
CONTINUOUS
 70
0
 71
3
 72
12
 73
8
 74
0
 42
0.0000001
 43
0.0000001
 44
0.0000000001
 40
0.0
 40
0.0
 40
0.0
 40
0.0
 40
0.3084063997
 40
0.5867740244
 40
0.7081795333
 40
0.81648614
 40
1.0
 40
1.0
 40
1.0
 40
1.0
 10
212.4615853036
 20
119.7277196745
 30
0.0
 10
212.3668639377
 20
119.7277196745
 30
0.0
 10
212.1861791105
 20
119.708913311
 30
0.0
 10
211.9776134584
 20
119.6376530026
 30
0.0
 10
211.8459056844
 20
119.5521114332
 30
0.0
 10
211.7543568931
 20
119.4639150975
 30
0.0
 10
211.714478787
 20
119.3756046873
 30
0.0
 10
211.7118423099
 20
119.3193034697
 30
0.0
  0
SPLINE
  5
5F2
100
AcDbEntity
  8
6_ALL_SURFS
100
AcDbSpline
 62
9
  6
CONTINUOUS
 70
0
 71
3
 72
9
 73
5
 74
0
 42
0.0000001
 43
0.0000001
 44
0.0000000001
 40
0.0
 40
0.0
 40
0.0
 40
0.0
 40
0.7460816885
 40
1.0
 40
1.0
 40
1.0
 40
1.0
 10
211.7118423099
 20
119.3193034697
 30
0.0
 10
211.7118823171
 20
119.2717545796
 30
0.0
 10
211.7213730559
 20
119.2075692747
 30
0.0
 10
211.7419658436
 20
119.1472297586
 30
0.0
 10
211.7478743987
 20
119.1321643886
 30
0.0
  0
SPLINE
  5
5F3
100
AcDbEntity
  8
6_ALL_SURFS
100
AcDbSpline
 62
9
  6
CONTINUOUS
 70
0
 71
3
 72
11
 73
7
 74
0
 42
0.0000001
 43
0.0000001
 44
0.0000000001
 40
0.0
 40
0.0
 40
0.0
 40
0.0
 40
0.2493552933
 40
0.4991501012
 40
0.7494418291
 40
1.0
 40
1.0
 40
1.0
 40
1.0
 10
95.7118423099
 20
120.5144501217
 30
0.0
 10
95.7134671518
 20
120.6104963319
 30
0.0
 10
95.7550196422
 20
120.8041863371
 30
0.0
 10
95.9227961573
 20
121.0478198399
 30
0.0
 10
96.1701436005
 20
121.210822711
 30
0.0
 10
96.3650621741
 20
121.249160681
 30
0.0
 10
96.4615853036
 20
121.2493630704
 30
0.0
  0
SPLINE
  5
5F4
100
AcDbEntity
  8
6_ALL_SURFS
100
AcDbSpline
 62
9
  6
CONTINUOUS
 70
0
 71
3
 72
12
 73
8
 74
0
 42
0.0000001
 43
0.0000001
 44
0.0000000001
 40
0.0
 40
0.0
 40
0.0
 40
0.0
 40
0.3083912066
 40
0.5867505446
 40
0.7081551579
 40
0.8164646666
 40
1.0
 40
1.0
 40
1.0
 40
1.0
 10
96.4615853036
 20
120.9228663265
 30
0.0
 10
96.3668686338
 20
120.9228663265
 30
0.0
 10
96.1861900085
 20
120.9040636934
 30
0.0
 10
95.9776343893
 20
120.8328042465
 30
0.0
 10
95.8459196664
 20
120.7472759789
 30
0.0
 10
95.7543684489
 20
120.6590723693
 30
0.0
 10
95.7144790946
 20
120.5707579095
 30
0.0
 10
95.7118423099
 20
120.5144501217
 30
0.0
  0
SPLINE
  5
5F5
100
AcDbEntity
  8
6_ALL_SURFS
100
AcDbSpline
 62
9
  6
CONTINUOUS
 70
0
 71
3
 72
11
 73
7
 74
0
 42
0.0000001
 43
0.0000001
 44
0.0000000001
 40
0.0
 40
0.0
 40
0.0
 40
0.0
 40
0.2505611628
 40
0.5008517139
 40
0.7506456205
 40
1.0
 40
1.0
 40
1.0
 40
1.0
 10
101.3423774866
 20
121.2493630704
 30
0.0
 10
101.4389017749
 20
121.2491606785
 30
0.0
 10
101.6338212266
 20
121.2108224217
 30
0.0
 10
101.8811680899
 20
121.0478180705
 30
0.0
 10
102.0489434435
 20
120.8041853049
 30
0.0
 10
102.0904956442
 20
120.6104959861
 30
0.0
 10
102.0921204803
 20
120.5144501217
 30
0.0
  0
SPLINE
  5
5F6
100
AcDbEntity
  8
6_ALL_SURFS
100
AcDbSpline
 62
9
  6
CONTINUOUS
 70
0
 71
3
 72
12
 73
8
 74
0
 42
0.0000001
 43
0.0000001
 44
0.0000000001
 40
0.0
 40
0.0
 40
0.0
 40
0.0
 40
0.1835285365
 40
0.2918366436
 40
0.4132405637
 40
0.6916008658
 40
1.0
 40
1.0
 40
1.0
 40
1.0
 10
102.0921204803
 20
120.5144501217
 30
0.0
 10
102.089483793
 20
120.5707558291
 30
0.0
 10
102.0495981411
 20
120.6590689109
 30
0.0
 10
101.9580479806
 20
120.7472698642
 30
0.0
 10
101.826336457
 20
120.832802083
 30
0.0
 10
101.6177776312
 20
120.9040621362
 30
0.0
 10
101.4370965995
 20
120.9228663265
 30
0.0
 10
101.3423774866
 20
120.9228663265
 30
0.0
  0
SPLINE
  5
5F7
100
AcDbEntity
  8
7_ALL_FEATURES
100
AcDbSpline
 62
9
  6
CONTINUOUS
 70
0
 71
3
 72
11
 73
7
 74
0
 42
0.0000001
 43
0.0000001
 44
0.0000000001
 40
0.0
 40
0.0
 40
0.0
 40
0.0
 40
0.221814931
 40
0.453448741
 40
0.7090814157
 40
1.0
 40
1.0
 40
1.0
 40
1.0
 10
95.6600600219
 20
120.7842824443
 30
0.0
 10
95.6595186395
 20
120.8742593226
 30
0.0
 10
95.685132641
 20
121.0595419474
 30
0.0
 10
95.8121538702
 20
121.3232994561
 30
0.0
 10
96.048851878
 20
121.5453186091
 30
0.0
 10
96.2748390326
 20
121.6076384795
 30
0.0
 10
96.3928491713
 20
121.60754018
 30
0.0
  0
SPLINE
  5
5F8
100
AcDbEntity
  8
7_ALL_FEATURES
100
AcDbSpline
 62
9
  6
CONTINUOUS
 70
0
 71
3
 72
11
 73
7
 74
0
 42
0.0000001
 43
0.0000001
 44
0.0000000001
 40
0.0
 40
0.0
 40
0.0
 40
0.0
 40
0.2917660535
 40
0.5474561672
 40
0.7786343265
 40
1.0
 40
1.0
 40
1.0
 40
1.0
 10
101.4111136189
 20
121.60754018
 30
0.0
 10
101.5294659413
 20
121.6076296309
 30
0.0
 10
101.7558500994
 20
121.5450172983
 30
0.0
 10
101.9923282743
 20
121.3225116564
 30
0.0
 10
102.1189544265
 20
121.0589855289
 30
0.0
 10
102.1444417126
 20
120.8740758828
 30
0.0
 10
102.1439027683
 20
120.7842824443
 30
0.0
  0
SPLINE
  5
5F9
100
AcDbEntity
  8
6_ALL_SURFS
100
AcDbSpline
 62
9
  6
CONTINUOUS
 70
0
 71
3
 72
9
 73
5
 74
0
 42
0.0000001
 43
0.0000001
 44
0.0000000001
 40
0.0
 40
0.0
 40
0.0
 40
0.0
 40
0.2539098821
 40
1.0
 40
1.0
 40
1.0
 40
1.0
 10
95.7478399314
 20
119.1322498627
 30
0.0
 10
95.7419360296
 20
119.1473082109
 30
0.0
 10
95.7213599847
 20
119.2076215688
 30
0.0
 10
95.7118822985
 20
119.2717766643
 30
0.0
 10
95.7118423099
 20
119.3193034697
 30
0.0
  0
SPLINE
  5
5FA
100
AcDbEntity
  8
6_ALL_SURFS
100
AcDbSpline
 62
9
  6
CONTINUOUS
 70
0
 71
3
 72
12
 73
8
 74
0
 42
0.0000001
 43
0.0000001
 44
0.0000000001
 40
0.0
 40
0.0
 40
0.0
 40
0.0
 40
0.183534345
 40
0.2918430579
 40
0.4132463666
 40
0.6916038747
 40
1.0
 40
1.0
 40
1.0
 40
1.0
 10
95.7118423099
 20
119.3193034697
 30
0.0
 10
95.7144790804
 20
119.3756109531
 30
0.0
 10
95.7543678018
 20
119.4639250457
 30
0.0
 10
95.8459184162
 20
119.5521279164
 30
0.0
 10
95.9776314971
 20
119.6376564117
 30
0.0
 10
96.1861876038
 20
119.7089163561
 30
0.0
 10
96.3668671251
 20
119.7277196745
 30
0.0
 10
96.4615853036
 20
119.7277196745
 30
0.0
  0
SPLINE
  5
5FB
100
AcDbEntity
  8
6_ALL_SURFS
100
AcDbSpline
 62
9
  6
CONTINUOUS
 70
0
 71
3
 72
9
 73
5
 74
0
 42
0.0000001
 43
0.0000001
 44
0.0000000001
 40
0.0
 40
0.0
 40
0.0
 40
0.0
 40
0.7460816885
 40
1.0
 40
1.0
 40
1.0
 40
1.0
 10
102.0921204803
 20
119.3193034697
 30
0.0
 10
102.0920804731
 20
119.2717545796
 30
0.0
 10
102.0825897344
 20
119.2075692747
 30
0.0
 10
102.0619969466
 20
119.1472297586
 30
0.0
 10
102.0560883915
 20
119.1321643886
 30
0.0
  0
SPLINE
  5
5FC
100
AcDbEntity
  8
6_ALL_SURFS
100
AcDbSpline
 62
9
  6
CONTINUOUS
 70
0
 71
3
 72
12
 73
8
 74
0
 42
0.0000001
 43
0.0000001
 44
0.0000000001
 40
0.0
 40
0.0
 40
0.0
 40
0.0
 40
0.3084063997
 40
0.5867740244
 40
0.7081795333
 40
0.81648614
 40
1.0
 40
1.0
 40
1.0
 40
1.0
 10
101.3423774866
 20
119.7277196745
 30
0.0
 10
101.4370988525
 20
119.7277196745
 30
0.0
 10
101.6177836797
 20
119.708913311
 30
0.0
 10
101.8263493318
 20
119.6376530026
 30
0.0
 10
101.9580571059
 20
119.5521114332
 30
0.0
 10
102.0496058971
 20
119.4639150975
 30
0.0
 10
102.0894840033
 20
119.3756046873
 30
0.0
 10
102.0921204803
 20
119.3193034697
 30
0.0
  0
SPLINE
  5
5FD
100
AcDbEntity
  8
7_ALL_FEATURES
100
AcDbSpline
 62
9
  6
CONTINUOUS
 70
0
 71
3
 72
11
 73
7
 74
0
 42
0.0000001
 43
0.0000001
 44
0.0000000001
 40
0.0
 40
0.0
 40
0.0
 40
0.0
 40
0.3091602404
 40
0.523785092
 40
0.7116208772
 40
1.0
 40
1.0
 40
1.0
 40
1.0
 10
101.4864754836
 20
131.3820300182
 30
0.0
 10
101.448839338
 20
131.382030018
 30
0.0
 10
101.3848512762
 20
131.3885820544
 30
0.0
 10
101.3015443421
 20
131.4150629868
 30
0.0
 10
101.228373619
 20
131.455437853
 30
0.0
 10
101.1888463109
 20
131.5088951575
 30
0.0
 10
101.1866582355
 20
131.543933224
 30
0.0
  0
SPLINE
  5
5FE
100
AcDbEntity
  8
7_ALL_FEATURES
100
AcDbSpline
 62
9
  6
CONTINUOUS
 70
0
 71
3
 72
11
 73
7
 74
0
 42
0.0000001
 43
0.0000001
 44
0.0000000001
 40
0.0
 40
0.0
 40
0.0
 40
0.0
 40
0.309160252
 40
0.523785114
 40
0.7116208937
 40
1.0
 40
1.0
 40
1.0
 40
1.0
 10
96.3174873066
 20
131.3820300182
 30
0.0
 10
96.3551234536
 20
131.3820300182
 30
0.0
 10
96.4191115177
 20
131.3885820574
 30
0.0
 10
96.502418454
 20
131.4150629893
 30
0.0
 10
96.5755891747
 20
131.4554378573
 30
0.0
 10
96.6151164795
 20
131.5088951596
 30
0.0
 10
96.6173045547
 20
131.543933224
 30
0.0
  0
SPLINE
  5
5FF
100
AcDbEntity
  8
7_ALL_FEATURES
100
AcDbSpline
 62
9
  6
CONTINUOUS
 70
0
 71
3
 72
11
 73
7
 74
0
 42
0.0000001
 43
0.0000001
 44
0.0000000001
 40
0.0
 40
0.0
 40
0.0
 40
0.0
 40
0.3091602404
 40
0.523785092
 40
0.7116208772
 40
1.0
 40
1.0
 40
1.0
 40
1.0
 10
217.4864754836
 20
131.3820300182
 30
0.0
 10
217.448839338
 20
131.382030018
 30
0.0
 10
217.3848512762
 20
131.3885820544
 30
0.0
 10
217.3015443421
 20
131.4150629868
 30
0.0
 10
217.228373619
 20
131.455437853
 30
0.0
 10
217.1888463109
 20
131.5088951575
 30
0.0
 10
217.1866582355
 20
131.543933224
 30
0.0
  0
SPLINE
  5
600
100
AcDbEntity
  8
7_ALL_FEATURES
100
AcDbSpline
 62
9
  6
CONTINUOUS
 70
0
 71
3
 72
11
 73
7
 74
0
 42
0.0000001
 43
0.0000001
 44
0.0000000001
 40
0.0
 40
0.0
 40
0.0
 40
0.0
 40
0.309160252
 40
0.523785114
 40
0.7116208937
 40
1.0
 40
1.0
 40
1.0
 40
1.0
 10
212.3174873066
 20
131.3820300182
 30
0.0
 10
212.3551234536
 20
131.3820300182
 30
0.0
 10
212.4191115177
 20
131.3885820574
 30
0.0
 10
212.502418454
 20
131.4150629893
 30
0.0
 10
212.5755891747
 20
131.4554378573
 30
0.0
 10
212.6151164795
 20
131.5088951596
 30
0.0
 10
212.6173045547
 20
131.543933224
 30
0.0
  0
SPLINE
  5
601
100
AcDbEntity
  8
7_ALL_FEATURES
100
AcDbSpline
 62
9
  6
CONTINUOUS
 70
0
 71
3
 72
11
 73
7
 74
0
 42
0.0000001
 43
0.0000001
 44
0.0000000001
 40
0.0
 40
0.0
 40
0.0
 40
0.0
 40
0.2487465676
 40
0.4978082784
 40
0.7480697032
 40
1.0
 40
1.0
 40
1.0
 40
1.0
 10
217.1866582355
 20
131.543933224
 30
0.0
 10
217.1872143935
 20
131.4968562752
 30
0.0
 10
217.1782490139
 20
131.4020971122
 30
0.0
 10
217.1306809673
 20
131.2671499764
 30
0.0
 10
217.0415471159
 20
131.1512735064
 30
0.0
 10
216.9442516003
 20
131.1156670126
 30
0.0
 10
216.8965859879
 20
131.1169478376
 30
0.0
  0
SPLINE
  5
602
100
AcDbEntity
  8
7_ALL_FEATURES
100
AcDbSpline
 62
9
  6
CONTINUOUS
 70
0
 71
3
 72
11
 73
7
 74
0
 42
0.0000001
 43
0.0000001
 44
0.0000000001
 40
0.0
 40
0.0
 40
0.0
 40
0.0
 40
0.2517515234
 40
0.5020892906
 40
0.7512027416
 40
1.0
 40
1.0
 40
1.0
 40
1.0
 10
212.9073768024
 20
131.1169478376
 30
0.0
 10
212.8597448344
 20
131.115661229
 30
0.0
 10
212.7624681213
 20
131.151239263
 30
0.0
 10
212.6733063907
 20
131.2670887547
 30
0.0
 10
212.6257137242
 20
131.4020664743
 30
0.0
 10
212.6167487479
 20
131.4968463204
 30
0.0
 10
212.6173045547
 20
131.543933224
 30
0.0
  0
SPLINE
  5
603
100
AcDbEntity
  8
7_ALL_FEATURES
100
AcDbSpline
 62
9
  6
CONTINUOUS
 70
0
 71
3
 72
11
 73
7
 74
0
 42
0.0000001
 43
0.0000001
 44
0.0000000001
 40
0.0
 40
0.0
 40
0.0
 40
0.0
 40
0.2517515234
 40
0.5020892906
 40
0.7512027416
 40
1.0
 40
1.0
 40
1.0
 40
1.0
 10
96.9073768024
 20
131.1169478376
 30
0.0
 10
96.8597448344
 20
131.115661229
 30
0.0
 10
96.7624681213
 20
131.151239263
 30
0.0
 10
96.6733063907
 20
131.2670887547
 30
0.0
 10
96.6257137242
 20
131.4020664743
 30
0.0
 10
96.6167487479
 20
131.4968463204
 30
0.0
 10
96.6173045547
 20
131.543933224
 30
0.0
  0
SPLINE
  5
604
100
AcDbEntity
  8
7_ALL_FEATURES
100
AcDbSpline
 62
9
  6
CONTINUOUS
 70
0
 71
3
 72
11
 73
7
 74
0
 42
0.0000001
 43
0.0000001
 44
0.0000000001
 40
0.0
 40
0.0
 40
0.0
 40
0.0
 40
0.2487465676
 40
0.4978082784
 40
0.7480697032
 40
1.0
 40
1.0
 40
1.0
 40
1.0
 10
101.1866582355
 20
131.543933224
 30
0.0
 10
101.1872143935
 20
131.4968562752
 30
0.0
 10
101.1782490139
 20
131.4020971122
 30
0.0
 10
101.1306809673
 20
131.2671499764
 30
0.0
 10
101.0415471159
 20
131.1512735064
 30
0.0
 10
100.9442516003
 20
131.1156670126
 30
0.0
 10
100.8965859879
 20
131.1169478376
 30
0.0
  0
SPLINE
  5
605
100
AcDbEntity
  8
7_ALL_FEATURES
100
AcDbSpline
 62
9
  6
CONTINUOUS
 70
0
 71
3
 72
9
 73
5
 74
0
 42
0.0000001
 43
0.0000001
 44
0.0000000001
 40
0.0
 40
0.0
 40
0.0
 40
0.0
 40
0.5124802836
 40
1.0
 40
1.0
 40
1.0
 40
1.0
 10
132.5243612625
 20
129.2750744808
 30
0.0
 10
132.3884497463
 20
129.4026786605
 30
0.0
 10
132.1638419301
 20
129.7019873652
 30
0.0
 10
132.0808612616
 20
130.0696103159
 30
0.0
 10
132.0808612616
 20
130.2469566488
 30
0.0
  0
SPLINE
  5
606
100
AcDbEntity
  8
7_ALL_FEATURES
100
AcDbSpline
 62
9
  6
CONTINUOUS
 70
0
 71
3
 72
15
 73
11
 74
0
 42
0.0000001
 43
0.0000001
 44
0.0000000001
 40
0.0
 40
0.0
 40
0.0
 40
0.0
 40
0.1196930046
 40
0.2436865993
 40
0.3709622033
 40
0.5
 40
0.6290377968
 40
0.7563134008
 40
0.8803069954
 40
1.0
 40
1.0
 40
1.0
 40
1.0
 10
181.2796015277
 20
129.2750744808
 30
0.0
 10
179.7321191731
 20
127.8221790818
 30
0.0
 10
176.2515550603
 20
125.2002494241
 30
0.0
 10
170.2905096718
 20
122.3302304952
 30
0.0
 10
163.7446671465
 20
120.5576846262
 30
0.0
 10
156.9019813946
 20
119.9590088502
 30
0.0
 10
150.0592956427
 20
120.5576846264
 30
0.0
 10
143.5134531175
 20
122.3302304956
 30
0.0
 10
137.5524077294
 20
125.2002494245
 30
0.0
 10
134.0718436169
 20
127.822179082
 30
0.0
 10
132.5243612625
 20
129.2750744808
 30
0.0
  0
SPLINE
  5
607
100
AcDbEntity
  8
7_ALL_FEATURES
100
AcDbSpline
 62
9
  6
CONTINUOUS
 70
0
 71
3
 72
9
 73
5
 74
0
 42
0.0000001
 43
0.0000001
 44
0.0000000001
 40
0.0
 40
0.0
 40
0.0
 40
0.0
 40
0.4875196745
 40
1.0
 40
1.0
 40
1.0
 40
1.0
 10
181.7231015286
 20
130.2469566488
 30
0.0
 10
181.7231015286
 20
130.0696103312
 30
0.0
 10
181.6401208682
 20
129.7019873812
 30
0.0
 10
181.415513055
 20
129.402678671
 30
0.0
 10
181.2796015277
 20
129.2750744808
 30
0.0
  0
SPLINE
  5
608
100
AcDbEntity
  8
7_ALL_FEATURES
100
AcDbSpline
 62
9
  6
CONTINUOUS
 70
0
 71
3
 72
11
 73
7
 74
0
 42
0.0000001
 43
0.0000001
 44
0.0000000001
 40
0.0
 40
0.0
 40
0.0
 40
0.0
 40
0.2722142105
 40
0.5295452149
 40
0.7697149658
 40
1.0
 40
1.0
 40
1.0
 40
1.0
 10
212.9073768024
 20
130.8176786225
 30
0.0
 10
212.8255744647
 20
130.8176793104
 30
0.0
 10
212.6644988749
 20
130.8495221712
 30
0.0
 10
212.4679990812
 20
130.9825790132
 30
0.0
 10
212.344928774
 20
131.1699870238
 30
0.0
 10
212.3174902071
 20
131.3128277011
 30
0.0
 10
212.3174873066
 20
131.3820300182
 30
0.0
  0
SPLINE
  5
609
100
AcDbEntity
  8
7_ALL_FEATURES
100
AcDbSpline
 62
9
  6
CONTINUOUS
 70
0
 71
3
 72
11
 73
7
 74
0
 42
0.0000001
 43
0.0000001
 44
0.0000000001
 40
0.0
 40
0.0
 40
0.0
 40
0.0
 40
0.2302054175
 40
0.4703058197
 40
0.7275928796
 40
1.0
 40
1.0
 40
1.0
 40
1.0
 10
217.4864754836
 20
131.3820300182
 30
0.0
 10
217.486474282
 20
131.3128517023
 30
0.0
 10
217.4590489077
 20
131.1700581987
 30
0.0
 10
217.3360528051
 20
130.9826778174
 30
0.0
 10
217.13957073
 20
130.8495543408
 30
0.0
 10
216.9784462066
 20
130.8176796563
 30
0.0
 10
216.8965859879
 20
130.8176786225
 30
0.0
  0
SPLINE
  5
60A
100
AcDbEntity
  8
7_ALL_FEATURES
100
AcDbSpline
 62
9
  6
CONTINUOUS
 70
0
 71
3
 72
11
 73
7
 74
0
 42
0.0000001
 43
0.0000001
 44
0.0000000001
 40
0.0
 40
0.0
 40
0.0
 40
0.0
 40
0.2722142105
 40
0.5295452149
 40
0.7697149658
 40
1.0
 40
1.0
 40
1.0
 40
1.0
 10
96.9073768024
 20
130.8176786225
 30
0.0
 10
96.8255744647
 20
130.8176793104
 30
0.0
 10
96.6644988749
 20
130.8495221712
 30
0.0
 10
96.4679990812
 20
130.9825790132
 30
0.0
 10
96.344928774
 20
131.1699870238
 30
0.0
 10
96.3174902071
 20
131.3128277011
 30
0.0
 10
96.3174873066
 20
131.3820300182
 30
0.0
  0
SPLINE
  5
60B
100
AcDbEntity
  8
7_ALL_FEATURES
100
AcDbSpline
 62
9
  6
CONTINUOUS
 70
0
 71
3
 72
11
 73
7
 74
0
 42
0.0000001
 43
0.0000001
 44
0.0000000001
 40
0.0
 40
0.0
 40
0.0
 40
0.0
 40
0.2302054175
 40
0.4703058197
 40
0.7275928796
 40
1.0
 40
1.0
 40
1.0
 40
1.0
 10
101.4864754836
 20
131.3820300182
 30
0.0
 10
101.486474282
 20
131.3128517023
 30
0.0
 10
101.4590489077
 20
131.1700581987
 30
0.0
 10
101.3360528051
 20
130.9826778174
 30
0.0
 10
101.13957073
 20
130.8495543408
 30
0.0
 10
100.9784462066
 20
130.8176796563
 30
0.0
 10
100.8965859879
 20
130.8176786225
 30
0.0
  0
SPLINE
  5
60C
100
AcDbEntity
  8
7_ALL_FEATURES
100
AcDbSpline
 62
9
  6
CONTINUOUS
 70
0
 71
3
 72
11
 73
7
 74
0
 42
0.0000001
 43
0.0000001
 44
0.0000000001
 40
0.0
 40
0.0
 40
0.0
 40
0.0
 40
0.2732603279
 40
0.528814407
 40
0.7682058827
 40
1.0
 40
1.0
 40
1.0
 40
1.0
 10
101.4111136189
 20
121.7381388776
 30
0.0
 10
101.5640618698
 20
121.738148591
 30
0.0
 10
101.8647402442
 20
121.6645666515
 30
0.0
 10
102.2045186631
 20
121.381720075
 30
0.0
 10
102.4015790645
 20
121.0163988343
 30
0.0
 10
102.4437936048
 20
120.7506549008
 30
0.0
 10
102.4437999658
 20
120.6209159624
 30
0.0
  0
SPLINE
  5
60D
100
AcDbEntity
  8
7_ALL_FEATURES
100
AcDbSpline
 62
9
  6
CONTINUOUS
 70
0
 71
3
 72
11
 73
7
 74
0
 42
0.0000001
 43
0.0000001
 44
0.0000000001
 40
0.0
 40
0.0
 40
0.0
 40
0.0
 40
0.2321763081
 40
0.4719017794
 40
0.7272808326
 40
1.0
 40
1.0
 40
1.0
 40
1.0
 10
95.3601628244
 20
120.6209159624
 30
0.0
 10
95.3601648948
 20
120.7508704696
 30
0.0
 10
95.4025375206
 20
121.0170275599
 30
0.0
 10
95.6000475807
 20
121.3824849942
 30
0.0
 10
95.9399302937
 20
121.6648775884
 30
0.0
 10
96.2402018779
 20
121.7381380976
 30
0.0
 10
96.3928491713
 20
121.7381388776
 30
0.0
  0
SPLINE
  5
60E
100
AcDbEntity
  8
7_ALL_FEATURES
100
AcDbSpline
 62
9
  6
CONTINUOUS
 70
0
 71
3
 72
11
 73
7
 74
0
 42
0.0000001
 43
0.0000001
 44
0.0000000001
 40
0.0
 40
0.0
 40
0.0
 40
0.0
 40
0.2732603279
 40
0.528814407
 40
0.7682058827
 40
1.0
 40
1.0
 40
1.0
 40
1.0
 10
217.4111136189
 20
121.7381388776
 30
0.0
 10
217.5640618698
 20
121.738148591
 30
0.0
 10
217.8647402442
 20
121.6645666515
 30
0.0
 10
218.2045186631
 20
121.381720075
 30
0.0
 10
218.4015790645
 20
121.0163988343
 30
0.0
 10
218.4437936048
 20
120.7506549008
 30
0.0
 10
218.4437999658
 20
120.6209159624
 30
0.0
  0
SPLINE
  5
60F
100
AcDbEntity
  8
7_ALL_FEATURES
100
AcDbSpline
 62
9
  6
CONTINUOUS
 70
0
 71
3
 72
11
 73
7
 74
0
 42
0.0000001
 43
0.0000001
 44
0.0000000001
 40
0.0
 40
0.0
 40
0.0
 40
0.0
 40
0.2321763081
 40
0.4719017794
 40
0.7272808326
 40
1.0
 40
1.0
 40
1.0
 40
1.0
 10
211.3601628244
 20
120.6209159624
 30
0.0
 10
211.3601648948
 20
120.7508704696
 30
0.0
 10
211.4025375206
 20
121.0170275599
 30
0.0
 10
211.6000475807
 20
121.3824849942
 30
0.0
 10
211.9399302937
 20
121.6648775884
 30
0.0
 10
212.2402018779
 20
121.7381380976
 30
0.0
 10
212.3928491713
 20
121.7381388776
 30
0.0
  0
SPLINE
  5
610
100
AcDbEntity
  8
7_ALL_FEATURES
100
AcDbSpline
 62
9
  6
CONTINUOUS
 70
0
 71
3
 72
15
 73
11
 74
0
 42
0.0000001
 43
0.0000001
 44
0.0000000001
 40
0.0
 40
0.0
 40
0.0
 40
0.0
 40
0.1196936783
 40
0.243686993
 40
0.3709624071
 40
0.5
 40
0.6290375929
 40
0.756313007
 40
0.8803063217
 40
1.0
 40
1.0
 40
1.0
 40
1.0
 10
180.9049332132
 20
129.8216272835
 30
0.0
 10
179.3812260786
 20
128.3910538888
 30
0.0
 10
175.9541502953
 20
125.8094165774
 30
0.0
 10
170.0847146675
 20
122.9835159564
 30
0.0
 10
163.6394892274
 20
121.2382162637
 30
0.0
 10
156.9019813951
 20
120.6487441826
 30
0.0
 10
150.1644735628
 20
121.2382162637
 30
0.0
 10
143.7192481227
 20
122.9835159564
 30
0.0
 10
137.849812495
 20
125.8094165774
 30
0.0
 10
134.4227367116
 20
128.3910538888
 30
0.0
 10
132.899029577
 20
129.8216272835
 30
0.0
  0
SPLINE
  5
611
100
AcDbEntity
  8
7_ALL_FEATURES
100
AcDbSpline
 62
9
  6
CONTINUOUS
 70
0
 71
3
 72
9
 73
5
 74
0
 42
0.0000001
 43
0.0000001
 44
0.0000000001
 40
0.0
 40
0.0
 40
0.0
 40
0.0
 40
0.5101341255
 40
1.0
 40
1.0
 40
1.0
 40
1.0
 10
132.899029577
 20
129.8216272835
 30
0.0
 10
132.8330730104
 20
129.8835523787
 30
0.0
 10
132.7175822918
 20
130.0209029493
 30
0.0
 10
132.6421480656
 20
130.1842688559
 30
0.0
 10
132.6174657862
 20
130.2675652711
 30
0.0
  0
SPLINE
  5
612
100
AcDbEntity
  8
7_ALL_FEATURES
100
AcDbSpline
 62
9
  6
CONTINUOUS
 70
0
 71
3
 72
8
 73
4
 74
0
 42
0.0000001
 43
0.0000001
 44
0.0000000001
 40
0.0
 40
0.0
 40
0.0
 40
0.0
 40
1.0
 40
1.0
 40
1.0
 40
1.0
 10
132.6174657862
 20
130.2675652711
 30
0.0
 10
132.5933789529
 20
130.3488522067
 30
0.0
 10
132.5806899241
 20
130.43445357
 30
0.0
 10
132.5806899241
 20
130.5192341187
 30
0.0
  0
SPLINE
  5
613
100
AcDbEntity
  8
7_ALL_FEATURES
100
AcDbSpline
 62
9
  6
CONTINUOUS
 70
0
 71
3
 72
9
 73
5
 74
0
 42
0.0000001
 43
0.0000001
 44
0.0000000001
 40
0.0
 40
0.0
 40
0.0
 40
0.0
 40
0.7466649209
 40
1.0
 40
1.0
 40
1.0
 40
1.0
 10
181.2232728661
 20
130.5192341187
 30
0.0
 10
181.2232728661
 20
130.4300672868
 30
0.0
 10
181.2044623456
 20
130.3096083507
 30
0.0
 10
181.1631262069
 20
130.1975039231
 30
0.0
 10
181.1513146127
 20
130.1696516503
 30
0.0
  0
SPLINE
  5
614
100
AcDbEntity
  8
7_ALL_FEATURES
100
AcDbSpline
 62
9
  6
CONTINUOUS
 70
0
 71
3
 72
9
 73
5
 74
0
 42
0.0000001
 43
0.0000001
 44
0.0000000001
 40
0.0
 40
0.0
 40
0.0
 40
0.0
 40
0.2444820758
 40
1.0
 40
1.0
 40
1.0
 40
1.0
 10
181.1513146127
 20
130.1696516503
 30
0.0
 10
181.1376912734
 20
130.1375272008
 30
0.0
 10
181.0747107484
 20
130.0092516778
 30
0.0
 10
180.9835462891
 20
129.8954352826
 30
0.0
 10
180.9049332132
 20
129.8216272835
 30
0.0
  0
SPLINE
  5
615
100
AcDbEntity
  8
7_ALL_FEATURES
100
AcDbSpline
 62
9
  6
CONTINUOUS
 70
0
 71
3
 72
11
 73
7
 74
0
 42
0.0000001
 43
0.0000001
 44
0.0000000001
 40
0.0
 40
0.0
 40
0.0
 40
0.0
 40
0.3408045054
 40
0.5994042459
 40
0.8023365783
 40
1.0
 40
1.0
 40
1.0
 40
1.0
 10
181.7231015286
 20
130.2469566488
 30
0.0
 10
181.6515783336
 20
130.2469566488
 30
0.0
 10
181.5254465781
 20
130.2543116173
 30
0.0
 10
181.3609989522
 20
130.2999883026
 30
0.0
 10
181.2487089973
 20
130.3915117201
 30
0.0
 10
181.2252132982
 20
130.4777967438
 30
0.0
 10
181.2232728661
 20
130.5192341187
 30
0.0
  0
SPLINE
  5
616
100
AcDbEntity
  8
7_ALL_FEATURES
100
AcDbSpline
 62
9
  6
CONTINUOUS
 70
0
 71
3
 72
11
 73
7
 74
0
 42
0.0000001
 43
0.0000001
 44
0.0000000001
 40
0.0
 40
0.0
 40
0.0
 40
0.0
 40
0.279461136
 40
0.5667416587
 40
0.8127852873
 40
1.0
 40
1.0
 40
1.0
 40
1.0
 10
181.2796015277
 20
129.2750744808
 30
0.0
 10
181.2281819251
 20
129.3127161176
 30
0.0
 10
181.1275912904
 20
129.3943820998
 30
0.0
 10
181.0028595067
 20
129.533137627
 30
0.0
 10
180.9246856182
 20
129.68025708
 30
0.0
 10
180.9063933282
 20
129.7789620782
 30
0.0
 10
180.9049332132
 20
129.8216272835
 30
0.0
  0
SPLINE
  5
617
100
AcDbEntity
  8
7_ALL_FEATURES
100
AcDbSpline
 62
9
  6
CONTINUOUS
 70
0
 71
3
 72
11
 73
7
 74
0
 42
0.0000001
 43
0.0000001
 44
0.0000000001
 40
0.0
 40
0.0
 40
0.0
 40
0.0
 40
0.279461136
 40
0.5667416587
 40
0.8127852873
 40
1.0
 40
1.0
 40
1.0
 40
1.0
 10
132.5243612625
 20
129.2750744808
 30
0.0
 10
132.5757808652
 20
129.3127161176
 30
0.0
 10
132.6763714998
 20
129.3943820998
 30
0.0
 10
132.8011032835
 20
129.533137627
 30
0.0
 10
132.8792771721
 20
129.68025708
 30
0.0
 10
132.8975694621
 20
129.7789620782
 30
0.0
 10
132.899029577
 20
129.8216272835
 30
0.0
  0
SPLINE
  5
618
100
AcDbEntity
  8
7_ALL_FEATURES
100
AcDbSpline
 62
9
  6
CONTINUOUS
 70
0
 71
3
 72
11
 73
7
 74
0
 42
0.0000001
 43
0.0000001
 44
0.0000000001
 40
0.0
 40
0.0
 40
0.0
 40
0.0
 40
0.3408045054
 40
0.5994042459
 40
0.8023365783
 40
1.0
 40
1.0
 40
1.0
 40
1.0
 10
132.0808612616
 20
130.2469566488
 30
0.0
 10
132.1523844566
 20
130.2469566488
 30
0.0
 10
132.2785162122
 20
130.2543116173
 30
0.0
 10
132.442963838
 20
130.2999883026
 30
0.0
 10
132.5552537929
 20
130.3915117201
 30
0.0
 10
132.578749492
 20
130.4777967438
 30
0.0
 10
132.5806899241
 20
130.5192341187
 30
0.0
  0
SPLINE
  5
619
100
AcDbEntity
  8
7_ALL_FEATURES
100
AcDbSpline
 62
9
  6
CONTINUOUS
 70
0
 71
3
 72
11
 73
7
 74
0
 42
0.0000001
 43
0.0000001
 44
0.0000000001
 40
0.0
 40
0.0
 40
0.0
 40
0.0
 40
0.3096871643
 40
0.5244895175
 40
0.7122094374
 40
1.0
 40
1.0
 40
1.0
 40
1.0
 10
218.4437999658
 20
120.6209159624
 30
0.0
 10
218.4059586535
 20
120.6209159624
 30
0.0
 10
218.3416391676
 20
120.6275324542
 30
0.0
 10
218.2579989976
 20
120.654305058
 30
0.0
 10
218.1847281373
 20
120.695022501
 30
0.0
 10
218.1455477084
 20
120.7491552165
 30
0.0
 10
218.1439027683
 20
120.7842824443
 30
0.0
  0
SPLINE
  5
61A
100
AcDbEntity
  8
7_ALL_FEATURES
100
AcDbSpline
 62
9
  6
CONTINUOUS
 70
0
 71
3
 72
11
 73
7
 74
0
 42
0.0000001
 43
0.0000001
 44
0.0000000001
 40
0.0
 40
0.0
 40
0.0
 40
0.0
 40
0.3096871531
 40
0.5244894936
 40
0.7122094144
 40
1.0
 40
1.0
 40
1.0
 40
1.0
 10
211.3601628244
 20
120.6209159624
 30
0.0
 10
211.3980041354
 20
120.6209159621
 30
0.0
 10
211.4623236187
 20
120.6275324517
 30
0.0
 10
211.5459637862
 20
120.6543050543
 30
0.0
 10
211.619234649
 20
120.6950224955
 30
0.0
 10
211.6584150817
 20
120.7491552136
 30
0.0
 10
211.6600600219
 20
120.7842824443
 30
0.0
  0
SPLINE
  5
61B
100
AcDbEntity
  8
7_ALL_FEATURES
100
AcDbSpline
 62
9
  6
CONTINUOUS
 70
0
 71
3
 72
11
 73
7
 74
0
 42
0.0000001
 43
0.0000001
 44
0.0000000001
 40
0.0
 40
0.0
 40
0.0
 40
0.0
 40
0.3096871643
 40
0.5244895175
 40
0.7122094374
 40
1.0
 40
1.0
 40
1.0
 40
1.0
 10
102.4437999658
 20
120.6209159624
 30
0.0
 10
102.4059586535
 20
120.6209159624
 30
0.0
 10
102.3416391676
 20
120.6275324542
 30
0.0
 10
102.2579989976
 20
120.654305058
 30
0.0
 10
102.1847281373
 20
120.695022501
 30
0.0
 10
102.1455477084
 20
120.7491552165
 30
0.0
 10
102.1439027683
 20
120.7842824443
 30
0.0
  0
SPLINE
  5
61C
100
AcDbEntity
  8
7_ALL_FEATURES
100
AcDbSpline
 62
9
  6
CONTINUOUS
 70
0
 71
3
 72
11
 73
7
 74
0
 42
0.0000001
 43
0.0000001
 44
0.0000000001
 40
0.0
 40
0.0
 40
0.0
 40
0.0
 40
0.3096871531
 40
0.5244894936
 40
0.7122094144
 40
1.0
 40
1.0
 40
1.0
 40
1.0
 10
95.3601628244
 20
120.6209159624
 30
0.0
 10
95.3980041354
 20
120.6209159621
 30
0.0
 10
95.4623236187
 20
120.6275324517
 30
0.0
 10
95.5459637862
 20
120.6543050543
 30
0.0
 10
95.619234649
 20
120.6950224955
 30
0.0
 10
95.6584150817
 20
120.7491552136
 30
0.0
 10
95.6600600219
 20
120.7842824443
 30
0.0
  0
SPLINE
  5
61D
100
AcDbEntity
  8
6_ALL_SURFS
100
AcDbSpline
 62
9
  6
CONTINUOUS
 70
0
 71
3
 72
12
 73
8
 74
0
 42
0.0000001
 43
0.0000001
 44
0.0000000001
 40
0.0
 40
0.0
 40
0.0
 40
0.0
 40
0.3083912066
 40
0.5867505446
 40
0.7081551579
 40
0.8164646666
 40
1.0
 40
1.0
 40
1.0
 40
1.0
 10
217.3423774866
 20
120.9228663265
 30
0.0
 10
217.4370941565
 20
120.9228663265
 30
0.0
 10
217.6177727817
 20
120.9040636934
 30
0.0
 10
217.826328401
 20
120.8328042465
 30
0.0
 10
217.9580431238
 20
120.7472759789
 30
0.0
 10
218.0495943413
 20
120.6590723693
 30
0.0
 10
218.0894836956
 20
120.5707579095
 30
0.0
 10
218.0921204803
 20
120.5144501217
 30
0.0
  0
SPLINE
  5
61E
100
AcDbEntity
  8
6_ALL_SURFS
100
AcDbSpline
 62
9
  6
CONTINUOUS
 70
0
 71
3
 72
11
 73
7
 74
0
 42
0.0000001
 43
0.0000001
 44
0.0000000001
 40
0.0
 40
0.0
 40
0.0
 40
0.0
 40
0.2493552933
 40
0.4991501012
 40
0.7494418291
 40
1.0
 40
1.0
 40
1.0
 40
1.0
 10
218.0921204803
 20
120.5144501217
 30
0.0
 10
218.0904956384
 20
120.6104963319
 30
0.0
 10
218.0489431481
 20
120.8041863371
 30
0.0
 10
217.8811666329
 20
121.0478198399
 30
0.0
 10
217.6338191897
 20
121.210822711
 30
0.0
 10
217.4389006161
 20
121.249160681
 30
0.0
 10
217.3423774866
 20
121.2493630704
 30
0.0
  0
SPLINE
  5
61F
100
AcDbEntity
  8
7_ALL_FEATURES
100
AcDbSpline
 62
7
  6
CONTINUOUS
 70
0
 71
3
 72
9
 73
5
 74
0
 42
0.0000001
 43
0.0000001
 44
0.0000000001
 40
0.0
 40
0.0
 40
0.0
 40
0.0
 40
0.7493389042
 40
1.0
 40
1.0
 40
1.0
 40
1.0
 10
224.0677250563
 20
123.6154369131
 30
0.0
 10
224.1413101511
 20
125.4653017286
 30
0.0
 10
224.2401275842
 20
127.9339396373
 30
0.0
 10
224.3377416614
 20
130.4026253557
 30
0.0
 10
224.3623199753
 20
131.0214244459
 30
0.0
  0
SPLINE
  5
620
100
AcDbEntity
  8
7_ALL_FEATURES
100
AcDbSpline
 62
7
  6
CONTINUOUS
 70
0
 71
3
 72
9
 73
5
 74
0
 42
0.0000001
 43
0.0000001
 44
0.0000000001
 40
0.0
 40
0.0
 40
0.0
 40
0.0
 40
0.5456513461
 40
1.0
 40
1.0
 40
1.0
 40
1.0
 10
89.8996835525
 20
131.873629373
 30
0.0
 10
89.7699639466
 20
131.7919972417
 30
0.0
 10
89.5668240401
 20
131.5793038467
 30
0.0
 10
89.4738629789
 20
131.3068808967
 30
0.0
 10
89.4546477457
 20
131.1807140306
 30
0.0
  0
SPLINE
  5
621
100
AcDbEntity
  8
7_ALL_FEATURES
100
AcDbSpline
 62
7
  6
CONTINUOUS
 70
0
 71
3
 72
9
 73
5
 74
0
 42
0.0000001
 43
0.0000001
 44
0.0000000001
 40
0.0
 40
0.0
 40
0.0
 40
0.0
 40
0.2840587558
 40
1.0
 40
1.0
 40
1.0
 40
1.0
 10
90.4017434222
 20
132.0178741086
 30
0.0
 10
90.3518845273
 20
132.0178664824
 30
0.0
 10
90.1764673349
 20
132.0043129426
 30
0.0
 10
90.0060403386
 20
131.9405602769
 30
0.0
 10
89.8996835525
 20
131.873629373
 30
0.0
  0
SPLINE
  5
622
100
AcDbEntity
  8
7_ALL_FEATURES
100
AcDbSpline
 62
9
  6
CONTINUOUS
 70
0
 71
3
 72
15
 73
11
 74
0
 42
0.0000001
 43
0.0000001
 44
0.0000000001
 40
0.0
 40
0.0
 40
0.0
 40
0.0
 40
0.1369603059
 40
0.2618549421
 40
0.381472326
 40
0.5000193223
 40
0.6185818993
 40
0.7381823876
 40
0.8630986785
 40
1.0
 40
1.0
 40
1.0
 40
1.0
 10
80.3633820602
 20
42.177484584
 30
0.0
 10
80.36399807
 20
41.9520672066
 30
0.0
 10
80.3602159932
 20
41.5205806304
 30
0.0
 10
80.4580004716
 20
40.8958316201
 30
0.0
 10
80.6892598834
 20
40.3377692915
 30
0.0
 10
81.051295173
 20
39.867030338
 30
0.0
 10
81.5220054331
 20
39.5048863691
 30
0.0
 10
82.0802857345
 20
39.2741680093
 30
0.0
 10
82.7047881361
 20
39.1756855221
 30
0.0
 10
83.1362677057
 20
39.1795705203
 30
0.0
 10
83.3615888439
 20
39.1795830862
 30
0.0
  0
SPLINE
  5
623
100
AcDbEntity
  8
7_ALL_FEATURES
100
AcDbSpline
 62
9
  6
CONTINUOUS
 70
0
 71
3
 72
15
 73
11
 74
0
 42
0.0000001
 43
0.0000001
 44
0.0000000001
 40
0.0
 40
0.0
 40
0.0
 40
0.0
 40
0.1369013215
 40
0.2618176124
 40
0.3814181007
 40
0.4999806777
 40
0.618527674
 40
0.738145058
 40
0.8630396941
 40
1.0
 40
1.0
 40
1.0
 40
1.0
 10
83.3615888439
 20
178.356165131
 30
0.0
 10
83.1362677056
 20
178.3561776969
 30
0.0
 10
82.704788136
 20
178.3600626953
 30
0.0
 10
82.0802857345
 20
178.2615802077
 30
0.0
 10
81.5220054331
 20
178.0308618481
 30
0.0
 10
81.051295173
 20
177.6687178791
 30
0.0
 10
80.6892598827
 20
177.1979789259
 30
0.0
 10
80.4580004725
 20
176.6399165967
 30
0.0
 10
80.3602159929
 20
176.0151675867
 30
0.0
 10
80.3639980698
 20
175.5836810105
 30
0.0
 10
80.3633820601
 20
175.3582636331
 30
0.0
  0
SPLINE
  5
624
100
AcDbEntity
  8
7_ALL_FEATURES
100
AcDbSpline
 62
9
  6
CONTINUOUS
 70
0
 71
3
 72
15
 73
11
 74
0
 42
0.0000001
 43
0.0000001
 44
0.0000000001
 40
0.0
 40
0.0
 40
0.0
 40
0.0
 40
0.1369603059
 40
0.261854942
 40
0.381472326
 40
0.5000193223
 40
0.6185818993
 40
0.7381823876
 40
0.8630986785
 40
1.0
 40
1.0
 40
1.0
 40
1.0
 10
233.44058073
 20
175.3582636331
 30
0.0
 10
233.4399647201
 20
175.5836810105
 30
0.0
 10
233.443746797
 20
176.0151675866
 30
0.0
 10
233.3459623185
 20
176.639916597
 30
0.0
 10
233.114702907
 20
177.1979789257
 30
0.0
 10
232.7526676172
 20
177.6687178791
 30
0.0
 10
232.2819573571
 20
178.030861848
 30
0.0
 10
231.7236770557
 20
178.2615802078
 30
0.0
 10
231.0991746541
 20
178.360062695
 30
0.0
 10
230.6676950846
 20
178.3561776968
 30
0.0
 10
230.4423739463
 20
178.3561651309
 30
0.0
  0
SPLINE
  5
625
100
AcDbEntity
  8
7_ALL_FEATURES
100
AcDbSpline
 62
9
  6
CONTINUOUS
 70
0
 71
3
 72
15
 73
11
 74
0
 42
0.0000001
 43
0.0000001
 44
0.0000000001
 40
0.0
 40
0.0
 40
0.0
 40
0.0
 40
0.136960306
 40
0.2618549421
 40
0.381472326
 40
0.5000193223
 40
0.6185818993
 40
0.7381823876
 40
0.8630986785
 40
1.0
 40
1.0
 40
1.0
 40
1.0
 10
230.4423709197
 20
39.1792747737
 30
0.0
 10
230.6677882971
 20
39.1798907836
 30
0.0
 10
231.0992748733
 20
39.1761087068
 30
0.0
 10
231.7240238838
 20
39.273893185
 30
0.0
 10
232.2820862122
 20
39.5051525969
 30
0.0
 10
232.7528251657
 20
39.8671878864
 30
0.0
 10
233.1149691346
 20
40.3378981465
 30
0.0
 10
233.3456874943
 20
40.8961784479
 30
0.0
 10
233.4441699816
 20
41.5206808495
 30
0.0
 10
233.4402849833
 20
41.9521604191
 30
0.0
 10
233.4402724175
 20
42.1774815574
 30
0.0
  0
SPLINE
  5
626
100
AcDbEntity
  8
7_ALL_FEATURES
100
AcDbSpline
 62
9
  6
CONTINUOUS
 70
0
 71
3
 72
11
 73
7
 74
0
 42
0.0000001
 43
0.0000001
 44
0.0000000001
 40
0.0
 40
0.0
 40
0.0
 40
0.0
 40
0.250068397
 40
0.4999689329
 40
0.7498620888
 40
1.0
 40
1.0
 40
1.0
 40
1.0
 10
224.9675606428
 20
131.0838103156
 30
0.0
 10
224.9675253219
 20
131.2789110921
 30
0.0
 10
224.8896130429
 20
131.6732898787
 30
0.0
 10
224.5557688987
 20
132.1715468104
 30
0.0
 10
224.057505325
 20
132.5054806703
 30
0.0
 10
223.6630726131
 20
132.5834190531
 30
0.0
 10
223.4679176021
 20
132.5834533562
 30
0.0
  0
SPLINE
  5
627
100
AcDbEntity
  8
7_ALL_FEATURES
100
AcDbSpline
 62
9
  6
CONTINUOUS
 70
0
 71
3
 72
11
 73
7
 74
0
 42
0.0000001
 43
0.0000001
 44
0.0000000001
 40
0.0
 40
0.0
 40
0.0
 40
0.0
 40
0.2500249017
 40
0.4998989917
 40
0.7498429745
 40
1.0
 40
1.0
 40
1.0
 40
1.0
 10
90.3360451881
 20
132.5834533562
 30
0.0
 10
90.1409783675
 20
132.583420681
 30
0.0
 10
89.74665763
 20
132.505527588
 30
0.0
 10
89.248380692
 20
132.1717481485
 30
0.0
 10
88.9143957753
 20
131.6734658599
 30
0.0
 10
88.836441576
 20
131.2789802165
 30
0.0
 10
88.8364021475
 20
131.0838103156
 30
0.0
  0
SPLINE
  5
628
100
AcDbEntity
  8
7_ALL_FEATURES
100
AcDbSpline
 62
9
  6
CONTINUOUS
 70
0
 71
3
 72
14
 73
10
 74
0
 42
0.0000001
 43
0.0000001
 44
0.0000000001
 40
0.0
 40
0.0
 40
0.0
 40
0.0
 40
0.396181096
 40
0.5799095367
 40
0.7390836922
 40
0.8639946581
 40
0.9479051349
 40
0.9885652596
 40
1.0
 40
1.0
 40
1.0
 40
1.0
 10
230.4423681897
 20
39.1792747662
 30
0.0
 10
230.4430635487
 20
39.0471751414
 30
0.0
 10
230.4441306962
 20
38.8538034567
 30
0.0
 10
230.4452906413
 20
38.6073960221
 30
0.0
 10
230.4459537772
 20
38.4513460866
 30
0.0
 10
230.445834532
 20
38.3288101269
 30
0.0
 10
230.445954755
 20
38.2452763821
 30
0.0
 10
230.4443838438
 20
38.2004361984
 30
0.0
 10
230.4437958566
 20
38.1826543331
 30
0.0
 10
230.4423718959
 20
38.179117453
 30
0.0
  0
SPLINE
  5
629
100
AcDbEntity
  8
7_ALL_FEATURES
100
AcDbSpline
 62
9
  6
CONTINUOUS
 70
0
 71
3
 72
15
 73
11
 74
0
 42
0.0000001
 43
0.0000001
 44
0.0000000001
 40
0.0
 40
0.0
 40
0.0
 40
0.0
 40
0.1161441522
 40
0.2411557449
 40
0.3702001666
 40
0.4999927322
 40
0.6297772775
 40
0.7588431166
 40
0.8838082038
 40
1.0
 40
1.0
 40
1.0
 40
1.0
 10
230.4423718959
 20
38.179117453
 30
0.0
 10
230.69418338
 20
38.1795350007
 30
0.0
 10
231.2176412675
 20
38.1793435613
 30
0.0
 10
232.0156063129
 20
38.3086793455
 30
0.0
 10
232.7919053859
 20
38.6328277737
 30
0.0
 10
233.4674576709
 20
39.15229446
 30
0.0
 10
233.9871016341
 20
39.8278142183
 30
0.0
 10
234.310953274
 20
40.6041650184
 30
0.0
 10
234.4405174224
 20
41.4020827098
 30
0.0
 10
234.4407358962
 20
41.9255663578
 30
0.0
 10
234.4407160228
 20
42.1774814843
 30
0.0
  0
SPLINE
  5
62A
100
AcDbEntity
  8
7_ALL_FEATURES
100
AcDbSpline
 62
9
  6
CONTINUOUS
 70
0
 71
3
 72
14
 73
10
 74
0
 42
0.0000001
 43
0.0000001
 44
0.0000000001
 40
0.0
 40
0.0
 40
0.0
 40
0.0
 40
0.3961810959
 40
0.5799095367
 40
0.7390836922
 40
0.8639946581
 40
0.9479051349
 40
0.9885652596
 40
1.0
 40
1.0
 40
1.0
 40
1.0
 10
233.4405807375
 20
175.3582609032
 30
0.0
 10
233.5726803623
 20
175.3589562622
 30
0.0
 10
233.766052047
 20
175.3600234097
 30
0.0
 10
234.0124594816
 20
175.3611833548
 30
0.0
 10
234.1685094171
 20
175.3618464906
 30
0.0
 10
234.2910453768
 20
175.3617272454
 30
0.0
 10
234.3745791216
 20
175.3618474685
 30
0.0
 10
234.4194193054
 20
175.3602765572
 30
0.0
 10
234.4372011706
 20
175.3596885701
 30
0.0
 10
234.4407380507
 20
175.3582646093
 30
0.0
  0
SPLINE
  5
62B
100
AcDbEntity
  8
7_ALL_FEATURES
100
AcDbSpline
 62
9
  6
CONTINUOUS
 70
0
 71
3
 72
15
 73
11
 74
0
 42
0.0000001
 43
0.0000001
 44
0.0000000001
 40
0.0
 40
0.0
 40
0.0
 40
0.0
 40
0.1161441521
 40
0.2411557449
 40
0.3702001666
 40
0.4999927322
 40
0.6297772775
 40
0.7588431166
 40
0.8838082038
 40
1.0
 40
1.0
 40
1.0
 40
1.0
 10
234.4407380507
 20
175.3582646093
 30
0.0
 10
234.4403205031
 20
175.6100760934
 30
0.0
 10
234.4405119425
 20
176.1335339808
 30
0.0
 10
234.311176158
 20
176.9314990261
 30
0.0
 10
233.9870277301
 20
177.7077980994
 30
0.0
 10
233.4675610436
 20
178.3833503843
 30
0.0
 10
232.7920412853
 20
178.9029943475
 30
0.0
 10
232.0156904852
 20
179.2268459874
 30
0.0
 10
231.2177727938
 20
179.3564101358
 30
0.0
 10
230.6942891458
 20
179.3566286097
 30
0.0
 10
230.4423740194
 20
179.3566087362
 30
0.0
  0
SPLINE
  5
62C
100
AcDbEntity
  8
7_ALL_FEATURES
100
AcDbSpline
 62
9
  6
CONTINUOUS
 70
0
 71
3
 72
14
 73
10
 74
0
 42
0.0000001
 43
0.0000001
 44
0.0000000001
 40
0.0
 40
0.0
 40
0.0
 40
0.0
 40
0.3961810959
 40
0.5799095366
 40
0.7390836921
 40
0.8639946581
 40
0.9479051349
 40
0.9885652596
 40
1.0
 40
1.0
 40
1.0
 40
1.0
 10
80.3633820527
 20
42.177487314
 30
0.0
 10
80.2312824279
 20
42.176791955
 30
0.0
 10
80.0379107432
 20
42.1757248074
 30
0.0
 10
79.7915033085
 20
42.1745648624
 30
0.0
 10
79.6354533731
 20
42.1739017265
 30
0.0
 10
79.5129174133
 20
42.1740209717
 30
0.0
 10
79.4293836685
 20
42.1739007486
 30
0.0
 10
79.3845434847
 20
42.1754716598
 30
0.0
 10
79.3667616195
 20
42.176059647
 30
0.0
 10
79.3632247394
 20
42.1774836078
 30
0.0
  0
SPLINE
  5
62D
100
AcDbEntity
  8
7_ALL_FEATURES
100
AcDbSpline
 62
9
  6
CONTINUOUS
 70
0
 71
3
 72
15
 73
11
 74
0
 42
0.0000001
 43
0.0000001
 44
0.0000000001
 40
0.0
 40
0.0
 40
0.0
 40
0.0
 40
0.1161441522
 40
0.2411557449
 40
0.3702001666
 40
0.4999927322
 40
0.6297772775
 40
0.7588431166
 40
0.8838082038
 40
1.0
 40
1.0
 40
1.0
 40
1.0
 10
79.3632247394
 20
42.1774836078
 30
0.0
 10
79.3636422868
 20
41.9256721237
 30
0.0
 10
79.3634508474
 20
41.4022142362
 30
0.0
 10
79.4927866319
 20
40.6042491909
 30
0.0
 10
79.8169350602
 20
39.8279501177
 30
0.0
 10
80.3364017465
 20
39.1523978328
 30
0.0
 10
81.0119215049
 20
38.6327538696
 30
0.0
 10
81.788272305
 20
38.3089022297
 30
0.0
 10
82.5861899964
 20
38.1793380813
 30
0.0
 10
83.1096736444
 20
38.1791196074
 30
0.0
 10
83.3615887708
 20
38.1791394809
 30
0.0
  0
SPLINE
  5
62E
100
AcDbEntity
  8
7_ALL_FEATURES
100
AcDbSpline
 62
9
  6
CONTINUOUS
 70
0
 71
3
 72
14
 73
10
 74
0
 42
0.0000001
 43
0.0000001
 44
0.0000000001
 40
0.0
 40
0.0
 40
0.0
 40
0.0
 40
0.3961330652
 40
0.5798422709
 40
0.7390092265
 40
0.8639302764
 40
0.9478671653
 40
0.9885558036
 40
1.0
 40
1.0
 40
1.0
 40
1.0
 10
83.3615957261
 20
178.3561651306
 30
0.0
 10
83.360947733
 20
178.4882840912
 30
0.0
 10
83.359952811
 20
178.6816837296
 30
0.0
 10
83.3588719595
 20
178.9281356147
 30
0.0
 10
83.3582502267
 20
179.0842137176
 30
0.0
 10
83.3583677571
 20
179.206812702
 30
0.0
 10
83.3582396273
 20
179.2903475062
 30
0.0
 10
83.3597258304
 20
179.3352837446
 30
0.0
 10
83.3602541698
 20
179.3530327321
 30
0.0
 10
83.3615887768
 20
179.3566087361
 30
0.0
  0
SPLINE
  5
62F
100
AcDbEntity
  8
7_ALL_FEATURES
100
AcDbSpline
 62
9
  6
CONTINUOUS
 70
0
 71
3
 72
15
 73
11
 74
0
 42
0.0000001
 43
0.0000001
 44
0.0000000001
 40
0.0
 40
0.0
 40
0.0
 40
0.0
 40
0.1161917963
 40
0.2411568836
 40
0.3702227227
 40
0.5000072682
 40
0.6297998338
 40
0.7588442556
 40
0.8838558482
 40
1.0
 40
1.0
 40
1.0
 40
1.0
 10
83.3615887768
 20
179.3566087361
 30
0.0
 10
83.1096736489
 20
179.3566286095
 30
0.0
 10
82.5861899978
 20
179.3564101362
 30
0.0
 10
81.7882723017
 20
179.2268459867
 30
0.0
 10
81.0119214972
 20
178.9029943436
 30
0.0
 10
80.3364017366
 20
178.3833503748
 30
0.0
 10
79.8169350498
 20
177.7077980834
 30
0.0
 10
79.4927866265
 20
176.9314990032
 30
0.0
 10
79.3634508461
 20
176.133533954
 30
0.0
 10
79.3636422873
 20
175.610076065
 30
0.0
 10
79.3632247396
 20
175.3582645802
 30
0.0
  0
SPLINE
  5
630
100
AcDbEntity
  8
7_ALL_FEATURES
100
AcDbSpline
 62
9
  6
CONTINUOUS
 70
0
 71
3
 72
14
 73
10
 74
0
 42
0.0000001
 43
0.0000001
 44
0.0000000001
 40
0.0
 40
0.0
 40
0.0
 40
0.0
 40
0.0113648702
 40
0.0519532848
 40
0.1358267794
 40
0.2607379143
 40
0.4199406786
 40
0.6037181689
 40
1.0
 40
1.0
 40
1.0
 40
1.0
 10
79.362540813
 20
175.3582643236
 30
0.0
 10
79.3659997245
 20
175.3598086041
 30
0.0
 10
79.3838557895
 20
175.3601758007
 30
0.0
 10
79.4284721295
 20
175.3619147624
 30
0.0
 10
79.5120388604
 20
175.3616843162
 30
0.0
 10
79.634475068
 20
175.361871863
 30
0.0
 10
79.7905090263
 20
175.3611781888
 30
0.0
 10
80.0368716179
 20
175.3600174427
 30
0.0
 10
80.2302214495
 20
175.3590122429
 30
0.0
 10
80.3623028401
 20
175.3582665824
 30
0.0
  0
SPLINE
  5
631
100
AcDbEntity
  8
7_ALL_FEATURES
100
AcDbSpline
 62
9
  6
CONTINUOUS
 70
0
 71
3
 72
9
 73
5
 74
0
 42
0.0000001
 43
0.0000001
 44
0.0000000001
 40
0.0
 40
0.0
 40
0.0
 40
0.0
 40
0.2420647941
 40
1.0
 40
1.0
 40
1.0
 40
1.0
 10
78.4187034552
 20
176.3021039403
 30
0.0
 10
78.4187034552
 20
176.3729649325
 30
0.0
 10
78.4186604538
 20
176.6656243368
 30
0.0
 10
78.427437203
 20
176.9589037345
 30
0.0
 10
78.4505446454
 20
177.1795718221
 30
0.0
  0
SPLINE
  5
632
100
AcDbEntity
  8
7_ALL_FEATURES
100
AcDbSpline
 62
9
  6
CONTINUOUS
 70
0
 71
3
 72
9
 73
5
 74
0
 42
0.0000001
 43
0.0000001
 44
0.0000000001
 40
0.0
 40
0.0
 40
0.0
 40
0.0
 40
0.2475036935
 40
1.0
 40
1.0
 40
1.0
 40
1.0
 10
78.4505446454
 20
177.1795718221
 30
0.0
 10
78.4555480545
 20
177.2273526499
 30
0.0
 10
78.4786901848
 20
177.4200714607
 30
0.0
 10
78.5145039998
 20
177.6113855006
 30
0.0
 10
78.5499476176
 20
177.7530843759
 30
0.0
  0
SPLINE
  5
633
100
AcDbEntity
  8
7_ALL_FEATURES
100
AcDbSpline
 62
9
  6
CONTINUOUS
 70
0
 71
3
 72
8
 73
4
 74
0
 42
0.0000001
 43
0.0000001
 44
0.0000000001
 40
0.0
 40
0.0
 40
0.0
 40
0.0
 40
1.0
 40
1.0
 40
1.0
 40
1.0
 10
79.7524456412
 20
179.5924252626
 30
0.0
 10
79.9905700412
 20
179.7731831407
 30
0.0
 10
80.2564679369
 20
179.9216311844
 30
0.0
 10
80.5345311134
 20
180.0314378793
 30
0.0
  0
SPLINE
  5
634
100
AcDbEntity
  8
7_ALL_FEATURES
100
AcDbSpline
 62
9
  6
CONTINUOUS
 70
0
 71
3
 72
9
 73
5
 74
0
 42
0.0000001
 43
0.0000001
 44
0.0000000001
 40
0.0
 40
0.0
 40
0.0
 40
0.0
 40
0.2523985566
 40
1.0
 40
1.0
 40
1.0
 40
1.0
 10
80.862395948
 20
180.1421584989
 30
0.0
 10
80.9154788889
 20
180.1571608823
 30
0.0
 10
81.1272027409
 20
180.2115886465
 30
0.0
 10
81.3435175195
 20
180.247367432
 30
0.0
 10
81.5058904653
 20
180.2655679003
 30
0.0
  0
SPLINE
  5
635
100
AcDbEntity
  8
7_ALL_FEATURES
100
AcDbSpline
 62
9
  6
CONTINUOUS
 70
0
 71
3
 72
9
 73
5
 74
0
 42
0.0000001
 43
0.0000001
 44
0.0000000001
 40
0.0
 40
0.0
 40
0.0
 40
0.0
 40
0.2576069451
 40
1.0
 40
1.0
 40
1.0
 40
1.0
 10
81.5058904653
 20
180.2655679003
 30
0.0
 10
81.5837946597
 20
180.2743002221
 30
0.0
 10
81.887130511
 20
180.3005024245
 30
0.0
 10
82.1918347906
 20
180.3011520485
 30
0.0
 10
82.4177515639
 20
180.3011520485
 30
0.0
  0
SPLINE
  5
636
100
AcDbEntity
  8
7_ALL_FEATURES
100
AcDbSpline
 62
9
  6
CONTINUOUS
 70
0
 71
3
 72
14
 73
10
 74
0
 42
0.0000001
 43
0.0000001
 44
0.0000000001
 40
0.0
 40
0.0
 40
0.0
 40
0.0
 40
0.0113482426
 40
0.0519350812
 40
0.135810301
 40
0.2607241423
 40
0.4199298886
 40
0.6037109403
 40
1.0
 40
1.0
 40
1.0
 40
1.0
 10
230.4423736767
 20
179.3573146907
 30
0.0
 10
230.4438264516
 20
179.3538224474
 30
0.0
 10
230.4441313717
 20
179.3360317059
 30
0.0
 10
230.445794096
 20
179.2913498641
 30
0.0
 10
230.4455493021
 20
179.2078330294
 30
0.0
 10
230.4457380135
 20
179.0853732267
 30
0.0
 10
230.4450858374
 20
178.9293484446
 30
0.0
 10
230.4440062408
 20
178.6829821172
 30
0.0
 10
230.4430686217
 20
178.489633984
 30
0.0
 10
230.4423738689
 20
178.3575526636
 30
0.0
  0
SPLINE
  5
637
100
AcDbEntity
  8
7_ALL_FEATURES
100
AcDbSpline
 62
9
  6
CONTINUOUS
 70
0
 71
3
 72
14
 73
10
 74
0
 42
0.0000001
 43
0.0000001
 44
0.0000000001
 40
0.0
 40
0.0
 40
0.0
 40
0.0
 40
0.0113482426
 40
0.0519350812
 40
0.135810301
 40
0.2607241423
 40
0.4199298886
 40
0.6037109403
 40
1.0
 40
1.0
 40
1.0
 40
1.0
 10
234.4414219773
 20
42.1774818269
 30
0.0
 10
234.4379297339
 20
42.1760290521
 30
0.0
 10
234.4201389924
 20
42.175724132
 30
0.0
 10
234.3754571507
 20
42.1740614077
 30
0.0
 10
234.291940316
 20
42.1743062015
 30
0.0
 10
234.1694805133
 20
42.1741174901
 30
0.0
 10
234.0134557312
 20
42.1747696662
 30
0.0
 10
233.7670894037
 20
42.1758492629
 30
0.0
 10
233.5737412706
 20
42.1767868819
 30
0.0
 10
233.4416599502
 20
42.1774816347
 30
0.0
  0
SPLINE
  5
638
100
AcDbEntity
  8
7_ALL_FEATURES
100
AcDbSpline
 62
9
  6
CONTINUOUS
 70
0
 71
3
 72
14
 73
10
 74
0
 42
0.0000001
 43
0.0000001
 44
0.0000000001
 40
0.0
 40
0.0
 40
0.0
 40
0.0
 40
0.0113482426
 40
0.0519350812
 40
0.135810301
 40
0.2607241423
 40
0.4199298886
 40
0.6037109403
 40
1.0
 40
1.0
 40
1.0
 40
1.0
 10
83.3615891135
 20
38.1784335264
 30
0.0
 10
83.3601363386
 20
38.1819257697
 30
0.0
 10
83.3598314185
 20
38.1997165112
 30
0.0
 10
83.3581686942
 20
38.244398353
 30
0.0
 10
83.3584134881
 20
38.3279151877
 30
0.0
 10
83.3582247767
 20
38.4503749904
 30
0.0
 10
83.3588769528
 20
38.6063997725
 30
0.0
 10
83.3599565495
 20
38.8527660999
 30
0.0
 10
83.3608941685
 20
39.0461142331
 30
0.0
 10
83.3615889213
 20
39.1781955535
 30
0.0
  0
SPLINE
  5
639
100
AcDbEntity
  8
7_ALL_FEATURES
100
AcDbSpline
 62
9
  6
CONTINUOUS
 70
0
 71
3
 72
9
 73
5
 74
0
 42
0.0000001
 43
0.0000001
 44
0.0000000001
 40
0.0
 40
0.0
 40
0.0
 40
0.0
 40
0.2418171244
 40
1.0
 40
1.0
 40
1.0
 40
1.0
 10
82.4177515652
 20
37.2345961686
 30
0.0
 10
82.346194263
 20
37.2345961686
 30
0.0
 10
82.0503551848
 20
37.2347016914
 30
0.0
 10
81.7539027254
 20
37.2441204924
 30
0.0
 10
81.5307976338
 20
37.2677947851
 30
0.0
  0
SPLINE
  5
63A
100
AcDbEntity
  8
7_ALL_FEATURES
100
AcDbSpline
 62
9
  6
CONTINUOUS
 70
0
 71
3
 72
9
 73
5
 74
0
 42
0.0000001
 43
0.0000001
 44
0.0000000001
 40
0.0
 40
0.0
 40
0.0
 40
0.0
 40
0.2474503034
 40
1.0
 40
1.0
 40
1.0
 40
1.0
 10
81.5307976338
 20
37.2677947851
 30
0.0
 10
81.4803502115
 20
37.2731478994
 30
0.0
 10
81.2768564313
 20
37.2980051645
 30
0.0
 10
81.0749286407
 20
37.3370112424
 30
0.0
 10
80.9256815679
 20
37.3761072784
 30
0.0
  0
SPLINE
  5
63B
100
AcDbEntity
  8
7_ALL_FEATURES
100
AcDbSpline
 62
9
  6
CONTINUOUS
 70
0
 71
3
 72
8
 73
4
 74
0
 42
0.0000001
 43
0.0000001
 44
0.0000000001
 40
0.0
 40
0.0
 40
0.0
 40
0.0
 40
1.0
 40
1.0
 40
1.0
 40
1.0
 10
79.0221607744
 20
38.7152725396
 30
0.0
 10
78.8872684758
 20
38.9151353994
 30
0.0
 10
78.7744398697
 20
39.1315065249
 30
0.0
 10
78.6862603352
 20
39.3559290387
 30
0.0
  0
SPLINE
  5
63C
100
AcDbEntity
  8
7_ALL_FEATURES
100
AcDbSpline
 62
9
  6
CONTINUOUS
 70
0
 71
3
 72
9
 73
5
 74
0
 42
0.0000001
 43
0.0000001
 44
0.0000000001
 40
0.0
 40
0.0
 40
0.0
 40
0.0
 40
0.2523278062
 40
1.0
 40
1.0
 40
1.0
 40
1.0
 10
78.5695682527
 20
39.7075454202
 30
0.0
 10
78.555671112
 20
39.7583979765
 30
0.0
 10
78.505126866
 20
39.9611639099
 30
0.0
 10
78.4714790405
 20
40.1679742084
 30
0.0
 10
78.4541265957
 20
40.3232139476
 30
0.0
  0
SPLINE
  5
63D
100
AcDbEntity
  8
7_ALL_FEATURES
100
AcDbSpline
 62
9
  6
CONTINUOUS
 70
0
 71
3
 72
9
 73
5
 74
0
 42
0.0000001
 43
0.0000001
 44
0.0000000001
 40
0.0
 40
0.0
 40
0.0
 40
0.0
 40
0.2576019628
 40
1.0
 40
1.0
 40
1.0
 40
1.0
 10
78.4541265957
 20
40.3232139476
 30
0.0
 10
78.4454321826
 20
40.400996557
 30
0.0
 10
78.4193484786
 20
40.7038602451
 30
0.0
 10
78.4187034552
 20
41.0080819999
 30
0.0
 10
78.4187034552
 20
41.2336442773
 30
0.0
  0
SPLINE
  5
63E
100
AcDbEntity
  8
7_ALL_FEATURES
100
AcDbSpline
 62
9
  6
CONTINUOUS
 70
0
 71
3
 72
9
 73
5
 74
0
 42
0.0000001
 43
0.0000001
 44
0.0000000001
 40
0.0
 40
0.0
 40
0.0
 40
0.0
 40
0.2418171242
 40
1.0
 40
1.0
 40
1.0
 40
1.0
 10
235.385259335
 20
41.2336442787
 30
0.0
 10
235.385259335
 20
41.1620869749
 30
0.0
 10
235.3851538131
 20
40.8662478902
 30
0.0
 10
235.3757350138
 20
40.569795424
 30
0.0
 10
235.3520607196
 20
40.3466903275
 30
0.0
  0
SPLINE
  5
63F
100
AcDbEntity
  8
7_ALL_FEATURES
100
AcDbSpline
 62
9
  6
CONTINUOUS
 70
0
 71
3
 72
9
 73
5
 74
0
 42
0.0000001
 43
0.0000001
 44
0.0000000001
 40
0.0
 40
0.0
 40
0.0
 40
0.0
 40
0.2474503038
 40
1.0
 40
1.0
 40
1.0
 40
1.0
 10
235.3520607196
 20
40.3466903275
 30
0.0
 10
235.3467076054
 20
40.2962429076
 30
0.0
 10
235.3218503404
 20
40.0927491372
 30
0.0
 10
235.2828442631
 20
39.8908213566
 30
0.0
 10
235.2437482287
 20
39.7415742912
 30
0.0
  0
SPLINE
  5
640
100
AcDbEntity
  8
7_ALL_FEATURES
100
AcDbSpline
 62
9
  6
CONTINUOUS
 70
0
 71
3
 72
8
 73
4
 74
0
 42
0.0000001
 43
0.0000001
 44
0.0000000001
 40
0.0
 40
0.0
 40
0.0
 40
0.0
 40
1.0
 40
1.0
 40
1.0
 40
1.0
 10
233.9045829451
 20
37.8380534749
 30
0.0
 10
233.7047200907
 20
37.7031611822
 30
0.0
 10
233.488348972
 20
37.5903325806
 30
0.0
 10
233.2639264655
 20
37.5021530489
 30
0.0
  0
SPLINE
  5
641
100
AcDbEntity
  8
7_ALL_FEATURES
100
AcDbSpline
 62
9
  6
CONTINUOUS
 70
0
 71
3
 72
9
 73
5
 74
0
 42
0.0000001
 43
0.0000001
 44
0.0000000001
 40
0.0
 40
0.0
 40
0.0
 40
0.0
 40
0.2523278062
 40
1.0
 40
1.0
 40
1.0
 40
1.0
 10
232.912310081
 20
37.3854609654
 30
0.0
 10
232.861457525
 20
37.3715638249
 30
0.0
 10
232.6586915924
 20
37.3210195792
 30
0.0
 10
232.4518812948
 20
37.2873717538
 30
0.0
 10
232.2966415562
 20
37.2700193092
 30
0.0
  0
SPLINE
  5
642
100
AcDbEntity
  8
7_ALL_FEATURES
100
AcDbSpline
 62
9
  6
CONTINUOUS
 70
0
 71
3
 72
9
 73
5
 74
0
 42
0.0000001
 43
0.0000001
 44
0.0000000001
 40
0.0
 40
0.0
 40
0.0
 40
0.0
 40
0.2576019628
 40
1.0
 40
1.0
 40
1.0
 40
1.0
 10
232.2966415562
 20
37.2700193092
 30
0.0
 10
232.2188589468
 20
37.2613248961
 30
0.0
 10
231.9159952586
 20
37.235241192
 30
0.0
 10
231.6117735038
 20
37.2345961686
 30
0.0
 10
231.3862112264
 20
37.2345961686
 30
0.0
  0
SPLINE
  5
643
100
AcDbEntity
  8
7_ALL_FEATURES
100
AcDbSpline
 62
9
  6
CONTINUOUS
 70
0
 71
3
 72
9
 73
5
 74
0
 42
0.0000001
 43
0.0000001
 44
0.0000000001
 40
0.0
 40
0.0
 40
0.0
 40
0.0
 40
0.2418171242
 40
1.0
 40
1.0
 40
1.0
 40
1.0
 10
231.386211225
 20
180.3011520485
 30
0.0
 10
231.4577685281
 20
180.3011520485
 30
0.0
 10
231.7536076101
 20
180.3010465262
 30
0.0
 10
232.0500600734
 20
180.2916277263
 30
0.0
 10
232.273165168
 20
180.2679534331
 30
0.0
  0
SPLINE
  5
644
100
AcDbEntity
  8
7_ALL_FEATURES
100
AcDbSpline
 62
9
  6
CONTINUOUS
 70
0
 71
3
 72
9
 73
5
 74
0
 42
0.0000001
 43
0.0000001
 44
0.0000000001
 40
0.0
 40
0.0
 40
0.0
 40
0.0
 40
0.2474503036
 40
1.0
 40
1.0
 40
1.0
 40
1.0
 10
232.273165168
 20
180.2679534331
 30
0.0
 10
232.3236125869
 20
180.2626003191
 30
0.0
 10
232.5271063534
 20
180.2377430555
 30
0.0
 10
232.7290341304
 20
180.1987369808
 30
0.0
 10
232.8782811933
 20
180.1596409484
 30
0.0
  0
SPLINE
  5
645
100
AcDbEntity
  8
7_ALL_FEATURES
100
AcDbSpline
 62
9
  6
CONTINUOUS
 70
0
 71
3
 72
8
 73
4
 74
0
 42
0.0000001
 43
0.0000001
 44
0.0000000001
 40
0.0
 40
0.0
 40
0.0
 40
0.0
 40
1.0
 40
1.0
 40
1.0
 40
1.0
 10
234.7818020276
 20
178.8204756604
 30
0.0
 10
234.9166943211
 20
178.6206128053
 30
0.0
 10
235.0295229231
 20
178.4042416857
 30
0.0
 10
235.1177024551
 20
178.1798191783
 30
0.0
  0
SPLINE
  5
646
100
AcDbEntity
  8
7_ALL_FEATURES
100
AcDbSpline
 62
9
  6
CONTINUOUS
 70
0
 71
3
 72
9
 73
5
 74
0
 42
0.0000001
 43
0.0000001
 44
0.0000000001
 40
0.0
 40
0.0
 40
0.0
 40
0.0
 40
0.2523278062
 40
1.0
 40
1.0
 40
1.0
 40
1.0
 10
235.2343945376
 20
177.8282027968
 30
0.0
 10
235.2482916782
 20
177.7773502405
 30
0.0
 10
235.2988359242
 20
177.5745843071
 30
0.0
 10
235.3324837498
 20
177.3677740085
 30
0.0
 10
235.3498361945
 20
177.2125342692
 30
0.0
  0
SPLINE
  5
647
100
AcDbEntity
  8
7_ALL_FEATURES
100
AcDbSpline
 62
9
  6
CONTINUOUS
 70
0
 71
3
 72
9
 73
5
 74
0
 42
0.0000001
 43
0.0000001
 44
0.0000000001
 40
0.0
 40
0.0
 40
0.0
 40
0.0
 40
0.2576019628
 40
1.0
 40
1.0
 40
1.0
 40
1.0
 10
235.3498361945
 20
177.2125342692
 30
0.0
 10
235.3585306076
 20
177.1347516599
 30
0.0
 10
235.3846143116
 20
176.8318879718
 30
0.0
 10
235.385259335
 20
176.5276662172
 30
0.0
 10
235.385259335
 20
176.3021039398
 30
0.0
  0
SPLINE
  5
648
100
AcDbEntity
  8
7_ALL_FEATURES
100
AcDbSpline
 62
9
  6
CONTINUOUS
 70
0
 71
3
 72
11
 73
7
 74
0
 42
0.0000001
 43
0.0000001
 44
0.0000000001
 40
0.0
 40
0.0
 40
0.0
 40
0.0
 40
0.2500650327
 40
0.4999688829
 40
0.7498654648
 40
1.0
 40
1.0
 40
1.0
 40
1.0
 10
224.4676796292
 20
131.0838103156
 30
0.0
 10
224.4676981476
 20
131.2138864463
 30
0.0
 10
224.4158054071
 20
131.4768418084
 30
0.0
 10
224.1932657239
 20
131.8090818644
 30
0.0
 10
223.8610214256
 20
132.0316823663
 30
0.0
 10
223.5980298859
 20
132.0835912367
 30
0.0
 10
223.4679176021
 20
132.0835723427
 30
0.0
  0
SPLINE
  5
649
100
AcDbEntity
  8
7_ALL_FEATURES
100
AcDbSpline
 62
9
  6
CONTINUOUS
 70
0
 71
3
 72
11
 73
7
 74
0
 42
0.0000001
 43
0.0000001
 44
0.0000000001
 40
0.0
 40
0.0
 40
0.0
 40
0.0
 40
0.2500215153
 40
0.4998989535
 40
0.7498463146
 40
1.0
 40
1.0
 40
1.0
 40
1.0
 10
90.3360451881
 20
132.0835723427
 30
0.0
 10
90.2059917167
 20
132.0835917874
 30
0.0
 10
89.9430751627
 20
132.0317131031
 30
0.0
 10
89.6108213339
 20
131.809216216
 30
0.0
 10
89.3881884467
 20
131.4769592035
 30
0.0
 10
89.3362660852
 20
131.2139325381
 30
0.0
 10
89.336283161
 20
131.0838103156
 30
0.0
  0
SPLINE
  5
64A
100
AcDbEntity
  8
7_ALL_FEATURES
100
AcDbSpline
 62
7
  6
CONTINUOUS
 70
0
 71
3
 72
11
 73
7
 74
0
 42
0.0000001
 43
0.0000001
 44
0.0000000001
 40
0.0
 40
0.0
 40
0.0
 40
0.0
 40
0.2946711194
 40
0.5893422387
 40
0.8840133581
 40
1.0
 40
1.0
 40
1.0
 40
1.0
 10
234.4414219773
 20
272.5075698564
 30
0.0
 10
234.4385761006
 20
272.6379945384
 30
0.0
 10
234.4239724471
 20
272.9035747083
 30
0.0
 10
234.2057332318
 20
273.2666822633
 30
0.0
 10
233.9122905252
 20
273.4344475728
 30
0.0
 10
233.7314166166
 20
273.4683383847
 30
0.0
 10
233.6799955778
 20
273.4745564917
 30
0.0
  0
SPLINE
  5
64B
100
AcDbEntity
  8
7_ALL_FEATURES
100
AcDbSpline
 62
7
  6
CONTINUOUS
 70
0
 71
3
 72
11
 73
7
 74
0
 42
0.0000001
 43
0.0000001
 44
0.0000000001
 40
0.0
 40
0.0
 40
0.0
 40
0.0
 40
0.2505212901
 40
0.5003536204
 40
0.7501859506
 40
1.0
 40
1.0
 40
1.0
 40
1.0
 10
80.3633820527
 20
273.4857548715
 30
0.0
 10
80.2325802441
 20
273.4857790074
 30
0.0
 10
79.9663496431
 20
273.4771416769
 30
0.0
 10
79.5982295584
 20
273.2666822633
 30
0.0
 10
79.3799956661
 20
272.9035835648
 30
0.0
 10
79.3653877584
 20
272.6380139715
 30
0.0
 10
79.3625414378
 20
272.5075984869
 30
0.0
  0
SPLINE
  5
64C
100
AcDbEntity
  8
7_ALL_FEATURES
100
AcDbSpline
 62
7
  6
CONTINUOUS
 70
0
 71
3
 72
8
 73
4
 74
0
 42
0.0000001
 43
0.0000001
 44
0.0000000001
 40
0.0
 40
0.0
 40
0.0
 40
0.0
 40
1.0
 40
1.0
 40
1.0
 40
1.0
 10
79.1685249755
 20
228.4857549713
 30
0.0
 10
78.6574959219
 20
228.4857549713
 30
0.0
 10
78.4075554151
 20
228.7412086926
 30
0.0
 10
78.4187034552
 20
229.2521161351
 30
0.0
  0
SPLINE
  5
64D
100
AcDbEntity
  8
7_ALL_FEATURES
100
AcDbSpline
 62
7
  6
CONTINUOUS
 70
0
 71
3
 72
8
 73
4
 74
0
 42
0.0000001
 43
0.0000001
 44
0.0000000001
 40
0.0
 40
0.0
 40
0.0
 40
0.0
 40
1.0
 40
1.0
 40
1.0
 40
1.0
 10
234.6354378147
 20
228.4857549713
 30
0.0
 10
235.1464668683
 20
228.4857549713
 30
0.0
 10
235.3964073751
 20
228.7412086926
 30
0.0
 10
235.385259335
 20
229.2521161351
 30
0.0
  0
SPLINE
  5
64E
100
AcDbEntity
  8
7_ALL_FEATURES
100
AcDbSpline
 62
9
  6
CONTINUOUS
 70
0
 71
3
 72
9
 73
5
 74
0
 42
0.0000001
 43
0.0000001
 44
0.0000000001
 40
0.0
 40
0.0
 40
0.0
 40
0.0
 40
0.4980155221
 40
1.0
 40
1.0
 40
1.0
 40
1.0
 10
228.3198256406
 20
228.4857549713
 30
0.0
 10
228.3944253257
 20
228.4857549713
 30
0.0
 10
228.5501096014
 20
228.4232171168
 30
0.0
 10
228.6143849193
 20
228.268777079
 30
0.0
 10
228.6163310033
 20
228.1936080558
 30
0.0
  0
SPLINE
  5
64F
100
AcDbEntity
  8
7_ALL_FEATURES
100
AcDbSpline
 62
9
  6
CONTINUOUS
 70
0
 71
3
 72
8
 73
4
 74
0
 42
0.0000001
 43
0.0000001
 44
0.0000000001
 40
0.0
 40
0.0
 40
0.0
 40
0.0
 40
1.0
 40
1.0
 40
1.0
 40
1.0
 10
228.6094077719
 20
228.2021699801
 30
0.0
 10
228.6095019347
 20
228.1985009221
 30
0.0
 10
228.6126607375
 20
228.1936095638
 30
0.0
 10
228.6163310033
 20
228.1936080558
 30
0.0
  0
SPLINE
  5
650
100
AcDbEntity
  8
7_ALL_FEATURES
100
AcDbSpline
 62
9
  6
CONTINUOUS
 70
0
 71
3
 72
12
 73
8
 74
0
 42
0.0000001
 43
0.0000001
 44
0.0000000001
 40
0.0
 40
0.0
 40
0.0
 40
0.0
 40
0.0409160256
 40
0.1226650321
 40
0.2503090886
 40
0.6071279395
 40
1.0
 40
1.0
 40
1.0
 40
1.0
 10
235.385259335
 20
229.2521161351
 30
0.0
 10
235.3307403022
 20
229.2539149729
 30
0.0
 10
235.1672661344
 20
229.2576115816
 30
0.0
 10
234.8335745758
 20
229.2582426751
 30
0.0
 10
234.0788084987
 20
229.2597110179
 30
0.0
 10
232.9092806423
 20
229.2560157242
 30
0.0
 10
231.909924023
 20
229.2521161351
 30
0.0
 10
231.3862112264
 20
229.2521161351
 30
0.0
  0
SPLINE
  5
651
100
AcDbEntity
  8
7_ALL_FEATURES
100
AcDbSpline
 62
9
  6
CONTINUOUS
 70
0
 71
3
 72
12
 73
8
 74
0
 42
0.0000001
 43
0.0000001
 44
0.0000000001
 40
0.0
 40
0.0
 40
0.0
 40
0.0
 40
0.3931879225
 40
0.7502278294
 40
0.8776768043
 40
0.9591052256
 40
1.0
 40
1.0
 40
1.0
 40
1.0
 10
82.4177515652
 20
229.2521161351
 30
0.0
 10
81.8936177199
 20
229.2521161351
 30
0.0
 10
80.893545381
 20
229.256023746
 30
0.0
 10
79.7235618987
 20
229.2597098715
 30
0.0
 10
78.9691884485
 20
229.2582446782
 30
0.0
 10
78.6362128659
 20
229.2575963372
 30
0.0
 10
78.4731941929
 20
229.2539127558
 30
0.0
 10
78.4187034552
 20
229.2521161351
 30
0.0
  0
SPLINE
  5
652
100
AcDbEntity
  8
7_ALL_FEATURES
100
AcDbSpline
 62
9
  6
CONTINUOUS
 70
0
 71
3
 72
17
 73
13
 74
0
 42
0.0000001
 43
0.0000001
 44
0.0000000001
 40
0.0
 40
0.0
 40
0.0
 40
0.0
 40
0.2042087618
 40
0.4039777773
 40
0.5899967279
 40
0.7499693989
 40
0.8741282976
 40
0.9205193957
 40
0.9557872745
 40
0.9795559187
 40
0.9928882278
 40
1.0
 40
1.0
 40
1.0
 40
1.0
 10
83.3615891135
 20
272.5075698564
 30
0.0
 10
83.3609846759
 20
272.5741586794
 30
0.0
 10
83.3599237429
 20
272.7058864738
 30
0.0
 10
83.3588040952
 20
272.8982933777
 30
0.0
 10
83.358273316
 20
273.0762152992
 30
0.0
 10
83.3581680076
 20
273.229669967
 30
0.0
 10
83.3587805237
 20
273.3371290333
 30
0.0
 10
83.3589865428
 20
273.404712847
 30
0.0
 10
83.3600023953
 20
273.4382248672
 30
0.0
 10
83.3591268834
 20
273.4636602797
 30
0.0
 10
83.3618217246
 20
273.4748669401
 30
0.0
 10
83.3592698041
 20
273.4857549713
 30
0.0
 10
83.3615889213
 20
273.4857549713
 30
0.0
  0
SPLINE
  5
653
100
AcDbEntity
  8
7_ALL_FEATURES
100
AcDbSpline
 62
9
  6
CONTINUOUS
 70
0
 71
3
 72
8
 73
4
 74
0
 42
0.0000001
 43
0.0000001
 44
0.0000000001
 40
0.0
 40
0.0
 40
0.0
 40
0.0
 40
1.0
 40
1.0
 40
1.0
 40
1.0
 10
85.4841371496
 20
228.4857549713
 30
0.0
 10
85.445644122
 20
228.4857549713
 30
0.0
 10
85.4064868559
 20
228.4776971237
 30
0.0
 10
85.370933629
 20
228.4629430994
 30
0.0
  0
SPLINE
  5
654
100
AcDbEntity
  8
7_ALL_FEATURES
100
AcDbSpline
 62
9
  6
CONTINUOUS
 70
0
 71
3
 72
8
 73
4
 74
0
 42
0.0000001
 43
0.0000001
 44
0.0000000001
 40
0.0
 40
0.0
 40
0.0
 40
0.0
 40
1.0
 40
1.0
 40
1.0
 40
1.0
 10
85.2709788245
 20
228.3944175552
 30
0.0
 10
85.2208730589
 20
228.3420556798
 30
0.0
 10
85.1895074701
 20
228.2660569037
 30
0.0
 10
85.1876317869
 20
228.1936080558
 30
0.0
  0
SPLINE
  5
655
100
AcDbEntity
  8
7_ALL_FEATURES
100
AcDbSpline
 62
9
  6
CONTINUOUS
 70
0
 71
3
 72
15
 73
11
 74
0
 42
0.0000001
 43
0.0000001
 44
0.0000000001
 40
0.0
 40
0.0
 40
0.0
 40
0.0
 40
0.0049734851
 40
0.0171654321
 40
0.039695236
 40
0.0743294309
 40
0.1212635001
 40
0.2499357954
 40
0.6107695057
 40
1.0
 40
1.0
 40
1.0
 40
1.0
 10
79.3632247394
 20
272.5075835739
 30
0.0
 10
79.3698520544
 20
272.5077255614
 30
0.0
 10
79.3925940631
 20
272.5107198444
 30
0.0
 10
79.4455771138
 20
272.5106975882
 30
0.0
 10
79.5379415663
 20
272.5134235352
 30
0.0
 10
79.6767098765
 20
272.5144226054
 30
0.0
 10
79.9569039321
 20
272.5164676302
 30
0.0
 10
80.6719099852
 20
272.5170339448
 30
0.0
 10
81.8431018347
 20
272.5130181329
 30
0.0
 10
82.8428086721
 20
272.5075950853
 30
0.0
 10
83.3615887708
 20
272.5075954743
 30
0.0
  0
SPLINE
  5
656
100
AcDbEntity
  8
7_ALL_FEATURES
100
AcDbSpline
 62
9
  6
CONTINUOUS
 70
0
 71
3
 72
22
 73
18
 74
0
 42
0.0000001
 43
0.0000001
 44
0.0000000001
 40
0.0
 40
0.0
 40
0.0
 40
0.0
 40
0.1864676754
 40
0.3843634068
 40
0.5759589011
 40
0.663342946
 40
0.7427166993
 40
0.8127292033
 40
0.872193386
 40
0.9200844369
 40
0.956000409
 40
0.9799975397
 40
0.9879665801
 40
0.9935967765
 40
0.9971609161
 40
0.9990751576
 40
1.0
 40
1.0
 40
1.0
 40
1.0
 10
230.4423718959
 20
272.5075835739
 30
0.0
 10
230.6909030335
 20
272.5075924031
 30
0.0
 10
231.2031967764
 20
272.5089475535
 30
0.0
 10
231.9708469912
 20
272.5126695874
 30
0.0
 10
232.6064400725
 20
272.515219682
 30
0.0
 10
233.0840646597
 20
272.5163474626
 30
0.0
 10
233.3996434179
 20
272.5166771901
 30
0.0
 10
233.6779996692
 20
272.5165020832
 30
0.0
 10
233.9144235468
 20
272.5158769309
 30
0.0
 10
234.1053182555
 20
272.5147145672
 30
0.0
 10
234.2491423516
 20
272.5133808636
 30
0.0
 10
234.3393254734
 20
272.5116180058
 30
0.0
 10
234.3897742732
 20
272.5105504219
 30
0.0
 10
234.4120652306
 20
272.5092969744
 30
0.0
 10
234.4279762329
 20
272.5094970003
 30
0.0
 10
234.434671921
 20
272.5074839767
 30
0.0
 10
234.4406543208
 20
272.5088434565
 30
0.0
 10
234.4407281713
 20
272.5076130059
 30
0.0
  0
SPLINE
  5
657
100
AcDbEntity
  8
7_ALL_FEATURES
100
AcDbSpline
 62
9
  6
CONTINUOUS
 70
0
 71
3
 72
17
 73
13
 74
0
 42
0.0000001
 43
0.0000001
 44
0.0000000001
 40
0.0
 40
0.0
 40
0.0
 40
0.0
 40
0.0071232995
 40
0.0204543168
 40
0.0442126335
 40
0.079479552
 40
0.125873842
 40
0.250028778
 40
0.4099874219
 40
0.5959979141
 40
0.7957735615
 40
1.0
 40
1.0
 40
1.0
 40
1.0
 10
230.4423681897
 20
273.4857549713
 30
0.0
 10
230.4446910127
 20
273.4857705348
 30
0.0
 10
230.4422305459
 20
273.4748615403
 30
0.0
 10
230.4449312909
 20
273.463667283
 30
0.0
 10
230.4441175565
 20
273.4382309941
 30
0.0
 10
230.4451519571
 20
273.4047248771
 30
0.0
 10
230.445398264
 20
273.3371402831
 30
0.0
 10
230.4460299449
 20
273.2296872294
 30
0.0
 10
230.4459363735
 20
273.0762407801
 30
0.0
 10
230.4453842964
 20
272.8983242436
 30
0.0
 10
230.4441117486
 20
272.7059130724
 30
0.0
 10
230.4429675909
 20
272.5741782091
 30
0.0
 10
230.4423718959
 20
272.5075835739
 30
0.0
  0
SPLINE
  5
658
100
AcDbEntity
  8
7_ALL_FEATURES
100
AcDbSpline
 62
7
  6
CONTINUOUS
 70
0
 71
3
 72
8
 73
4
 74
0
 42
0.0000001
 43
0.0000001
 44
0.0000000001
 40
0.0
 40
0.0
 40
0.0
 40
0.0
 40
1.0
 40
1.0
 40
1.0
 40
1.0
 10
13.9099904231
 20
38.8394772093
 30
0.0
 10
13.9025633433
 20
38.8727079048
 30
0.0
 10
13.89705834
 20
38.9062122256
 30
0.0
 10
13.892989482
 20
38.9398599051
 30
0.0
  0
SPLINE
  5
659
100
AcDbEntity
  8
7_ALL_FEATURES
100
AcDbSpline
 62
7
  6
CONTINUOUS
 70
0
 71
3
 72
11
 73
7
 74
0
 42
0.0000001
 43
0.0000001
 44
0.0000000001
 40
0.0
 40
0.0
 40
0.0
 40
0.0
 40
0.294671119
 40
0.589342238
 40
0.8840133569
 40
1.0
 40
1.0
 40
1.0
 40
1.0
 10
14.8599761149
 20
179.3573146907
 30
0.0
 10
14.7295514329
 20
179.354468814
 30
0.0
 10
14.4639712629
 20
179.3398651606
 30
0.0
 10
14.1008637079
 20
179.1216259452
 30
0.0
 10
13.9330983981
 20
178.8281832381
 30
0.0
 10
13.8992075863
 20
178.6473093289
 30
0.0
 10
13.8929894793
 20
178.5958882895
 30
0.0
  0
SPLINE
  5
65A
100
AcDbEntity
  8
7_ALL_FEATURES
100
AcDbSpline
 62
7
  6
CONTINUOUS
 70
0
 71
3
 72
11
 73
7
 74
0
 42
0.0000001
 43
0.0000001
 44
0.0000000001
 40
0.0
 40
0.0
 40
0.0
 40
0.0
 40
0.2505212902
 40
0.5003536204
 40
0.7501859506
 40
1.0
 40
1.0
 40
1.0
 40
1.0
 10
13.8817910998
 20
39.1792747662
 30
0.0
 10
13.8817669638
 20
39.0484729576
 30
0.0
 10
13.8904042943
 20
38.7822423566
 30
0.0
 10
14.1008637079
 20
38.4141222719
 30
0.0
 10
14.4639624064
 20
38.1958883796
 30
0.0
 10
14.7295319997
 20
38.1812804719
 30
0.0
 10
14.8599474843
 20
38.1784341512
 30
0.0
  0
SPLINE
  5
65B
100
AcDbEntity
  8
7_ALL_FEATURES
100
AcDbSpline
 62
7
  6
CONTINUOUS
 70
0
 71
3
 72
8
 73
4
 74
0
 42
0.0000001
 43
0.0000001
 44
0.0000000001
 40
0.0
 40
0.0
 40
0.0
 40
0.0
 40
1.0
 40
1.0
 40
1.0
 40
1.0
 10
58.8817909999
 20
37.9844176889
 30
0.0
 10
58.8817909999
 20
37.4733886353
 30
0.0
 10
58.6263372786
 20
37.2234481286
 30
0.0
 10
58.1154298361
 20
37.2345961686
 30
0.0
  0
SPLINE
  5
65C
100
AcDbEntity
  8
7_ALL_FEATURES
100
AcDbSpline
 62
7
  6
CONTINUOUS
 70
0
 71
3
 72
8
 73
4
 74
0
 42
0.0000001
 43
0.0000001
 44
0.0000000001
 40
0.0
 40
0.0
 40
0.0
 40
0.0
 40
1.0
 40
1.0
 40
1.0
 40
1.0
 10
58.8817909999
 20
179.5513305282
 30
0.0
 10
58.8817909999
 20
180.0623595818
 30
0.0
 10
58.6263372786
 20
180.3123000885
 30
0.0
 10
58.1154298361
 20
180.3011520485
 30
0.0
  0
SPLINE
  5
65D
100
AcDbEntity
  8
7_ALL_FEATURES
100
AcDbSpline
 62
9
  6
CONTINUOUS
 70
0
 71
3
 72
9
 73
5
 74
0
 42
0.0000001
 43
0.0000001
 44
0.0000000001
 40
0.0
 40
0.0
 40
0.0
 40
0.0
 40
0.4980155221
 40
1.0
 40
1.0
 40
1.0
 40
1.0
 10
58.8817909999
 20
173.235718354
 30
0.0
 10
58.8817909999
 20
173.3103180392
 30
0.0
 10
58.9443288545
 20
173.4660023149
 30
0.0
 10
59.0987688922
 20
173.5302776328
 30
0.0
 10
59.1739379154
 20
173.5322237167
 30
0.0
  0
SPLINE
  5
65E
100
AcDbEntity
  8
7_ALL_FEATURES
100
AcDbSpline
 62
9
  6
CONTINUOUS
 70
0
 71
3
 72
8
 73
4
 74
0
 42
0.0000001
 43
0.0000001
 44
0.0000000001
 40
0.0
 40
0.0
 40
0.0
 40
0.0
 40
1.0
 40
1.0
 40
1.0
 40
1.0
 10
58.8817909999
 20
44.3000298631
 30
0.0
 10
58.8817909999
 20
44.2615368733
 30
0.0
 10
58.8898488315
 20
44.222379647
 30
0.0
 10
58.9046028274
 20
44.1868264493
 30
0.0
  0
SPLINE
  5
65F
100
AcDbEntity
  8
7_ALL_FEATURES
100
AcDbSpline
 62
9
  6
CONTINUOUS
 70
0
 71
3
 72
8
 73
4
 74
0
 42
0.0000001
 43
0.0000001
 44
0.0000000001
 40
0.0
 40
0.0
 40
0.0
 40
0.0
 40
1.0
 40
1.0
 40
1.0
 40
1.0
 10
58.9731282228
 20
44.0868717229
 30
0.0
 10
59.0254901133
 20
44.0367658529
 30
0.0
 10
59.1014889844
 20
44.0054001857
 30
0.0
 10
59.1739379154
 20
44.0035245004
 30
0.0
  0
SPLINE
  5
660
100
AcDbEntity
  8
7_ALL_FEATURES
100
AcDbSpline
 62
9
  6
CONTINUOUS
 70
0
 71
3
 72
12
 73
8
 74
0
 42
0.0000001
 43
0.0000001
 44
0.0000000001
 40
0.0
 40
0.0
 40
0.0
 40
0.0
 40
0.0409160253
 40
0.1226650319
 40
0.2503090886
 40
0.6071279395
 40
1.0
 40
1.0
 40
1.0
 40
1.0
 10
58.1154298361
 20
180.3011520485
 30
0.0
 10
58.1136309984
 20
180.2466330161
 30
0.0
 10
58.1099343899
 20
180.0831588484
 30
0.0
 10
58.1093032961
 20
179.7494672898
 30
0.0
 10
58.1078349528
 20
178.9947012123
 30
0.0
 10
58.1115302473
 20
177.8251733557
 30
0.0
 10
58.1154298361
 20
176.8258167364
 30
0.0
 10
58.1154298361
 20
176.3021039398
 30
0.0
  0
SPLINE
  5
661
100
AcDbEntity
  8
7_ALL_FEATURES
100
AcDbSpline
 62
9
  6
CONTINUOUS
 70
0
 71
3
 72
12
 73
8
 74
0
 42
0.0000001
 43
0.0000001
 44
0.0000000001
 40
0.0
 40
0.0
 40
0.0
 40
0.0
 40
0.3931879225
 40
0.7502278295
 40
0.8776768043
 40
0.9591052256
 40
1.0
 40
1.0
 40
1.0
 40
1.0
 10
58.1154298361
 20
41.2336442787
 30
0.0
 10
58.1154298361
 20
40.7095104334
 30
0.0
 10
58.1115222251
 20
39.7094380944
 30
0.0
 10
58.1078360998
 20
38.5394546121
 30
0.0
 10
58.109301293
 20
37.7850811619
 30
0.0
 10
58.109949634
 20
37.4521055794
 30
0.0
 10
58.1136332154
 20
37.2890869063
 30
0.0
 10
58.1154298361
 20
37.2345961686
 30
0.0
  0
SPLINE
  5
662
100
AcDbEntity
  8
7_ALL_FEATURES
100
AcDbSpline
 62
9
  6
CONTINUOUS
 70
0
 71
3
 72
17
 73
13
 74
0
 42
0.0000001
 43
0.0000001
 44
0.0000000001
 40
0.0
 40
0.0
 40
0.0
 40
0.0
 40
0.2042087618
 40
0.4039777773
 40
0.5899967279
 40
0.7499693989
 40
0.8741282976
 40
0.9205193957
 40
0.9557872745
 40
0.9795559187
 40
0.9928882278
 40
1.0
 40
1.0
 40
1.0
 40
1.0
 10
14.8599761149
 20
42.1774818269
 30
0.0
 10
14.7933872918
 20
42.1768773894
 30
0.0
 10
14.6616594974
 20
42.1758164563
 30
0.0
 10
14.4692525935
 20
42.1746968087
 30
0.0
 10
14.291330672
 20
42.1741660294
 30
0.0
 10
14.1378760042
 20
42.174060721
 30
0.0
 10
14.0304169379
 20
42.1746732371
 30
0.0
 10
13.9628331242
 20
42.1748792563
 30
0.0
 10
13.929321104
 20
42.1758951087
 30
0.0
 10
13.9038856915
 20
42.1750195968
 30
0.0
 10
13.8926790311
 20
42.1777144381
 30
0.0
 10
13.8817909999
 20
42.1751625175
 30
0.0
 10
13.8817909999
 20
42.1774816347
 30
0.0
  0
SPLINE
  5
663
100
AcDbEntity
  8
7_ALL_FEATURES
100
AcDbSpline
 62
9
  6
CONTINUOUS
 70
0
 71
3
 72
22
 73
18
 74
0
 42
0.0000001
 43
0.0000001
 44
0.0000000001
 40
0.0
 40
0.0
 40
0.0
 40
0.0
 40
0.1864676753
 40
0.3843634068
 40
0.5759589011
 40
0.663342946
 40
0.7427166993
 40
0.8127292033
 40
0.872193386
 40
0.9200844369
 40
0.956000409
 40
0.9799975397
 40
0.9879665801
 40
0.9935967765
 40
0.9971609161
 40
0.9990751576
 40
1.0
 40
1.0
 40
1.0
 40
1.0
 10
14.8599623974
 20
175.3582646093
 30
0.0
 10
14.8599535681
 20
175.6067957469
 30
0.0
 10
14.8585984177
 20
176.1190894897
 30
0.0
 10
14.8548763839
 20
176.8867397045
 30
0.0
 10
14.8523262892
 20
177.5223327858
 30
0.0
 10
14.8511985086
 20
177.9999573731
 30
0.0
 10
14.8508687811
 20
178.3155361313
 30
0.0
 10
14.851043888
 20
178.5938923826
 30
0.0
 10
14.8516690403
 20
178.8303162602
 30
0.0
 10
14.852831404
 20
179.0212109689
 30
0.0
 10
14.8541651076
 20
179.165035065
 30
0.0
 10
14.8559279654
 20
179.2552181868
 30
0.0
 10
14.8569955493
 20
179.3056669866
 30
0.0
 10
14.8582489968
 20
179.327957944
 30
0.0
 10
14.8580489709
 20
179.3438689464
 30
0.0
 10
14.8600619945
 20
179.3505646345
 30
0.0
 10
14.8587025147
 20
179.3565470343
 30
0.0
 10
14.8599329653
 20
179.3566208847
 30
0.0
  0
SPLINE
  5
664
100
AcDbEntity
  8
7_ALL_FEATURES
100
AcDbSpline
 62
9
  6
CONTINUOUS
 70
0
 71
3
 72
17
 73
13
 74
0
 42
0.0000001
 43
0.0000001
 44
0.0000000001
 40
0.0
 40
0.0
 40
0.0
 40
0.0
 40
0.0071232995
 40
0.0204543168
 40
0.0442126335
 40
0.079479552
 40
0.125873842
 40
0.250028778
 40
0.4099874219
 40
0.5959979141
 40
0.7957735614
 40
1.0
 40
1.0
 40
1.0
 40
1.0
 10
13.8817909999
 20
175.3582609032
 30
0.0
 10
13.8817754364
 20
175.3605837261
 30
0.0
 10
13.8926844309
 20
175.3581232593
 30
0.0
 10
13.9038786883
 20
175.3608240044
 30
0.0
 10
13.9293149771
 20
175.3600102699
 30
0.0
 10
13.9628210942
 20
175.3610446706
 30
0.0
 10
14.0304056881
 20
175.3612909774
 30
0.0
 10
14.1378587418
 20
175.3619226583
 30
0.0
 10
14.2913051911
 20
175.361829087
 30
0.0
 10
14.4692217276
 20
175.3612770098
 30
0.0
 10
14.6616328988
 20
175.360004462
 30
0.0
 10
14.7933677621
 20
175.3588603043
 30
0.0
 10
14.8599623974
 20
175.3582646093
 30
0.0
  0
SPLINE
  5
665
100
AcDbEntity
  8
7_ALL_FEATURES
100
AcDbSpline
 62
9
  6
CONTINUOUS
 70
0
 71
3
 72
15
 73
11
 74
0
 42
0.0000001
 43
0.0000001
 44
0.0000000001
 40
0.0
 40
0.0
 40
0.0
 40
0.0
 40
0.0049734851
 40
0.0171654321
 40
0.039695236
 40
0.0743294309
 40
0.1212635
 40
0.2499357954
 40
0.6107695056
 40
1.0
 40
1.0
 40
1.0
 40
1.0
 10
14.8599623974
 20
38.179117453
 30
0.0
 10
14.8598204099
 20
38.1857447682
 30
0.0
 10
14.8568261268
 20
38.2084867769
 30
0.0
 10
14.856848383
 20
38.2614698275
 30
0.0
 10
14.854122436
 20
38.3538342799
 30
0.0
 10
14.8531233659
 20
38.49260259
 30
0.0
 10
14.851078341
 20
38.7727966456
 30
0.0
 10
14.8505120264
 20
39.4878026987
 30
0.0
 10
14.8545278383
 20
40.6589945481
 30
0.0
 10
14.8599508859
 20
41.6587013855
 30
0.0
 10
14.8599504969
 20
42.1774814843
 30
0.0
  0
SPLINE
  5
666
100
AcDbEntity
  8
7_ALL_FEATURES
100
AcDbSpline
 62
7
  6
CONTINUOUS
 70
0
 71
3
 72
22
 73
18
 74
0
 42
0.0000001
 43
0.0000001
 44
0.0000000001
 40
0.0
 40
0.0
 40
0.0
 40
0.0
 40
0.0668910728
 40
0.1337869783
 40
0.2004793745
 40
0.2667680659
 40
0.3324697621
 40
0.3974264087
 40
0.4615128923
 40
0.5246439575
 40
0.5867798084
 40
0.6479297033
 40
0.7674791344
 40
0.8262013317
 40
0.8844133564
 40
0.942291379
 40
1.0
 40
1.0
 40
1.0
 40
1.0
 10
309.9617534867
 20
188.0621733491
 30
0.0
 10
310.5435586343
 20
187.6917355466
 30
0.0
 10
311.7248646694
 20
186.9781563354
 30
0.0
 10
313.5430349267
 20
185.9930367201
 30
0.0
 10
315.3999856563
 20
185.0971965611
 30
0.0
 10
317.2861938802
 20
184.2956794764
 30
0.0
 10
319.1924447499
 20
183.5931565249
 30
0.0
 10
321.1099316709
 20
182.9939848985
 30
0.0
 10
323.030472914
 20
182.5022541792
 30
0.0
 10
324.9465309518
 20
182.1219062103
 30
0.0
 10
326.8516334891
 20
181.8569075367
 30
0.0
 10
329.3491521114
 20
181.6644412003
 30
0.0
 10
331.8271587689
 20
181.7154053646
 30
0.0
 10
334.2456248619
 20
182.0428416323
 30
0.0
 10
336.0084677617
 20
182.4296018901
 30
0.0
 10
337.7208242663
 20
182.9658393146
 30
0.0
 10
338.8219049542
 20
183.4277880173
 30
0.0
 10
339.3584519186
 20
183.6850707137
 30
0.0
  0
SPLINE
  5
667
100
AcDbEntity
  8
7_ALL_FEATURES
100
AcDbSpline
 62
9
  6
CONTINUOUS
 70
0
 71
3
 72
11
 73
7
 74
0
 42
0.0000001
 43
0.0000001
 44
0.0000000001
 40
0.0
 40
0.0
 40
0.0
 40
0.0
 40
0.2184528204
 40
0.4509110429
 40
0.7086773522
 40
1.0
 40
1.0
 40
1.0
 40
1.0
 10
309.9617529384
 20
188.0621737236
 30
0.0
 10
309.9770126847
 20
188.0524576639
 30
0.0
 10
310.0113495768
 20
188.0365759598
 30
0.0
 10
310.0695151697
 20
188.0257199232
 30
0.0
 10
310.1345778031
 20
188.0270943185
 30
0.0
 10
310.179459964
 20
188.0354121417
 30
0.0
 10
310.2028819471
 20
188.0411929605
 30
0.0
  0
SPLINE
  5
668
100
AcDbEntity
  8
7_ALL_FEATURES
100
AcDbSpline
 62
9
  6
CONTINUOUS
 70
0
 71
3
 72
20
 73
16
 74
0
 42
0.0000001
 43
0.0000001
 44
0.0000000001
 40
0.0
 40
0.0
 40
0.0
 40
0.0
 40
0.1443275775
 40
0.285713271
 40
0.3548215269
 40
0.422618689
 40
0.4889344291
 40
0.5536125163
 40
0.6165131588
 40
0.677515561
 40
0.7365207438
 40
0.7934546745
 40
0.8482717227
 40
0.9009584694
 40
1.0
 40
1.0
 40
1.0
 40
1.0
 10
314.1753075023
 20
187.4486343838
 30
0.0
 10
314.9020953627
 20
187.0836838615
 30
0.0
 10
316.3670298708
 20
186.4120442731
 30
0.0
 10
318.2425841564
 20
185.7135843367
 30
0.0
 10
319.7419865216
 20
185.2531625606
 30
0.0
 10
320.8496282364
 20
184.961254027
 30
0.0
 10
321.9441555329
 20
184.7213646626
 30
0.0
 10
323.0210083928
 20
184.534500986
 30
0.0
 10
324.0756865567
 20
184.4014481873
 30
0.0
 10
325.1037876162
 20
184.3227686577
 30
0.0
 10
326.1010421404
 20
184.2988058482
 30
0.0
 10
327.0632525286
 20
184.3296685764
 30
0.0
 10
327.9865945745
 20
184.4152930656
 30
0.0
 10
329.1364086954
 20
184.5981423327
 30
0.0
 10
329.9665929341
 20
184.8202911795
 30
0.0
 10
330.4912410305
 20
185.0105735239
 30
0.0
  0
SPLINE
  5
669
100
AcDbEntity
  8
7_ALL_FEATURES
100
AcDbSpline
 62
7
  6
CONTINUOUS
 70
0
 71
3
 72
9
 73
5
 74
0
 42
0.0000001
 43
0.0000001
 44
0.0000000001
 40
0.0
 40
0.0
 40
0.0
 40
0.0
 40
0.2643075378
 40
1.0
 40
1.0
 40
1.0
 40
1.0
 10
336.2597519244
 20
182.488033962
 30
0.0
 10
336.7668122787
 20
182.4963103287
 30
0.0
 10
338.6834188279
 20
182.578466428
 30
0.0
 10
340.5959959555
 20
182.8735943158
 30
0.0
 10
341.9576217956
 20
183.2457794741
 30
0.0
  0
SPLINE
  5
66A
100
AcDbEntity
  8
7_ALL_FEATURES
100
AcDbSpline
 62
9
  6
CONTINUOUS
 70
0
 71
3
 72
8
 73
4
 74
0
 42
0.0000001
 43
0.0000001
 44
0.0000000001
 40
0.0
 40
0.0
 40
0.0
 40
0.0
 40
1.0
 40
1.0
 40
1.0
 40
1.0
 10
281.7460736302
 20
190.0488033334
 30
0.0
 10
281.7771462576
 20
190.0441609796
 30
0.0
 10
281.8080149603
 20
190.0379868883
 30
0.0
 10
281.8385510994
 20
190.0305974477
 30
0.0
  0
SPLINE
  5
66B
100
AcDbEntity
  8
7_ALL_FEATURES
100
AcDbSpline
 62
9
  6
CONTINUOUS
 70
0
 71
3
 72
9
 73
5
 74
0
 42
0.0000001
 43
0.0000001
 44
0.0000000001
 40
0.0
 40
0.0
 40
0.0
 40
0.0
 40
0.2442596841
 40
1.0
 40
1.0
 40
1.0
 40
1.0
 10
281.8385510994
 20
190.0305974477
 30
0.0
 10
281.8522859758
 20
190.0272737448
 30
0.0
 10
281.9082663375
 20
190.0126438003
 30
0.0
 10
281.9632195043
 20
189.994150998
 30
0.0
 10
282.0039776821
 20
189.9783266001
 30
0.0
  0
SPLINE
  5
66C
100
AcDbEntity
  8
7_ALL_FEATURES
100
AcDbSpline
 62
9
  6
CONTINUOUS
 70
0
 71
3
 72
9
 73
5
 74
0
 42
0.0000001
 43
0.0000001
 44
0.0000000001
 40
0.0
 40
0.0
 40
0.0
 40
0.0
 40
0.51425942
 40
1.0
 40
1.0
 40
1.0
 40
1.0
 10
282.0039776821
 20
189.9783266001
 30
0.0
 10
282.1525077048
 20
189.9206596899
 30
0.0
 10
282.4238498049
 20
189.7620926763
 30
0.0
 10
282.6514143875
 20
189.5482884258
 30
0.0
 10
282.748817753
 20
189.433564373
 30
0.0
  0
SPLINE
  5
66D
100
AcDbEntity
  8
7_ALL_FEATURES
100
AcDbSpline
 62
9
  6
CONTINUOUS
 70
0
 71
3
 72
9
 73
5
 74
0
 42
0.0000001
 43
0.0000001
 44
0.0000000001
 40
0.0
 40
0.0
 40
0.0
 40
0.0
 40
0.2616147515
 40
1.0
 40
1.0
 40
1.0
 40
1.0
 10
282.748817753
 20
189.433564373
 30
0.0
 10
282.7684669305
 20
189.4104210937
 30
0.0
 10
282.8415019578
 20
189.3202355233
 30
0.0
 10
282.9062387062
 20
189.223205963
 30
0.0
 10
282.9477708126
 20
189.1482567798
 30
0.0
  0
SPLINE
  5
66E
100
AcDbEntity
  8
7_ALL_FEATURES
100
AcDbSpline
 62
9
  6
CONTINUOUS
 70
0
 71
3
 72
9
 73
5
 74
0
 42
0.0000001
 43
0.0000001
 44
0.0000000001
 40
0.0
 40
0.0
 40
0.0
 40
0.0
 40
0.2568033194
 40
1.0
 40
1.0
 40
1.0
 40
1.0
 10
282.9477708126
 20
189.1482567798
 30
0.0
 10
282.9543807467
 20
189.136328438
 30
0.0
 10
282.9795000833
 20
189.0895400129
 30
0.0
 10
283.0020981213
 20
189.0413844351
 30
0.0
 10
283.0171944265
 20
189.0049189416
 30
0.0
  0
SPLINE
  5
66F
100
AcDbEntity
  8
7_ALL_FEATURES
100
AcDbSpline
 62
9
  6
CONTINUOUS
 70
0
 71
3
 72
9
 73
5
 74
0
 42
0.0000001
 43
0.0000001
 44
0.0000000001
 40
0.0
 40
0.0
 40
0.0
 40
0.0
 40
0.4694869095
 40
1.0
 40
1.0
 40
1.0
 40
1.0
 10
343.0981760737
 20
183.1113748164
 30
0.0
 10
341.7084648004
 20
182.5938606853
 30
0.0
 10
338.5936300416
 20
181.8982005718
 30
0.0
 10
335.4189493756
 20
181.8352352931
 30
0.0
 10
333.7457541701
 20
181.9268683516
 30
0.0
  0
SPLINE
  5
670
100
AcDbEntity
  8
7_ALL_FEATURES
100
AcDbSpline
 62
9
  6
CONTINUOUS
 70
0
 71
3
 72
12
 73
8
 74
0
 42
0.0000001
 43
0.0000001
 44
0.0000000001
 40
0.0
 40
0.0
 40
0.0
 40
0.0
 40
0.2764833348
 40
0.5155641137
 40
0.6275162696
 40
0.7408209996
 40
1.0
 40
1.0
 40
1.0
 40
1.0
 10
276.8825847109
 20
189.921609042
 30
0.0
 10
276.8476849753
 20
190.0059234301
 30
0.0
 10
276.7982116349
 20
190.1706553389
 30
0.0
 10
276.8054922951
 20
190.384349156
 30
0.0
 10
276.8692613899
 20
190.5259399744
 30
0.0
 10
276.976741083
 20
190.6476524641
 30
0.0
 10
277.1012380947
 20
190.6919923161
 30
0.0
 10
277.1860922959
 20
190.7028077372
 30
0.0
  0
SPLINE
  5
671
100
AcDbEntity
  8
7_ALL_FEATURES
100
AcDbSpline
 62
9
  6
CONTINUOUS
 70
0
 71
3
 72
9
 73
5
 74
0
 42
0.0000001
 43
0.0000001
 44
0.0000000001
 40
0.0
 40
0.0
 40
0.0
 40
0.0
 40
0.238381189
 40
1.0
 40
1.0
 40
1.0
 40
1.0
 10
277.1860922959
 20
190.7028077372
 30
0.0
 10
277.1974735998
 20
190.7042583854
 30
0.0
 10
277.2453844109
 20
190.7090149994
 30
0.0
 10
277.2937498796
 20
190.7086259145
 30
0.0
 10
277.3303122861
 20
190.7059939867
 30
0.0
  0
SPLINE
  5
672
100
AcDbEntity
  8
7_ALL_FEATURES
100
AcDbSpline
 62
9
  6
CONTINUOUS
 70
0
 71
3
 72
9
 73
5
 74
0
 42
0.0000001
 43
0.0000001
 44
0.0000000001
 40
0.0
 40
0.0
 40
0.0
 40
0.0
 40
0.5359517963
 40
1.0
 40
1.0
 40
1.0
 40
1.0
 10
283.0171944265
 20
189.0049189416
 30
0.0
 10
282.9835042106
 20
189.0099532452
 30
0.0
 10
282.9207727577
 20
189.0300281411
 30
0.0
 10
282.8756054042
 20
189.0807009549
 30
0.0
 10
282.8643255983
 20
189.1079529898
 30
0.0
  0
SPLINE
  5
673
100
AcDbEntity
  8
7_ALL_FEATURES
100
AcDbSpline
 62
9
  6
CONTINUOUS
 70
0
 71
3
 72
9
 73
5
 74
0
 42
0.0000001
 43
0.0000001
 44
0.0000000001
 40
0.0
 40
0.0
 40
0.0
 40
0.0
 40
0.5604091652
 40
1.0
 40
1.0
 40
1.0
 40
1.0
 10
281.7460736302
 20
190.0488033334
 30
0.0
 10
281.754363876
 20
190.0287761171
 30
0.0
 10
281.7733855226
 20
189.9939170488
 30
0.0
 10
281.8091377362
 20
189.9724588347
 30
0.0
 10
281.8259495652
 20
189.9699209072
 30
0.0
  0
SPLINE
  5
674
100
AcDbEntity
  8
7_ALL_FEATURES
100
AcDbSpline
 62
9
  6
CONTINUOUS
 70
0
 71
3
 72
9
 73
5
 74
0
 42
0.0000001
 43
0.0000001
 44
0.0000000001
 40
0.0
 40
0.0
 40
0.0
 40
0.0
 40
0.295762346
 40
1.0
 40
1.0
 40
1.0
 40
1.0
 10
277.4001291357
 20
190.6982145396
 30
0.0
 10
277.4039789247
 20
190.6889142188
 30
0.0
 10
277.4186202946
 20
190.6585612438
 30
0.0
 10
277.444111814
 20
190.6307642298
 30
0.0
 10
277.4666793817
 20
190.622693836
 30
0.0
  0
SPLINE
  5
675
100
AcDbEntity
  8
7_ALL_FEATURES
100
AcDbSpline
 62
9
  6
CONTINUOUS
 70
0
 71
3
 72
9
 73
5
 74
0
 42
0.0000001
 43
0.0000001
 44
0.0000000001
 40
0.0
 40
0.0
 40
0.0
 40
0.0
 40
0.248495126
 40
1.0
 40
1.0
 40
1.0
 40
1.0
 10
276.8825847109
 20
189.921609042
 30
0.0
 10
276.9178319334
 20
189.9163420759
 30
0.0
 10
277.0617838137
 20
189.9201045667
 30
0.0
 10
277.2076095204
 20
190.0026737305
 30
0.0
 10
277.2634036873
 20
190.0948872103
 30
0.0
  0
SPLINE
  5
676
100
AcDbEntity
  8
7_ALL_FEATURES
100
AcDbSpline
 62
9
  6
CONTINUOUS
 70
0
 71
3
 72
12
 73
8
 74
0
 42
0.0000001
 43
0.0000001
 44
0.0000000001
 40
0.0
 40
0.0
 40
0.0
 40
0.0
 40
0.2931500247
 40
0.5384124265
 40
0.749999685
 40
0.8634323126
 40
1.0
 40
1.0
 40
1.0
 40
1.0
 10
277.2634036873
 20
190.0948872103
 30
0.0
 10
277.2303175893
 20
190.1466801297
 30
0.0
 10
277.1772000342
 20
190.2471114454
 30
0.0
 10
277.1376769206
 20
190.4019597144
 30
0.0
 10
277.1684743059
 20
190.5268632973
 30
0.0
 10
277.2427420233
 20
190.5930332964
 30
0.0
 10
277.2929026892
 20
190.6116615204
 30
0.0
 10
277.3207939986
 20
190.6181293446
 30
0.0
  0
SPLINE
  5
677
100
AcDbEntity
  8
6_ALL_SURFS
100
AcDbSpline
 62
9
  6
CONTINUOUS
 70
0
 71
3
 72
11
 73
7
 74
0
 42
0.0000001
 43
0.0000001
 44
0.0000000001
 40
0.0
 40
0.0
 40
0.0
 40
0.0
 40
0.2531192122
 40
0.5233120947
 40
0.7809166219
 40
1.0
 40
1.0
 40
1.0
 40
1.0
 10
279.8538802513
 20
188.8258192479
 30
0.0
 10
279.7639317764
 20
188.8414739606
 30
0.0
 10
279.5822822033
 20
188.8997426483
 30
0.0
 10
279.3351699769
 20
189.0384683527
 30
0.0
 10
279.1293360215
 20
189.2146810714
 30
0.0
 10
279.0269831462
 20
189.3570125708
 30
0.0
 10
278.9949582917
 20
189.4292563926
 30
0.0
  0
SPLINE
  5
678
100
AcDbEntity
  8
6_ALL_SURFS
100
AcDbSpline
 62
9
  6
CONTINUOUS
 70
0
 71
3
 72
11
 73
7
 74
0
 42
0.0000001
 43
0.0000001
 44
0.0000000001
 40
0.0
 40
0.0
 40
0.0
 40
0.0
 40
0.222596016
 40
0.4822067597
 40
0.7513568546
 40
1.0
 40
1.0
 40
1.0
 40
1.0
 10
279.9470057326
 20
189.8624518132
 30
0.0
 10
279.97729413
 20
189.7892810991
 30
0.0
 10
280.0137017911
 20
189.618949517
 30
0.0
 10
280.0132622242
 20
189.3503756884
 30
0.0
 10
279.963198865
 20
189.0769553554
 30
0.0
 10
279.896364964
 20
188.9034075547
 30
0.0
 10
279.8538802513
 20
188.8258192479
 30
0.0
  0
SPLINE
  5
679
100
AcDbEntity
  8
6_ALL_SURFS
100
AcDbSpline
 62
9
  6
CONTINUOUS
 70
0
 71
3
 72
10
 73
6
 74
0
 42
0.0000001
 43
0.0000001
 44
0.0000000001
 40
0.0
 40
0.0
 40
0.0
 40
0.0
 40
0.2375629139
 40
0.6269901626
 40
1.0
 40
1.0
 40
1.0
 40
1.0
 10
278.9949582917
 20
189.4292563926
 30
0.0
 10
279.0397836671
 20
189.5033412652
 30
0.0
 10
279.1963187731
 20
189.6760907984
 30
0.0
 10
279.5261855868
 20
189.8499600478
 30
0.0
 10
279.8125387686
 20
189.8825451101
 30
0.0
 10
279.9470057326
 20
189.8624518132
 30
0.0
  0
SPLINE
  5
67A
100
AcDbEntity
  8
7_ALL_FEATURES
100
AcDbSpline
 62
9
  6
CONTINUOUS
 70
0
 71
3
 72
11
 73
7
 74
0
 42
0.0000001
 43
0.0000001
 44
0.0000000001
 40
0.0
 40
0.0
 40
0.0
 40
0.0
 40
0.2174491612
 40
0.456497135
 40
0.7177669049
 40
1.0
 40
1.0
 40
1.0
 40
1.0
 10
344.3518060839
 20
182.8994231453
 30
0.0
 10
343.387447566
 20
182.4511103724
 30
0.0
 10
341.2574555904
 20
181.7298234997
 30
0.0
 10
337.7761474619
 20
181.1875079535
 30
0.0
 10
333.9384306931
 20
181.1395515416
 30
0.0
 10
331.2894625389
 20
181.4267382689
 30
0.0
 10
329.9264814814
 20
181.6447597709
 30
0.0
  0
SPLINE
  5
67B
100
AcDbEntity
  8
7_ALL_FEATURES
100
AcDbSpline
 62
9
  6
CONTINUOUS
 70
0
 71
3
 72
15
 73
11
 74
0
 42
0.0000001
 43
0.0000001
 44
0.0000000001
 40
0.0
 40
0.0
 40
0.0
 40
0.0
 40
0.1347637013
 40
0.2551220209
 40
0.3682048509
 40
0.4806982741
 40
0.5965574555
 40
0.7186339519
 40
0.8513009041
 40
1.0
 40
1.0
 40
1.0
 40
1.0
 10
380.3200278099
 20
87.7010654565
 30
0.0
 10
380.5145865833
 20
87.6725856989
 30
0.0
 10
380.8826192257
 20
87.6136839568
 30
0.0
 10
381.4247288806
 20
87.625543141
 30
0.0
 10
381.9142989398
 20
87.7777169309
 30
0.0
 10
382.326691532
 20
88.0715773747
 30
0.0
 10
382.6403787835
 20
88.4846573929
 30
0.0
 10
382.8369781677
 20
88.9948718441
 30
0.0
 10
382.919801341
 20
89.5812591404
 30
0.0
 10
382.9162975134
 20
89.9921886686
 30
0.0
 10
382.9162866651
 20
90.2091538199
 30
0.0
  0
SPLINE
  5
67C
100
AcDbEntity
  8
7_ALL_FEATURES
100
AcDbSpline
 62
9
  6
CONTINUOUS
 70
0
 71
3
 72
9
 73
5
 74
0
 42
0.0000001
 43
0.0000001
 44
0.0000000001
 40
0.0
 40
0.0
 40
0.0
 40
0.0
 40
0.7433921011
 40
1.0
 40
1.0
 40
1.0
 40
1.0
 10
268.1554623837
 20
191.5087257482
 30
0.0
 10
268.1241276376
 20
191.5445820837
 30
0.0
 10
268.0908182227
 20
191.6014403203
 30
0.0
 10
268.0716212098
 20
191.6625841455
 30
0.0
 10
268.0675673192
 20
191.6785136786
 30
0.0
  0
SPLINE
  5
67D
100
AcDbEntity
  8
7_ALL_FEATURES
100
AcDbSpline
 62
9
  6
CONTINUOUS
 70
0
 71
3
 72
9
 73
5
 74
0
 42
0.0000001
 43
0.0000001
 44
0.0000000001
 40
0.0
 40
0.0
 40
0.0
 40
0.0
 40
0.2451233254
 40
1.0
 40
1.0
 40
1.0
 40
1.0
 10
268.0675673192
 20
191.6785136786
 30
0.0
 10
268.0625672299
 20
191.6981612457
 30
0.0
 10
268.0476704259
 20
191.7796547169
 30
0.0
 10
268.0536035224
 20
191.8646347483
 30
0.0
 10
268.068626692
 20
191.9252351839
 30
0.0
  0
SPLINE
  5
67E
100
AcDbEntity
  8
7_ALL_FEATURES
100
AcDbSpline
 62
7
  6
CONTINUOUS
 70
0
 71
3
 72
9
 73
5
 74
0
 42
0.0000001
 43
0.0000001
 44
0.0000000001
 40
0.0
 40
0.0
 40
0.0
 40
0.0
 40
0.2397242563
 40
1.0
 40
1.0
 40
1.0
 40
1.0
 10
271.6412130986
 20
189.4417696882
 30
0.0
 10
271.6359161556
 20
189.4622672389
 30
0.0
 10
271.6213438038
 20
189.5497243928
 30
0.0
 10
271.6372712452
 20
189.6407457402
 30
0.0
 10
271.661084401
 20
189.7035236889
 30
0.0
  0
SPLINE
  5
67F
100
AcDbEntity
  8
7_ALL_FEATURES
100
AcDbSpline
 62
9
  6
CONTINUOUS
 70
0
 71
3
 72
9
 73
5
 74
0
 42
0.0000001
 43
0.0000001
 44
0.0000000001
 40
0.0
 40
0.0
 40
0.0
 40
0.0
 40
0.2492204235
 40
1.0
 40
1.0
 40
1.0
 40
1.0
 10
262.581877164
 20
195.1743549928
 30
0.0
 10
262.8471761181
 20
195.0261529548
 30
0.0
 10
263.9076383508
 20
194.42425856
 30
0.0
 10
264.9600059877
 20
193.8081645385
 30
0.0
 10
265.7458216218
 20
193.338518401
 30
0.0
  0
SPLINE
  5
680
100
AcDbEntity
  8
7_ALL_FEATURES
100
AcDbSpline
 62
7
  6
CONTINUOUS
 70
0
 71
3
 72
9
 73
5
 74
0
 42
0.0000001
 43
0.0000001
 44
0.0000000001
 40
0.0
 40
0.0
 40
0.0
 40
0.0
 40
0.5160276102
 40
1.0
 40
1.0
 40
1.0
 40
1.0
 10
258.2024687836
 20
114.7553433086
 30
0.0
 10
258.1074444921
 20
114.6892926785
 30
0.0
 10
257.9311507256
 20
114.5501067338
 30
0.0
 10
257.7637268028
 20
114.4007056681
 30
0.0
 10
257.6856615257
 20
114.3253004008
 30
0.0
  0
SPLINE
  5
681
100
AcDbEntity
  8
7_ALL_FEATURES
100
AcDbSpline
 62
9
  6
CONTINUOUS
 70
0
 71
3
 72
10
 73
6
 74
0
 42
0.0000001
 43
0.0000001
 44
0.0000000001
 40
0.0
 40
0.0
 40
0.0
 40
0.0
 40
0.196840051
 40
0.452754584
 40
1.0
 40
1.0
 40
1.0
 40
1.0
 10
258.363117461
 20
194.8441284331
 30
0.0
 10
258.3218284162
 20
194.8265178055
 30
0.0
 10
258.2205985498
 20
194.8016673673
 30
0.0
 10
257.9941743323
 20
194.7756890808
 30
0.0
 10
257.8090862441
 20
194.7807474363
 30
0.0
 10
257.6856615257
 20
194.7991906988
 30
0.0
  0
SPLINE
  5
682
100
AcDbEntity
  8
7_ALL_FEATURES
100
AcDbSpline
 62
9
  6
CONTINUOUS
 70
0
 71
3
 72
13
 73
9
 74
0
 42
0.0000001
 43
0.0000001
 44
0.0000000001
 40
0.0
 40
0.0
 40
0.0
 40
0.0
 40
0.1105396222
 40
0.2295782104
 40
0.4848899452
 40
0.7501150894
 40
0.8790805378
 40
1.0
 40
1.0
 40
1.0
 40
1.0
 10
403.4067869896
 20
233.7837359218
 30
0.0
 10
403.6229604501
 20
233.7500613415
 30
0.0
 10
404.0710151791
 20
233.6672450047
 30
0.0
 10
404.9748848589
 20
233.3252897381
 30
0.0
 10
405.970402411
 20
232.4726297498
 30
0.0
 10
406.54274865
 20
231.2811906477
 30
0.0
 10
406.7075930168
 20
230.2709186753
 30
0.0
 10
406.7169149072
 20
229.7755600727
 30
0.0
 10
406.7174287334
 20
229.5362362119
 30
0.0
  0
SPLINE
  5
683
100
AcDbEntity
  8
7_ALL_FEATURES
100
AcDbSpline
 62
9
  6
CONTINUOUS
 70
0
 71
3
 72
11
 73
7
 74
0
 42
0.0000001
 43
0.0000001
 44
0.0000000001
 40
0.0
 40
0.0
 40
0.0
 40
0.0
 40
0.2545076885
 40
0.5140507419
 40
0.7619588855
 40
1.0
 40
1.0
 40
1.0
 40
1.0
 10
406.7175141638
 20
98.9604760946
 30
0.0
 10
406.7175141638
 20
98.6295645491
 30
0.0
 10
406.7112991713
 20
97.959319723
 30
0.0
 10
406.4657795712
 20
96.9832999647
 30
0.0
 10
405.9103309442
 20
96.161331045
 30
0.0
 10
405.362449688
 20
95.8067344071
 30
0.0
 10
405.0736810733
 20
95.6953613079
 30
0.0
  0
SPLINE
  5
684
100
AcDbEntity
  8
7_ALL_FEATURES
100
AcDbSpline
 62
9
  6
CONTINUOUS
 70
0
 71
3
 72
11
 73
7
 74
0
 42
0.0000001
 43
0.0000001
 44
0.0000000001
 40
0.0
 40
0.0
 40
0.0
 40
0.0
 40
0.1867008044
 40
0.4437426145
 40
0.7329066022
 40
1.0
 40
1.0
 40
1.0
 40
1.0
 10
384.2724001743
 20
90.2988499891
 30
0.0
 10
384.1941596839
 20
90.2641567696
 30
0.0
 10
384.0011944809
 20
90.1953593545
 30
0.0
 10
383.6652989662
 20
90.157162691
 30
0.0
 10
383.2917802797
 20
90.1561453406
 30
0.0
 10
383.0384789411
 20
90.190184966
 30
0.0
 10
382.9174883036
 20
90.2089743347
 30
0.0
  0
SPLINE
  5
685
100
AcDbEntity
  8
7_ALL_FEATURES
100
AcDbSpline
 62
9
  6
CONTINUOUS
 70
0
 71
3
 72
13
 73
9
 74
0
 42
0.0000001
 43
0.0000001
 44
0.0000000001
 40
0.0
 40
0.0
 40
0.0
 40
0.0
 40
0.0839000758
 40
0.1784254212
 40
0.2909156116
 40
0.4200648642
 40
0.708883117
 40
1.0
 40
1.0
 40
1.0
 40
1.0
 10
380.8091227551
 20
223.3219083295
 30
0.0
 10
380.7753754805
 20
223.305012362
 30
0.0
 10
380.7042042543
 20
223.2671965556
 30
0.0
 10
380.6042620796
 20
223.1806523822
 30
0.0
 10
380.5155859026
 20
223.0568408044
 30
0.0
 10
380.4099291151
 20
222.8421789025
 30
0.0
 10
380.328415779
 20
222.529622324
 30
0.0
 10
380.3206483674
 20
222.2679091737
 30
0.0
 10
380.3200303641
 20
222.1369581472
 30
0.0
  0
SPLINE
  5
686
100
AcDbEntity
  8
7_ALL_FEATURES
100
AcDbSpline
 62
9
  6
CONTINUOUS
 70
0
 71
3
 72
11
 73
7
 74
0
 42
0.0000001
 43
0.0000001
 44
0.0000000001
 40
0.0
 40
0.0
 40
0.0
 40
0.0
 40
0.2375247197
 40
0.4877764619
 40
0.7431175003
 40
1.0
 40
1.0
 40
1.0
 40
1.0
 10
253.4334138143
 20
242.354874838
 30
0.0
 10
253.2692578945
 20
242.3794190197
 30
0.0
 10
252.9320900316
 20
242.4303340603
 30
0.0
 10
252.4113807276
 20
242.4521074976
 30
0.0
 10
251.8800207405
 20
242.3796543275
 30
0.0
 10
251.5410287939
 20
242.2532790528
 30
0.0
 10
251.3814475568
 20
242.1710789115
 30
0.0
  0
SPLINE
  5
687
100
AcDbEntity
  8
7_ALL_FEATURES
100
AcDbSpline
 62
9
  6
CONTINUOUS
 70
0
 71
3
 72
13
 73
9
 74
0
 42
0.0000001
 43
0.0000001
 44
0.0000000001
 40
0.0
 40
0.0
 40
0.0
 40
0.0
 40
0.290444385
 40
0.5781856091
 40
0.7069441017
 40
0.8194597775
 40
0.9147026562
 40
1.0
 40
1.0
 40
1.0
 40
1.0
 10
252.944340084
 20
241.1692711692
 30
0.0
 10
252.9437496993
 20
241.3003588558
 30
0.0
 10
252.9491761588
 20
241.5622126191
 30
0.0
 10
253.0285551172
 20
241.8755905496
 30
0.0
 10
253.1341112844
 20
242.0905308122
 30
0.0
 10
253.2238385485
 20
242.2145067576
 30
0.0
 10
253.3259243846
 20
242.3008122626
 30
0.0
 10
253.3987383536
 20
242.3381502177
 30
0.0
 10
253.4334138143
 20
242.354874838
 30
0.0
  0
SPLINE
  5
688
100
AcDbEntity
  8
7_ALL_FEATURES
100
AcDbSpline
 62
9
  6
CONTINUOUS
 70
0
 71
3
 72
12
 73
8
 74
0
 42
0.0000001
 43
0.0000001
 44
0.0000000001
 40
0.0
 40
0.0
 40
0.0
 40
0.0
 40
0.3568505492
 40
0.6592801307
 40
0.7785677566
 40
0.8735923748
 40
1.0
 40
1.0
 40
1.0
 40
1.0
 10
250.3478108768
 20
110.0187666761
 30
0.0
 10
250.2763611669
 20
110.0290230018
 30
0.0
 10
250.1443926615
 20
110.048596587
 30
0.0
 10
249.9906901388
 20
110.0840359063
 30
0.0
 10
249.8929411366
 20
110.1235981802
 30
0.0
 10
249.8341446559
 20
110.1566820804
 30
0.0
 10
249.8000144715
 20
110.1963942914
 30
0.0
 10
249.7995334627
 20
110.2219589183
 30
0.0
  0
SPLINE
  5
689
100
AcDbEntity
  8
7_ALL_FEATURES
100
AcDbSpline
 62
9
  6
CONTINUOUS
 70
0
 71
3
 72
15
 73
11
 74
0
 42
0.0000001
 43
0.0000001
 44
0.0000000001
 40
0.0
 40
0.0
 40
0.0
 40
0.0
 40
0.1177288461
 40
0.2464829121
 40
0.3813068182
 40
0.5165793577
 40
0.6488537244
 40
0.7754851386
 40
0.8932053076
 40
1.0
 40
1.0
 40
1.0
 40
1.0
 10
384.2718010178
 20
218.9416930759
 30
0.0
 10
384.2714339277
 20
219.185647788
 30
0.0
 10
384.2706104072
 20
219.6969428452
 30
0.0
 10
384.1552569795
 20
220.4829254259
 30
0.0
 10
383.8747795149
 20
221.2669264509
 30
0.0
 10
383.4298834739
 20
221.9798263257
 30
0.0
 10
382.852016171
 20
222.5670589319
 30
0.0
 10
382.1835994631
 20
222.984474385
 30
0.0
 10
381.488721587
 20
223.2187329689
 30
0.0
 10
381.0279804876
 20
223.2885343429
 30
0.0
 10
380.8091102429
 20
223.3212206434
 30
0.0
  0
SPLINE
  5
68A
100
AcDbEntity
  8
7_ALL_FEATURES
100
AcDbSpline
 62
9
  6
CONTINUOUS
 70
0
 71
3
 72
11
 73
7
 74
0
 42
0.0000001
 43
0.0000001
 44
0.0000000001
 40
0.0
 40
0.0
 40
0.0
 40
0.0
 40
0.2671933589
 40
0.5568165086
 40
0.8141912049
 40
1.0
 40
1.0
 40
1.0
 40
1.0
 10
382.916553678
 20
218.8518682558
 30
0.0
 10
383.0376210547
 20
218.8344865906
 30
0.0
 10
383.2911288019
 20
218.8032115301
 30
0.0
 10
383.6644786998
 20
218.8069767529
 30
0.0
 10
383.9995199789
 20
218.8449250964
 30
0.0
 10
384.1930901619
 20
218.9094611368
 30
0.0
 10
384.2718010178
 20
218.9416930759
 30
0.0
  0
SPLINE
  5
68B
100
AcDbEntity
  8
7_ALL_FEATURES
100
AcDbSpline
 62
9
  6
CONTINUOUS
 70
0
 71
3
 72
11
 73
7
 74
0
 42
0.0000001
 43
0.0000001
 44
0.0000000001
 40
0.0
 40
0.0
 40
0.0
 40
0.0
 40
0.3202765291
 40
0.6052891345
 40
0.8295163306
 40
1.0
 40
1.0
 40
1.0
 40
1.0
 10
380.3200254457
 20
87.7010658026
 30
0.0
 10
380.3204756903
 20
87.6052257233
 30
0.0
 10
380.3223116869
 20
87.4235893032
 30
0.0
 10
380.3699159791
 20
87.178432594
 30
0.0
 10
380.4609930592
 20
86.9912021173
 30
0.0
 10
380.569202797
 20
86.9221944643
 30
0.0
 10
380.6196413776
 20
86.914538063
 30
0.0
  0
SPLINE
  5
68C
100
AcDbEntity
  8
7_ALL_FEATURES
100
AcDbSpline
 62
9
  6
CONTINUOUS
 70
0
 71
3
 72
9
 73
5
 74
0
 42
0.0000001
 43
0.0000001
 44
0.0000000001
 40
0.0
 40
0.0
 40
0.0
 40
0.0
 40
0.5093792183
 40
1.0
 40
1.0
 40
1.0
 40
1.0
 10
375.5118823736
 20
177.65123492
 30
0.0
 10
375.449569351
 20
177.8690949139
 30
0.0
 10
375.2437742619
 20
178.276853714
 30
0.0
 10
374.8976230629
 20
178.578805402
 30
0.0
 10
374.7051913254
 20
178.6817802256
 30
0.0
  0
SPLINE
  5
68D
100
AcDbEntity
  8
7_ALL_FEATURES
100
AcDbSpline
 62
9
  6
CONTINUOUS
 70
0
 71
3
 72
9
 73
5
 74
0
 42
0.0000001
 43
0.0000001
 44
0.0000000001
 40
0.0
 40
0.0
 40
0.0
 40
0.0
 40
0.2542594302
 40
1.0
 40
1.0
 40
1.0
 40
1.0
 10
374.5578084161
 20
178.7499763244
 30
0.0
 10
374.5350793701
 20
178.7589121461
 30
0.0
 10
374.4447651149
 20
178.7916440724
 30
0.0
 10
374.3508164634
 20
178.814535036
 30
0.0
 10
374.2799740594
 20
178.8251345066
 30
0.0
  0
SPLINE
  5
68E
100
AcDbEntity
  8
7_ALL_FEATURES
100
AcDbSpline
 62
9
  6
CONTINUOUS
 70
0
 71
3
 72
11
 73
7
 74
0
 42
0.0000001
 43
0.0000001
 44
0.0000000001
 40
0.0
 40
0.0
 40
0.0
 40
0.0
 40
0.2431606434
 40
0.4823465084
 40
0.7321860818
 40
1.0
 40
1.0
 40
1.0
 40
1.0
 10
258.9843904955
 20
196.053666552
 30
0.0
 10
258.8200881283
 20
196.0781882907
 30
0.0
 10
258.4774784801
 20
196.0574787353
 30
0.0
 10
258.0330744389
 20
195.7894836461
 30
0.0
 10
257.7461596398
 20
195.3402781739
 30
0.0
 10
257.685696588
 20
194.9821554844
 30
0.0
 10
257.6856615257
 20
194.7991906988
 30
0.0
  0
SPLINE
  5
68F
100
AcDbEntity
  8
7_ALL_FEATURES
100
AcDbSpline
 62
9
  6
CONTINUOUS
 70
0
 71
3
 72
9
 73
5
 74
0
 42
0.0000001
 43
0.0000001
 44
0.0000000001
 40
0.0
 40
0.0
 40
0.0
 40
0.0
 40
0.34598815
 40
1.0
 40
1.0
 40
1.0
 40
1.0
 10
406.8664864139
 20
229.5437872743
 30
0.0
 10
406.8664864139
 20
229.5213337619
 30
0.0
 10
406.8132706418
 20
229.4675805666
 30
0.0
 10
406.7565546012
 20
229.4432411489
 30
0.0
 10
406.7175141638
 20
229.4265895987
 30
0.0
  0
SPLINE
  5
690
100
AcDbEntity
  8
7_ALL_FEATURES
100
AcDbSpline
 62
9
  6
CONTINUOUS
 70
0
 71
3
 72
9
 73
5
 74
0
 42
0.0000001
 43
0.0000001
 44
0.0000000001
 40
0.0
 40
0.0
 40
0.0
 40
0.0
 40
0.34598815
 40
1.0
 40
1.0
 40
1.0
 40
1.0
 10
406.8664864139
 20
99.0776737685
 30
0.0
 10
406.8664864139
 20
99.0552202561
 30
0.0
 10
406.8132706418
 20
99.0014670608
 30
0.0
 10
406.7565546012
 20
98.9771276432
 30
0.0
 10
406.7175141638
 20
98.9604760929
 30
0.0
  0
SPLINE
  5
691
100
AcDbEntity
  8
7_ALL_FEATURES
100
AcDbSpline
 62
9
  6
CONTINUOUS
 70
0
 71
3
 72
9
 73
5
 74
0
 42
0.0000001
 43
0.0000001
 44
0.0000000001
 40
0.0
 40
0.0
 40
0.0
 40
0.0
 40
0.2166357668
 40
1.0
 40
1.0
 40
1.0
 40
1.0
 10
403.4203565833
 20
233.8430570396
 30
0.0
 10
403.4080945512
 20
233.8448303173
 30
0.0
 10
403.3505269317
 20
233.8468623053
 30
0.0
 10
403.2944610252
 20
233.8266159038
 30
0.0
 10
403.254236911
 20
233.8068883535
 30
0.0
  0
SPLINE
  5
692
100
AcDbEntity
  8
7_ALL_FEATURES
100
AcDbSpline
 62
9
  6
CONTINUOUS
 70
0
 71
3
 72
9
 73
5
 74
0
 42
0.0000001
 43
0.0000001
 44
0.0000000001
 40
0.0
 40
0.0
 40
0.0
 40
0.0
 40
0.2165539334
 40
1.0
 40
1.0
 40
1.0
 40
1.0
 10
274.4106978654
 20
253.1208749417
 30
0.0
 10
274.3983917717
 20
253.122713832
 30
0.0
 10
274.3405558745
 20
253.1249770876
 30
0.0
 10
274.2841825959
 20
253.1046473095
 30
0.0
 10
274.2437664801
 20
253.0848255937
 30
0.0
  0
SPLINE
  5
693
100
AcDbEntity
  8
7_ALL_FEATURES
100
AcDbSpline
 62
9
  6
CONTINUOUS
 70
0
 71
3
 72
11
 73
7
 74
0
 42
0.0000001
 43
0.0000001
 44
0.0000000001
 40
0.0
 40
0.0
 40
0.0
 40
0.0
 40
0.2535289218
 40
0.5069036431
 40
0.7579260595
 40
1.0
 40
1.0
 40
1.0
 40
1.0
 10
272.1944475989
 20
252.901646969
 30
0.0
 10
272.351765038
 20
252.9825874873
 30
0.0
 10
272.6864651844
 20
253.1080898009
 30
0.0
 10
273.213820882
 20
253.1808881233
 30
0.0
 10
273.7361683471
 20
253.160238858
 30
0.0
 10
274.0766965322
 20
253.1097907299
 30
0.0
 10
274.2437664804
 20
253.0848255936
 30
0.0
  0
SPLINE
  5
694
100
AcDbEntity
  8
7_ALL_FEATURES
100
AcDbSpline
 62
9
  6
CONTINUOUS
 70
0
 71
3
 72
15
 73
11
 74
0
 42
0.0000001
 43
0.0000001
 44
0.0000000001
 40
0.0
 40
0.0
 40
0.0
 40
0.0
 40
0.1391059574
 40
0.268037559
 40
0.3932576728
 40
0.5170267173
 40
0.6381133887
 40
0.7557832818
 40
0.8738683259
 40
1.0
 40
1.0
 40
1.0
 40
1.0
 10
250.3478108833
 20
110.0187640382
 30
0.0
 10
250.3483458352
 20
109.8003469678
 30
0.0
 10
250.3452798631
 20
109.37905369
 30
0.0
 10
250.4309515767
 20
108.7641924808
 30
0.0
 10
250.6299617808
 20
108.2003678155
 30
0.0
 10
250.9397619688
 20
107.7032946132
 30
0.0
 10
251.3427948191
 20
107.2941987084
 30
0.0
 10
251.8241942365
 20
106.9968925421
 30
0.0
 10
252.3680454349
 20
106.8176097384
 30
0.0
 10
252.7484609787
 20
106.764274041
 30
0.0
 10
252.9443341238
 20
106.7350170484
 30
0.0
  0
SPLINE
  5
695
100
AcDbEntity
  8
7_ALL_FEATURES
100
AcDbSpline
 62
9
  6
CONTINUOUS
 70
0
 71
3
 72
15
 73
11
 74
0
 42
0.0000001
 43
0.0000001
 44
0.0000000001
 40
0.0
 40
0.0
 40
0.0
 40
0.0
 40
0.1347238509
 40
0.2550943806
 40
0.368163025
 40
0.480670968
 40
0.5965145295
 40
0.7185986087
 40
0.8512547924
 40
1.0
 40
1.0
 40
1.0
 40
1.0
 10
252.9443341238
 20
241.1692720602
 30
0.0
 10
252.7499201493
 20
241.1983352866
 30
0.0
 10
252.3818835872
 20
241.2573542837
 30
0.0
 10
251.8399062968
 20
241.2447769945
 30
0.0
 10
251.3501855232
 20
241.093161794
 30
0.0
 10
250.93781004
 20
240.7991824718
 30
0.0
 10
250.6242227055
 20
240.386100502
 30
0.0
 10
250.4271314832
 20
239.8760700783
 30
0.0
 10
250.3449473055
 20
239.2894858193
 30
0.0
 10
250.3483428323
 20
238.8785501904
 30
0.0
 10
250.3478108832
 20
238.6615180871
 30
0.0
  0
SPLINE
  5
696
100
AcDbEntity
  8
7_ALL_FEATURES
100
AcDbSpline
 62
9
  6
CONTINUOUS
 70
0
 71
3
 72
15
 73
11
 74
0
 42
0.0000001
 43
0.0000001
 44
0.0000000001
 40
0.0
 40
0.0
 40
0.0
 40
0.0
 40
0.1391059574
 40
0.268037559
 40
0.3932576728
 40
0.5170267173
 40
0.6381133887
 40
0.7557832817
 40
0.8738683259
 40
1.0
 40
1.0
 40
1.0
 40
1.0
 10
382.9165536716
 20
218.8518708937
 30
0.0
 10
382.9160187197
 20
219.0702879642
 30
0.0
 10
382.9190846918
 20
219.4915812419
 30
0.0
 10
382.8334129781
 20
220.1064424512
 30
0.0
 10
382.6344027742
 20
220.6702671165
 30
0.0
 10
382.3246025861
 20
221.1673403188
 30
0.0
 10
381.9215697359
 20
221.5764362235
 30
0.0
 10
381.4401703184
 20
221.8737423899
 30
0.0
 10
380.8963191201
 20
222.0530251935
 30
0.0
 10
380.5159035762
 20
222.1063608909
 30
0.0
 10
380.3200304311
 20
222.1356178835
 30
0.0
  0
SPLINE
  5
697
100
AcDbEntity
  8
7_ALL_FEATURES
100
AcDbSpline
 62
9
  6
CONTINUOUS
 70
0
 71
3
 72
11
 73
7
 74
0
 42
0.0000001
 43
0.0000001
 44
0.0000000001
 40
0.0
 40
0.0
 40
0.0
 40
0.0
 40
0.2399570123
 40
0.4899189594
 40
0.7500410878
 40
1.0
 40
1.0
 40
1.0
 40
1.0
 10
382.6285558364
 20
87.0338063262
 30
0.0
 10
382.9195890209
 20
87.1460901172
 30
0.0
 10
383.4713981171
 20
87.5050668889
 30
0.0
 10
384.0255312949
 20
88.3350538133
 30
0.0
 10
384.2673389843
 20
89.3090705532
 30
0.0
 10
384.2717991002
 20
89.9739906372
 30
0.0
 10
384.2717759908
 20
90.2989352733
 30
0.0
  0
SPLINE
  5
698
100
AcDbEntity
  8
7_ALL_FEATURES
100
AcDbSpline
 62
9
  6
CONTINUOUS
 70
0
 71
3
 72
11
 73
7
 74
0
 42
0.0000001
 43
0.0000001
 44
0.0000000001
 40
0.0
 40
0.0
 40
0.0
 40
0.0
 40
0.1723483801
 40
0.3968326907
 40
0.6809821282
 40
1.0
 40
1.0
 40
1.0
 40
1.0
 10
253.2335762051
 20
105.9490236123
 30
0.0
 10
253.1831774144
 20
105.9580700865
 30
0.0
 10
253.0765546385
 20
106.0284960485
 30
0.0
 10
252.9881971453
 20
106.21582902
 30
0.0
 10
252.9440602536
 20
106.459209879
 30
0.0
 10
252.9438868989
 20
106.6388984419
 30
0.0
 10
252.9443341908
 20
106.7336767848
 30
0.0
  0
SPLINE
  5
699
100
AcDbEntity
  8
7_ALL_FEATURES
100
AcDbSpline
 62
9
  6
CONTINUOUS
 70
0
 71
3
 72
12
 73
8
 74
0
 42
0.0000001
 43
0.0000001
 44
0.0000000001
 40
0.0
 40
0.0
 40
0.0
 40
0.0
 40
0.1254534982
 40
0.2203911091
 40
0.339757831
 40
0.6425836098
 40
1.0
 40
1.0
 40
1.0
 40
1.0
 10
249.7987474857
 20
238.8728087377
 30
0.0
 10
249.7986278905
 20
238.847312561
 30
0.0
 10
249.8323416472
 20
238.8070407842
 30
0.0
 10
249.89068977
 20
238.7730506415
 30
0.0
 10
249.9884036772
 20
238.7318076294
 30
0.0
 10
250.1425436488
 20
238.6940609221
 30
0.0
 10
250.2751020416
 20
238.6728377035
 30
0.0
 10
250.3468762513
 20
238.6616605972
 30
0.0
  0
SPLINE
  5
69A
100
AcDbEntity
  8
7_ALL_FEATURES
100
AcDbSpline
 62
7
  6
CONTINUOUS
 70
0
 71
3
 72
10
 73
6
 74
0
 42
0.0000001
 43
0.0000001
 44
0.0000000001
 40
0.0
 40
0.0
 40
0.0
 40
0.0
 40
0.2113126411
 40
0.4558760747
 40
1.0
 40
1.0
 40
1.0
 40
1.0
 10
375.3287056458
 20
97.2389647924
 30
0.0
 10
375.3287196163
 20
97.1971273896
 30
0.0
 10
375.3475963417
 20
97.1072586657
 30
0.0
 10
375.4241520396
 20
96.9244274013
 30
0.0
 10
375.5118875341
 20
96.7931393659
 30
0.0
 10
375.5787030292
 20
96.7086321755
 30
0.0
  0
SPLINE
  5
69B
100
AcDbEntity
  8
7_ALL_FEATURES
100
AcDbSpline
 62
9
  6
CONTINUOUS
 70
0
 71
3
 72
10
 73
6
 74
0
 42
0.0000001
 43
0.0000001
 44
0.0000000001
 40
0.0
 40
0.0
 40
0.0
 40
0.0
 40
0.329572628
 40
0.6279532761
 40
1.0
 40
1.0
 40
1.0
 40
1.0
 10
375.3287188029
 20
177.2945942783
 30
0.0
 10
375.328441422
 20
177.2635555939
 30
0.0
 10
375.3966135438
 20
177.2257610543
 30
0.0
 10
375.4802298316
 20
177.2002895359
 30
0.0
 10
375.5440475719
 20
177.1877010124
 30
0.0
 10
375.5787030292
 20
177.1825224735
 30
0.0
  0
SPLINE
  5
69C
100
AcDbEntity
  8
7_ALL_FEATURES
100
AcDbSpline
 62
9
  6
CONTINUOUS
 70
0
 71
3
 72
9
 73
5
 74
0
 42
0.0000001
 43
0.0000001
 44
0.0000000001
 40
0.0
 40
0.0
 40
0.0
 40
0.0
 40
0.4312230175
 40
1.0
 40
1.0
 40
1.0
 40
1.0
 10
259.1605309855
 20
195.6714610215
 30
0.0
 10
259.1289918985
 20
195.6761734812
 30
0.0
 10
259.0616338024
 20
195.7207113311
 30
0.0
 10
259.0303992213
 20
195.7899808161
 30
0.0
 10
259.0169804027
 20
195.8298442939
 30
0.0
  0
SPLINE
  5
69D
100
AcDbEntity
  8
7_ALL_FEATURES
100
AcDbSpline
 62
9
  6
CONTINUOUS
 70
0
 71
3
 72
9
 73
5
 74
0
 42
0.0000001
 43
0.0000001
 44
0.0000000001
 40
0.0
 40
0.0
 40
0.0
 40
0.0
 40
0.2289760423
 40
1.0
 40
1.0
 40
1.0
 40
1.0
 10
259.0169804027
 20
195.8298442939
 30
0.0
 10
259.0114592048
 20
195.846246196
 30
0.0
 10
258.9913608103
 20
195.9192117583
 30
0.0
 10
258.984390495
 20
195.995391777
 30
0.0
 10
258.9843904955
 20
196.053666552
 30
0.0
  0
SPLINE
  5
69E
100
AcDbEntity
  8
7_ALL_FEATURES
100
AcDbSpline
 62
9
  6
CONTINUOUS
 70
0
 71
3
 72
11
 73
7
 74
0
 42
0.0000001
 43
0.0000001
 44
0.0000000001
 40
0.0
 40
0.0
 40
0.0
 40
0.0
 40
0.1770315606
 40
0.3979666724
 40
0.6766481946
 40
1.0
 40
1.0
 40
1.0
 40
1.0
 10
374.4561145494
 20
178.4429289703
 30
0.0
 10
374.4298841154
 20
178.4468482276
 30
0.0
 10
374.3740983278
 20
178.4779210013
 30
0.0
 10
374.3202749402
 20
178.5666151521
 30
0.0
 10
374.2870157896
 20
178.6861938237
 30
0.0
 10
374.2799740594
 20
178.7766922223
 30
0.0
 10
374.2799740594
 20
178.8251345066
 30
0.0
  0
SPLINE
  5
69F
100
AcDbEntity
  8
7_ALL_FEATURES
100
AcDbSpline
 62
9
  6
CONTINUOUS
 70
0
 71
3
 72
10
 73
6
 74
0
 42
0.0000001
 43
0.0000001
 44
0.0000000001
 40
0.0
 40
0.0
 40
0.0
 40
0.0
 40
0.2381209062
 40
0.4820274073
 40
1.0
 40
1.0
 40
1.0
 40
1.0
 10
258.8488641514
 20
195.6392741445
 30
0.0
 10
258.7762496003
 20
195.6108055183
 30
0.0
 10
258.6379869292
 20
195.5274281017
 30
0.0
 10
258.4240203415
 20
195.2734050666
 30
0.0
 10
258.362145808
 20
195.0137859176
 30
0.0
 10
258.363117461
 20
194.8441284331
 30
0.0
  0
ELLIPSE
  5
6A0
100
AcDbEntity
  8
7_ALL_FEATURES
100
AcDbEllipse
 62
7
  6
CONTINUOUS
 10
223.4017433655
 20
131.017636079
 30
0.0
 11
0.7074433658
 21
0.7074433658
 31
0.0
 40
0.999524224
 41
5.4980250884
 42
7.068345526
  0
ELLIPSE
  5
6A1
100
AcDbEntity
  8
7_ALL_FEATURES
100
AcDbEllipse
 62
7
  6
CONTINUOUS
 10
88.8364021475
 20
49.5458327375
 30
0.0
 11
0.5
 21
0.0
 31
0.0
 40
0.5261254515
 41
-0.3051629806
 42
-0.0218166156
  0
ELLIPSE
  5
6A2
100
AcDbEntity
  8
7_ALL_FEATURES
100
AcDbEllipse
 62
7
  6
CONTINUOUS
 10
224.9675606428
 20
49.5458327375
 30
0.0
 11
0.5
 21
-0.0
 31
0.0
 40
0.5261254515
 41
-3.1197760379
 42
-2.836429673
  0
ELLIPSE
  5
6A3
100
AcDbEntity
  8
7_ALL_FEATURES
100
AcDbEllipse
 62
7
  6
CONTINUOUS
 10
224.9675606428
 20
53.2902600335
 30
0.0
 11
0.0
 21
12.7258497897
 31
0.0
 40
0.039290107
 41
-4.4072259998
 42
-4.3035795276
  0
ELLIPSE
  5
6A4
100
AcDbEntity
  8
7_ALL_FEATURES
100
AcDbEllipse
 62
7
  6
CONTINUOUS
 10
224.9675606428
 20
48.3360881887
 30
0.0
 11
0.5
 21
-0.0
 31
0.0
 40
0.5261254515
 41
-2.7327832009
 42
-2.6572637862
  0
ELLIPSE
  5
6A5
100
AcDbEntity
  8
7_ALL_FEATURES
100
AcDbEllipse
 62
7
  6
CONTINUOUS
 10
88.8364021475
 20
48.3360881887
 30
0.0
 11
0.5
 21
-0.0
 31
0.0
 40
0.5261254515
 41
-0.4843288674
 42
-0.4088094527
  0
ELLIPSE
  5
6A6
100
AcDbEntity
  8
7_ALL_FEATURES
100
AcDbEllipse
 62
7
  6
CONTINUOUS
 10
88.8364021475
 20
53.2902600335
 30
0.0
 11
-0.0
 21
12.7258497897
 31
0.0
 40
0.039290107
 41
-1.9796057795
 42
-1.8759593074
  0
ELLIPSE
  5
6A7
100
AcDbEntity
  8
7_ALL_FEATURES
100
AcDbEllipse
 62
7
  6
CONTINUOUS
 10
257.9356615257
 20
119.7684632966
 30
0.0
 11
0.2480417833
 21
12.4044646288
 31
0.0
 40
0.0349984786
 41
-1.9841222143
 42
-1.8804757421
  0
ELLIPSE
  5
6A8
100
AcDbEntity
  8
7_ALL_FEATURES
100
AcDbEllipse
 62
7
  6
CONTINUOUS
 10
257.9356615257
 20
114.9831007639
 30
0.0
 11
0.4810403468
 21
0.2175539398
 31
0.0
 40
0.6268904824
 41
-1.284193476
 42
-1.2086740613
  0
ELLIPSE
  5
6A9
100
AcDbEntity
  8
7_ALL_FEATURES
100
AcDbEllipse
 62
7
  6
CONTINUOUS
 10
257.9356615257
 20
116.1516242668
 30
0.0
 11
0.4810403468
 21
0.2175539398
 31
0.0
 40
0.6268904824
 41
-1.1050275891
 42
-0.8216812242
  0
ENDSEC
  0
SECTION
  2
OBJECTS
  0
DICTIONARY
  5
6AA
100
AcDbDictionary
  3
ACAD_GROUP
350
6AB
  3
ACAD_MLINESTYLE
350
6AC
  0
DICTIONARY
  5
6AB
102
{ACAD_REACTORS
330
6AA
102
}
100
AcDbDictionary
  0
DICTIONARY
  5
6AC
102
{ACAD_REACTORS
330
6AA
102
}
100
AcDbDictionary
  3
STANDARD
350
6AD
  0
MLINESTYLE
  5
6AD
102
{ACAD_REACTORS
330
6AC
102
}
100
AcDbMlineStyle
  2
STANDARD
 70
0
  3

 62
256
 51
90.0
 52
90.0
 71
2
 49
0.5
 62
256
  6
BYLAYER
 49
-0.5
 62
256
  6
BYLAYER
  0
ENDSEC
  0
EOF
