999
DXF file: 6f4_c_450.dxf
999
Pro/ENGINEER 2016360 by Parametric Technology Corporation
  0
SECTION
  2
HEADER
  9
$ACADVER
  1
AC1014
  9
$DWGCODEPAGE
  3
ANSI_1252
  9
$EXTMAX
 10
1189.0
 20
841.0
 30
0.0
  9
$EXTMIN
 10
0.0
 20
0.0
 30
0.0
  9
$LIMMIN
 10
0.0
 20
0.0
  9
$LIMMAX
 10
1189.0
 20
841.0
  9
$VIEWCTR
 10
594.5
 20
420.5
  9
$VIEWSIZE
 40
841.0
  9
$CLAYER
  8
0
  9
$LTSCALE
 40
65.395
  9
$CELTYPE
  6
BYLAYER
  9
$DIMSCALE
 40
1.0
  9
$DIMASZ
 40
2.5
  9
$DIMEXO
 40
0.75
  9
$DIMDLI
 40
45.182
  9
$DIMEXE
 40
0.75
  9
$DIMCEN
 40
10.701
  9
$DIMLFAC
 40
1.0
  9
$DIMBLK
  1
_CLOSED
  9
$DIMALT
 70
0
  9
$DIMALTF
 40
25.4
  9
$DIMTXT
 40
3.0
  9
$DIMTOL
 70
1
  9
$DIMLIM
 70
0
  9
$DIMTFAC
 40
1.0
  9
$DIMTP
 40
0.01
  9
$DIMTM
 40
0.01
  9
$DIMGAP
 40
0.625
  9
$AUNITS
 70
0
  9
$PDMODE
 70
3
  9
$PDSIZE
 40
0.3125
  9
$HANDSEED
  5
65D
  9
$TILEMODE
 70
1
  9
$MEASUREMENT
 70
1
  0
ENDSEC
  0
SECTION
  2
CLASSES
  0
ENDSEC
  0
SECTION
  2
TABLES
  0
TABLE
  2
VPORT
  5
8
100
AcDbSymbolTable
 70
2
  0
VPORT
  5
1F4
100
AcDbSymbolTableRecord
100
AcDbViewportTableRecord
  2
*ACTIVE
 70
0
 10
0.0
 20
0.0
 11
1.0
 21
1.0
 12
594.5
 22
420.5
 13
0.0
 23
0.0
 14
1.0
 24
1.0
 15
0.0
 25
0.0
 16
0.0
 26
0.0
 36
1.0
 17
0.0
 27
0.0
 37
0.0
 40
841.0
 41
1.4137931034
 42
50.0
 43
0.0
 44
0.0
 50
0.0
 51
0.0
 71
0
 72
100
 73
1
 74
1
 75
0
 76
0
 77
0
 78
0
  0
ENDTAB
  0
TABLE
  2
LTYPE
  5
5
100
AcDbSymbolTable
 70
6
  0
LTYPE
  5
14
100
AcDbSymbolTableRecord
100
AcDbLinetypeTableRecord
  2
BYBLOCK
 70
0
  3

 72
65
 73
0
 40
0.0
  0
LTYPE
  5
15
100
AcDbSymbolTableRecord
100
AcDbLinetypeTableRecord
  2
BYLAYER
 70
0
  3

 72
65
 73
0
 40
0.0
  0
LTYPE
  5
16
100
AcDbSymbolTableRecord
100
AcDbLinetypeTableRecord
  2
CONTINUOUS
 70
64
  3
Solid line
 72
65
 73
0
 40
0.0
  0
LTYPE
  5
1F5
100
AcDbSymbolTableRecord
100
AcDbLinetypeTableRecord
  2
CENTER
 70
64
  3
____ _ ____ _ ____ _ ____ _ ____ _ ____ _ ____
 72
65
 73
4
 40
0.6
 49
0.375
 74
0
 49
-0.075
 74
0
 49
0.075
 74
0
 49
-0.075
 74
0
  0
LTYPE
  5
1F6
100
AcDbSymbolTableRecord
100
AcDbLinetypeTableRecord
  2
HIDDEN
 70
64
  3
- - - - - - - - - - - - - - - - - - - -
 72
65
 73
2
 40
0.2
 49
0.1
 74
0
 49
-0.1
 74
0
  0
LTYPE
  5
1F7
100
AcDbSymbolTableRecord
100
AcDbLinetypeTableRecord
  2
PHANTOM
 70
64
  3
_____ _ _ _____ _ _ _____ _ _ _____
 72
65
 73
6
 40
0.8
 49
0.45
 74
0
 49
-0.05
 74
0
 49
0.1
 74
0
 49
-0.05
 74
0
 49
0.1
 74
0
 49
-0.05
 74
0
  0
LTYPE
  5
1F8
100
AcDbSymbolTableRecord
100
AcDbLinetypeTableRecord
  2
DOT
 70
64
  3
. . . . . . . . . . . . . . . . . . . .
 72
65
 73
2
 40
0.2
 49
0.1
 74
0
 49
-0.1
 74
0
  0
LTYPE
  5
1F9
100
AcDbSymbolTableRecord
100
AcDbLinetypeTableRecord
  2
DASHED
 70
64
  3
- - - - - - - - - - - - - - - - - - - -
 72
65
 73
2
 40
0.2
 49
0.1
 74
0
 49
-0.1
 74
0
  0
ENDTAB
  0
TABLE
  2
LAYER
  5
2
100
AcDbSymbolTable
 70
36
  0
LAYER
  5
10
100
AcDbSymbolTableRecord
100
AcDbLayerTableRecord
  2
0
 70
0
 62
7
  6
CONTINUOUS
  0
LAYER
  5
1FA
100
AcDbSymbolTableRecord
100
AcDbLayerTableRecord
  2
DEFAULT_1
 70
0
 62
7
  6
CENTER
  0
LAYER
  5
1FB
100
AcDbSymbolTableRecord
100
AcDbLayerTableRecord
  2
DEFAULT_2
 70
0
 62
8
  6
HIDDEN
  0
LAYER
  5
1FC
100
AcDbSymbolTableRecord
100
AcDbLayerTableRecord
  2
DEFAULT_3
 70
0
 62
7
  6
PHANTOM
  0
LAYER
  5
1FD
100
AcDbSymbolTableRecord
100
AcDbLayerTableRecord
  2
1_ALL_PLANES
 70
0
 62
7
  6
CONTINUOUS
  0
LAYER
  5
1FE
100
AcDbSymbolTableRecord
100
AcDbLayerTableRecord
  2
2_ALL_CSYS
 70
0
 62
7
  6
CONTINUOUS
  0
LAYER
  5
1FF
100
AcDbSymbolTableRecord
100
AcDbLayerTableRecord
  2
3_ALL_AXES
 70
0
 62
7
  6
CONTINUOUS
  0
LAYER
  5
200
100
AcDbSymbolTableRecord
100
AcDbLayerTableRecord
  2
4_ALL_POINTS
 70
0
 62
7
  6
CONTINUOUS
  0
LAYER
  5
201
100
AcDbSymbolTableRecord
100
AcDbLayerTableRecord
  2
5_ALL_CURVES
 70
0
 62
7
  6
CONTINUOUS
  0
LAYER
  5
202
100
AcDbSymbolTableRecord
100
AcDbLayerTableRecord
  2
5__COSTRUZIONE
 70
0
 62
7
  6
CONTINUOUS
  0
LAYER
  5
203
100
AcDbSymbolTableRecord
100
AcDbLayerTableRecord
  2
6_ALL_SURFS
 70
0
 62
7
  6
CONTINUOUS
  0
LAYER
  5
204
100
AcDbSymbolTableRecord
100
AcDbLayerTableRecord
  2
7_ALL_FEATURES
 70
0
 62
7
  6
CONTINUOUS
  0
LAYER
  5
205
100
AcDbSymbolTableRecord
100
AcDbLayerTableRecord
  2
9_SOLID
 70
0
 62
7
  6
CONTINUOUS
  0
LAYER
  5
206
100
AcDbSymbolTableRecord
100
AcDbLayerTableRecord
  2
PR9037
 70
0
 62
7
  6
CONTINUOUS
  0
LAYER
  5
207
100
AcDbSymbolTableRecord
100
AcDbLayerTableRecord
  2
WHITE
 70
0
 62
7
  6
CONTINUOUS
  0
LAYER
  5
208
100
AcDbSymbolTableRecord
100
AcDbLayerTableRecord
  2
XXX_SOLIDO
 70
0
 62
7
  6
CONTINUOUS
  0
ENDTAB
  0
TABLE
  2
STYLE
  5
3
100
AcDbSymbolTable
 70
1
  0
STYLE
  5
11
100
AcDbSymbolTableRecord
100
AcDbTextStyleTableRecord
  2
STANDARD
 70
0
 40
0.0
 41
1.0
 50
0.0
 71
0
 42
0.2
  3
arial.ttf
  4

  0
STYLE
  5
209
100
AcDbSymbolTableRecord
100
AcDbTextStyleTableRecord
  2
TEXTSTYLE_1
 70
0
 40
0.0
 41
0.8
 50
0.0
 71
0
 42
0.2
  3
gdt
  4

  0
STYLE
  5
20A
100
AcDbSymbolTableRecord
100
AcDbTextStyleTableRecord
  2
TEXTSTYLE_2
 70
0
 40
0.0
 41
0.85
 50
0.0
 71
0
 42
0.2
  3
txt
  4

  0
ENDTAB
  0
TABLE
  2
VIEW
  5
6
100
AcDbSymbolTable
 70
0
  0
ENDTAB
  0
TABLE
  2
UCS
  5
7
100
AcDbSymbolTable
 70
0
  0
ENDTAB
  0
TABLE
  2
APPID
  5
9
100
AcDbSymbolTable
 70
1
  0
APPID
  5
20B
100
AcDbSymbolTableRecord
100
AcDbRegAppTableRecord
  2
ACAD
 70
0
  0
ENDTAB
  0
TABLE
  2
BLOCK_RECORD
  5
1
100
AcDbSymbolTable
 70
0
  0
BLOCK_RECORD
  5
1F
100
AcDbSymbolTableRecord
100
AcDbBlockTableRecord
  2
*MODEL_SPACE
  0
BLOCK_RECORD
  5
1B
100
AcDbSymbolTableRecord
100
AcDbBlockTableRecord
  2
*PAPER_SPACE
  0
BLOCK_RECORD
  5
20C
100
AcDbSymbolTableRecord
100
AcDbBlockTableRecord
  2
_CLOSED
  0
BLOCK_RECORD
  5
20D
100
AcDbSymbolTableRecord
100
AcDbBlockTableRecord
  2
*D0
  0
BLOCK_RECORD
  5
20E
100
AcDbSymbolTableRecord
100
AcDbBlockTableRecord
  2
*D1
  0
BLOCK_RECORD
  5
20F
100
AcDbSymbolTableRecord
100
AcDbBlockTableRecord
  2
*D2
  0
BLOCK_RECORD
  5
210
100
AcDbSymbolTableRecord
100
AcDbBlockTableRecord
  2
LOGO2_BL0
  0
ENDTAB
  0
TABLE
  2
DIMSTYLE
  5
A
100
AcDbSymbolTable
 70
1
  0
DIMSTYLE
105
211
100
AcDbSymbolTableRecord
100
AcDbDimStyleTableRecord
  2
STANDARD
 70
0
  3

  4

  5
_CLOSED
  6
_CLOSED
  7
_CLOSED
 40
1.0
 41
2.5
 42
0.75
 43
0.38
 44
0.75
 45
0.0
 46
0.0
 47
0.01
 48
0.01
140
3.0
141
0.09
142
0.0
143
25.4
144
1.0
145
0.0
146
1.0
147
0.625
 71
1.0
 72
0.0
 73
0
 74
0
 75
0
 76
0
 77
1
 78
8
 79
2
170
0
171
1
172
0
173
0
174
0
175
0
176
0
177
0
178
0
270
2
179
2
271
2
272
2
273
2
274
2
275
0
280
0
281
0
282
0
283
1
284
8
285
0
286
0
287
3
288
0
340
11
  0
DIMSTYLE
105
212
100
AcDbSymbolTableRecord
100
AcDbDimStyleTableRecord
  2
DIMSTYLE_1
 70
0
  3

  4

  5
_CLOSED
  6
_CLOSED
  7
_CLOSED
 40
1.0
 41
2.5
 42
0.75
 43
0.38
 44
0.75
 45
0.0
 46
0.0
 47
0.8
 48
0.8
140
10.0
141
0.09
142
0.0
143
25.4
144
1.0
145
0.0
146
1.0
147
2.5
 71
0.0
 72
0.0
 73
0
 74
0
 75
0
 76
0
 77
1
 78
8
 79
2
170
0
171
1
172
0
173
0
174
0
175
0
176
0
177
0
178
0
270
2
179
2
271
2
272
2
273
2
274
2
275
0
280
0
281
0
282
0
283
1
284
8
285
0
286
0
287
3
288
0
340
11
  0
DIMSTYLE
105
213
100
AcDbSymbolTableRecord
100
AcDbDimStyleTableRecord
  2
DIMSTYLE_2
 70
0
  3

  4

  5
_CLOSED
  6
_CLOSED
  7
_CLOSED
 40
1.0
 41
2.5
 42
0.75
 43
0.38
 44
0.75
 45
0.0
 46
0.0
 47
0.3
 48
0.3
140
10.0
141
0.09
142
0.0
143
25.4
144
1.0
145
0.0
146
1.0
147
2.5
 71
0.0
 72
0.0
 73
0
 74
0
 75
0
 76
0
 77
1
 78
8
 79
2
170
0
171
1
172
0
173
0
174
0
175
0
176
0
177
0
178
0
270
2
179
2
271
2
272
2
273
2
274
2
275
0
280
0
281
0
282
0
283
1
284
8
285
0
286
0
287
3
288
0
340
11
  0
ENDTAB
  0
ENDSEC
  0
SECTION
  2
BLOCKS
  0
BLOCK
  5
20
100
AcDbEntity
  8
0
100
AcDbBlockBegin
  2
*MODEL_SPACE
 70
0
 10
0.0
 20
0.0
 30
0.0
  3
*MODEL_SPACE
  1

  0
ENDBLK
  5
21
100
AcDbEntity
  8
0
100
AcDbBlockEnd
  0
BLOCK
  5
1C
100
AcDbEntity
  8
0
100
AcDbBlockBegin
  2
*PAPER_SPACE
 70
0
 10
0.0
 20
0.0
 30
0.0
  3
*PAPER_SPACE
  1

  0
ENDBLK
  5
1D
100
AcDbEntity
  8
0
100
AcDbBlockEnd
  0
BLOCK
  5
214
100
AcDbEntity
  8
0
100
AcDbBlockBegin
 62
2
  6
CONTINUOUS
  2
LOGO2_BL0
 70
64
 10
1022.8930833351
 20
43.5922379032
  3
LOGO2_BL0
  1

  0
LINE
  5
215
100
AcDbEntity
  8
0
100
AcDbLine
 62
7
  6
CONTINUOUS
 10
1014.6360085633
 20
46.7877292421
 11
1013.3316676339
 21
46.7877292421
  0
LINE
  5
216
100
AcDbEntity
  8
0
100
AcDbLine
 62
7
  6
CONTINUOUS
 10
1013.3316676339
 20
46.7877292421
 11
1013.3316676339
 21
36.3286631822
  0
LINE
  5
217
100
AcDbEntity
  8
0
100
AcDbLine
 62
7
  6
CONTINUOUS
 10
1013.3316676339
 20
36.3286631822
 11
1017.8127225222
 21
36.3286631822
  0
LINE
  5
218
100
AcDbEntity
  8
0
100
AcDbLine
 62
7
  6
CONTINUOUS
 10
1017.8127225222
 20
36.3286631822
 11
1017.8127225222
 21
37.5215175073
  0
LINE
  5
219
100
AcDbEntity
  8
0
100
AcDbLine
 62
7
  6
CONTINUOUS
 10
1017.8127225222
 20
37.5215175073
 11
1014.6360085633
 21
37.5215175073
  0
LINE
  5
21A
100
AcDbEntity
  8
0
100
AcDbLine
 62
7
  6
CONTINUOUS
 10
1014.6360085633
 20
37.5215175073
 11
1014.6360085633
 21
46.7877292421
  0
LINE
  5
21B
100
AcDbEntity
  8
0
100
AcDbLine
 62
7
  6
CONTINUOUS
 10
1029.5723347796
 20
46.7877292421
 11
1028.2685172615
 21
46.7877292421
  0
LINE
  5
21C
100
AcDbEntity
  8
0
100
AcDbLine
 62
7
  6
CONTINUOUS
 10
1028.2685172615
 20
46.7877292421
 11
1028.2685172615
 21
36.3286631822
  0
LINE
  5
21D
100
AcDbEntity
  8
0
100
AcDbLine
 62
7
  6
CONTINUOUS
 10
1028.2685172615
 20
36.3286631822
 11
1032.7497030026
 21
36.3286631822
  0
LINE
  5
21E
100
AcDbEntity
  8
0
100
AcDbLine
 62
7
  6
CONTINUOUS
 10
1032.7497030026
 20
36.3286631822
 11
1032.7497030026
 21
37.5215175073
  0
LINE
  5
21F
100
AcDbEntity
  8
0
100
AcDbLine
 62
7
  6
CONTINUOUS
 10
1032.7497030026
 20
37.5215175073
 11
1029.5723347796
 21
37.5215175073
  0
LINE
  5
220
100
AcDbEntity
  8
0
100
AcDbLine
 62
7
  6
CONTINUOUS
 10
1029.5723347796
 20
37.5215175073
 11
1029.5723347796
 21
46.7877292421
  0
LWPOLYLINE
  5
221
100
AcDbEntity
  8
0
100
AcDbPolyline
 62
7
  6
CONTINUOUS
 90
2
 70
0
 43
0.2
 10
1011.6860625449
 20
32.9851118753
 10
1011.6860625449
 20
31.1280486259
  0
LWPOLYLINE
  5
222
100
AcDbEntity
  8
0
100
AcDbPolyline
 62
7
  6
CONTINUOUS
 90
2
 70
0
 43
0.2
 10
1011.6860625449
 20
31.1280486259
 10
1012.4817785553
 20
31.1280486259
  0
LWPOLYLINE
  5
223
100
AcDbEntity
  8
0
100
AcDbPolyline
 62
7
  6
CONTINUOUS
 90
2
 70
0
 43
0.2
 10
1012.4817785553
 20
31.1280486259
 10
1012.4817785553
 20
31.3400301975
  0
LWPOLYLINE
  5
224
100
AcDbEntity
  8
0
100
AcDbPolyline
 62
7
  6
CONTINUOUS
 90
2
 70
0
 43
0.2
 10
1012.4817785553
 20
31.3400301975
 10
1011.9176720398
 20
31.3400301975
  0
LWPOLYLINE
  5
225
100
AcDbEntity
  8
0
100
AcDbPolyline
 62
7
  6
CONTINUOUS
 90
2
 70
0
 43
0.2
 10
1011.9176720398
 20
31.3400301975
 10
1011.9176720398
 20
32.9851118753
  0
LWPOLYLINE
  5
226
100
AcDbEntity
  8
0
100
AcDbPolyline
 62
7
  6
CONTINUOUS
 90
2
 70
0
 43
0.2
 10
1011.9176720398
 20
32.9851118753
 10
1011.6860625449
 20
32.9851118753
  0
SPLINE
  5
227
100
AcDbEntity
  8
0
100
AcDbSpline
 62
7
  6
CONTINUOUS
 70
2
 71
3
 72
35
 73
31
 74
0
 42
0.0000001
 43
0.0000001
 44
0.0000000001
 40
0.0
 40
0.0
 40
0.0
 40
0.0
 40
1.0
 40
1.0
 40
1.0
 40
2.0
 40
2.0
 40
2.0
 40
3.0
 40
3.0
 40
3.0
 40
4.0
 40
4.0
 40
4.0
 40
5.0
 40
5.0
 40
5.0
 40
6.0
 40
6.0
 40
6.0
 40
7.0
 40
7.0
 40
7.0
 40
8.0
 40
8.0
 40
8.0
 40
9.0
 40
9.0
 40
9.0
 40
10.0
 40
10.0
 40
10.0
 40
10.0
 10
1013.8800718108
 20
32.2806002818
 30
0.0
 10
1013.8800718108
 20
32.2806002818
 30
0.0
 10
1013.8800718108
 20
31.6184850027
 30
0.0
 10
1013.8800718108
 20
31.6184850027
 30
0.0
 10
1013.8800718108
 20
31.3033914074
 30
0.0
 10
1014.0279354996
 20
31.0887927794
 30
0.0
 10
1014.3680219839
 20
31.0887927794
 30
0.0
 10
1014.7075850569
 20
31.0887927794
 30
0.0
 10
1014.8557104514
 20
31.3033914074
 30
0.0
 10
1014.8557104514
 20
31.6184850027
 30
0.0
 10
1014.8557104514
 20
31.6184850027
 30
0.0
 10
1014.8557104514
 20
32.2806002818
 30
0.0
 10
1014.8557104514
 20
32.2806002818
 30
0.0
 10
1014.8557104514
 20
32.2806002818
 30
0.0
 10
1014.6336532125
 20
32.2806002818
 30
0.0
 10
1014.6336532125
 20
32.2806002818
 30
0.0
 10
1014.6336532125
 20
32.2806002818
 30
0.0
 10
1014.6336532125
 20
31.6436087445
 30
0.0
 10
1014.6336532125
 20
31.6436087445
 30
0.0
 10
1014.6336532125
 20
31.4577977373
 30
0.0
 10
1014.5869387551
 20
31.2950168268
 30
0.0
 10
1014.3680219839
 20
31.2950168268
 30
0.0
 10
1014.1485818015
 20
31.2950168268
 30
0.0
 10
1014.101867344
 20
31.4577977373
 30
0.0
 10
1014.101867344
 20
31.6436087445
 30
0.0
 10
1014.101867344
 20
31.6436087445
 30
0.0
 10
1014.101867344
 20
32.2806002818
 30
0.0
 10
1014.101867344
 20
32.2806002818
 30
0.0
 10
1014.101867344
 20
32.2806002818
 30
0.0
 10
1013.8800718108
 20
32.2806002818
 30
0.0
 10
1013.8800718108
 20
32.2806002818
 30
0.0
  0
SPLINE
  5
228
100
AcDbEntity
  8
0
100
AcDbSpline
 62
7
  6
CONTINUOUS
 70
2
 71
3
 72
35
 73
31
 74
0
 42
0.0000001
 43
0.0000001
 44
0.0000000001
 40
0.0
 40
0.0
 40
0.0
 40
0.0
 40
1.0
 40
1.0
 40
1.0
 40
2.0
 40
2.0
 40
2.0
 40
3.0
 40
3.0
 40
3.0
 40
4.0
 40
4.0
 40
4.0
 40
5.0
 40
5.0
 40
5.0
 40
6.0
 40
6.0
 40
6.0
 40
7.0
 40
7.0
 40
7.0
 40
8.0
 40
8.0
 40
8.0
 40
9.0
 40
9.0
 40
9.0
 40
10.0
 40
10.0
 40
10.0
 40
10.0
 10
1017.2788430086
 20
32.2392507901
 30
0.0
 10
1017.1903865009
 20
32.2905450963
 30
0.0
 10
1017.0769371043
 20
32.3156688381
 30
0.0
 10
1016.9733016693
 20
32.3156688381
 30
0.0
 10
1016.6184288161
 20
32.3156688381
 30
0.0
 10
1016.3429836259
 20
32.051869549
 30
0.0
 10
1016.3429836259
 20
31.6943796394
 30
0.0
 10
1016.3429836259
 20
31.3494516007
 30
0.0
 10
1016.621438431
 20
31.0893161906
 30
0.0
 10
1016.961001504
 20
31.0893161906
 30
0.0
 10
1017.0769371043
 20
31.0893161906
 30
0.0
 10
1017.1776937772
 20
31.1112994647
 30
0.0
 10
1017.2788430086
 20
31.1652108274
 30
0.0
 10
1017.2788430086
 20
31.1652108274
 30
0.0
 10
1017.2788430086
 20
31.4478529228
 30
0.0
 10
1017.2788430086
 20
31.4478529228
 30
0.0
 10
1017.1949663497
 20
31.3546857136
 30
0.0
 10
1017.0914617675
 20
31.2955402381
 30
0.0
 10
1016.9633568548
 20
31.2955402381
 30
0.0
 10
1016.7296537148
 20
31.2955402381
 30
0.0
 10
1016.5643866006
 20
31.4677425518
 30
0.0
 10
1016.5643866006
 20
31.7043244539
 30
0.0
 10
1016.5643866006
 20
31.9163060255
 30
0.0
 10
1016.7321399184
 20
32.1083979681
 30
0.0
 10
1016.9489630444
 20
32.1083979681
 30
0.0
 10
1017.0817786587
 20
32.1083979681
 30
0.0
 10
1017.1903865009
 20
32.0544866055
 30
0.0
 10
1017.2788430086
 20
31.9534682269
 30
0.0
 10
1017.2788430086
 20
31.9534682269
 30
0.0
 10
1017.2788430086
 20
32.2392507901
 30
0.0
 10
1017.2788430086
 20
32.2392507901
 30
0.0
  0
SPLINE
  5
229
100
AcDbEntity
  8
0
100
AcDbSpline
 62
7
  6
CONTINUOUS
 70
2
 71
3
 72
32
 73
28
 74
0
 42
0.0000001
 43
0.0000001
 44
0.0000000001
 40
0.0
 40
0.0
 40
0.0
 40
0.0
 40
1.0
 40
1.0
 40
1.0
 40
2.0
 40
2.0
 40
2.0
 40
3.0
 40
3.0
 40
3.0
 40
4.0
 40
4.0
 40
4.0
 40
5.0
 40
5.0
 40
5.0
 40
6.0
 40
6.0
 40
6.0
 40
7.0
 40
7.0
 40
7.0
 40
8.0
 40
8.0
 40
8.0
 40
9.0
 40
9.0
 40
9.0
 40
9.0
 10
1019.8107142608
 20
31.6676856637
 30
0.0
 10
1019.8107142608
 20
31.6676856637
 30
0.0
 10
1019.8107142608
 20
31.7017073974
 30
0.0
 10
1019.8107142608
 20
31.7017073974
 30
0.0
 10
1019.8107142608
 20
32.0440183797
 30
0.0
 10
1019.637857683
 20
32.3156688381
 30
0.0
 10
1019.2712080759
 20
32.3156688381
 30
0.0
 10
1018.8995860615
 20
32.3156688381
 30
0.0
 10
1018.7098494696
 20
32.0492524926
 30
0.0
 10
1018.7098494696
 20
31.6943796394
 30
0.0
 10
1018.7098494696
 20
31.3546857136
 30
0.0
 10
1018.9239246864
 20
31.0887927794
 30
0.0
 10
1019.2760496303
 20
31.0887927794
 30
0.0
 10
1019.5000696615
 20
31.0887927794
 30
0.0
 10
1019.7022372714
 20
31.204466674
 30
0.0
 10
1019.8107142608
 20
31.4038863746
 30
0.0
 10
1019.8107142608
 20
31.4038863746
 30
0.0
 10
1019.6230713141
 20
31.5106622774
 30
0.0
 10
1019.6230713141
 20
31.5106622774
 30
0.0
 10
1019.5395872137
 20
31.3719582861
 30
0.0
 10
1019.4483827968
 20
31.2861188349
 30
0.0
 10
1019.2787975395
 20
31.2861188349
 30
0.0
 10
1019.0668159679
 20
31.2861188349
 30
0.0
 10
1018.9338695008
 20
31.4708830195
 30
0.0
 10
1018.93151415
 20
31.6676856637
 30
0.0
 10
1018.93151415
 20
31.6676856637
 30
0.0
 10
1019.8107142608
 20
31.6676856637
 30
0.0
 10
1019.8107142608
 20
31.6676856637
 30
0.0
  0
SPLINE
  5
22A
100
AcDbEntity
  8
0
100
AcDbSpline
 62
7
  6
CONTINUOUS
 70
2
 71
3
 72
14
 73
10
 74
0
 42
0.0000001
 43
0.0000001
 44
0.0000000001
 40
0.0
 40
0.0
 40
0.0
 40
0.0
 40
1.0
 40
1.0
 40
1.0
 40
2.0
 40
2.0
 40
2.0
 40
3.0
 40
3.0
 40
3.0
 40
3.0
 10
1018.9435526097
 20
31.8351772759
 30
0.0
 10
1018.9711625551
 20
32.0000518315
 30
0.0
 10
1019.0990057622
 20
32.1230534842
 30
0.0
 10
1019.2712080759
 20
32.1230534842
 30
0.0
 10
1019.4483827968
 20
32.1230534842
 30
0.0
 10
1019.5618321935
 20
32.0073795896
 30
0.0
 10
1019.5890495804
 20
31.8351772759
 30
0.0
 10
1019.5890495804
 20
31.8351772759
 30
0.0
 10
1018.9435526097
 20
31.8351772759
 30
0.0
 10
1018.9435526097
 20
31.8351772759
 30
0.0
  0
SPLINE
  5
22B
100
AcDbEntity
  8
0
100
AcDbSpline
 62
7
  6
CONTINUOUS
 70
2
 71
3
 72
20
 73
16
 74
0
 42
0.0000001
 43
0.0000001
 44
0.0000000001
 40
0.0
 40
0.0
 40
0.0
 40
0.0
 40
1.0
 40
1.0
 40
1.0
 40
2.0
 40
2.0
 40
2.0
 40
3.0
 40
3.0
 40
3.0
 40
4.0
 40
4.0
 40
4.0
 40
5.0
 40
5.0
 40
5.0
 40
5.0
 10
1021.834745711
 20
32.044541791
 30
0.0
 10
1021.834745711
 20
32.044541791
 30
0.0
 10
1022.2458852776
 20
31.5420669546
 30
0.0
 10
1022.2458852776
 20
31.5420669546
 30
0.0
 10
1022.1298188246
 20
31.42639306
 30
0.0
 10
1021.992030803
 20
31.2960636493
 30
0.0
 10
1021.820090195
 20
31.2960636493
 30
0.0
 10
1021.6426537684
 20
31.2960636493
 30
0.0
 10
1021.4751621563
 20
31.4604147937
 30
0.0
 10
1021.4751621563
 20
31.637327809
 30
0.0
 10
1021.4751621563
 20
31.8152876469
 30
0.0
 10
1021.6849192299
 20
31.9414297673
 30
0.0
 10
1021.8125007313
 20
32.0293628637
 30
0.0
 10
1021.8125007313
 20
32.0293628637
 30
0.0
 10
1021.834745711
 20
32.044541791
 30
0.0
 10
1021.834745711
 20
32.044541791
 30
0.0
  0
SPLINE
  5
22C
100
AcDbEntity
  8
0
100
AcDbSpline
 62
7
  6
CONTINUOUS
 70
2
 71
3
 72
23
 73
19
 74
0
 42
0.0000001
 43
0.0000001
 44
0.0000000001
 40
0.0
 40
0.0
 40
0.0
 40
0.0
 40
1.0
 40
1.0
 40
1.0
 40
2.0
 40
2.0
 40
2.0
 40
3.0
 40
3.0
 40
3.0
 40
4.0
 40
4.0
 40
4.0
 40
5.0
 40
5.0
 40
5.0
 40
6.0
 40
6.0
 40
6.0
 40
6.0
 10
1021.8840772249
 20
32.3355584671
 30
0.0
 10
1021.8840772249
 20
32.3355584671
 30
0.0
 10
1021.8224455458
 20
32.4140701602
 30
0.0
 10
1021.8224455458
 20
32.4140701602
 30
0.0
 10
1021.7685341831
 20
32.4826370389
 30
0.0
 10
1021.7117440584
 20
32.5517273289
 30
0.0
 10
1021.7117440584
 20
32.6454179495
 30
0.0
 10
1021.7117440584
 20
32.7642323118
 30
0.0
 10
1021.8076591769
 20
32.8416971824
 30
0.0
 10
1021.9186223699
 20
32.8416971824
 30
0.0
 10
1022.0418857282
 20
32.8416971824
 30
0.0
 10
1022.1351837903
 20
32.7705132473
 30
0.0
 10
1022.1351837903
 20
32.6401838366
 30
0.0
 10
1022.1351837903
 20
32.5051437243
 30
0.0
 10
1022.0070788776
 20
32.4287256763
 30
0.0
 10
1021.9135191099
 20
32.3549246847
 30
0.0
 10
1021.9135191099
 20
32.3549246847
 30
0.0
 10
1021.8840772249
 20
32.3355584671
 30
0.0
 10
1021.8840772249
 20
32.3355584671
 30
0.0
  0
SPLINE
  5
22D
100
AcDbEntity
  8
0
100
AcDbSpline
 62
7
  6
CONTINUOUS
 70
2
 71
3
 72
50
 73
46
 74
0
 42
0.0000001
 43
0.0000001
 44
0.0000000001
 40
0.0
 40
0.0
 40
0.0
 40
0.0
 40
1.0
 40
1.0
 40
1.0
 40
2.0
 40
2.0
 40
2.0
 40
3.0
 40
3.0
 40
3.0
 40
4.0
 40
4.0
 40
4.0
 40
5.0
 40
5.0
 40
5.0
 40
6.0
 40
6.0
 40
6.0
 40
7.0
 40
7.0
 40
7.0
 40
8.0
 40
8.0
 40
8.0
 40
9.0
 40
9.0
 40
9.0
 40
10.0
 40
10.0
 40
10.0
 40
11.0
 40
11.0
 40
11.0
 40
12.0
 40
12.0
 40
12.0
 40
13.0
 40
13.0
 40
13.0
 40
14.0
 40
14.0
 40
14.0
 40
15.0
 40
15.0
 40
15.0
 40
15.0
 10
1022.5862334676
 20
31.1285720372
 30
0.0
 10
1022.5862334676
 20
31.1285720372
 30
0.0
 10
1022.8716234723
 20
31.1285720372
 30
0.0
 10
1022.8716234723
 20
31.1285720372
 30
0.0
 10
1022.8716234723
 20
31.1285720372
 30
0.0
 10
1022.5392573045
 20
31.5394498982
 30
0.0
 10
1022.5392573045
 20
31.5394498982
 30
0.0
 10
1022.5392573045
 20
31.5394498982
 30
0.0
 10
1022.7657635393
 20
31.8053428324
 30
0.0
 10
1022.7657635393
 20
31.8053428324
 30
0.0
 10
1022.7657635393
 20
31.8053428324
 30
0.0
 10
1022.617507292
 20
31.9581789285
 30
0.0
 10
1022.617507292
 20
31.9581789285
 30
0.0
 10
1022.617507292
 20
31.9581789285
 30
0.0
 10
1022.4016001358
 20
31.7069415103
 30
0.0
 10
1022.4016001358
 20
31.7069415103
 30
0.0
 10
1022.4016001358
 20
31.7069415103
 30
0.0
 10
1022.0145374884
 20
32.1748712017
 30
0.0
 10
1022.0145374884
 20
32.1748712017
 30
0.0
 10
1022.1699906409
 20
32.2889748624
 30
0.0
 10
1022.3522686219
 20
32.4287256763
 30
0.0
 10
1022.3522686219
 20
32.6380901914
 30
0.0
 10
1022.3522686219
 20
32.8819998516
 30
0.0
 10
1022.1502318648
 20
33.0254145445
 30
0.0
 10
1021.92372563
 20
33.0254145445
 30
0.0
 10
1021.6795542642
 20
33.0254145445
 30
0.0
 10
1021.495182638
 20
32.8746720936
 30
0.0
 10
1021.495182638
 20
32.6182005625
 30
0.0
 10
1021.495182638
 20
32.4606537649
 30
0.0
 10
1021.5938456658
 20
32.3229965961
 30
0.0
 10
1021.6991821875
 20
32.2120334031
 30
0.0
 10
1021.6991821875
 20
32.2120334031
 30
0.0
 10
1021.5836391457
 20
32.1282875971
 30
0.0
 10
1021.5836391457
 20
32.1282875971
 30
0.0
 10
1021.4059410134
 20
32.0000518315
 30
0.0
 10
1021.2586007359
 20
31.8723394773
 30
0.0
 10
1021.2586007359
 20
31.6352341639
 30
0.0
 10
1021.2586007359
 20
31.3149064557
 30
0.0
 10
1021.5171659121
 20
31.0887927794
 30
0.0
 10
1021.8275488058
 20
31.0887927794
 30
0.0
 10
1022.046465577
 20
31.0887927794
 30
0.0
 10
1022.2436607797
 20
31.2138880772
 30
0.0
 10
1022.3839350048
 20
31.3798094554
 30
0.0
 10
1022.3839350048
 20
31.3798094554
 30
0.0
 10
1022.5862334676
 20
31.1285720372
 30
0.0
 10
1022.5862334676
 20
31.1285720372
 30
0.0
  0
LWPOLYLINE
  5
22E
100
AcDbEntity
  8
0
100
AcDbPolyline
 62
7
  6
CONTINUOUS
 90
2
 70
0
 43
0.2
 10
1024.5216775573
 20
32.9851118753
 10
1024.2903297681
 20
32.9851118753
  0
LWPOLYLINE
  5
22F
100
AcDbEntity
  8
0
100
AcDbPolyline
 62
7
  6
CONTINUOUS
 90
2
 70
0
 43
0.2
 10
1024.2903297681
 20
32.9851118753
 10
1024.2903297681
 20
31.1280486259
  0
LWPOLYLINE
  5
230
100
AcDbEntity
  8
0
100
AcDbPolyline
 62
7
  6
CONTINUOUS
 90
2
 70
0
 43
0.2
 10
1024.2903297681
 20
31.1280486259
 10
1025.08565322
 20
31.1280486259
  0
LWPOLYLINE
  5
231
100
AcDbEntity
  8
0
100
AcDbPolyline
 62
7
  6
CONTINUOUS
 90
2
 70
0
 43
0.2
 10
1025.08565322
 20
31.1280486259
 10
1025.08565322
 20
31.3400301975
  0
LWPOLYLINE
  5
232
100
AcDbEntity
  8
0
100
AcDbPolyline
 62
7
  6
CONTINUOUS
 90
2
 70
0
 43
0.2
 10
1025.08565322
 20
31.3400301975
 10
1024.5216775573
 20
31.3400301975
  0
LWPOLYLINE
  5
233
100
AcDbEntity
  8
0
100
AcDbPolyline
 62
7
  6
CONTINUOUS
 90
2
 70
0
 43
0.2
 10
1024.5216775573
 20
31.3400301975
 10
1024.5216775573
 20
32.9851118753
  0
LWPOLYLINE
  5
234
100
AcDbEntity
  8
0
100
AcDbPolyline
 62
7
  6
CONTINUOUS
 90
2
 70
0
 43
0.2
 10
1026.7647566315
 20
32.2806002818
 10
1026.5436153624
 20
32.2806002818
  0
LWPOLYLINE
  5
235
100
AcDbEntity
  8
0
100
AcDbPolyline
 62
7
  6
CONTINUOUS
 90
2
 70
0
 43
0.2
 10
1026.5436153624
 20
32.2806002818
 10
1026.5436153624
 20
31.1285720372
  0
LWPOLYLINE
  5
236
100
AcDbEntity
  8
0
100
AcDbPolyline
 62
7
  6
CONTINUOUS
 90
2
 70
0
 43
0.2
 10
1026.5436153624
 20
31.1285720372
 10
1026.7647566315
 20
31.1285720372
  0
LWPOLYLINE
  5
237
100
AcDbEntity
  8
0
100
AcDbPolyline
 62
7
  6
CONTINUOUS
 90
2
 70
0
 43
0.2
 10
1026.7647566315
 20
31.1285720372
 10
1026.7647566315
 20
32.2806002818
  0
LWPOLYLINE
  5
238
100
AcDbEntity
  8
0
100
AcDbPolyline
 62
7
  6
CONTINUOUS
 90
2
 70
1
 43
0.2
 10
1026.5017333543
 20
32.8105542108
 42
1.0
 10
1026.8069003452
 20
32.8105542108
 42
1.0
  0
SPLINE
  5
239
100
AcDbEntity
  8
0
100
AcDbSpline
 62
7
  6
CONTINUOUS
 70
2
 71
3
 72
17
 73
13
 74
0
 42
0.0000001
 43
0.0000001
 44
0.0000000001
 40
0.0
 40
0.0
 40
0.0
 40
0.0
 40
1.0
 40
1.0
 40
1.0
 40
2.0
 40
2.0
 40
2.0
 40
3.0
 40
3.0
 40
3.0
 40
4.0
 40
4.0
 40
4.0
 40
4.0
 10
1028.8950405731
 20
31.2861188349
 30
0.0
 10
1028.6610757274
 20
31.2861188349
 30
0.0
 10
1028.5307463167
 20
31.488155592
 30
0.0
 10
1028.5307463167
 20
31.7043244539
 30
0.0
 10
1028.5307463167
 20
31.9189230819
 30
0.0
 10
1028.666571546
 20
32.1178193713
 30
0.0
 10
1028.8950405731
 20
32.1178193713
 30
0.0
 10
1029.1345012373
 20
32.1178193713
 30
0.0
 10
1029.2700647609
 20
31.9288678964
 30
0.0
 10
1029.2700647609
 20
31.7043244539
 30
0.0
 10
1029.2700647609
 20
31.4782107775
 30
0.0
 10
1029.1368565881
 20
31.2861188349
 30
0.0
 10
1028.8950405731
 20
31.2861188349
 30
0.0
  0
SPLINE
  5
23A
100
AcDbEntity
  8
0
100
AcDbSpline
 62
7
  6
CONTINUOUS
 70
2
 71
3
 72
50
 73
46
 74
0
 42
0.0000001
 43
0.0000001
 44
0.0000000001
 40
0.0
 40
0.0
 40
0.0
 40
0.0
 40
1.0
 40
1.0
 40
1.0
 40
2.0
 40
2.0
 40
2.0
 40
3.0
 40
3.0
 40
3.0
 40
4.0
 40
4.0
 40
4.0
 40
5.0
 40
5.0
 40
5.0
 40
6.0
 40
6.0
 40
6.0
 40
7.0
 40
7.0
 40
7.0
 40
8.0
 40
8.0
 40
8.0
 40
9.0
 40
9.0
 40
9.0
 40
10.0
 40
10.0
 40
10.0
 40
11.0
 40
11.0
 40
11.0
 40
12.0
 40
12.0
 40
12.0
 40
13.0
 40
13.0
 40
13.0
 40
14.0
 40
14.0
 40
14.0
 40
15.0
 40
15.0
 40
15.0
 40
15.0
 10
1029.4791675704
 20
32.2811236931
 30
0.0
 10
1029.4791675704
 20
32.2811236931
 30
0.0
 10
1029.25750289
 20
32.2811236931
 30
0.0
 10
1029.25750289
 20
32.2811236931
 30
0.0
 10
1029.25750289
 20
32.2811236931
 30
0.0
 10
1029.25750289
 20
32.0837976376
 30
0.0
 10
1029.25750289
 20
32.0837976376
 30
0.0
 10
1029.25750289
 20
32.0837976376
 30
0.0
 10
1029.2527921884
 20
32.0837976376
 30
0.0
 10
1029.2527921884
 20
32.0837976376
 30
0.0
 10
1029.1614569186
 20
32.2266889192
 30
0.0
 10
1029.0235380443
 20
32.3151454268
 30
0.0
 10
1028.8508123193
 20
32.3151454268
 30
0.0
 10
1028.5184461515
 20
32.3151454268
 30
0.0
 10
1028.309343342
 20
32.0272692185
 30
0.0
 10
1028.309343342
 20
31.7116522119
 30
0.0
 10
1028.309343342
 20
31.3819031006
 30
0.0
 10
1028.5064076919
 20
31.0887927794
 30
0.0
 10
1028.861280545
 20
31.0887927794
 30
0.0
 10
1029.0235380443
 20
31.0887927794
 30
0.0
 10
1029.1635505638
 20
31.177249287
 30
0.0
 10
1029.2527921884
 20
31.308102109
 30
0.0
 10
1029.2527921884
 20
31.308102109
 30
0.0
 10
1029.25750289
 20
31.308102109
 30
0.0
 10
1029.25750289
 20
31.308102109
 30
0.0
 10
1029.25750289
 20
31.308102109
 30
0.0
 10
1029.25750289
 20
31.0887927794
 30
0.0
 10
1029.25750289
 20
31.0887927794
 30
0.0
 10
1029.25750289
 20
30.8522108772
 30
0.0
 10
1029.2009744709
 20
30.6653530475
 30
0.0
 10
1028.9277537786
 20
30.6653530475
 30
0.0
 10
1028.7254553158
 20
30.6653530475
 30
0.0
 10
1028.5828257399
 20
30.7836439985
 30
0.0
 10
1028.5828257399
 20
30.9898680459
 30
0.0
 10
1028.5828257399
 20
30.9898680459
 30
0.0
 10
1028.3611610595
 20
30.9898680459
 30
0.0
 10
1028.3611610595
 20
30.9898680459
 30
0.0
 10
1028.3661334667
 20
30.6653530475
 30
0.0
 10
1028.5972195503
 20
30.4685504032
 30
0.0
 10
1028.9175472585
 20
30.4685504032
 30
0.0
 10
1029.3655873209
 20
30.4685504032
 30
0.0
 10
1029.4791675704
 20
30.7538095551
 30
0.0
 10
1029.4791675704
 20
31.1505553113
 30
0.0
 10
1029.4791675704
 20
31.1505553113
 30
0.0
 10
1029.4791675704
 20
32.2811236931
 30
0.0
 10
1029.4791675704
 20
32.2811236931
 30
0.0
  0
SPLINE
  5
23B
100
AcDbEntity
  8
0
100
AcDbSpline
 62
7
  6
CONTINUOUS
 70
2
 71
3
 72
44
 73
40
 74
0
 42
0.0000001
 43
0.0000001
 44
0.0000000001
 40
0.0
 40
0.0
 40
0.0
 40
0.0
 40
1.0
 40
1.0
 40
1.0
 40
2.0
 40
2.0
 40
2.0
 40
3.0
 40
3.0
 40
3.0
 40
4.0
 40
4.0
 40
4.0
 40
5.0
 40
5.0
 40
5.0
 40
6.0
 40
6.0
 40
6.0
 40
7.0
 40
7.0
 40
7.0
 40
8.0
 40
8.0
 40
8.0
 40
9.0
 40
9.0
 40
9.0
 40
10.0
 40
10.0
 40
10.0
 40
11.0
 40
11.0
 40
11.0
 40
12.0
 40
12.0
 40
12.0
 40
13.0
 40
13.0
 40
13.0
 40
13.0
 10
1031.0480929058
 20
33.2661837369
 30
0.0
 10
1031.0480929058
 20
33.2661837369
 30
0.0
 10
1031.0480929058
 20
31.1280486259
 30
0.0
 10
1031.0480929058
 20
31.1280486259
 30
0.0
 10
1031.0480929058
 20
31.1280486259
 30
0.0
 10
1031.2694958805
 20
31.1280486259
 30
0.0
 10
1031.2694958805
 20
31.1280486259
 30
0.0
 10
1031.2694958805
 20
31.1280486259
 30
0.0
 10
1031.2694958805
 20
31.6577408493
 30
0.0
 10
1031.2694958805
 20
31.6577408493
 30
0.0
 10
1031.2694958805
 20
31.8676287757
 30
0.0
 10
1031.2694958805
 20
32.1183427826
 30
0.0
 10
1031.5547550324
 20
32.1183427826
 30
0.0
 10
1031.7816538257
 20
32.1183427826
 30
0.0
 10
1031.808609507
 20
31.9853963155
 30
0.0
 10
1031.808609507
 20
31.7891170825
 30
0.0
 10
1031.808609507
 20
31.7891170825
 30
0.0
 10
1031.808609507
 20
31.1280486259
 30
0.0
 10
1031.808609507
 20
31.1280486259
 30
0.0
 10
1031.808609507
 20
31.1280486259
 30
0.0
 10
1032.0305358931
 20
31.1280486259
 30
0.0
 10
1032.0305358931
 20
31.1280486259
 30
0.0
 10
1032.0305358931
 20
31.1280486259
 30
0.0
 10
1032.0305358931
 20
31.8152876469
 30
0.0
 10
1032.0305358931
 20
31.8152876469
 30
0.0
 10
1032.0305358931
 20
32.0958360972
 30
0.0
 10
1031.9465283814
 20
32.3156688381
 30
0.0
 10
1031.6214899716
 20
32.3156688381
 30
0.0
 10
1031.4817391578
 20
32.3156688381
 30
0.0
 10
1031.3435585778
 20
32.2491956046
 30
0.0
 10
1031.2742065821
 20
32.1261939519
 30
0.0
 10
1031.2742065821
 20
32.1261939519
 30
0.0
 10
1031.2694958805
 20
32.1261939519
 30
0.0
 10
1031.2694958805
 20
32.1261939519
 30
0.0
 10
1031.2694958805
 20
32.1261939519
 30
0.0
 10
1031.2694958805
 20
33.2661837369
 30
0.0
 10
1031.2694958805
 20
33.2661837369
 30
0.0
 10
1031.2694958805
 20
33.2661837369
 30
0.0
 10
1031.0480929058
 20
33.2661837369
 30
0.0
 10
1031.0480929058
 20
33.2661837369
 30
0.0
  0
LWPOLYLINE
  5
23C
100
AcDbEntity
  8
0
100
AcDbPolyline
 62
7
  6
CONTINUOUS
 90
2
 70
0
 43
0.2
 10
1033.87032657
 20
32.0738528231
 10
1034.0867571375
 20
32.0738528231
  0
LWPOLYLINE
  5
23D
100
AcDbEntity
  8
0
100
AcDbPolyline
 62
7
  6
CONTINUOUS
 90
2
 70
0
 43
0.2
 10
1034.0867571375
 20
32.0738528231
 10
1034.0867571375
 20
32.2806002818
  0
LWPOLYLINE
  5
23E
100
AcDbEntity
  8
0
100
AcDbPolyline
 62
7
  6
CONTINUOUS
 90
2
 70
0
 43
0.2
 10
1034.0867571375
 20
32.2806002818
 10
1033.87032657
 20
32.2806002818
  0
LWPOLYLINE
  5
23F
100
AcDbEntity
  8
0
100
AcDbPolyline
 62
7
  6
CONTINUOUS
 90
2
 70
0
 43
0.2
 10
1033.87032657
 20
32.2806002818
 10
1033.87032657
 20
32.7213125862
  0
LWPOLYLINE
  5
240
100
AcDbEntity
  8
0
100
AcDbPolyline
 62
7
  6
CONTINUOUS
 90
2
 70
0
 43
0.2
 10
1033.87032657
 20
32.7213125862
 10
1033.6486618895
 20
32.7213125862
  0
LWPOLYLINE
  5
241
100
AcDbEntity
  8
0
100
AcDbPolyline
 62
7
  6
CONTINUOUS
 90
2
 70
0
 43
0.2
 10
1033.6486618895
 20
32.7213125862
 10
1033.6486618895
 20
32.2806002818
  0
LWPOLYLINE
  5
242
100
AcDbEntity
  8
0
100
AcDbPolyline
 62
7
  6
CONTINUOUS
 90
2
 70
0
 43
0.2
 10
1033.6486618895
 20
32.2806002818
 10
1033.5280155877
 20
32.2806002818
  0
LWPOLYLINE
  5
243
100
AcDbEntity
  8
0
100
AcDbPolyline
 62
7
  6
CONTINUOUS
 90
2
 70
0
 43
0.2
 10
1033.5280155877
 20
32.2806002818
 10
1033.5280155877
 20
32.0738528231
  0
LWPOLYLINE
  5
244
100
AcDbEntity
  8
0
100
AcDbPolyline
 62
7
  6
CONTINUOUS
 90
2
 70
0
 43
0.2
 10
1033.5280155877
 20
32.0738528231
 10
1033.6486618895
 20
32.0738528231
  0
LWPOLYLINE
  5
245
100
AcDbEntity
  8
0
100
AcDbPolyline
 62
7
  6
CONTINUOUS
 90
2
 70
0
 43
0.2
 10
1033.6486618895
 20
32.0738528231
 10
1033.6486618895
 20
31.1280486259
  0
LWPOLYLINE
  5
246
100
AcDbEntity
  8
0
100
AcDbPolyline
 62
7
  6
CONTINUOUS
 90
2
 70
0
 43
0.2
 10
1033.6486618895
 20
31.1280486259
 10
1033.87032657
 20
31.1280486259
  0
LWPOLYLINE
  5
247
100
AcDbEntity
  8
0
100
AcDbPolyline
 62
7
  6
CONTINUOUS
 90
2
 70
0
 43
0.2
 10
1033.87032657
 20
31.1280486259
 10
1033.87032657
 20
32.0738528231
  0
SPLINE
  5
248
100
AcDbEntity
  8
0
100
AcDbSpline
 62
7
  6
CONTINUOUS
 70
2
 71
3
 72
20
 73
16
 74
0
 42
0.0000001
 43
0.0000001
 44
0.0000000001
 40
0.0
 40
0.0
 40
0.0
 40
0.0
 40
1.0
 40
1.0
 40
1.0
 40
2.0
 40
2.0
 40
2.0
 40
3.0
 40
3.0
 40
3.0
 40
4.0
 40
4.0
 40
4.0
 40
5.0
 40
5.0
 40
5.0
 40
5.0
 10
1021.6523368772
 20
41.4889750693
 30
0.0
 10
1021.6523368772
 20
41.4889750693
 30
0.0
 10
1023.9686935317
 20
38.6594136471
 30
0.0
 10
1023.9686935317
 20
38.6594136471
 30
0.0
 10
1023.3170464783
 20
38.0072431824
 30
0.0
 10
1022.5401732743
 20
37.2713269117
 30
0.0
 10
1021.5689836296
 20
37.2713269117
 30
0.0
 10
1020.5704457452
 20
37.2713269117
 30
0.0
 10
1019.6271277516
 20
38.2009053589
 30
0.0
 10
1019.6271277516
 20
39.2000975075
 30
0.0
 10
1019.6271277516
 20
40.199289656
 30
0.0
 10
1020.8059808247
 20
40.9058948946
 30
0.0
 10
1021.527503285
 20
41.4057526746
 30
0.0
 10
1021.527503285
 20
41.4057526746
 30
0.0
 10
1021.6523368772
 20
41.4889750693
 30
0.0
 10
1021.6523368772
 20
41.4889750693
 30
0.0
  0
SPLINE
  5
249
100
AcDbEntity
  8
0
100
AcDbSpline
 62
7
  6
CONTINUOUS
 70
2
 71
3
 72
23
 73
19
 74
0
 42
0.0000001
 43
0.0000001
 44
0.0000000001
 40
0.0
 40
0.0
 40
0.0
 40
0.0
 40
1.0
 40
1.0
 40
1.0
 40
2.0
 40
2.0
 40
2.0
 40
3.0
 40
3.0
 40
3.0
 40
4.0
 40
4.0
 40
4.0
 40
5.0
 40
5.0
 40
5.0
 40
6.0
 40
6.0
 40
6.0
 40
6.0
 10
1021.9297448598
 20
43.1267289891
 30
0.0
 10
1021.9297448598
 20
43.1267289891
 30
0.0
 10
1021.5832465872
 20
43.5700583499
 30
0.0
 10
1021.5832465872
 20
43.5700583499
 30
0.0
 10
1021.2774435423
 20
43.9581678199
 30
0.0
 10
1020.9585552151
 20
44.3466698483
 30
0.0
 10
1020.9585552151
 20
44.8736141623
 30
0.0
 10
1020.9585552151
 20
45.539785879
 30
0.0
 10
1021.4998933396
 20
45.9835077983
 30
0.0
 10
1022.1237995948
 20
45.9835077983
 30
0.0
 10
1022.8175812568
 20
45.9835077983
 30
0.0
 10
1023.3447872765
 20
45.5812662235
 30
0.0
 10
1023.3447872765
 20
44.8462659226
 30
0.0
 10
1023.3447872765
 20
44.083001412
 30
0.0
 10
1022.6235265218
 20
43.6528881862
 30
0.0
 10
1022.096451355
 20
43.2371687708
 30
0.0
 10
1022.096451355
 20
43.2371687708
 30
0.0
 10
1021.9297448598
 20
43.1267289891
 30
0.0
 10
1021.9297448598
 20
43.1267289891
 30
0.0
  0
SPLINE
  5
24A
100
AcDbEntity
  8
0
100
AcDbSpline
 62
7
  6
CONTINUOUS
 70
2
 71
3
 72
50
 73
46
 74
0
 42
0.0000001
 43
0.0000001
 44
0.0000000001
 40
0.0
 40
0.0
 40
0.0
 40
0.0
 40
1.0
 40
1.0
 40
1.0
 40
2.0
 40
2.0
 40
2.0
 40
3.0
 40
3.0
 40
3.0
 40
4.0
 40
4.0
 40
4.0
 40
5.0
 40
5.0
 40
5.0
 40
6.0
 40
6.0
 40
6.0
 40
7.0
 40
7.0
 40
7.0
 40
8.0
 40
8.0
 40
8.0
 40
9.0
 40
9.0
 40
9.0
 40
10.0
 40
10.0
 40
10.0
 40
11.0
 40
11.0
 40
11.0
 40
12.0
 40
12.0
 40
12.0
 40
13.0
 40
13.0
 40
13.0
 40
14.0
 40
14.0
 40
14.0
 40
15.0
 40
15.0
 40
15.0
 40
15.0
 10
1025.8833320227
 20
36.3281397709
 30
0.0
 10
1025.8833320227
 20
36.3281397709
 30
0.0
 10
1027.4925600273
 20
36.3281397709
 30
0.0
 10
1027.4925600273
 20
36.3281397709
 30
0.0
 10
1027.4925600273
 20
36.3281397709
 30
0.0
 10
1025.6195327336
 20
38.6452815423
 30
0.0
 10
1025.6195327336
 20
38.6452815423
 30
0.0
 10
1025.6195327336
 20
38.6452815423
 30
0.0
 10
1026.8958711591
 20
40.1427612369
 30
0.0
 10
1026.8958711591
 20
40.1427612369
 30
0.0
 10
1026.8958711591
 20
40.1427612369
 30
0.0
 10
1026.0636472114
 20
41.0037728055
 30
0.0
 10
1026.0636472114
 20
41.0037728055
 30
0.0
 10
1026.0636472114
 20
41.0037728055
 30
0.0
 10
1024.8430520881
 20
39.5884686831
 30
0.0
 10
1024.8430520881
 20
39.5884686831
 30
0.0
 10
1024.8430520881
 20
39.5884686831
 30
0.0
 10
1022.6651377192
 20
42.2238445175
 30
0.0
 10
1022.6651377192
 20
42.2238445175
 30
0.0
 10
1023.5387111587
 20
42.8618828774
 30
0.0
 10
1024.5653823998
 20
43.6528881862
 30
0.0
 10
1024.5653823998
 20
44.8317412593
 30
0.0
 10
1024.5653823998
 20
46.2054341843
 30
0.0
 10
1023.42748626
 20
47.0099173338
 30
0.0
 10
1022.1521946571
 20
47.0099173338
 30
0.0
 10
1020.7787634377
 20
47.0099173338
 30
0.0
 10
1019.737829239
 20
46.1636921341
 30
0.0
 10
1019.737829239
 20
44.7210397719
 30
0.0
 10
1019.737829239
 20
43.8334650805
 30
0.0
 10
1020.2931686154
 20
43.0565918765
 30
0.0
 10
1020.8893340723
 20
42.4321622101
 30
0.0
 10
1020.8893340723
 20
42.4321622101
 30
0.0
 10
1020.2374253133
 20
41.9605686397
 30
0.0
 10
1020.2374253133
 20
41.9605686397
 30
0.0
 10
1019.2388874288
 20
41.239307885
 30
0.0
 10
1018.406009217
 20
40.5180471303
 30
0.0
 10
1018.406009217
 20
39.186488814
 30
0.0
 10
1018.406009217
 20
37.382813516
 30
0.0
 10
1019.8630553896
 20
36.1062133849
 30
0.0
 10
1021.610594827
 20
36.1062133849
 30
0.0
 10
1022.8454529079
 20
36.1062133849
 30
0.0
 10
1023.9548231325
 20
36.8143888574
 30
0.0
 10
1024.7456975885
 20
37.742920482
 30
0.0
 10
1024.7456975885
 20
37.742920482
 30
0.0
 10
1025.8833320227
 20
36.3281397709
 30
0.0
 10
1025.8833320227
 20
36.3281397709
 30
0.0
  0
LINE
  5
24B
100
AcDbEntity
  8
0
100
AcDbLine
 62
7
  6
CONTINUOUS
 10
1011.6861933977
 20
34.3020146756
 11
1034.1001041253
 21
34.3020146756
  0
LINE
  5
24C
100
AcDbEntity
  8
0
100
AcDbLine
 62
7
  6
CONTINUOUS
 10
1034.1001041253
 20
34.3020146756
 11
1034.1001041253
 21
56.7159254032
  0
LINE
  5
24D
100
AcDbEntity
  8
0
100
AcDbLine
 62
7
  6
CONTINUOUS
 10
1034.1001041253
 20
56.7159254032
 11
1011.6861933977
 21
56.7159254032
  0
LINE
  5
24E
100
AcDbEntity
  8
0
100
AcDbLine
 62
7
  6
CONTINUOUS
 10
1011.6861933977
 20
56.7159254032
 11
1011.6861933977
 21
34.3020146756
  0
ENDBLK
  5
24F
100
AcDbEntity
  8
0
  6
BYBLOCK
 62
0
100
AcDbBlockEnd
  0
BLOCK
  5
250
100
AcDbEntity
  8
0
100
AcDbBlockBegin
  2
_CLOSED
 70
64
 10
0.0
 20
0.0
  3
_CLOSED
  1

  0
LINE
  5
251
100
AcDbEntity
  8
0
  6
BYBLOCK
 62
0
100
AcDbLine
 10
0.0
 20
0.0
 11
-1.0
 21
0.2
  0
LINE
  5
252
100
AcDbEntity
  8
0
  6
BYBLOCK
 62
0
100
AcDbLine
 10
-1.0
 20
0.2
 11
-1.0
 21
-0.2
  0
LINE
  5
253
100
AcDbEntity
  8
0
  6
BYBLOCK
 62
0
100
AcDbLine
 10
-1.0
 20
-0.2
 11
0.0
 21
0.0
  0
LINE
  5
254
100
AcDbEntity
  8
0
  6
BYBLOCK
 62
0
100
AcDbLine
 10
-1.0
 20
0.0
 11
0.0
 21
0.0
  0
ENDBLK
  5
255
100
AcDbEntity
  8
0
  6
BYBLOCK
 62
0
100
AcDbBlockEnd
  0
BLOCK
  5
256
100
AcDbEntity
  8
0
100
AcDbBlockBegin
 62
7
  6
CONTINUOUS
  2
*D0
 70
65
 10
0.0
 20
0.0
  3
*D0
  1

  0
MTEXT
  5
257
100
AcDbEntity
  8
0
100
AcDbMText
 62
7
  6
CONTINUOUS
  7
STANDARD
 71
2
 72
1
 10
394.7751703278
 20
660.6947100707
 30
0.0
 11
1.0
 21
0.0
 31
0.0
  1
648,05
 40
10.0
 41
42.7137546468
  0
LINE
  5
258
100
AcDbEntity
  8
0
100
AcDbLine
 62
7
  6
CONTINUOUS
 10
718.8001703278
 20
621.4504683745
 11
718.8001703278
 21
648.9447100707
  0
LINE
  5
259
100
AcDbEntity
  8
0
100
AcDbLine
 62
7
  6
CONTINUOUS
 10
70.7501703278
 20
623.8064872135
 11
70.7501703278
 21
648.9447100707
  0
LINE
  5
25A
100
AcDbEntity
  8
0
100
AcDbLine
 62
7
  6
CONTINUOUS
 10
718.8001703278
 20
648.1947100707
 11
394.7751703278
 21
648.1947100707
  0
LINE
  5
25B
100
AcDbEntity
  8
0
100
AcDbLine
 62
7
  6
CONTINUOUS
 10
70.7501703278
 20
648.1947100707
 11
394.7751703278
 21
648.1947100707
  0
INSERT
  5
25C
100
AcDbEntity
  8
0
100
AcDbBlockReference
 62
7
  6
CONTINUOUS
  2
_CLOSED
 10
718.8001703278
 20
648.1947100707
 41
2.5
 42
2.5
 43
2.5
  0
INSERT
  5
25D
100
AcDbEntity
  8
0
100
AcDbBlockReference
 62
7
  6
CONTINUOUS
  2
_CLOSED
 10
70.7501703278
 20
648.1947100707
 41
2.5
 42
2.5
 43
2.5
 50
180.0
  0
ENDBLK
  5
25E
100
AcDbEntity
  8
0
  6
BYBLOCK
 62
0
100
AcDbBlockEnd
  0
BLOCK
  5
25F
100
AcDbEntity
  8
0
100
AcDbBlockBegin
 62
7
  6
CONTINUOUS
  2
*D1
 70
65
 10
0.0
 20
0.0
  3
*D1
  1

  0
MTEXT
  5
260
100
AcDbEntity
  8
0
100
AcDbMText
 62
7
  6
CONTINUOUS
  7
STANDARD
 71
2
 72
1
 10
21.8673958872
 20
322.312789267
 30
0.0
 11
0.0
 21
1.0
 31
0.0
  1
587,5
 40
10.0
 41
34.9442379182
  0
LINE
  5
261
100
AcDbEntity
  8
0
100
AcDbLine
 62
7
  6
CONTINUOUS
 10
62.3812560477
 20
28.562789267
 11
33.6173958872
 21
28.562789267
  0
LINE
  5
262
100
AcDbEntity
  8
0
100
AcDbLine
 62
7
  6
CONTINUOUS
 10
62.3812560477
 20
616.062789267
 11
33.6173958872
 21
616.062789267
  0
LINE
  5
263
100
AcDbEntity
  8
0
100
AcDbLine
 62
7
  6
CONTINUOUS
 10
34.3673958872
 20
28.562789267
 11
34.3673958872
 21
322.312789267
  0
LINE
  5
264
100
AcDbEntity
  8
0
100
AcDbLine
 62
7
  6
CONTINUOUS
 10
34.3673958872
 20
616.062789267
 11
34.3673958872
 21
322.312789267
  0
INSERT
  5
265
100
AcDbEntity
  8
0
100
AcDbBlockReference
 62
7
  6
CONTINUOUS
  2
_CLOSED
 10
34.3673958872
 20
28.562789267
 41
2.5
 42
2.5
 43
2.5
 50
270.0
  0
INSERT
  5
266
100
AcDbEntity
  8
0
100
AcDbBlockReference
 62
7
  6
CONTINUOUS
  2
_CLOSED
 10
34.3673958872
 20
616.062789267
 41
2.5
 42
2.5
 43
2.5
 50
90.0
  0
ENDBLK
  5
267
100
AcDbEntity
  8
0
  6
BYBLOCK
 62
0
100
AcDbBlockEnd
  0
BLOCK
  5
268
100
AcDbEntity
  8
0
100
AcDbBlockBegin
 62
7
  6
CONTINUOUS
  2
*D2
 70
65
 10
0.0
 20
0.0
  3
*D2
  1

  0
MTEXT
  5
269
100
AcDbEntity
  8
0
100
AcDbMText
 62
7
  6
CONTINUOUS
  7
STANDARD
 71
2
 72
1
 10
21.8673958872
 20
761.4566809544
 30
0.0
 11
0.0
 21
1.0
 31
0.0
  1
96
 40
10.0
 41
15.5390334572
  0
LINE
  5
26A
100
AcDbEntity
  8
0
100
AcDbLine
 62
7
  6
CONTINUOUS
 10
54.6568312161
 20
713.4566809544
 11
33.6173958872
 21
713.4566809544
  0
LINE
  5
26B
100
AcDbEntity
  8
0
100
AcDbLine
 62
7
  6
CONTINUOUS
 10
62.3812560477
 20
809.4566809544
 11
33.6173958872
 21
809.4566809544
  0
LINE
  5
26C
100
AcDbEntity
  8
0
100
AcDbLine
 62
7
  6
CONTINUOUS
 10
34.3673958872
 20
713.4566809544
 11
34.3673958872
 21
761.4566809544
  0
LINE
  5
26D
100
AcDbEntity
  8
0
100
AcDbLine
 62
7
  6
CONTINUOUS
 10
34.3673958872
 20
809.4566809544
 11
34.3673958872
 21
761.4566809544
  0
INSERT
  5
26E
100
AcDbEntity
  8
0
100
AcDbBlockReference
 62
7
  6
CONTINUOUS
  2
_CLOSED
 10
34.3673958872
 20
713.4566809544
 41
2.5
 42
2.5
 43
2.5
 50
270.0
  0
INSERT
  5
26F
100
AcDbEntity
  8
0
100
AcDbBlockReference
 62
7
  6
CONTINUOUS
  2
_CLOSED
 10
34.3673958872
 20
809.4566809544
 41
2.5
 42
2.5
 43
2.5
 50
90.0
  0
ENDBLK
  5
270
100
AcDbEntity
  8
0
  6
BYBLOCK
 62
0
100
AcDbBlockEnd
  0
ENDSEC
  0
SECTION
  2
ENTITIES
  0
DIMENSION
  5
271
100
AcDbEntity
  8
0
100
AcDbDimension
 62
7
  6
CONTINUOUS
  2
*D0
 10
70.7501703278
 20
648.1947100707
 11
394.7271177521
 21
648.1947100707
 70
160
  3
DIMSTYLE_1
100
AcDbAlignedDimension
 13
718.8001703278
 23
620.7004683745
 14
70.7501703278
 24
623.0564872135
 50
180.0
100
AcDbRotatedDimension
  0
DIMENSION
  5
272
100
AcDbEntity
  8
0
100
AcDbDimension
 62
7
  6
CONTINUOUS
  2
*D1
 10
34.3673958872
 20
616.062789267
 11
34.3673958872
 21
322.3101580047
 70
160
  3
DIMSTYLE_1
100
AcDbAlignedDimension
 13
63.1312560477
 23
28.562789267
 14
63.1312560477
 24
616.062789267
 50
90.0
100
AcDbRotatedDimension
  0
DIMENSION
  5
273
100
AcDbEntity
  8
0
100
AcDbDimension
 62
7
  6
CONTINUOUS
  2
*D2
 10
34.3673958872
 20
809.4566809544
 11
34.3673958872
 21
761.4298627628
 70
160
  3
DIMSTYLE_2
100
AcDbAlignedDimension
 13
55.4068312161
 23
713.4566809544
 14
63.1312560477
 24
809.4566809544
 50
90.0
100
AcDbRotatedDimension
  0
LINE
  5
274
100
AcDbEntity
  8
0
100
AcDbLine
 62
2
  6
CONTINUOUS
 10
1009.0670362903
 20
57.0922379032
 11
1099.0670362903
 21
57.0922379032
  0
LINE
  5
275
100
AcDbEntity
  8
0
100
AcDbLine
 62
2
  6
CONTINUOUS
 10
1009.0670362903
 20
57.0922379032
 11
1009.0670362903
 21
17.0922379032
  0
LINE
  5
276
100
AcDbEntity
  8
0
100
AcDbLine
 62
2
  6
CONTINUOUS
 10
1039.0670362903
 20
51.0922379032
 11
1099.0670362903
 21
51.0922379032
  0
LINE
  5
277
100
AcDbEntity
  8
0
100
AcDbLine
 62
2
  6
CONTINUOUS
 10
1039.0670362903
 20
45.0922379032
 11
1099.0670362903
 21
45.0922379032
  0
LINE
  5
278
100
AcDbEntity
  8
0
100
AcDbLine
 62
2
  6
CONTINUOUS
 10
1039.0670362903
 20
35.0922379032
 11
1099.0670362903
 21
35.0922379032
  0
LINE
  5
279
100
AcDbEntity
  8
0
100
AcDbLine
 62
2
  6
CONTINUOUS
 10
1009.0670362903
 20
30.0922379032
 11
1099.0670362903
 21
30.0922379032
  0
LINE
  5
27A
100
AcDbEntity
  8
0
100
AcDbLine
 62
2
  6
CONTINUOUS
 10
1009.0670362903
 20
17.0922379032
 11
1099.0670362903
 21
17.0922379032
  0
LINE
  5
27B
100
AcDbEntity
  8
0
100
AcDbLine
 62
2
  6
CONTINUOUS
 10
1039.0670362903
 20
57.0922379032
 11
1039.0670362903
 21
30.0922379032
  0
LINE
  5
27C
100
AcDbEntity
  8
0
100
AcDbLine
 62
2
  6
CONTINUOUS
 10
1079.0670362903
 20
57.0922379032
 11
1079.0670362903
 21
45.0922379032
  0
LINE
  5
27D
100
AcDbEntity
  8
0
100
AcDbLine
 62
2
  6
CONTINUOUS
 10
1099.0670362903
 20
57.0922379032
 11
1099.0670362903
 21
17.0922379032
  0
INSERT
  5
27E
100
AcDbEntity
  8
0
100
AcDbBlockReference
 62
2
  6
CONTINUOUS
  2
LOGO2_BL0
 10
1022.8930833351
 20
43.5922379032
  0
MTEXT
  5
27F
100
AcDbEntity
  8
9_SOLID
100
AcDbMText
 62
2
  6
CONTINUOUS
  7
TEXTSTYLE_2
 71
1
 72
1
 10
1040.5545362903
 20
55.5922379032
 30
0.0
 11
1.0
 21
0.0
 31
0.0
  1
6F4_C_450
 40
3.0
 41
32.25
  0
MTEXT
  5
280
100
AcDbEntity
  8
0
100
AcDbMText
 62
2
  6
CONTINUOUS
  7
TEXTSTYLE_2
 71
1
 72
1
 10
1080.5545362903
 20
55.3422379032
 30
0.0
 11
1.0
 21
0.0
 31
0.0
  1
Rev:00
 40
3.5
 41
22.75
  0
MTEXT
  5
281
100
AcDbEntity
  8
9_SOLID
100
AcDbMText
 62
2
  6
CONTINUOUS
  7
TEXTSTYLE_2
 71
1
 72
1
 10
1040.5545362903
 20
49.3422379032
 30
0.0
 11
1.0
 21
0.0
 31
0.0
  1
Scale:1:1
 40
3.5
 41
28.375
  0
MTEXT
  5
282
100
AcDbEntity
  8
9_SOLID
100
AcDbMText
 62
2
  6
CONTINUOUS
  7
TEXTSTYLE_2
 71
1
 72
1
 10
1080.5545362903
 20
49.8422379032
 30
0.0
 11
1.0
 21
0.0
 31
0.0
  1
A0
 40
3.5
 41
9.625
  0
MTEXT
  5
283
100
AcDbEntity
  8
0
100
AcDbMText
 62
2
  6
CONTINUOUS
  7
TEXTSTYLE_2
 71
1
 72
1
 10
1040.5545362903
 20
41.8422379032
 30
0.0
 11
1.0
 21
0.0
 31
0.0
  1
CASS. ARRETRATA BRENTA2 ANG. PIANO 90°
 40
3.5
 41
158.3375
  0
MTEXT
  5
284
100
AcDbEntity
  8
0
100
AcDbMText
 62
2
  6
CONTINUOUS
  7
TEXTSTYLE_2
 71
1
 72
1
 10
1040.5545362903
 20
33.8422379032
 30
0.0
 11
1.0
 21
0.0
 31
0.0
  1
DATE:08/05/18
 40
2.5
 41
36.875
  0
MTEXT
  5
285
100
AcDbEntity
  8
9_SOLID
100
AcDbMText
 62
2
  6
CONTINUOUS
  7
TEXTSTYLE_2
 71
1
 72
1
 10
1010.5545362903
 20
29.7797379032
 30
0.0
 11
1.0
 21
0.0
 31
0.0
  1
Any integral or partial reproductions are prohibited \Pwithout prior authorisation of L {\Ftxt.shx;\W0.190476;\H2.250000; }& L Luce & Light s.r.l., \Pin accordance with the law in force. \PAll rights reserved.
 40
2.25
 41
134.5982142857
  0
LINE
  5
286
100
AcDbEntity
  8
0
100
AcDbLine
 62
7
  6
CONTINUOUS
 10
0.0
 20
0.0
 11
0.0
 21
841.0
  0
LINE
  5
287
100
AcDbEntity
  8
0
100
AcDbLine
 62
7
  6
CONTINUOUS
 10
0.0
 20
0.0
 11
1189.0
 21
0.0
  0
LINE
  5
288
100
AcDbEntity
  8
0
100
AcDbLine
 62
7
  6
CONTINUOUS
 10
0.0
 20
841.0
 11
1189.0
 21
841.0
  0
LINE
  5
289
100
AcDbEntity
  8
0
100
AcDbLine
 62
7
  6
CONTINUOUS
 10
1189.0
 20
0.0
 11
1189.0
 21
841.0
  0
LINE
  5
28A
100
AcDbEntity
  8
7_ALL_FEATURES
100
AcDbLine
 62
7
  6
CONTINUOUS
 10
70.7501703278
 20
616.062789267
 11
70.7501703278
 21
28.562789267
  0
LINE
  5
28B
100
AcDbEntity
  8
7_ALL_FEATURES
100
AcDbLine
 62
9
  6
CONTINUOUS
 10
71.1046987375
 20
615.7082608574
 11
71.1046987375
 21
28.562789267
  0
LINE
  5
28C
100
AcDbEntity
  8
7_ALL_FEATURES
100
AcDbLine
 62
7
  6
CONTINUOUS
 10
73.2501703278
 20
613.562789267
 11
73.2501703278
 21
473.8461970607
  0
LINE
  5
28D
100
AcDbEntity
  8
7_ALL_FEATURES
100
AcDbLine
 62
7
  6
CONTINUOUS
 10
73.2501703278
 20
467.2793814733
 11
73.2501703278
 21
273.8461970607
  0
LINE
  5
28E
100
AcDbEntity
  8
7_ALL_FEATURES
100
AcDbLine
 62
7
  6
CONTINUOUS
 10
73.2501703278
 20
267.2793814733
 11
73.2501703278
 21
73.8461970607
  0
LINE
  5
28F
100
AcDbEntity
  8
7_ALL_FEATURES
100
AcDbLine
 62
7
  6
CONTINUOUS
 10
73.2501703278
 20
67.2793814733
 11
73.2501703278
 21
28.562789267
  0
LINE
  5
290
100
AcDbEntity
  8
7_ALL_FEATURES
100
AcDbLine
 62
7
  6
CONTINUOUS
 10
75.9501703278
 20
610.862789267
 11
75.9501703278
 21
475.2946775518
  0
LINE
  5
291
100
AcDbEntity
  8
7_ALL_FEATURES
100
AcDbLine
 62
7
  6
CONTINUOUS
 10
75.9501703278
 20
465.8309009822
 11
75.9501703278
 21
275.2946775518
  0
LINE
  5
292
100
AcDbEntity
  8
7_ALL_FEATURES
100
AcDbLine
 62
7
  6
CONTINUOUS
 10
75.9501703278
 20
265.8309009822
 11
75.9501703278
 21
75.2946775518
  0
LINE
  5
293
100
AcDbEntity
  8
7_ALL_FEATURES
100
AcDbLine
 62
7
  6
CONTINUOUS
 10
75.9501703278
 20
65.8309009822
 11
75.9501703278
 21
28.562789267
  0
LINE
  5
294
100
AcDbEntity
  8
7_ALL_FEATURES
100
AcDbLine
 62
7
  6
CONTINUOUS
 10
76.5501703278
 20
610.262789267
 11
76.5501703278
 21
475.3576580597
  0
LINE
  5
295
100
AcDbEntity
  8
7_ALL_FEATURES
100
AcDbLine
 62
7
  6
CONTINUOUS
 10
76.5501703278
 20
465.7679204742
 11
76.5501703278
 21
275.3576580597
  0
LINE
  5
296
100
AcDbEntity
  8
7_ALL_FEATURES
100
AcDbLine
 62
7
  6
CONTINUOUS
 10
76.5501703278
 20
265.7679204742
 11
76.5501703278
 21
75.3576580597
  0
LINE
  5
297
100
AcDbEntity
  8
7_ALL_FEATURES
100
AcDbLine
 62
7
  6
CONTINUOUS
 10
76.5501703278
 20
65.7679204742
 11
76.5501703278
 21
28.562789267
  0
LINE
  5
298
100
AcDbEntity
  8
7_ALL_FEATURES
100
AcDbLine
 62
7
  6
CONTINUOUS
 10
78.9501703278
 20
607.862789267
 11
78.9501703278
 21
474.8278527764
  0
LINE
  5
299
100
AcDbEntity
  8
7_ALL_FEATURES
100
AcDbLine
 62
7
  6
CONTINUOUS
 10
78.9501703278
 20
466.2977257575
 11
78.9501703278
 21
274.8278527764
  0
LINE
  5
29A
100
AcDbEntity
  8
7_ALL_FEATURES
100
AcDbLine
 62
7
  6
CONTINUOUS
 10
78.9501703278
 20
266.2977257575
 11
78.9501703278
 21
74.8278527764
  0
LINE
  5
29B
100
AcDbEntity
  8
7_ALL_FEATURES
100
AcDbLine
 62
7
  6
CONTINUOUS
 10
78.9501703278
 20
66.2977257575
 11
78.9501703278
 21
28.562789267
  0
LINE
  5
29C
100
AcDbEntity
  8
7_ALL_FEATURES
100
AcDbLine
 62
7
  6
CONTINUOUS
 10
79.5501703278
 20
607.262789267
 11
79.5501703278
 21
474.4603226844
  0
LINE
  5
29D
100
AcDbEntity
  8
7_ALL_FEATURES
100
AcDbLine
 62
7
  6
CONTINUOUS
 10
79.5501703278
 20
466.6652558496
 11
79.5501703278
 21
274.4603226844
  0
LINE
  5
29E
100
AcDbEntity
  8
7_ALL_FEATURES
100
AcDbLine
 62
7
  6
CONTINUOUS
 10
79.5501703278
 20
266.6652558496
 11
79.5501703278
 21
74.4603226844
  0
LINE
  5
29F
100
AcDbEntity
  8
7_ALL_FEATURES
100
AcDbLine
 62
7
  6
CONTINUOUS
 10
79.5501703278
 20
66.6652558496
 11
79.5501703278
 21
28.562789267
  0
LINE
  5
2A0
100
AcDbEntity
  8
7_ALL_FEATURES
100
AcDbLine
 62
7
  6
CONTINUOUS
 10
81.9501703278
 20
604.862789267
 11
81.9501703278
 21
28.562789267
  0
LINE
  5
2A1
100
AcDbEntity
  8
7_ALL_FEATURES
100
AcDbLine
 62
7
  6
CONTINUOUS
 10
82.5501703278
 20
604.262789267
 11
82.5501703278
 21
28.562789267
  0
LINE
  5
2A2
100
AcDbEntity
  8
7_ALL_FEATURES
100
AcDbLine
 62
7
  6
CONTINUOUS
 10
84.9501703278
 20
601.862789267
 11
84.9501703278
 21
28.562789267
  0
LINE
  5
2A3
100
AcDbEntity
  8
7_ALL_FEATURES
100
AcDbLine
 62
7
  6
CONTINUOUS
 10
85.5501703278
 20
601.262789267
 11
85.5501703278
 21
28.562789267
  0
LINE
  5
2A4
100
AcDbEntity
  8
7_ALL_FEATURES
100
AcDbLine
 62
7
  6
CONTINUOUS
 10
87.9501703278
 20
598.862789267
 11
87.9501703278
 21
28.562789267
  0
LINE
  5
2A5
100
AcDbEntity
  8
7_ALL_FEATURES
100
AcDbLine
 62
7
  6
CONTINUOUS
 10
88.5501703278
 20
598.262789267
 11
88.5501703278
 21
28.562789267
  0
LINE
  5
2A6
100
AcDbEntity
  8
7_ALL_FEATURES
100
AcDbLine
 62
9
  6
CONTINUOUS
 10
90.7001703278
 20
596.112789267
 11
90.7001703278
 21
28.562789267
  0
LINE
  5
2A7
100
AcDbEntity
  8
7_ALL_FEATURES
100
AcDbLine
 62
7
  6
CONTINUOUS
 10
91.0001703278
 20
28.562789267
 11
91.0001703278
 21
595.812789267
  0
LINE
  5
2A8
100
AcDbEntity
  8
7_ALL_FEATURES
100
AcDbLine
 62
9
  6
CONTINUOUS
 10
91.3001703278
 20
28.562789267
 11
91.3001703278
 21
595.512789267
  0
LINE
  5
2A9
100
AcDbEntity
  8
7_ALL_FEATURES
100
AcDbLine
 62
9
  6
CONTINUOUS
 10
91.9501703278
 20
28.562789267
 11
91.9501703278
 21
594.862789267
  0
LINE
  5
2AA
100
AcDbEntity
  8
7_ALL_FEATURES
100
AcDbLine
 62
7
  6
CONTINUOUS
 10
92.2501703278
 20
28.562789267
 11
92.2501703278
 21
594.562789267
  0
LINE
  5
2AB
100
AcDbEntity
  8
7_ALL_FEATURES
100
AcDbLine
 62
9
  6
CONTINUOUS
 10
92.3121643258
 20
594.5007952691
 11
92.3121643258
 21
28.562789267
  0
LINE
  5
2AC
100
AcDbEntity
  8
7_ALL_FEATURES
100
AcDbLine
 62
7
  6
CONTINUOUS
 10
92.4001703278
 20
28.562789267
 11
92.4001703278
 21
593.562789267
  0
LINE
  5
2AD
100
AcDbEntity
  8
7_ALL_FEATURES
100
AcDbLine
 62
9
  6
CONTINUOUS
 10
92.6001703278
 20
28.562789267
 11
92.6001703278
 21
593.362789267
  0
LINE
  5
2AE
100
AcDbEntity
  8
7_ALL_FEATURES
100
AcDbLine
 62
9
  6
CONTINUOUS
 10
93.4228360433
 20
593.3901235516
 11
93.4228360433
 21
592.5401235516
  0
LINE
  5
2AF
100
AcDbEntity
  8
7_ALL_FEATURES
100
AcDbLine
 62
7
  6
CONTINUOUS
 10
93.4641653752
 20
593.3487942196
 11
93.4641653752
 21
592.4987942196
  0
LINE
  5
2B0
100
AcDbEntity
  8
7_ALL_FEATURES
100
AcDbLine
 62
9
  6
CONTINUOUS
 10
93.5599805591
 20
593.2529790358
 11
93.5599805591
 21
592.4029790358
  0
LINE
  5
2B1
100
AcDbEntity
  8
7_ALL_FEATURES
100
AcDbLine
 62
9
  6
CONTINUOUS
 10
93.7793866695
 20
593.0335729253
 11
93.7793866695
 21
592.1835729253
  0
LINE
  5
2B2
100
AcDbEntity
  8
7_ALL_FEATURES
100
AcDbLine
 62
9
  6
CONTINUOUS
 10
94.8501703278
 20
591.112789267
 11
94.8501703278
 21
591.962789267
  0
LINE
  5
2B3
100
AcDbEntity
  8
7_ALL_FEATURES
100
AcDbLine
 62
7
  6
CONTINUOUS
 10
95.1501703278
 20
590.812789267
 11
95.1501703278
 21
591.662789267
  0
LINE
  5
2B4
100
AcDbEntity
  8
3_ALL_AXES
100
AcDbLine
 62
9
  6
CONTINUOUS
 10
95.2707850863
 20
591.5421745086
 11
95.2707850863
 21
590.6921745086
  0
LINE
  5
2B5
100
AcDbEntity
  8
3_ALL_AXES
100
AcDbLine
 62
9
  6
CONTINUOUS
 10
95.7975642849
 20
590.16539531
 11
95.7975642849
 21
591.01539531
  0
LINE
  5
2B6
100
AcDbEntity
  8
7_ALL_FEATURES
100
AcDbLine
 62
7
  6
CONTINUOUS
 10
95.8156564986
 20
590.1473030962
 11
95.8156564986
 21
590.9973030962
  0
LINE
  5
2B7
100
AcDbEntity
  8
7_ALL_FEATURES
100
AcDbLine
 62
9
  6
CONTINUOUS
 10
99.1132503651
 20
587.6997092298
 11
99.1132503651
 21
586.8497092298
  0
LINE
  5
2B8
100
AcDbEntity
  8
7_ALL_FEATURES
100
AcDbLine
 62
9
  6
CONTINUOUS
 10
99.6013753412
 20
587.2115842537
 11
99.6013753412
 21
586.3615842537
  0
LINE
  5
2B9
100
AcDbEntity
  8
7_ALL_FEATURES
100
AcDbLine
 62
7
  6
CONTINUOUS
 10
159.0001703278
 20
28.562789267
 11
88.5501703278
 21
28.562789267
  0
LINE
  5
2BA
100
AcDbEntity
  8
6_ALL_SURFS
100
AcDbLine
 62
7
  6
CONTINUOUS
 10
88.5501703278
 20
28.562789267
 11
73.2501703278
 21
28.562789267
  0
LINE
  5
2BB
100
AcDbEntity
  8
7_ALL_FEATURES
100
AcDbLine
 62
7
  6
CONTINUOUS
 10
73.2501703278
 20
28.562789267
 11
70.7501748275
 21
28.562789267
  0
LINE
  5
2BC
100
AcDbEntity
  8
6_ALL_SURFS
100
AcDbLine
 62
7
  6
CONTINUOUS
 10
159.0001703278
 20
28.562789267
 11
180.6501658282
 21
28.562789267
  0
LINE
  5
2BD
100
AcDbEntity
  8
7_ALL_FEATURES
100
AcDbLine
 62
9
  6
CONTINUOUS
 10
123.7001703278
 20
562.262789267
 11
123.7001703278
 21
563.112789267
  0
LINE
  5
2BE
100
AcDbEntity
  8
7_ALL_FEATURES
100
AcDbLine
 62
7
  6
CONTINUOUS
 10
124.0001703278
 20
561.962789267
 11
124.0001703278
 21
562.812789267
  0
LINE
  5
2BF
100
AcDbEntity
  8
7_ALL_FEATURES
100
AcDbLine
 62
9
  6
CONTINUOUS
 10
124.3001703278
 20
562.512789267
 11
124.3001703278
 21
561.662789267
  0
LINE
  5
2C0
100
AcDbEntity
  8
7_ALL_FEATURES
100
AcDbLine
 62
9
  6
CONTINUOUS
 10
127.1001703278
 20
559.712789267
 11
127.1001703278
 21
558.862789267
  0
LINE
  5
2C1
100
AcDbEntity
  8
7_ALL_FEATURES
100
AcDbLine
 62
7
  6
CONTINUOUS
 10
127.4001703278
 20
558.562789267
 11
127.4001703278
 21
559.412789267
  0
LINE
  5
2C2
100
AcDbEntity
  8
7_ALL_FEATURES
100
AcDbLine
 62
9
  6
CONTINUOUS
 10
127.7001703278
 20
558.262789267
 11
127.7001703278
 21
559.112789267
  0
LINE
  5
2C3
100
AcDbEntity
  8
7_ALL_FEATURES
100
AcDbLine
 62
9
  6
CONTINUOUS
 10
151.7989653145
 20
535.0139942803
 11
151.7989653145
 21
534.1639942803
  0
LINE
  5
2C4
100
AcDbEntity
  8
7_ALL_FEATURES
100
AcDbLine
 62
9
  6
CONTINUOUS
 10
152.2870902906
 20
534.5258693042
 11
152.2870902906
 21
533.6758693042
  0
LINE
  5
2C5
100
AcDbEntity
  8
6_ALL_SURFS
100
AcDbLine
 62
7
  6
CONTINUOUS
 10
155.5846841571
 20
531.2282754378
 11
155.5846841571
 21
530.3782754378
  0
LINE
  5
2C6
100
AcDbEntity
  8
3_ALL_AXES
100
AcDbLine
 62
9
  6
CONTINUOUS
 10
155.6027763708
 20
530.360183224
 11
155.6027763708
 21
531.210183224
  0
LINE
  5
2C7
100
AcDbEntity
  8
3_ALL_AXES
100
AcDbLine
 62
9
  6
CONTINUOUS
 10
156.1295555694
 20
530.6834040254
 11
156.1295555694
 21
529.8334040254
  0
LINE
  5
2C8
100
AcDbEntity
  8
7_ALL_FEATURES
100
AcDbLine
 62
7
  6
CONTINUOUS
 10
156.2501703278
 20
529.712789267
 11
156.2501703278
 21
530.562789267
  0
LINE
  5
2C9
100
AcDbEntity
  8
7_ALL_FEATURES
100
AcDbLine
 62
9
  6
CONTINUOUS
 10
156.5501703278
 20
529.412789267
 11
156.5501703278
 21
530.262789267
  0
LINE
  5
2CA
100
AcDbEntity
  8
7_ALL_FEATURES
100
AcDbLine
 62
9
  6
CONTINUOUS
 10
157.6209539862
 20
529.1920056087
 11
157.6209539862
 21
528.3420056087
  0
LINE
  5
2CB
100
AcDbEntity
  8
7_ALL_FEATURES
100
AcDbLine
 62
9
  6
CONTINUOUS
 10
157.8403600966
 20
528.9725994982
 11
157.8403600966
 21
528.1225994982
  0
LINE
  5
2CC
100
AcDbEntity
  8
6_ALL_SURFS
100
AcDbLine
 62
7
  6
CONTINUOUS
 10
157.9361752805
 20
528.0267843144
 11
157.9361752805
 21
528.8767843144
  0
LINE
  5
2CD
100
AcDbEntity
  8
7_ALL_FEATURES
100
AcDbLine
 62
9
  6
CONTINUOUS
 10
157.9775046124
 20
528.8354549824
 11
157.9775046124
 21
527.9854549824
  0
LINE
  5
2CE
100
AcDbEntity
  8
7_ALL_FEATURES
100
AcDbLine
 62
9
  6
CONTINUOUS
 10
158.8001703278
 20
28.562789267
 11
158.8001703278
 21
527.162789267
  0
LINE
  5
2CF
100
AcDbEntity
  8
7_ALL_FEATURES
100
AcDbLine
 62
7
  6
CONTINUOUS
 10
159.0001703278
 20
28.562789267
 11
159.0001703278
 21
526.962789267
  0
LINE
  5
2D0
100
AcDbEntity
  8
7_ALL_FEATURES
100
AcDbLine
 62
9
  6
CONTINUOUS
 10
159.0881763299
 20
527.7247832649
 11
159.0881763299
 21
28.562789267
  0
LINE
  5
2D1
100
AcDbEntity
  8
7_ALL_FEATURES
100
AcDbLine
 62
7
  6
CONTINUOUS
 10
159.1501703278
 20
28.562789267
 11
159.1501703278
 21
527.662789267
  0
LINE
  5
2D2
100
AcDbEntity
  8
7_ALL_FEATURES
100
AcDbLine
 62
9
  6
CONTINUOUS
 10
159.4501703278
 20
28.562789267
 11
159.4501703278
 21
527.362789267
  0
LINE
  5
2D3
100
AcDbEntity
  8
7_ALL_FEATURES
100
AcDbLine
 62
9
  6
CONTINUOUS
 10
160.1001703278
 20
28.562789267
 11
160.1001703278
 21
526.712789267
  0
LINE
  5
2D4
100
AcDbEntity
  8
7_ALL_FEATURES
100
AcDbLine
 62
7
  6
CONTINUOUS
 10
160.4001703278
 20
28.562789267
 11
160.4001703278
 21
526.412789267
  0
LINE
  5
2D5
100
AcDbEntity
  8
7_ALL_FEATURES
100
AcDbLine
 62
9
  6
CONTINUOUS
 10
160.7001703278
 20
526.112789267
 11
160.7001703278
 21
28.562789267
  0
LINE
  5
2D6
100
AcDbEntity
  8
7_ALL_FEATURES
100
AcDbLine
 62
7
  6
CONTINUOUS
 10
162.8501703278
 20
523.962789267
 11
162.8501703278
 21
28.562789267
  0
LINE
  5
2D7
100
AcDbEntity
  8
7_ALL_FEATURES
100
AcDbLine
 62
7
  6
CONTINUOUS
 10
163.4501703278
 20
523.362789267
 11
163.4501703278
 21
28.562789267
  0
LINE
  5
2D8
100
AcDbEntity
  8
7_ALL_FEATURES
100
AcDbLine
 62
7
  6
CONTINUOUS
 10
165.8501703278
 20
520.962789267
 11
165.8501703278
 21
28.562789267
  0
LINE
  5
2D9
100
AcDbEntity
  8
7_ALL_FEATURES
100
AcDbLine
 62
7
  6
CONTINUOUS
 10
166.4501703278
 20
520.362789267
 11
166.4501703278
 21
28.562789267
  0
LINE
  5
2DA
100
AcDbEntity
  8
7_ALL_FEATURES
100
AcDbLine
 62
7
  6
CONTINUOUS
 10
168.8501703278
 20
517.962789267
 11
168.8501703278
 21
28.562789267
  0
LINE
  5
2DB
100
AcDbEntity
  8
7_ALL_FEATURES
100
AcDbLine
 62
7
  6
CONTINUOUS
 10
169.4501703278
 20
517.362789267
 11
169.4501703278
 21
28.562789267
  0
LINE
  5
2DC
100
AcDbEntity
  8
7_ALL_FEATURES
100
AcDbLine
 62
7
  6
CONTINUOUS
 10
171.8501703278
 20
514.962789267
 11
171.8501703278
 21
474.4603226844
  0
LINE
  5
2DD
100
AcDbEntity
  8
6_ALL_SURFS
100
AcDbLine
 62
7
  6
CONTINUOUS
 10
171.8501703278
 20
466.6652558496
 11
171.8501703278
 21
274.4603226844
  0
LINE
  5
2DE
100
AcDbEntity
  8
6_ALL_SURFS
100
AcDbLine
 62
7
  6
CONTINUOUS
 10
171.8501703278
 20
266.6652558496
 11
171.8501703278
 21
74.4603226844
  0
LINE
  5
2DF
100
AcDbEntity
  8
6_ALL_SURFS
100
AcDbLine
 62
7
  6
CONTINUOUS
 10
171.8501703278
 20
66.6652558496
 11
171.8501703278
 21
28.562789267
  0
LINE
  5
2E0
100
AcDbEntity
  8
7_ALL_FEATURES
100
AcDbLine
 62
7
  6
CONTINUOUS
 10
172.4501703278
 20
514.362789267
 11
172.4501703278
 21
474.8278527764
  0
LINE
  5
2E1
100
AcDbEntity
  8
6_ALL_SURFS
100
AcDbLine
 62
7
  6
CONTINUOUS
 10
172.4501703278
 20
466.2977257575
 11
172.4501703278
 21
274.8278527764
  0
LINE
  5
2E2
100
AcDbEntity
  8
6_ALL_SURFS
100
AcDbLine
 62
7
  6
CONTINUOUS
 10
172.4501703278
 20
266.2977257575
 11
172.4501703278
 21
74.8278527764
  0
LINE
  5
2E3
100
AcDbEntity
  8
6_ALL_SURFS
100
AcDbLine
 62
7
  6
CONTINUOUS
 10
172.4501703278
 20
66.2977257575
 11
172.4501703278
 21
28.562789267
  0
LINE
  5
2E4
100
AcDbEntity
  8
7_ALL_FEATURES
100
AcDbLine
 62
7
  6
CONTINUOUS
 10
174.8501703278
 20
511.962789267
 11
174.8501703278
 21
475.3576580597
  0
LINE
  5
2E5
100
AcDbEntity
  8
6_ALL_SURFS
100
AcDbLine
 62
7
  6
CONTINUOUS
 10
174.8501703278
 20
465.7679204742
 11
174.8501703278
 21
275.3576580597
  0
LINE
  5
2E6
100
AcDbEntity
  8
6_ALL_SURFS
100
AcDbLine
 62
7
  6
CONTINUOUS
 10
174.8501703278
 20
265.7679204742
 11
174.8501703278
 21
75.3576580597
  0
LINE
  5
2E7
100
AcDbEntity
  8
6_ALL_SURFS
100
AcDbLine
 62
7
  6
CONTINUOUS
 10
174.8501703278
 20
65.7679204742
 11
174.8501703278
 21
28.562789267
  0
LINE
  5
2E8
100
AcDbEntity
  8
7_ALL_FEATURES
100
AcDbLine
 62
7
  6
CONTINUOUS
 10
175.4501703278
 20
511.362789267
 11
175.4501703278
 21
475.2946775518
  0
LINE
  5
2E9
100
AcDbEntity
  8
6_ALL_SURFS
100
AcDbLine
 62
7
  6
CONTINUOUS
 10
175.4501703278
 20
465.8309009822
 11
175.4501703278
 21
275.2946775518
  0
LINE
  5
2EA
100
AcDbEntity
  8
6_ALL_SURFS
100
AcDbLine
 62
7
  6
CONTINUOUS
 10
175.4501703278
 20
265.8309009822
 11
175.4501703278
 21
75.2946775518
  0
LINE
  5
2EB
100
AcDbEntity
  8
6_ALL_SURFS
100
AcDbLine
 62
7
  6
CONTINUOUS
 10
175.4501703278
 20
65.8309009822
 11
175.4501703278
 21
28.562789267
  0
LINE
  5
2EC
100
AcDbEntity
  8
7_ALL_FEATURES
100
AcDbLine
 62
7
  6
CONTINUOUS
 10
178.1501703278
 20
508.662789267
 11
178.1501703278
 21
473.8461970607
  0
LINE
  5
2ED
100
AcDbEntity
  8
6_ALL_SURFS
100
AcDbLine
 62
7
  6
CONTINUOUS
 10
178.1501703278
 20
467.2793814733
 11
178.1501703278
 21
273.8461970607
  0
LINE
  5
2EE
100
AcDbEntity
  8
6_ALL_SURFS
100
AcDbLine
 62
7
  6
CONTINUOUS
 10
178.1501703278
 20
267.2793814733
 11
178.1501703278
 21
73.8461970607
  0
LINE
  5
2EF
100
AcDbEntity
  8
6_ALL_SURFS
100
AcDbLine
 62
7
  6
CONTINUOUS
 10
178.1501703278
 20
67.2793814733
 11
178.1501703278
 21
28.562789267
  0
LINE
  5
2F0
100
AcDbEntity
  8
7_ALL_FEATURES
100
AcDbLine
 62
9
  6
CONTINUOUS
 10
180.2956419182
 20
506.5173176766
 11
180.2956419182
 21
28.562789267
  0
LINE
  5
2F1
100
AcDbEntity
  8
6_ALL_SURFS
100
AcDbLine
 62
7
  6
CONTINUOUS
 10
180.6501703278
 20
28.562789267
 11
180.6501703278
 21
506.162789267
  0
LINE
  5
2F2
100
AcDbEntity
  8
7_ALL_FEATURES
100
AcDbLine
 62
7
  6
CONTINUOUS
 10
159.0001703278
 20
526.962789267
 11
92.4001703278
 21
593.562789267
  0
LINE
  5
2F3
100
AcDbEntity
  8
7_ALL_FEATURES
100
AcDbLine
 62
7
  6
CONTINUOUS
 10
180.650198465
 20
506.1627611298
 11
159.1501703278
 21
527.662789267
  0
LINE
  5
2F4
100
AcDbEntity
  8
7_ALL_FEATURES
100
AcDbLine
 62
7
  6
CONTINUOUS
 10
127.3970395148
 20
559.4159200801
 11
124.0033011409
 21
562.8096584539
  0
LINE
  5
2F5
100
AcDbEntity
  8
7_ALL_FEATURES
100
AcDbLine
 62
7
  6
CONTINUOUS
 10
159.1467621017
 20
527.6661974931
 11
127.4001703278
 21
559.412789267
  0
LINE
  5
2F6
100
AcDbEntity
  8
7_ALL_FEATURES
100
AcDbLine
 62
7
  6
CONTINUOUS
 10
124.0001703278
 20
562.812789267
 11
95.1573531938
 21
591.655606401
  0
LINE
  5
2F7
100
AcDbEntity
  8
7_ALL_FEATURES
100
AcDbLine
 62
7
  6
CONTINUOUS
 10
95.1501703278
 20
591.662789267
 11
92.2535785539
 21
594.5593810409
  0
LINE
  5
2F8
100
AcDbEntity
  8
7_ALL_FEATURES
100
AcDbLine
 62
7
  6
CONTINUOUS
 10
92.2501703278
 20
594.562789267
 11
70.7501421907
 21
616.0628174042
  0
LINE
  5
2F9
100
AcDbEntity
  8
7_ALL_FEATURES
100
AcDbLine
 62
7
  6
CONTINUOUS
 10
160.4001703278
 20
527.812789267
 11
93.8001703278
 21
594.412789267
  0
LINE
  5
2FA
100
AcDbEntity
  8
7_ALL_FEATURES
100
AcDbLine
 62
7
  6
CONTINUOUS
 10
180.6501703278
 20
506.162789267
 11
718.8001703278
 21
506.162789267
  0
LINE
  5
2FB
100
AcDbEntity
  8
7_ALL_FEATURES
100
AcDbLine
 62
9
  6
CONTINUOUS
 10
180.2956419182
 20
506.5173176766
 11
718.8001703278
 21
506.5173176766
  0
LINE
  5
2FC
100
AcDbEntity
  8
7_ALL_FEATURES
100
AcDbLine
 62
7
  6
CONTINUOUS
 10
178.1501703278
 20
508.662789267
 11
222.5167625341
 21
508.662789267
  0
LINE
  5
2FD
100
AcDbEntity
  8
7_ALL_FEATURES
100
AcDbLine
 62
7
  6
CONTINUOUS
 10
229.0835781216
 20
508.662789267
 11
422.5167625341
 21
508.662789267
  0
LINE
  5
2FE
100
AcDbEntity
  8
7_ALL_FEATURES
100
AcDbLine
 62
7
  6
CONTINUOUS
 10
429.0835781216
 20
508.662789267
 11
622.5167625341
 21
508.662789267
  0
LINE
  5
2FF
100
AcDbEntity
  8
7_ALL_FEATURES
100
AcDbLine
 62
7
  6
CONTINUOUS
 10
629.0835781216
 20
508.662789267
 11
718.8001703278
 21
508.662789267
  0
LINE
  5
300
100
AcDbEntity
  8
7_ALL_FEATURES
100
AcDbLine
 62
7
  6
CONTINUOUS
 10
175.4501703278
 20
511.362789267
 11
221.0682820431
 21
511.362789267
  0
LINE
  5
301
100
AcDbEntity
  8
7_ALL_FEATURES
100
AcDbLine
 62
7
  6
CONTINUOUS
 10
230.5320586126
 20
511.362789267
 11
421.0682820431
 21
511.362789267
  0
LINE
  5
302
100
AcDbEntity
  8
7_ALL_FEATURES
100
AcDbLine
 62
7
  6
CONTINUOUS
 10
430.5320586126
 20
511.362789267
 11
621.0682820431
 21
511.362789267
  0
LINE
  5
303
100
AcDbEntity
  8
7_ALL_FEATURES
100
AcDbLine
 62
7
  6
CONTINUOUS
 10
630.5320586126
 20
511.362789267
 11
718.8001703278
 21
511.362789267
  0
LINE
  5
304
100
AcDbEntity
  8
7_ALL_FEATURES
100
AcDbLine
 62
7
  6
CONTINUOUS
 10
174.8501703278
 20
511.962789267
 11
221.0053015351
 21
511.962789267
  0
LINE
  5
305
100
AcDbEntity
  8
7_ALL_FEATURES
100
AcDbLine
 62
7
  6
CONTINUOUS
 10
230.5950391206
 20
511.962789267
 11
421.0053015351
 21
511.962789267
  0
LINE
  5
306
100
AcDbEntity
  8
7_ALL_FEATURES
100
AcDbLine
 62
7
  6
CONTINUOUS
 10
430.5950391206
 20
511.962789267
 11
621.0053015351
 21
511.962789267
  0
LINE
  5
307
100
AcDbEntity
  8
7_ALL_FEATURES
100
AcDbLine
 62
7
  6
CONTINUOUS
 10
630.5950391206
 20
511.962789267
 11
718.8001703278
 21
511.962789267
  0
LINE
  5
308
100
AcDbEntity
  8
7_ALL_FEATURES
100
AcDbLine
 62
7
  6
CONTINUOUS
 10
172.4501703278
 20
514.362789267
 11
221.5351068184
 21
514.362789267
  0
LINE
  5
309
100
AcDbEntity
  8
7_ALL_FEATURES
100
AcDbLine
 62
7
  6
CONTINUOUS
 10
230.0652338373
 20
514.362789267
 11
421.5351068184
 21
514.362789267
  0
LINE
  5
30A
100
AcDbEntity
  8
7_ALL_FEATURES
100
AcDbLine
 62
7
  6
CONTINUOUS
 10
430.0652338373
 20
514.362789267
 11
621.5351068184
 21
514.362789267
  0
LINE
  5
30B
100
AcDbEntity
  8
7_ALL_FEATURES
100
AcDbLine
 62
7
  6
CONTINUOUS
 10
630.0652338373
 20
514.362789267
 11
718.8001703278
 21
514.362789267
  0
LINE
  5
30C
100
AcDbEntity
  8
7_ALL_FEATURES
100
AcDbLine
 62
7
  6
CONTINUOUS
 10
171.8501703278
 20
514.962789267
 11
221.9026369105
 21
514.962789267
  0
LINE
  5
30D
100
AcDbEntity
  8
7_ALL_FEATURES
100
AcDbLine
 62
7
  6
CONTINUOUS
 10
229.6977037452
 20
514.962789267
 11
421.9026369105
 21
514.962789267
  0
LINE
  5
30E
100
AcDbEntity
  8
7_ALL_FEATURES
100
AcDbLine
 62
7
  6
CONTINUOUS
 10
429.6977037452
 20
514.962789267
 11
621.9026369105
 21
514.962789267
  0
LINE
  5
30F
100
AcDbEntity
  8
7_ALL_FEATURES
100
AcDbLine
 62
7
  6
CONTINUOUS
 10
629.6977037452
 20
514.962789267
 11
718.8001703278
 21
514.962789267
  0
LINE
  5
310
100
AcDbEntity
  8
7_ALL_FEATURES
100
AcDbLine
 62
7
  6
CONTINUOUS
 10
169.4501703278
 20
517.362789267
 11
718.8001703278
 21
517.362789267
  0
LINE
  5
311
100
AcDbEntity
  8
7_ALL_FEATURES
100
AcDbLine
 62
7
  6
CONTINUOUS
 10
168.8501703278
 20
517.962789267
 11
718.8001703278
 21
517.962789267
  0
LINE
  5
312
100
AcDbEntity
  8
7_ALL_FEATURES
100
AcDbLine
 62
7
  6
CONTINUOUS
 10
166.4501703278
 20
520.362789267
 11
718.8001703278
 21
520.362789267
  0
LINE
  5
313
100
AcDbEntity
  8
7_ALL_FEATURES
100
AcDbLine
 62
7
  6
CONTINUOUS
 10
165.8501703278
 20
520.962789267
 11
718.8001703278
 21
520.962789267
  0
LINE
  5
314
100
AcDbEntity
  8
7_ALL_FEATURES
100
AcDbLine
 62
7
  6
CONTINUOUS
 10
163.4501703278
 20
523.362789267
 11
718.8001703278
 21
523.362789267
  0
LINE
  5
315
100
AcDbEntity
  8
7_ALL_FEATURES
100
AcDbLine
 62
7
  6
CONTINUOUS
 10
162.8501703278
 20
523.962789267
 11
718.8001703278
 21
523.962789267
  0
LINE
  5
316
100
AcDbEntity
  8
7_ALL_FEATURES
100
AcDbLine
 62
9
  6
CONTINUOUS
 10
160.7001703278
 20
526.112789267
 11
718.8001703278
 21
526.112789267
  0
LINE
  5
317
100
AcDbEntity
  8
7_ALL_FEATURES
100
AcDbLine
 62
7
  6
CONTINUOUS
 10
718.8001703278
 20
526.412789267
 11
160.4001703278
 21
526.412789267
  0
LINE
  5
318
100
AcDbEntity
  8
7_ALL_FEATURES
100
AcDbLine
 62
9
  6
CONTINUOUS
 10
718.8001703278
 20
526.712789267
 11
160.1001703278
 21
526.712789267
  0
LINE
  5
319
100
AcDbEntity
  8
7_ALL_FEATURES
100
AcDbLine
 62
9
  6
CONTINUOUS
 10
718.8001703278
 20
527.362789267
 11
159.4501703278
 21
527.362789267
  0
LINE
  5
31A
100
AcDbEntity
  8
7_ALL_FEATURES
100
AcDbLine
 62
7
  6
CONTINUOUS
 10
718.8001703278
 20
527.662789267
 11
159.1501703278
 21
527.662789267
  0
LINE
  5
31B
100
AcDbEntity
  8
7_ALL_FEATURES
100
AcDbLine
 62
9
  6
CONTINUOUS
 10
159.0881763299
 20
527.7247832649
 11
718.8001703278
 21
527.7247832649
  0
LINE
  5
31C
100
AcDbEntity
  8
7_ALL_FEATURES
100
AcDbLine
 62
7
  6
CONTINUOUS
 10
160.4001703278
 20
527.812789267
 11
718.8001703278
 21
527.812789267
  0
LINE
  5
31D
100
AcDbEntity
  8
7_ALL_FEATURES
100
AcDbLine
 62
9
  6
CONTINUOUS
 10
160.2001703278
 20
528.012789267
 11
718.8001703278
 21
528.012789267
  0
LINE
  5
31E
100
AcDbEntity
  8
7_ALL_FEATURES
100
AcDbLine
 62
9
  6
CONTINUOUS
 10
157.9775046124
 20
528.8354549824
 11
159.3775046124
 21
528.8354549824
  0
LINE
  5
31F
100
AcDbEntity
  8
7_ALL_FEATURES
100
AcDbLine
 62
7
  6
CONTINUOUS
 10
157.9361752805
 20
528.8767843144
 11
159.3361752805
 21
528.8767843144
  0
LINE
  5
320
100
AcDbEntity
  8
7_ALL_FEATURES
100
AcDbLine
 62
9
  6
CONTINUOUS
 10
157.8403600966
 20
528.9725994982
 11
159.2403600966
 21
528.9725994982
  0
LINE
  5
321
100
AcDbEntity
  8
7_ALL_FEATURES
100
AcDbLine
 62
9
  6
CONTINUOUS
 10
157.6209539862
 20
529.1920056087
 11
159.0209539862
 21
529.1920056087
  0
LINE
  5
322
100
AcDbEntity
  8
7_ALL_FEATURES
100
AcDbLine
 62
9
  6
CONTINUOUS
 10
157.9501703278
 20
530.262789267
 11
156.5501703278
 21
530.262789267
  0
LINE
  5
323
100
AcDbEntity
  8
7_ALL_FEATURES
100
AcDbLine
 62
7
  6
CONTINUOUS
 10
157.6501703278
 20
530.562789267
 11
156.2501703278
 21
530.562789267
  0
LINE
  5
324
100
AcDbEntity
  8
3_ALL_AXES
100
AcDbLine
 62
9
  6
CONTINUOUS
 10
156.1295555694
 20
530.6834040254
 11
157.5295555694
 21
530.6834040254
  0
LINE
  5
325
100
AcDbEntity
  8
3_ALL_AXES
100
AcDbLine
 62
9
  6
CONTINUOUS
 10
157.0027763708
 20
531.210183224
 11
155.6027763708
 21
531.210183224
  0
LINE
  5
326
100
AcDbEntity
  8
7_ALL_FEATURES
100
AcDbLine
 62
7
  6
CONTINUOUS
 10
156.9846841571
 20
531.2282754378
 11
155.5846841571
 21
531.2282754378
  0
LINE
  5
327
100
AcDbEntity
  8
7_ALL_FEATURES
100
AcDbLine
 62
9
  6
CONTINUOUS
 10
152.2870902906
 20
534.5258693042
 11
153.6870902906
 21
534.5258693042
  0
LINE
  5
328
100
AcDbEntity
  8
7_ALL_FEATURES
100
AcDbLine
 62
9
  6
CONTINUOUS
 10
151.7989653145
 20
535.0139942803
 11
153.1989653145
 21
535.0139942803
  0
LINE
  5
329
100
AcDbEntity
  8
7_ALL_FEATURES
100
AcDbLine
 62
9
  6
CONTINUOUS
 10
129.1001703278
 20
559.112789267
 11
127.7001703278
 21
559.112789267
  0
LINE
  5
32A
100
AcDbEntity
  8
7_ALL_FEATURES
100
AcDbLine
 62
7
  6
CONTINUOUS
 10
128.8001703278
 20
559.412789267
 11
127.4001703278
 21
559.412789267
  0
LINE
  5
32B
100
AcDbEntity
  8
7_ALL_FEATURES
100
AcDbLine
 62
9
  6
CONTINUOUS
 10
127.1001703278
 20
559.712789267
 11
128.5001703278
 21
559.712789267
  0
LINE
  5
32C
100
AcDbEntity
  8
7_ALL_FEATURES
100
AcDbLine
 62
9
  6
CONTINUOUS
 10
124.3001703278
 20
562.512789267
 11
125.7001703278
 21
562.512789267
  0
LINE
  5
32D
100
AcDbEntity
  8
7_ALL_FEATURES
100
AcDbLine
 62
7
  6
CONTINUOUS
 10
125.4001703278
 20
562.812789267
 11
124.0001703278
 21
562.812789267
  0
LINE
  5
32E
100
AcDbEntity
  8
7_ALL_FEATURES
100
AcDbLine
 62
9
  6
CONTINUOUS
 10
125.1001703278
 20
563.112789267
 11
123.7001703278
 21
563.112789267
  0
LINE
  5
32F
100
AcDbEntity
  8
7_ALL_FEATURES
100
AcDbLine
 62
9
  6
CONTINUOUS
 10
99.6013753412
 20
587.2115842537
 11
101.0013753412
 21
587.2115842537
  0
LINE
  5
330
100
AcDbEntity
  8
7_ALL_FEATURES
100
AcDbLine
 62
9
  6
CONTINUOUS
 10
99.1132503651
 20
587.6997092298
 11
100.5132503651
 21
587.6997092298
  0
LINE
  5
331
100
AcDbEntity
  8
6_ALL_SURFS
100
AcDbLine
 62
7
  6
CONTINUOUS
 10
95.8156564986
 20
590.9973030962
 11
97.2156564986
 21
590.9973030962
  0
LINE
  5
332
100
AcDbEntity
  8
3_ALL_AXES
100
AcDbLine
 62
9
  6
CONTINUOUS
 10
97.1975642849
 20
591.01539531
 11
95.7975642849
 21
591.01539531
  0
LINE
  5
333
100
AcDbEntity
  8
3_ALL_AXES
100
AcDbLine
 62
9
  6
CONTINUOUS
 10
95.2707850863
 20
591.5421745086
 11
96.6707850863
 21
591.5421745086
  0
LINE
  5
334
100
AcDbEntity
  8
7_ALL_FEATURES
100
AcDbLine
 62
7
  6
CONTINUOUS
 10
96.5501703278
 20
591.662789267
 11
95.1501703278
 21
591.662789267
  0
LINE
  5
335
100
AcDbEntity
  8
7_ALL_FEATURES
100
AcDbLine
 62
9
  6
CONTINUOUS
 10
96.2501703278
 20
591.962789267
 11
94.8501703278
 21
591.962789267
  0
LINE
  5
336
100
AcDbEntity
  8
7_ALL_FEATURES
100
AcDbLine
 62
9
  6
CONTINUOUS
 10
93.7793866695
 20
593.0335729253
 11
95.1793866695
 21
593.0335729253
  0
LINE
  5
337
100
AcDbEntity
  8
7_ALL_FEATURES
100
AcDbLine
 62
9
  6
CONTINUOUS
 10
93.5599805591
 20
593.2529790358
 11
94.9599805591
 21
593.2529790358
  0
LINE
  5
338
100
AcDbEntity
  8
6_ALL_SURFS
100
AcDbLine
 62
7
  6
CONTINUOUS
 10
94.8641653752
 20
593.3487942196
 11
93.4641653752
 21
593.3487942196
  0
LINE
  5
339
100
AcDbEntity
  8
7_ALL_FEATURES
100
AcDbLine
 62
9
  6
CONTINUOUS
 10
93.4228360433
 20
593.3901235516
 11
94.8228360433
 21
593.3901235516
  0
LINE
  5
33A
100
AcDbEntity
  8
7_ALL_FEATURES
100
AcDbLine
 62
9
  6
CONTINUOUS
 10
94.0001703278
 20
594.212789267
 11
718.8001703278
 21
594.212789267
  0
LINE
  5
33B
100
AcDbEntity
  8
7_ALL_FEATURES
100
AcDbLine
 62
7
  6
CONTINUOUS
 10
93.8001703278
 20
594.412789267
 11
718.8001703278
 21
594.412789267
  0
LINE
  5
33C
100
AcDbEntity
  8
7_ALL_FEATURES
100
AcDbLine
 62
9
  6
CONTINUOUS
 10
92.3121643258
 20
594.5007952691
 11
718.8001703278
 21
594.5007952691
  0
LINE
  5
33D
100
AcDbEntity
  8
7_ALL_FEATURES
100
AcDbLine
 62
7
  6
CONTINUOUS
 10
718.8001703278
 20
594.562789267
 11
92.2501703278
 21
594.562789267
  0
LINE
  5
33E
100
AcDbEntity
  8
7_ALL_FEATURES
100
AcDbLine
 62
9
  6
CONTINUOUS
 10
718.8001703278
 20
594.862789267
 11
91.9501703278
 21
594.862789267
  0
LINE
  5
33F
100
AcDbEntity
  8
7_ALL_FEATURES
100
AcDbLine
 62
9
  6
CONTINUOUS
 10
718.8001703278
 20
595.512789267
 11
91.3001703278
 21
595.512789267
  0
LINE
  5
340
100
AcDbEntity
  8
7_ALL_FEATURES
100
AcDbLine
 62
7
  6
CONTINUOUS
 10
718.8001703278
 20
595.812789267
 11
91.0001703278
 21
595.812789267
  0
LINE
  5
341
100
AcDbEntity
  8
7_ALL_FEATURES
100
AcDbLine
 62
9
  6
CONTINUOUS
 10
90.7001703278
 20
596.112789267
 11
718.8001703278
 21
596.112789267
  0
LINE
  5
342
100
AcDbEntity
  8
7_ALL_FEATURES
100
AcDbLine
 62
7
  6
CONTINUOUS
 10
88.5501703278
 20
598.262789267
 11
718.8001703278
 21
598.262789267
  0
LINE
  5
343
100
AcDbEntity
  8
7_ALL_FEATURES
100
AcDbLine
 62
7
  6
CONTINUOUS
 10
87.9501703278
 20
598.862789267
 11
718.8001703278
 21
598.862789267
  0
LINE
  5
344
100
AcDbEntity
  8
7_ALL_FEATURES
100
AcDbLine
 62
7
  6
CONTINUOUS
 10
85.5501703278
 20
601.262789267
 11
718.8001703278
 21
601.262789267
  0
LINE
  5
345
100
AcDbEntity
  8
7_ALL_FEATURES
100
AcDbLine
 62
7
  6
CONTINUOUS
 10
84.9501703278
 20
601.862789267
 11
718.8001703278
 21
601.862789267
  0
LINE
  5
346
100
AcDbEntity
  8
7_ALL_FEATURES
100
AcDbLine
 62
7
  6
CONTINUOUS
 10
82.5501703278
 20
604.262789267
 11
718.8001703278
 21
604.262789267
  0
LINE
  5
347
100
AcDbEntity
  8
7_ALL_FEATURES
100
AcDbLine
 62
7
  6
CONTINUOUS
 10
81.9501703278
 20
604.862789267
 11
718.8001703278
 21
604.862789267
  0
LINE
  5
348
100
AcDbEntity
  8
7_ALL_FEATURES
100
AcDbLine
 62
7
  6
CONTINUOUS
 10
79.5501703278
 20
607.262789267
 11
221.9026369105
 21
607.262789267
  0
LINE
  5
349
100
AcDbEntity
  8
6_ALL_SURFS
100
AcDbLine
 62
7
  6
CONTINUOUS
 10
229.6977037452
 20
607.262789267
 11
421.9026369105
 21
607.262789267
  0
LINE
  5
34A
100
AcDbEntity
  8
6_ALL_SURFS
100
AcDbLine
 62
7
  6
CONTINUOUS
 10
429.6977037452
 20
607.262789267
 11
621.9026369105
 21
607.262789267
  0
LINE
  5
34B
100
AcDbEntity
  8
6_ALL_SURFS
100
AcDbLine
 62
7
  6
CONTINUOUS
 10
629.6977037452
 20
607.262789267
 11
718.8001703278
 21
607.262789267
  0
LINE
  5
34C
100
AcDbEntity
  8
7_ALL_FEATURES
100
AcDbLine
 62
7
  6
CONTINUOUS
 10
78.9501703278
 20
607.862789267
 11
221.5351068184
 21
607.862789267
  0
LINE
  5
34D
100
AcDbEntity
  8
6_ALL_SURFS
100
AcDbLine
 62
7
  6
CONTINUOUS
 10
230.0652338373
 20
607.862789267
 11
421.5351068184
 21
607.862789267
  0
LINE
  5
34E
100
AcDbEntity
  8
6_ALL_SURFS
100
AcDbLine
 62
7
  6
CONTINUOUS
 10
430.0652338373
 20
607.862789267
 11
621.5351068184
 21
607.862789267
  0
LINE
  5
34F
100
AcDbEntity
  8
6_ALL_SURFS
100
AcDbLine
 62
7
  6
CONTINUOUS
 10
630.0652338373
 20
607.862789267
 11
718.8001703278
 21
607.862789267
  0
LINE
  5
350
100
AcDbEntity
  8
7_ALL_FEATURES
100
AcDbLine
 62
7
  6
CONTINUOUS
 10
76.5501703278
 20
610.262789267
 11
221.0053015351
 21
610.262789267
  0
LINE
  5
351
100
AcDbEntity
  8
6_ALL_SURFS
100
AcDbLine
 62
7
  6
CONTINUOUS
 10
230.5950391206
 20
610.262789267
 11
421.0053015351
 21
610.262789267
  0
LINE
  5
352
100
AcDbEntity
  8
6_ALL_SURFS
100
AcDbLine
 62
7
  6
CONTINUOUS
 10
430.5950391206
 20
610.262789267
 11
621.0053015351
 21
610.262789267
  0
LINE
  5
353
100
AcDbEntity
  8
6_ALL_SURFS
100
AcDbLine
 62
7
  6
CONTINUOUS
 10
630.5950391206
 20
610.262789267
 11
718.8001703278
 21
610.262789267
  0
LINE
  5
354
100
AcDbEntity
  8
7_ALL_FEATURES
100
AcDbLine
 62
7
  6
CONTINUOUS
 10
75.9501703278
 20
610.862789267
 11
221.0682820431
 21
610.862789267
  0
LINE
  5
355
100
AcDbEntity
  8
6_ALL_SURFS
100
AcDbLine
 62
7
  6
CONTINUOUS
 10
230.5320586126
 20
610.862789267
 11
421.0682820431
 21
610.862789267
  0
LINE
  5
356
100
AcDbEntity
  8
6_ALL_SURFS
100
AcDbLine
 62
7
  6
CONTINUOUS
 10
430.5320586126
 20
610.862789267
 11
621.0682820431
 21
610.862789267
  0
LINE
  5
357
100
AcDbEntity
  8
6_ALL_SURFS
100
AcDbLine
 62
7
  6
CONTINUOUS
 10
630.5320586126
 20
610.862789267
 11
718.8001703278
 21
610.862789267
  0
LINE
  5
358
100
AcDbEntity
  8
7_ALL_FEATURES
100
AcDbLine
 62
7
  6
CONTINUOUS
 10
73.2501703278
 20
613.562789267
 11
222.5167625341
 21
613.562789267
  0
LINE
  5
359
100
AcDbEntity
  8
6_ALL_SURFS
100
AcDbLine
 62
7
  6
CONTINUOUS
 10
229.0835781216
 20
613.562789267
 11
422.5167625341
 21
613.562789267
  0
LINE
  5
35A
100
AcDbEntity
  8
6_ALL_SURFS
100
AcDbLine
 62
7
  6
CONTINUOUS
 10
429.0835781216
 20
613.562789267
 11
622.5167625341
 21
613.562789267
  0
LINE
  5
35B
100
AcDbEntity
  8
6_ALL_SURFS
100
AcDbLine
 62
7
  6
CONTINUOUS
 10
629.0835781216
 20
613.562789267
 11
718.8001703278
 21
613.562789267
  0
LINE
  5
35C
100
AcDbEntity
  8
7_ALL_FEATURES
100
AcDbLine
 62
9
  6
CONTINUOUS
 10
71.1046987375
 20
615.7082608574
 11
718.8001703278
 21
615.7082608574
  0
LINE
  5
35D
100
AcDbEntity
  8
6_ALL_SURFS
100
AcDbLine
 62
7
  6
CONTINUOUS
 10
718.8001703278
 20
616.062789267
 11
70.7501703278
 21
616.062789267
  0
LINE
  5
35E
100
AcDbEntity
  8
6_ALL_SURFS
100
AcDbLine
 62
7
  6
CONTINUOUS
 10
718.8001703278
 20
523.962789267
 11
718.8001703278
 21
508.662789267
  0
LINE
  5
35F
100
AcDbEntity
  8
7_ALL_FEATURES
100
AcDbLine
 62
7
  6
CONTINUOUS
 10
718.8001703278
 20
508.662789267
 11
718.8001703278
 21
506.1627937666
  0
LINE
  5
360
100
AcDbEntity
  8
7_ALL_FEATURES
100
AcDbLine
 62
7
  6
CONTINUOUS
 10
718.8001703278
 20
523.962789267
 11
718.8001703278
 21
594.412789267
  0
LINE
  5
361
100
AcDbEntity
  8
6_ALL_SURFS
100
AcDbLine
 62
7
  6
CONTINUOUS
 10
718.8001703278
 20
594.412789267
 11
718.8001703278
 21
616.0627847674
  0
LINE
  5
362
100
AcDbEntity
  8
6_ALL_SURFS
100
AcDbLine
 62
7
  6
CONTINUOUS
 10
890.0449458454
 20
28.562789267
 11
889.8949458454
 21
28.562789267
  0
LINE
  5
363
100
AcDbEntity
  8
7_ALL_FEATURES
100
AcDbLine
 62
7
  6
CONTINUOUS
 10
892.5449458454
 20
28.562789267
 11
890.0449458454
 21
28.562789267
  0
LINE
  5
364
100
AcDbEntity
  8
7_ALL_FEATURES
100
AcDbLine
 62
7
  6
CONTINUOUS
 10
889.8597508751
 20
28.562789267
 11
801.5449458454
 21
28.562789267
  0
LINE
  5
365
100
AcDbEntity
  8
7_ALL_FEATURES
100
AcDbLine
 62
7
  6
CONTINUOUS
 10
795.2449458454
 20
575.362789267
 11
795.7449458454
 21
575.862789267
  0
LINE
  5
366
100
AcDbEntity
  8
7_ALL_FEATURES
100
AcDbLine
 62
7
  6
CONTINUOUS
 10
795.2449458454
 20
547.012789267
 11
795.7449458454
 21
547.512789267
  0
LINE
  5
367
100
AcDbEntity
  8
7_ALL_FEATURES
100
AcDbLine
 62
7
  6
CONTINUOUS
 10
872.5219483053
 20
595.6598198194
 11
870.3595847222
 21
593.6433831565
  0
LINE
  5
368
100
AcDbEntity
  8
7_ALL_FEATURES
100
AcDbLine
 62
7
  6
CONTINUOUS
 10
830.6789204416
 20
500.062789267
 11
829.8128950378
 21
498.562789267
  0
LINE
  5
369
100
AcDbEntity
  8
7_ALL_FEATURES
100
AcDbLine
 62
7
  6
CONTINUOUS
 10
832.4109712492
 20
497.062789267
 11
833.276996653
 21
498.562789267
  0
LINE
  5
36A
100
AcDbEntity
  8
7_ALL_FEATURES
100
AcDbLine
 62
7
  6
CONTINUOUS
 10
890.0449458454
 20
613.862789267
 11
889.8949458454
 21
613.562789267
  0
LINE
  5
36B
100
AcDbEntity
  8
7_ALL_FEATURES
100
AcDbLine
 62
7
  6
CONTINUOUS
 10
795.2449458454
 20
543.012789267
 11
795.2449458454
 21
547.012789267
  0
LINE
  5
36C
100
AcDbEntity
  8
7_ALL_FEATURES
100
AcDbLine
 62
7
  6
CONTINUOUS
 10
795.2449458454
 20
571.362789267
 11
795.2449458454
 21
575.362789267
  0
LINE
  5
36D
100
AcDbEntity
  8
7_ALL_FEATURES
100
AcDbLine
 62
7
  6
CONTINUOUS
 10
795.7449458454
 20
542.512789267
 11
795.7449458454
 21
547.512789267
  0
LINE
  5
36E
100
AcDbEntity
  8
7_ALL_FEATURES
100
AcDbLine
 62
7
  6
CONTINUOUS
 10
795.7449458454
 20
570.862789267
 11
795.7449458454
 21
575.862789267
  0
LINE
  5
36F
100
AcDbEntity
  8
3_ALL_AXES
100
AcDbLine
 62
7
  6
CONTINUOUS
 10
796.5449458454
 20
577.2206730995
 11
796.5449458454
 21
568.5206730995
  0
LINE
  5
370
100
AcDbEntity
  8
3_ALL_AXES
100
AcDbLine
 62
7
  6
CONTINUOUS
 10
796.5449458454
 20
549.2206730995
 11
796.5449458454
 21
540.5206730995
  0
LINE
  5
371
100
AcDbEntity
  8
7_ALL_FEATURES
100
AcDbLine
 62
3
  6
CONTINUOUS
 10
798.5449458454
 20
585.3706730995
 11
798.5449458454
 21
530.3706730995
  0
LINE
  5
372
100
AcDbEntity
  8
7_ALL_FEATURES
100
AcDbLine
 62
7
  6
CONTINUOUS
 10
801.5449458454
 20
28.562789267
 11
801.5449458454
 21
587.5706730995
  0
LINE
  5
373
100
AcDbEntity
  8
7_ALL_FEATURES
100
AcDbLine
 62
9
  6
CONTINUOUS
 10
801.8449458454
 20
28.562789267
 11
801.8449458454
 21
587.8706730995
  0
LINE
  5
374
100
AcDbEntity
  8
7_ALL_FEATURES
100
AcDbLine
 62
9
  6
CONTINUOUS
 10
802.5449458454
 20
28.562789267
 11
802.5449458454
 21
587.8706730995
  0
LINE
  5
375
100
AcDbEntity
  8
7_ALL_FEATURES
100
AcDbLine
 62
7
  6
CONTINUOUS
 10
802.8449458454
 20
28.562789267
 11
802.8449458454
 21
587.5706730995
  0
LINE
  5
376
100
AcDbEntity
  8
7_ALL_FEATURES
100
AcDbLine
 62
9
  6
CONTINUOUS
 10
803.5646428151
 20
586.0780138004
 11
803.5646428151
 21
28.562789267
  0
LINE
  5
377
100
AcDbEntity
  8
7_ALL_FEATURES
100
AcDbLine
 62
9
  6
CONTINUOUS
 10
806.1949458454
 20
585.9876603976
 11
806.1949458454
 21
28.562789267
  0
LINE
  5
378
100
AcDbEntity
  8
7_ALL_FEATURES
100
AcDbLine
 62
7
  6
CONTINUOUS
 10
806.9449458454
 20
28.562789267
 11
806.9449458454
 21
587.6930302698
  0
LINE
  5
379
100
AcDbEntity
  8
7_ALL_FEATURES
100
AcDbLine
 62
9
  6
CONTINUOUS
 10
808.1199749709
 20
28.562789267
 11
808.1199749709
 21
589.1574051981
  0
LINE
  5
37A
100
AcDbEntity
  8
7_ALL_FEATURES
100
AcDbLine
 62
9
  6
CONTINUOUS
 10
826.0844360569
 20
28.562789267
 11
826.0844360569
 21
593.1440390281
  0
LINE
  5
37B
100
AcDbEntity
  8
3_ALL_AXES
100
AcDbLine
 62
9
  6
CONTINUOUS
 10
827.1676723053
 20
28.562789267
 11
827.1676723053
 21
497.5190094268
  0
LINE
  5
37C
100
AcDbEntity
  8
3_ALL_AXES
100
AcDbLine
 62
9
  6
CONTINUOUS
 10
827.1676723053
 20
499.6065691072
 11
827.1676723053
 21
593.262789267
  0
LINE
  5
37D
100
AcDbEntity
  8
7_ALL_FEATURES
100
AcDbLine
 62
9
  6
CONTINUOUS
 10
862.3449458454
 20
593.262789267
 11
862.3449458454
 21
28.562789267
  0
LINE
  5
37E
100
AcDbEntity
  8
7_ALL_FEATURES
100
AcDbLine
 62
7
  6
CONTINUOUS
 10
862.6449458454
 20
28.562789267
 11
862.6449458454
 21
594.662789267
  0
LINE
  5
37F
100
AcDbEntity
  8
7_ALL_FEATURES
100
AcDbLine
 62
9
  6
CONTINUOUS
 10
864.1449458454
 20
28.562789267
 11
864.1449458454
 21
596.162789267
  0
LINE
  5
380
100
AcDbEntity
  8
7_ALL_FEATURES
100
AcDbLine
 62
9
  6
CONTINUOUS
 10
866.9449458454
 20
28.562789267
 11
866.9449458454
 21
596.162789267
  0
LINE
  5
381
100
AcDbEntity
  8
7_ALL_FEATURES
100
AcDbLine
 62
7
  6
CONTINUOUS
 10
868.4449458454
 20
28.562789267
 11
868.4449458454
 21
594.662789267
  0
LINE
  5
382
100
AcDbEntity
  8
7_ALL_FEATURES
100
AcDbLine
 62
9
  6
CONTINUOUS
 10
868.7449458454
 20
593.562789267
 11
868.7449458454
 21
28.562789267
  0
LINE
  5
383
100
AcDbEntity
  8
7_ALL_FEATURES
100
AcDbLine
 62
9
  6
CONTINUOUS
 10
870.1549852142
 20
593.562789267
 11
870.1549852142
 21
28.562789267
  0
LINE
  5
384
100
AcDbEntity
  8
7_ALL_FEATURES
100
AcDbLine
 62
9
  6
CONTINUOUS
 10
870.3595847222
 20
593.6433831565
 11
870.3595847222
 21
28.562789267
  0
LINE
  5
385
100
AcDbEntity
  8
7_ALL_FEATURES
100
AcDbLine
 62
9
  6
CONTINUOUS
 10
872.5219483053
 20
28.562789267
 11
872.5219483053
 21
595.6598198194
  0
LINE
  5
386
100
AcDbEntity
  8
7_ALL_FEATURES
100
AcDbLine
 62
9
  6
CONTINUOUS
 10
873.5449458454
 20
28.562789267
 11
873.5449458454
 21
596.062789267
  0
LINE
  5
387
100
AcDbEntity
  8
7_ALL_FEATURES
100
AcDbLine
 62
7
  6
CONTINUOUS
 10
877.0530534727
 20
596.062789267
 11
877.0530534727
 21
28.562789267
  0
LINE
  5
388
100
AcDbEntity
  8
7_ALL_FEATURES
100
AcDbLine
 62
7
  6
CONTINUOUS
 10
880.0329863578
 20
596.062789267
 11
880.0329863578
 21
28.562789267
  0
LINE
  5
389
100
AcDbEntity
  8
7_ALL_FEATURES
100
AcDbLine
 62
9
  6
CONTINUOUS
 10
889.7449458454
 20
596.062789267
 11
889.7449458454
 21
28.562789267
  0
LINE
  5
38A
100
AcDbEntity
  8
7_ALL_FEATURES
100
AcDbLine
 62
7
  6
CONTINUOUS
 10
889.8949458454
 20
613.562789267
 11
889.8949458454
 21
28.562789267
  0
LINE
  5
38B
100
AcDbEntity
  8
7_ALL_FEATURES
100
AcDbLine
 62
7
  6
CONTINUOUS
 10
890.0449458454
 20
615.6690859091
 11
890.0449458454
 21
28.562789267
  0
LINE
  5
38C
100
AcDbEntity
  8
7_ALL_FEATURES
100
AcDbLine
 62
9
  6
CONTINUOUS
 10
890.8303986864
 20
615.7082608574
 11
890.8303986864
 21
28.562789267
  0
LINE
  5
38D
100
AcDbEntity
  8
7_ALL_FEATURES
100
AcDbLine
 62
7
  6
CONTINUOUS
 10
891.0449458454
 20
613.562789267
 11
891.0449458454
 21
28.562789267
  0
LINE
  5
38E
100
AcDbEntity
  8
7_ALL_FEATURES
100
AcDbLine
 62
9
  6
CONTINUOUS
 10
891.3449458454
 20
595.812789267
 11
891.3449458454
 21
28.562789267
  0
LINE
  5
38F
100
AcDbEntity
  8
7_ALL_FEATURES
100
AcDbLine
 62
9
  6
CONTINUOUS
 10
892.2449458454
 20
28.562789267
 11
892.2449458454
 21
595.812789267
  0
LINE
  5
390
100
AcDbEntity
  8
7_ALL_FEATURES
100
AcDbLine
 62
7
  6
CONTINUOUS
 10
892.5449458454
 20
28.562789267
 11
892.5449458454
 21
595.512789267
  0
LINE
  5
391
100
AcDbEntity
  8
7_ALL_FEATURES
100
AcDbLine
 62
7
  6
CONTINUOUS
 10
891.0449458454
 20
613.562789267
 11
890.8303986864
 21
615.7082608574
  0
LINE
  5
392
100
AcDbEntity
  8
7_ALL_FEATURES
100
AcDbLine
 62
7
  6
CONTINUOUS
 10
829.8128950378
 20
498.562789267
 11
830.6789204416
 21
497.062789267
  0
LINE
  5
393
100
AcDbEntity
  8
7_ALL_FEATURES
100
AcDbLine
 62
7
  6
CONTINUOUS
 10
833.276996653
 20
498.562789267
 11
832.4109712492
 21
500.062789267
  0
LINE
  5
394
100
AcDbEntity
  8
7_ALL_FEATURES
100
AcDbLine
 62
7
  6
CONTINUOUS
 10
795.2449458454
 20
543.012789267
 11
795.7449458454
 21
542.512789267
  0
LINE
  5
395
100
AcDbEntity
  8
7_ALL_FEATURES
100
AcDbLine
 62
7
  6
CONTINUOUS
 10
795.2449458454
 20
571.362789267
 11
795.7449458454
 21
570.862789267
  0
LINE
  5
396
100
AcDbEntity
  8
7_ALL_FEATURES
100
AcDbLine
 62
7
  6
CONTINUOUS
 10
830.6789204416
 20
497.062789267
 11
832.4109712492
 21
497.062789267
  0
LINE
  5
397
100
AcDbEntity
  8
7_ALL_FEATURES
100
AcDbLine
 62
7
  6
CONTINUOUS
 10
832.4109712492
 20
500.062789267
 11
830.6789204416
 21
500.062789267
  0
LINE
  5
398
100
AcDbEntity
  8
7_ALL_FEATURES
100
AcDbLine
 62
7
  6
CONTINUOUS
 10
798.5449458454
 20
530.3706730995
 11
801.5449458454
 21
530.3706730995
  0
LINE
  5
399
100
AcDbEntity
  8
3_ALL_AXES
100
AcDbLine
 62
7
  6
CONTINUOUS
 10
796.5449458454
 20
540.5206730995
 11
798.5449458454
 21
540.5206730995
  0
LINE
  5
39A
100
AcDbEntity
  8
3_ALL_AXES
100
AcDbLine
 62
7
  6
CONTINUOUS
 10
795.7449458454
 20
542.512789267
 11
796.5449458454
 21
542.512789267
  0
LINE
  5
39B
100
AcDbEntity
  8
3_ALL_AXES
100
AcDbLine
 62
7
  6
CONTINUOUS
 10
795.7449458454
 20
547.512789267
 11
796.5449458454
 21
547.512789267
  0
LINE
  5
39C
100
AcDbEntity
  8
3_ALL_AXES
100
AcDbLine
 62
7
  6
CONTINUOUS
 10
796.5449458454
 20
549.2206730995
 11
798.5449458454
 21
549.2206730995
  0
LINE
  5
39D
100
AcDbEntity
  8
3_ALL_AXES
100
AcDbLine
 62
7
  6
CONTINUOUS
 10
796.5449458454
 20
568.5206730995
 11
798.5449458454
 21
568.5206730995
  0
LINE
  5
39E
100
AcDbEntity
  8
3_ALL_AXES
100
AcDbLine
 62
7
  6
CONTINUOUS
 10
795.7449458454
 20
570.862789267
 11
796.5449458454
 21
570.862789267
  0
LINE
  5
39F
100
AcDbEntity
  8
3_ALL_AXES
100
AcDbLine
 62
7
  6
CONTINUOUS
 10
795.7449458454
 20
575.862789267
 11
796.5449458454
 21
575.862789267
  0
LINE
  5
3A0
100
AcDbEntity
  8
3_ALL_AXES
100
AcDbLine
 62
7
  6
CONTINUOUS
 10
796.5449458454
 20
577.2206730995
 11
798.5449458454
 21
577.2206730995
  0
LINE
  5
3A1
100
AcDbEntity
  8
7_ALL_FEATURES
100
AcDbLine
 62
7
  6
CONTINUOUS
 10
826.0844360569
 20
593.1440390281
 11
808.1199749709
 21
589.1574051981
  0
LINE
  5
3A2
100
AcDbEntity
  8
7_ALL_FEATURES
100
AcDbLine
 62
7
  6
CONTINUOUS
 10
798.5449458454
 20
585.3706730995
 11
801.5449458454
 21
585.3706730995
  0
LINE
  5
3A3
100
AcDbEntity
  8
7_ALL_FEATURES
100
AcDbLine
 62
7
  6
CONTINUOUS
 10
802.5449458454
 20
587.8706730995
 11
801.8449458454
 21
587.8706730995
  0
LINE
  5
3A4
100
AcDbEntity
  8
7_ALL_FEATURES
100
AcDbLine
 62
7
  6
CONTINUOUS
 10
862.3449458454
 20
593.262789267
 11
827.1676723053
 21
593.262789267
  0
LINE
  5
3A5
100
AcDbEntity
  8
7_ALL_FEATURES
100
AcDbLine
 62
7
  6
CONTINUOUS
 10
870.1549852142
 20
593.562789267
 11
868.7449458454
 21
593.562789267
  0
LINE
  5
3A6
100
AcDbEntity
  8
7_ALL_FEATURES
100
AcDbLine
 62
7
  6
CONTINUOUS
 10
892.2449458454
 20
595.812789267
 11
891.3449458454
 21
595.812789267
  0
LINE
  5
3A7
100
AcDbEntity
  8
7_ALL_FEATURES
100
AcDbLine
 62
7
  6
CONTINUOUS
 10
889.7449458454
 20
596.062789267
 11
880.0329863578
 21
596.062789267
  0
LINE
  5
3A8
100
AcDbEntity
  8
7_ALL_FEATURES
100
AcDbLine
 62
7
  6
CONTINUOUS
 10
877.0530534727
 20
596.062789267
 11
873.5449458454
 21
596.062789267
  0
LINE
  5
3A9
100
AcDbEntity
  8
7_ALL_FEATURES
100
AcDbLine
 62
7
  6
CONTINUOUS
 10
866.9449458454
 20
596.162789267
 11
864.1449458454
 21
596.162789267
  0
LINE
  5
3AA
100
AcDbEntity
  8
7_ALL_FEATURES
100
AcDbLine
 62
7
  6
CONTINUOUS
 10
90.6501703278
 20
783.8566809544
 11
90.6501703278
 21
781.0566809544
  0
LINE
  5
3AB
100
AcDbEntity
  8
7_ALL_FEATURES
100
AcDbLine
 62
7
  6
CONTINUOUS
 10
90.7501703278
 20
806.6566809544
 11
90.7501703278
 21
796.9447214668
  0
LINE
  5
3AC
100
AcDbEntity
  8
7_ALL_FEATURES
100
AcDbLine
 62
7
  6
CONTINUOUS
 10
90.7501703278
 20
793.9647885817
 11
90.7501703278
 21
790.4566809544
  0
LINE
  5
3AD
100
AcDbEntity
  8
7_ALL_FEATURES
100
AcDbLine
 62
7
  6
CONTINUOUS
 10
91.0001703278
 20
809.1566809544
 11
91.0001703278
 21
808.2566809544
  0
LINE
  5
3AE
100
AcDbEntity
  8
7_ALL_FEATURES
100
AcDbLine
 62
7
  6
CONTINUOUS
 10
92.2501703278
 20
790.5748540971
 11
92.2501703278
 21
791.6566809544
  0
LINE
  5
3AF
100
AcDbEntity
  8
7_ALL_FEATURES
100
AcDbLine
 62
7
  6
CONTINUOUS
 10
92.2501703278
 20
793.9085172321
 11
92.2501703278
 21
794.5715789376
  0
LINE
  5
3B0
100
AcDbEntity
  8
7_ALL_FEATURES
100
AcDbLine
 62
7
  6
CONTINUOUS
 10
92.2501703278
 20
796.3379311109
 11
92.2501703278
 21
809.1566809544
  0
LINE
  5
3B1
100
AcDbEntity
  8
7_ALL_FEATURES
100
AcDbLine
 62
7
  6
CONTINUOUS
 10
92.4001703278
 20
794.2566809544
 11
92.4001703278
 21
793.6566809544
  0
LINE
  5
3B2
100
AcDbEntity
  8
7_ALL_FEATURES
100
AcDbLine
 62
7
  6
CONTINUOUS
 10
93.2501703278
 20
787.0667203232
 11
93.2501703278
 21
785.6566809544
  0
LINE
  5
3B3
100
AcDbEntity
  8
7_ALL_FEATURES
100
AcDbLine
 62
7
  6
CONTINUOUS
 10
93.5501703278
 20
779.2566809544
 11
93.5501703278
 21
744.0794074143
  0
LINE
  5
3B4
100
AcDbEntity
  8
7_ALL_FEATURES
100
AcDbLine
 62
7
  6
CONTINUOUS
 10
93.6501703278
 20
793.2566809544
 11
93.6501703278
 21
792.6366809544
  0
LINE
  5
3B5
100
AcDbEntity
  8
7_ALL_FEATURES
100
AcDbLine
 62
7
  6
CONTINUOUS
 10
94.4501703278
 20
792.6366809544
 11
94.4501703278
 21
792.7566809544
  0
LINE
  5
3B6
100
AcDbEntity
  8
7_ALL_FEATURES
100
AcDbLine
 62
7
  6
CONTINUOUS
 10
94.8501703278
 20
786.9324168857
 11
94.8501703278
 21
785.3809450231
  0
LINE
  5
3B7
100
AcDbEntity
  8
7_ALL_FEATURES
100
AcDbLine
 62
7
  6
CONTINUOUS
 10
95.0501703278
 20
792.9566809544
 11
95.0501703278
 21
792.6366809544
  0
LINE
  5
3B8
100
AcDbEntity
  8
7_ALL_FEATURES
100
AcDbLine
 62
7
  6
CONTINUOUS
 10
95.1501703278
 20
746.4060874128
 11
95.1501703278
 21
781.3597154429
  0
LINE
  5
3B9
100
AcDbEntity
  8
7_ALL_FEATURES
100
AcDbLine
 62
7
  6
CONTINUOUS
 10
95.1501703278
 20
783.5536464659
 11
95.1501703278
 21
784.8324168857
  0
LINE
  5
3BA
100
AcDbEntity
  8
7_ALL_FEATURES
100
AcDbLine
 62
7
  6
CONTINUOUS
 10
95.1501703278
 20
787.4809450231
 11
95.1501703278
 21
788.6566809544
  0
LINE
  5
3BB
100
AcDbEntity
  8
7_ALL_FEATURES
100
AcDbLine
 62
7
  6
CONTINUOUS
 10
95.8501703278
 20
792.6366809544
 11
95.8501703278
 21
792.7566809544
  0
LINE
  5
3BC
100
AcDbEntity
  8
7_ALL_FEATURES
100
AcDbLine
 62
7
  6
CONTINUOUS
 10
98.9422864954
 20
719.4566809544
 11
98.9422864954
 21
718.7566809544
  0
LINE
  5
3BD
100
AcDbEntity
  8
7_ALL_FEATURES
100
AcDbLine
 62
7
  6
CONTINUOUS
 10
101.4422864954
 20
715.4566809544
 11
101.4422864954
 21
718.4566809544
  0
LINE
  5
3BE
100
AcDbEntity
  8
7_ALL_FEATURES
100
AcDbLine
 62
7
  6
CONTINUOUS
 10
106.0501703278
 20
718.7566809544
 11
106.0501703278
 21
721.7066809544
  0
LINE
  5
3BF
100
AcDbEntity
  8
3_ALL_AXES
100
AcDbLine
 62
7
  6
CONTINUOUS
 10
108.4501703278
 20
726.1566809544
 11
108.4501703278
 21
725.8566809544
  0
LINE
  5
3C0
100
AcDbEntity
  8
3_ALL_AXES
100
AcDbLine
 62
7
  6
CONTINUOUS
 10
109.5922864954
 20
713.4566809544
 11
109.5922864954
 21
715.4566809544
  0
LINE
  5
3C1
100
AcDbEntity
  8
7_ALL_FEATURES
100
AcDbLine
 62
7
  6
CONTINUOUS
 10
110.9501703278
 20
723.3566809544
 11
110.9501703278
 21
718.4566809544
  0
LINE
  5
3C2
100
AcDbEntity
  8
7_ALL_FEATURES
100
AcDbLine
 62
7
  6
CONTINUOUS
 10
110.9501703278
 20
713.4566809544
 11
110.9501703278
 21
712.6566809544
  0
LINE
  5
3C3
100
AcDbEntity
  8
7_ALL_FEATURES
100
AcDbLine
 62
7
  6
CONTINUOUS
 10
95.7975642849
 20
744.274733173
 11
95.2707850863
 21
745.7220471261
  0
LINE
  5
3C4
100
AcDbEntity
  8
7_ALL_FEATURES
100
AcDbLine
 62
7
  6
CONTINUOUS
 10
93.6689205667
 20
742.9961711659
 11
97.6555543967
 21
725.0317100799
  0
LINE
  5
3C5
100
AcDbEntity
  8
7_ALL_FEATURES
100
AcDbLine
 62
7
  6
CONTINUOUS
 10
99.1132503651
 20
725.8483573296
 11
95.204477351
 21
743.4619641215
  0
LINE
  5
3C6
100
AcDbEntity
  8
7_ALL_FEATURES
100
AcDbLine
 62
7
  6
CONTINUOUS
 10
115.9501703278
 20
723.3566809544
 11
115.9501703278
 21
718.4566809544
  0
LINE
  5
3C7
100
AcDbEntity
  8
7_ALL_FEATURES
100
AcDbLine
 62
7
  6
CONTINUOUS
 10
115.9501703278
 20
713.4566809544
 11
115.9501703278
 21
712.6566809544
  0
LINE
  5
3C8
100
AcDbEntity
  8
7_ALL_FEATURES
100
AcDbLine
 62
7
  6
CONTINUOUS
 10
118.2001703278
 20
726.4566809544
 11
118.2001703278
 21
725.4566809544
  0
LINE
  5
3C9
100
AcDbEntity
  8
3_ALL_AXES
100
AcDbLine
 62
7
  6
CONTINUOUS
 10
118.2922864954
 20
713.4566809544
 11
118.2922864954
 21
715.4566809544
  0
LINE
  5
3CA
100
AcDbEntity
  8
7_ALL_FEATURES
100
AcDbLine
 62
7
  6
CONTINUOUS
 10
121.7001703278
 20
728.4848841847
 11
121.7001703278
 21
726.4566809544
  0
LINE
  5
3CB
100
AcDbEntity
  8
7_ALL_FEATURES
100
AcDbLine
 62
7
  6
CONTINUOUS
 10
122.1001703278
 20
723.5566809544
 11
122.1001703278
 21
719.9566809544
  0
LINE
  5
3CC
100
AcDbEntity
  8
7_ALL_FEATURES
100
AcDbLine
 62
7
  6
CONTINUOUS
 10
123.7001703278
 20
729.2864933713
 11
123.7001703278
 21
729.3026476468
  0
LINE
  5
3CD
100
AcDbEntity
  8
7_ALL_FEATURES
100
AcDbLine
 62
7
  6
CONTINUOUS
 10
124.0001703278
 20
720.3566809544
 11
124.0001703278
 21
725.1566809544
  0
LINE
  5
3CE
100
AcDbEntity
  8
3_ALL_AXES
100
AcDbLine
 62
7
  6
CONTINUOUS
 10
125.0922864954
 20
713.4566809544
 11
125.0922864954
 21
715.4566809544
  0
LINE
  5
3CF
100
AcDbEntity
  8
7_ALL_FEATURES
100
AcDbLine
 62
7
  6
CONTINUOUS
 10
125.2001703278
 20
729.2864933713
 11
125.2001703278
 21
729.5253696797
  0
LINE
  5
3D0
100
AcDbEntity
  8
7_ALL_FEATURES
100
AcDbLine
 62
7
  6
CONTINUOUS
 10
126.2001703278
 20
729.5253696797
 11
126.2001703278
 21
729.2864933713
  0
LINE
  5
3D1
100
AcDbEntity
  8
7_ALL_FEATURES
100
AcDbLine
 62
7
  6
CONTINUOUS
 10
126.4422864954
 20
715.4566809544
 11
126.4422864954
 21
718.4566809544
  0
LINE
  5
3D2
100
AcDbEntity
  8
7_ALL_FEATURES
100
AcDbLine
 62
7
  6
CONTINUOUS
 10
126.8001703278
 20
713.4566809544
 11
126.8001703278
 21
712.6566809544
  0
LINE
  5
3D3
100
AcDbEntity
  8
6_ALL_SURFS
100
AcDbLine
 62
7
  6
CONTINUOUS
 10
127.4001703278
 20
720.3566809544
 11
127.4001703278
 21
725.1566809544
  0
LINE
  5
3D4
100
AcDbEntity
  8
7_ALL_FEATURES
100
AcDbLine
 62
7
  6
CONTINUOUS
 10
127.7001703278
 20
729.3026476468
 11
127.7001703278
 21
729.2864933713
  0
LINE
  5
3D5
100
AcDbEntity
  8
6_ALL_SURFS
100
AcDbLine
 62
7
  6
CONTINUOUS
 10
129.3001703278
 20
723.5566809544
 11
129.3001703278
 21
719.9566809544
  0
LINE
  5
3D6
100
AcDbEntity
  8
7_ALL_FEATURES
100
AcDbLine
 62
7
  6
CONTINUOUS
 10
129.7001703278
 20
728.4848841847
 11
129.7001703278
 21
726.4566809544
  0
LINE
  5
3D7
100
AcDbEntity
  8
7_ALL_FEATURES
100
AcDbLine
 62
7
  6
CONTINUOUS
 10
131.8001703278
 20
713.4566809544
 11
131.8001703278
 21
712.6566809544
  0
LINE
  5
3D8
100
AcDbEntity
  8
7_ALL_FEATURES
100
AcDbLine
 62
7
  6
CONTINUOUS
 10
133.2001703278
 20
725.4566809544
 11
133.2001703278
 21
726.4566809544
  0
LINE
  5
3D9
100
AcDbEntity
  8
3_ALL_AXES
100
AcDbLine
 62
7
  6
CONTINUOUS
 10
133.7922864954
 20
713.4566809544
 11
133.7922864954
 21
715.4566809544
  0
LINE
  5
3DA
100
AcDbEntity
  8
3_ALL_AXES
100
AcDbLine
 62
7
  6
CONTINUOUS
 10
134.3001703278
 20
726.1566809544
 11
134.3001703278
 21
725.8566809544
  0
LINE
  5
3DB
100
AcDbEntity
  8
7_ALL_FEATURES
100
AcDbLine
 62
7
  6
CONTINUOUS
 10
104.0359820101
 20
720.2956151955
 11
105.0110886489
 21
718.6066809544
  0
LINE
  5
3DC
100
AcDbEntity
  8
6_ALL_SURFS
100
AcDbLine
 62
7
  6
CONTINUOUS
 10
145.3501703278
 20
718.7566809544
 11
145.3501703278
 21
721.7066809544
  0
LINE
  5
3DD
100
AcDbEntity
  8
6_ALL_SURFS
100
AcDbLine
 62
7
  6
CONTINUOUS
 10
152.4580541603
 20
719.4566809544
 11
152.4580541603
 21
718.7566809544
  0
LINE
  5
3DE
100
AcDbEntity
  8
3_ALL_AXES
100
AcDbLine
 62
7
  6
CONTINUOUS
 10
155.2501703278
 20
753.4566809544
 11
155.2501703278
 21
743.4566809544
  0
LINE
  5
3DF
100
AcDbEntity
  8
3_ALL_AXES
100
AcDbLine
 62
7
  6
CONTINUOUS
 10
155.5501703278
 20
753.4566809544
 11
155.5501703278
 21
743.4566809544
  0
LINE
  5
3E0
100
AcDbEntity
  8
6_ALL_SURFS
100
AcDbLine
 62
7
  6
CONTINUOUS
 10
156.2501703278
 20
746.4060874128
 11
156.2501703278
 21
781.3597154429
  0
LINE
  5
3E1
100
AcDbEntity
  8
6_ALL_SURFS
100
AcDbLine
 62
7
  6
CONTINUOUS
 10
156.2501703278
 20
783.5536464659
 11
156.2501703278
 21
784.8324168857
  0
LINE
  5
3E2
100
AcDbEntity
  8
6_ALL_SURFS
100
AcDbLine
 62
7
  6
CONTINUOUS
 10
156.2501703278
 20
787.4809450231
 11
156.2501703278
 21
788.6566809544
  0
LINE
  5
3E3
100
AcDbEntity
  8
7_ALL_FEATURES
100
AcDbLine
 62
7
  6
CONTINUOUS
 10
156.4422864954
 20
715.4566809544
 11
156.4422864954
 21
718.4566809544
  0
LINE
  5
3E4
100
AcDbEntity
  8
6_ALL_SURFS
100
AcDbLine
 62
7
  6
CONTINUOUS
 10
156.5501703278
 20
786.9324168857
 11
156.5501703278
 21
785.3809450231
  0
LINE
  5
3E5
100
AcDbEntity
  8
7_ALL_FEATURES
100
AcDbLine
 62
7
  6
CONTINUOUS
 10
156.9501703278
 20
792.7566809544
 11
156.9501703278
 21
792.6366809544
  0
LINE
  5
3E6
100
AcDbEntity
  8
7_ALL_FEATURES
100
AcDbLine
 62
7
  6
CONTINUOUS
 10
157.7501703278
 20
792.6366809544
 11
157.7501703278
 21
793.2566809544
  0
LINE
  5
3E7
100
AcDbEntity
  8
6_ALL_SURFS
100
AcDbLine
 62
7
  6
CONTINUOUS
 10
157.8501703278
 20
779.2566809544
 11
157.8501703278
 21
744.0794074143
  0
LINE
  5
3E8
100
AcDbEntity
  8
7_ALL_FEATURES
100
AcDbLine
 62
3
  6
CONTINUOUS
 10
157.8501703278
 20
739.9566809544
 11
157.8501703278
 21
744.0794074143
  0
LINE
  5
3E9
100
AcDbEntity
  8
6_ALL_SURFS
100
AcDbLine
 62
7
  6
CONTINUOUS
 10
158.1501703278
 20
787.0667203232
 11
158.1501703278
 21
785.6566809544
  0
LINE
  5
3EA
100
AcDbEntity
  8
7_ALL_FEATURES
100
AcDbLine
 62
7
  6
CONTINUOUS
 10
159.0001703278
 20
793.6566809544
 11
159.0001703278
 21
794.2566809544
  0
LINE
  5
3EB
100
AcDbEntity
  8
6_ALL_SURFS
100
AcDbLine
 62
7
  6
CONTINUOUS
 10
159.1501703278
 20
790.5748540971
 11
159.1501703278
 21
791.6566809544
  0
LINE
  5
3EC
100
AcDbEntity
  8
6_ALL_SURFS
100
AcDbLine
 62
7
  6
CONTINUOUS
 10
159.1501703278
 20
793.9085172321
 11
159.1501703278
 21
794.5715789376
  0
LINE
  5
3ED
100
AcDbEntity
  8
6_ALL_SURFS
100
AcDbLine
 62
7
  6
CONTINUOUS
 10
159.1501703278
 20
796.3379311109
 11
159.1501703278
 21
809.1566809544
  0
LINE
  5
3EE
100
AcDbEntity
  8
6_ALL_SURFS
100
AcDbLine
 62
7
  6
CONTINUOUS
 10
160.4001703278
 20
809.1566809544
 11
160.4001703278
 21
808.2566809544
  0
LINE
  5
3EF
100
AcDbEntity
  8
6_ALL_SURFS
100
AcDbLine
 62
7
  6
CONTINUOUS
 10
160.6501703278
 20
806.6566809544
 11
160.6501703278
 21
796.9447214668
  0
LINE
  5
3F0
100
AcDbEntity
  8
6_ALL_SURFS
100
AcDbLine
 62
7
  6
CONTINUOUS
 10
160.6501703278
 20
793.9647885817
 11
160.6501703278
 21
790.4566809544
  0
LINE
  5
3F1
100
AcDbEntity
  8
6_ALL_SURFS
100
AcDbLine
 62
7
  6
CONTINUOUS
 10
160.7501703278
 20
783.8566809544
 11
160.7501703278
 21
781.0566809544
  0
LINE
  5
3F2
100
AcDbEntity
  8
7_ALL_FEATURES
100
AcDbLine
 62
7
  6
CONTINUOUS
 10
160.8501703278
 20
739.9566809544
 11
160.8501703278
 21
764.9566809544
  0
LINE
  5
3F3
100
AcDbEntity
  8
3_ALL_AXES
100
AcDbLine
 62
7
  6
CONTINUOUS
 10
162.8501703278
 20
744.1066809544
 11
162.8501703278
 21
752.8066809544
  0
LINE
  5
3F4
100
AcDbEntity
  8
7_ALL_FEATURES
100
AcDbLine
 62
7
  6
CONTINUOUS
 10
163.2501703278
 20
750.4566809544
 11
163.2501703278
 21
746.4566809544
  0
LINE
  5
3F5
100
AcDbEntity
  8
7_ALL_FEATURES
100
AcDbLine
 62
9
  6
CONTINUOUS
 10
163.8501703278
 20
764.9566809544
 11
163.8501703278
 21
739.9566809544
  0
LINE
  5
3F6
100
AcDbEntity
  8
6_ALL_SURFS
100
AcDbLine
 62
7
  6
CONTINUOUS
 10
152.2870902906
 20
725.8483573296
 11
156.1958633047
 21
743.4619641215
  0
LINE
  5
3F7
100
AcDbEntity
  8
6_ALL_SURFS
100
AcDbLine
 62
7
  6
CONTINUOUS
 10
157.731420089
 20
742.9961711659
 11
153.7447862589
 21
725.0317100799
  0
LINE
  5
3F8
100
AcDbEntity
  8
6_ALL_SURFS
100
AcDbLine
 62
7
  6
CONTINUOUS
 10
155.6027763708
 20
744.274733173
 11
156.1295555694
 21
745.7220471261
  0
LINE
  5
3F9
100
AcDbEntity
  8
7_ALL_FEATURES
100
AcDbLine
 62
7
  6
CONTINUOUS
 10
101.4892520067
 20
718.6066809544
 11
102.4643586456
 21
720.2956151955
  0
LINE
  5
3FA
100
AcDbEntity
  8
7_ALL_FEATURES
100
AcDbLine
 62
7
  6
CONTINUOUS
 10
95.0623023622
 20
787.2688129888
 11
94.9380382935
 21
787.14454892
  0
LINE
  5
3FB
100
AcDbEntity
  8
7_ALL_FEATURES
100
AcDbLine
 62
7
  6
CONTINUOUS
 10
111.4501703278
 20
712.1566809544
 11
110.9501703278
 21
712.6566809544
  0
LINE
  5
3FC
100
AcDbEntity
  8
3_ALL_AXES
100
AcDbLine
 62
7
  6
CONTINUOUS
 10
108.4501703278
 20
725.8566809544
 11
108.8501703278
 21
725.4566809544
  0
LINE
  5
3FD
100
AcDbEntity
  8
3_ALL_AXES
100
AcDbLine
 62
7
  6
CONTINUOUS
 10
110.4501703278
 20
723.8566809544
 11
110.9501703278
 21
723.3566809544
  0
LINE
  5
3FE
100
AcDbEntity
  8
7_ALL_FEATURES
100
AcDbLine
 62
7
  6
CONTINUOUS
 10
127.3001703278
 20
712.1566809544
 11
126.8001703278
 21
712.6566809544
  0
LINE
  5
3FF
100
AcDbEntity
  8
7_ALL_FEATURES
100
AcDbLine
 62
7
  6
CONTINUOUS
 10
124.2001703278
 20
720.4566809544
 11
124.0001703278
 21
720.6566809544
  0
LINE
  5
400
100
AcDbEntity
  8
7_ALL_FEATURES
100
AcDbLine
 62
7
  6
CONTINUOUS
 10
93.4228360433
 20
792.2784332402
 11
92.3121643258
 21
793.7258888034
  0
LINE
  5
401
100
AcDbEntity
  8
6_ALL_SURFS
100
AcDbLine
 62
7
  6
CONTINUOUS
 10
149.911088649
 20
718.6066809544
 11
148.9359820101
 21
720.2956151955
  0
LINE
  5
402
100
AcDbEntity
  8
6_ALL_SURFS
100
AcDbLine
 62
7
  6
CONTINUOUS
 10
147.3643586456
 20
720.2956151955
 11
146.3892520068
 21
718.6066809544
  0
LINE
  5
403
100
AcDbEntity
  8
6_ALL_SURFS
100
AcDbLine
 62
7
  6
CONTINUOUS
 10
157.9775046124
 20
792.2784332402
 11
159.0881763299
 21
793.7258888034
  0
LINE
  5
404
100
AcDbEntity
  8
3_ALL_AXES
100
AcDbLine
 62
7
  6
CONTINUOUS
 10
157.8112682709
 20
790.8202812824
 11
157.4468404577
 21
790.4294802984
  0
LINE
  5
405
100
AcDbEntity
  8
7_ALL_FEATURES
100
AcDbLine
 62
7
  6
CONTINUOUS
 10
94.9380382935
 20
785.1688129888
 11
95.0623023622
 21
785.04454892
  0
LINE
  5
406
100
AcDbEntity
  8
7_ALL_FEATURES
100
AcDbLine
 62
7
  6
CONTINUOUS
 10
91.1531397754
 20
789.4336834143
 11
93.1695764383
 21
787.2713198312
  0
LINE
  5
407
100
AcDbEntity
  8
7_ALL_FEATURES
100
AcDbLine
 62
7
  6
CONTINUOUS
 10
93.5599805591
 20
789.0520814464
 11
92.3307642174
 21
790.3702545891
  0
LINE
  5
408
100
AcDbEntity
  8
3_ALL_AXES
100
AcDbLine
 62
7
  6
CONTINUOUS
 10
93.0039894235
 20
790.2746825943
 11
93.3684172368
 21
789.8838816104
  0
LINE
  5
409
100
AcDbEntity
  8
3_ALL_AXES
100
AcDbLine
 62
7
  6
CONTINUOUS
 10
93.953500198
 20
790.4294802984
 11
93.5890723848
 21
790.8202812824
  0
LINE
  5
40A
100
AcDbEntity
  8
7_ALL_FEATURES
100
AcDbLine
 62
7
  6
CONTINUOUS
 10
94.4039894235
 20
790.2746825943
 11
94.7684172368
 21
789.8838816104
  0
LINE
  5
40B
100
AcDbEntity
  8
7_ALL_FEATURES
100
AcDbLine
 62
7
  6
CONTINUOUS
 10
95.353500198
 20
790.4294802984
 11
94.9890723848
 21
790.8202812824
  0
LINE
  5
40C
100
AcDbEntity
  8
7_ALL_FEATURES
100
AcDbLine
 62
7
  6
CONTINUOUS
 10
202.8501703278
 20
739.9566809544
 11
202.8501703278
 21
764.9566809544
  0
LINE
  5
40D
100
AcDbEntity
  8
3_ALL_AXES
100
AcDbLine
 62
7
  6
CONTINUOUS
 10
158.0319234189
 20
789.8838816104
 11
158.3963512322
 21
790.2746825943
  0
LINE
  5
40E
100
AcDbEntity
  8
7_ALL_FEATURES
100
AcDbLine
 62
7
  6
CONTINUOUS
 10
159.1501703278
 20
790.75476176
 11
158.8468404577
 21
790.4294802984
  0
LINE
  5
40F
100
AcDbEntity
  8
6_ALL_SURFS
100
AcDbLine
 62
7
  6
CONTINUOUS
 10
157.8403600966
 20
789.0520814464
 11
159.0695764383
 21
790.3702545891
  0
LINE
  5
410
100
AcDbEntity
  8
6_ALL_SURFS
100
AcDbLine
 62
7
  6
CONTINUOUS
 10
160.2472008803
 20
789.4336834143
 11
158.2307642174
 21
787.2713198312
  0
LINE
  5
411
100
AcDbEntity
  8
6_ALL_SURFS
100
AcDbLine
 62
7
  6
CONTINUOUS
 10
156.4623023622
 20
785.1688129888
 11
156.3380382935
 21
785.04454892
  0
LINE
  5
412
100
AcDbEntity
  8
6_ALL_SURFS
100
AcDbLine
 62
7
  6
CONTINUOUS
 10
73.2501703278
 20
806.8066809544
 11
73.5501703278
 21
806.9566809544
  0
LINE
  5
413
100
AcDbEntity
  8
6_ALL_SURFS
100
AcDbLine
 62
7
  6
CONTINUOUS
 10
76.2501703278
 20
806.8066809544
 11
76.5501703278
 21
806.9566809544
  0
LINE
  5
414
100
AcDbEntity
  8
6_ALL_SURFS
100
AcDbLine
 62
7
  6
CONTINUOUS
 10
79.2501703278
 20
806.8066809544
 11
79.5501703278
 21
806.9566809544
  0
LINE
  5
415
100
AcDbEntity
  8
6_ALL_SURFS
100
AcDbLine
 62
7
  6
CONTINUOUS
 10
82.2501703278
 20
806.8066809544
 11
82.5501703278
 21
806.9566809544
  0
LINE
  5
416
100
AcDbEntity
  8
6_ALL_SURFS
100
AcDbLine
 62
7
  6
CONTINUOUS
 10
85.2501703278
 20
806.8066809544
 11
85.5501703278
 21
806.9566809544
  0
LINE
  5
417
100
AcDbEntity
  8
6_ALL_SURFS
100
AcDbLine
 62
7
  6
CONTINUOUS
 10
88.2501703278
 20
806.8066809544
 11
88.5501703278
 21
806.9566809544
  0
LINE
  5
418
100
AcDbEntity
  8
3_ALL_AXES
100
AcDbLine
 62
7
  6
CONTINUOUS
 10
155.5501703278
 20
753.4566809544
 11
156.2501703278
 21
752.7566809544
  0
LINE
  5
419
100
AcDbEntity
  8
3_ALL_AXES
100
AcDbLine
 62
7
  6
CONTINUOUS
 10
118.2001703278
 20
725.6066809544
 11
118.0501703278
 21
725.4566809544
  0
LINE
  5
41A
100
AcDbEntity
  8
3_ALL_AXES
100
AcDbLine
 62
7
  6
CONTINUOUS
 10
116.4501703278
 20
723.8566809544
 11
115.9501703278
 21
723.3566809544
  0
LINE
  5
41B
100
AcDbEntity
  8
7_ALL_FEATURES
100
AcDbLine
 62
7
  6
CONTINUOUS
 10
115.4501703278
 20
712.1566809544
 11
115.9501703278
 21
712.6566809544
  0
LINE
  5
41C
100
AcDbEntity
  8
7_ALL_FEATURES
100
AcDbLine
 62
7
  6
CONTINUOUS
 10
127.2001703278
 20
720.4566809544
 11
127.4001703278
 21
720.6566809544
  0
LINE
  5
41D
100
AcDbEntity
  8
3_ALL_AXES
100
AcDbLine
 62
7
  6
CONTINUOUS
 10
134.3001703278
 20
725.8566809544
 11
133.9001703278
 21
725.4566809544
  0
LINE
  5
41E
100
AcDbEntity
  8
3_ALL_AXES
100
AcDbLine
 62
7
  6
CONTINUOUS
 10
155.5501703278
 20
743.4566809544
 11
155.9299043629
 21
743.8364149894
  0
LINE
  5
41F
100
AcDbEntity
  8
7_ALL_FEATURES
100
AcDbLine
 62
7
  6
CONTINUOUS
 10
163.2501703278
 20
746.4566809544
 11
162.8501703278
 21
746.0566809544
  0
LINE
  5
420
100
AcDbEntity
  8
7_ALL_FEATURES
100
AcDbLine
 62
7
  6
CONTINUOUS
 10
131.3001703278
 20
712.1566809544
 11
131.8001703278
 21
712.6566809544
  0
LINE
  5
421
100
AcDbEntity
  8
7_ALL_FEATURES
100
AcDbLine
 62
7
  6
CONTINUOUS
 10
94.9112360867
 20
783.2424926367
 11
95.0001703278
 21
783.2938388447
  0
LINE
  5
422
100
AcDbEntity
  8
7_ALL_FEATURES
100
AcDbLine
 62
7
  6
CONTINUOUS
 10
163.2501703278
 20
750.4566809544
 11
162.8501703278
 21
750.8566809544
  0
LINE
  5
423
100
AcDbEntity
  8
6_ALL_SURFS
100
AcDbLine
 62
7
  6
CONTINUOUS
 10
156.4001703278
 20
781.6195230641
 11
156.489104569
 21
781.6708692721
  0
LINE
  5
424
100
AcDbEntity
  8
6_ALL_SURFS
100
AcDbLine
 62
7
  6
CONTINUOUS
 10
163.4501703278
 20
806.9566809544
 11
163.1501703278
 21
806.8066809544
  0
LINE
  5
425
100
AcDbEntity
  8
6_ALL_SURFS
100
AcDbLine
 62
7
  6
CONTINUOUS
 10
166.4501703278
 20
806.9566809544
 11
166.1501703278
 21
806.8066809544
  0
LINE
  5
426
100
AcDbEntity
  8
6_ALL_SURFS
100
AcDbLine
 62
7
  6
CONTINUOUS
 10
169.4501703278
 20
806.9566809544
 11
169.1501703278
 21
806.8066809544
  0
LINE
  5
427
100
AcDbEntity
  8
6_ALL_SURFS
100
AcDbLine
 62
7
  6
CONTINUOUS
 10
172.4501703278
 20
806.9566809544
 11
172.1501703278
 21
806.8066809544
  0
LINE
  5
428
100
AcDbEntity
  8
6_ALL_SURFS
100
AcDbLine
 62
7
  6
CONTINUOUS
 10
175.4501703278
 20
806.9566809544
 11
175.1501703278
 21
806.8066809544
  0
LINE
  5
429
100
AcDbEntity
  8
6_ALL_SURFS
100
AcDbLine
 62
7
  6
CONTINUOUS
 10
178.4501703278
 20
806.9566809544
 11
178.1501703278
 21
806.8066809544
  0
LINE
  5
42A
100
AcDbEntity
  8
7_ALL_FEATURES
100
AcDbLine
 62
7
  6
CONTINUOUS
 10
95.0001703278
 20
781.6195230641
 11
94.9112360867
 21
781.6708692721
  0
LINE
  5
42B
100
AcDbEntity
  8
6_ALL_SURFS
100
AcDbLine
 62
7
  6
CONTINUOUS
 10
156.3380382935
 20
787.2688129888
 11
156.4623023622
 21
787.14454892
  0
LINE
  5
42C
100
AcDbEntity
  8
7_ALL_FEATURES
100
AcDbLine
 62
7
  6
CONTINUOUS
 10
95.3947462937
 20
743.8088660827
 11
95.6182625416
 21
743.8902193438
  0
LINE
  5
42D
100
AcDbEntity
  8
6_ALL_SURFS
100
AcDbLine
 62
7
  6
CONTINUOUS
 10
156.005594362
 20
743.8088660827
 11
155.7820781141
 21
743.8902193438
  0
LINE
  5
42E
100
AcDbEntity
  8
6_ALL_SURFS
100
AcDbLine
 62
7
  6
CONTINUOUS
 10
72.9501703278
 20
806.9566809544
 11
73.2501703278
 21
806.8066809544
  0
LINE
  5
42F
100
AcDbEntity
  8
6_ALL_SURFS
100
AcDbLine
 62
7
  6
CONTINUOUS
 10
75.9501703278
 20
806.9566809544
 11
76.2501703278
 21
806.8066809544
  0
LINE
  5
430
100
AcDbEntity
  8
6_ALL_SURFS
100
AcDbLine
 62
7
  6
CONTINUOUS
 10
78.9501703278
 20
806.9566809544
 11
79.2501703278
 21
806.8066809544
  0
LINE
  5
431
100
AcDbEntity
  8
6_ALL_SURFS
100
AcDbLine
 62
7
  6
CONTINUOUS
 10
81.9501703278
 20
806.9566809544
 11
82.2501703278
 21
806.8066809544
  0
LINE
  5
432
100
AcDbEntity
  8
6_ALL_SURFS
100
AcDbLine
 62
7
  6
CONTINUOUS
 10
84.9501703278
 20
806.9566809544
 11
85.2501703278
 21
806.8066809544
  0
LINE
  5
433
100
AcDbEntity
  8
6_ALL_SURFS
100
AcDbLine
 62
7
  6
CONTINUOUS
 10
87.9501703278
 20
806.9566809544
 11
88.2501703278
 21
806.8066809544
  0
LINE
  5
434
100
AcDbEntity
  8
6_ALL_SURFS
100
AcDbLine
 62
7
  6
CONTINUOUS
 10
156.489104569
 20
783.2424926367
 11
156.4001703278
 21
783.2938388447
  0
LINE
  5
435
100
AcDbEntity
  8
7_ALL_FEATURES
100
AcDbLine
 62
7
  6
CONTINUOUS
 10
131.3001703278
 20
712.1566809544
 11
127.3001703278
 21
712.1566809544
  0
LINE
  5
436
100
AcDbEntity
  8
7_ALL_FEATURES
100
AcDbLine
 62
7
  6
CONTINUOUS
 10
115.4501703278
 20
712.1566809544
 11
111.4501703278
 21
712.1566809544
  0
LINE
  5
437
100
AcDbEntity
  8
7_ALL_FEATURES
100
AcDbLine
 62
7
  6
CONTINUOUS
 10
131.8001703278
 20
712.6566809544
 11
126.8001703278
 21
712.6566809544
  0
LINE
  5
438
100
AcDbEntity
  8
7_ALL_FEATURES
100
AcDbLine
 62
7
  6
CONTINUOUS
 10
115.9501703278
 20
712.6566809544
 11
110.9501703278
 21
712.6566809544
  0
LINE
  5
439
100
AcDbEntity
  8
3_ALL_AXES
100
AcDbLine
 62
7
  6
CONTINUOUS
 10
109.5922864954
 20
713.4566809544
 11
118.2922864954
 21
713.4566809544
  0
LINE
  5
43A
100
AcDbEntity
  8
3_ALL_AXES
100
AcDbLine
 62
7
  6
CONTINUOUS
 10
125.0922864954
 20
713.4566809544
 11
133.7922864954
 21
713.4566809544
  0
LINE
  5
43B
100
AcDbEntity
  8
7_ALL_FEATURES
100
AcDbLine
 62
3
  6
CONTINUOUS
 10
101.4422864954
 20
715.4566809544
 11
156.4422864954
 21
715.4566809544
  0
LINE
  5
43C
100
AcDbEntity
  8
7_ALL_FEATURES
100
AcDbLine
 62
7
  6
CONTINUOUS
 10
718.8001703278
 20
718.4566809544
 11
152.1580541603
 21
718.4566809544
  0
LINE
  5
43D
100
AcDbEntity
  8
6_ALL_SURFS
100
AcDbLine
 62
7
  6
CONTINUOUS
 10
152.1580541603
 20
718.4566809544
 11
150.1708962701
 21
718.4566809544
  0
LINE
  5
43E
100
AcDbEntity
  8
6_ALL_SURFS
100
AcDbLine
 62
7
  6
CONTINUOUS
 10
146.1294443857
 20
718.4566809544
 11
145.6501703278
 21
718.4566809544
  0
LINE
  5
43F
100
AcDbEntity
  8
7_ALL_FEATURES
100
AcDbLine
 62
7
  6
CONTINUOUS
 10
150.1708962701
 20
718.4566809544
 11
146.1294443857
 21
718.4566809544
  0
LINE
  5
440
100
AcDbEntity
  8
7_ALL_FEATURES
100
AcDbLine
 62
7
  6
CONTINUOUS
 10
99.2422864954
 20
718.4566809544
 11
145.6501703278
 21
718.4566809544
  0
LINE
  5
441
100
AcDbEntity
  8
7_ALL_FEATURES
100
AcDbLine
 62
9
  6
CONTINUOUS
 10
149.911088649
 20
718.6066809544
 11
146.3892520068
 21
718.6066809544
  0
LINE
  5
442
100
AcDbEntity
  8
7_ALL_FEATURES
100
AcDbLine
 62
9
  6
CONTINUOUS
 10
105.0110886489
 20
718.6066809544
 11
101.4892520067
 21
718.6066809544
  0
LINE
  5
443
100
AcDbEntity
  8
7_ALL_FEATURES
100
AcDbLine
 62
9
  6
CONTINUOUS
 10
718.8001703278
 20
718.7566809544
 11
152.4580541603
 21
718.7566809544
  0
LINE
  5
444
100
AcDbEntity
  8
7_ALL_FEATURES
100
AcDbLine
 62
9
  6
CONTINUOUS
 10
122.7036167362
 20
718.7566809544
 11
115.9501703278
 21
718.7566809544
  0
LINE
  5
445
100
AcDbEntity
  8
7_ALL_FEATURES
100
AcDbLine
 62
9
  6
CONTINUOUS
 10
110.9501703278
 20
718.7566809544
 11
106.0501703278
 21
718.7566809544
  0
LINE
  5
446
100
AcDbEntity
  8
7_ALL_FEATURES
100
AcDbLine
 62
9
  6
CONTINUOUS
 10
718.8001703278
 20
719.4566809544
 11
152.4580541603
 21
719.4566809544
  0
LINE
  5
447
100
AcDbEntity
  8
7_ALL_FEATURES
100
AcDbLine
 62
7
  6
CONTINUOUS
 10
718.8001703278
 20
719.7566809544
 11
152.1580541603
 21
719.7566809544
  0
LINE
  5
448
100
AcDbEntity
  8
7_ALL_FEATURES
100
AcDbLine
 62
7
  6
CONTINUOUS
 10
100.2857985563
 20
719.7566809544
 11
99.2422864954
 21
719.7566809544
  0
LINE
  5
449
100
AcDbEntity
  8
6_ALL_SURFS
100
AcDbLine
 62
7
  6
CONTINUOUS
 10
151.1145420994
 20
719.7566809544
 11
152.1580541603
 21
719.7566809544
  0
LINE
  5
44A
100
AcDbEntity
  8
7_ALL_FEATURES
100
AcDbLine
 62
9
  6
CONTINUOUS
 10
145.3501703278
 20
719.9566809544
 11
129.3001703278
 21
719.9566809544
  0
LINE
  5
44B
100
AcDbEntity
  8
6_ALL_SURFS
100
AcDbLine
 62
7
  6
CONTINUOUS
 10
163.1501703278
 20
806.8066809544
 11
162.8501703278
 21
806.9566809544
  0
LINE
  5
44C
100
AcDbEntity
  8
6_ALL_SURFS
100
AcDbLine
 62
7
  6
CONTINUOUS
 10
166.1501703278
 20
806.8066809544
 11
165.8501703278
 21
806.9566809544
  0
LINE
  5
44D
100
AcDbEntity
  8
6_ALL_SURFS
100
AcDbLine
 62
7
  6
CONTINUOUS
 10
169.1501703278
 20
806.8066809544
 11
168.8501703278
 21
806.9566809544
  0
LINE
  5
44E
100
AcDbEntity
  8
6_ALL_SURFS
100
AcDbLine
 62
7
  6
CONTINUOUS
 10
172.1501703278
 20
806.8066809544
 11
171.8501703278
 21
806.9566809544
  0
LINE
  5
44F
100
AcDbEntity
  8
6_ALL_SURFS
100
AcDbLine
 62
7
  6
CONTINUOUS
 10
175.1501703278
 20
806.8066809544
 11
174.8501703278
 21
806.9566809544
  0
LINE
  5
450
100
AcDbEntity
  8
6_ALL_SURFS
100
AcDbLine
 62
7
  6
CONTINUOUS
 10
178.1501703278
 20
806.8066809544
 11
177.8501703278
 21
806.9566809544
  0
LINE
  5
451
100
AcDbEntity
  8
7_ALL_FEATURES
100
AcDbLine
 62
7
  6
CONTINUOUS
 10
124.3001703278
 20
720.0566809544
 11
127.1001703278
 21
720.0566809544
  0
LINE
  5
452
100
AcDbEntity
  8
7_ALL_FEATURES
100
AcDbLine
 62
9
  6
CONTINUOUS
 10
148.9359820101
 20
720.2956151955
 11
147.3643586456
 21
720.2956151955
  0
LINE
  5
453
100
AcDbEntity
  8
7_ALL_FEATURES
100
AcDbLine
 62
9
  6
CONTINUOUS
 10
104.0359820101
 20
720.2956151955
 11
102.4643586456
 21
720.2956151955
  0
LINE
  5
454
100
AcDbEntity
  8
7_ALL_FEATURES
100
AcDbLine
 62
9
  6
CONTINUOUS
 10
124.0001703278
 20
720.3566809544
 11
127.4001703278
 21
720.3566809544
  0
LINE
  5
455
100
AcDbEntity
  8
7_ALL_FEATURES
100
AcDbLine
 62
7
  6
CONTINUOUS
 10
127.2001703278
 20
720.4566809544
 11
124.2001703278
 21
720.4566809544
  0
LINE
  5
456
100
AcDbEntity
  8
7_ALL_FEATURES
100
AcDbLine
 62
9
  6
CONTINUOUS
 10
150.6653948613
 20
720.4763779241
 11
718.8001703278
 21
720.4763779241
  0
LINE
  5
457
100
AcDbEntity
  8
7_ALL_FEATURES
100
AcDbLine
 62
9
  6
CONTINUOUS
 10
148.9997360119
 20
720.6726900253
 11
147.3006046439
 21
720.6726900253
  0
LINE
  5
458
100
AcDbEntity
  8
7_ALL_FEATURES
100
AcDbLine
 62
9
  6
CONTINUOUS
 10
104.0997360118
 20
720.6726900253
 11
102.4006046438
 21
720.6726900253
  0
LINE
  5
459
100
AcDbEntity
  8
7_ALL_FEATURES
100
AcDbLine
 62
7
  6
CONTINUOUS
 10
127.4001703278
 20
720.9566809544
 11
124.0001703278
 21
720.9566809544
  0
LINE
  5
45A
100
AcDbEntity
  8
7_ALL_FEATURES
100
AcDbLine
 62
9
  6
CONTINUOUS
 10
106.0501703278
 20
721.7066809544
 11
110.9501703278
 21
721.7066809544
  0
LINE
  5
45B
100
AcDbEntity
  8
7_ALL_FEATURES
100
AcDbLine
 62
9
  6
CONTINUOUS
 10
115.9501703278
 20
721.7066809544
 11
122.1001703278
 21
721.7066809544
  0
LINE
  5
45C
100
AcDbEntity
  8
7_ALL_FEATURES
100
AcDbLine
 62
9
  6
CONTINUOUS
 10
105.6750414584
 20
723.1066809544
 11
110.9501703278
 21
723.1066809544
  0
LINE
  5
45D
100
AcDbEntity
  8
7_ALL_FEATURES
100
AcDbLine
 62
9
  6
CONTINUOUS
 10
115.9501703278
 20
723.1066809544
 11
122.1001703278
 21
723.1066809544
  0
LINE
  5
45E
100
AcDbEntity
  8
7_ALL_FEATURES
100
AcDbLine
 62
9
  6
CONTINUOUS
 10
150.5750414584
 20
723.1066809544
 11
718.8001703278
 21
723.1066809544
  0
LINE
  5
45F
100
AcDbEntity
  8
3_ALL_AXES
100
AcDbLine
 62
7
  6
CONTINUOUS
 10
115.9501703278
 20
723.3566809544
 11
110.9501703278
 21
723.3566809544
  0
LINE
  5
460
100
AcDbEntity
  8
7_ALL_FEATURES
100
AcDbLine
 62
9
  6
CONTINUOUS
 10
129.3001703278
 20
723.5566809544
 11
145.7491085819
 21
723.5566809544
  0
LINE
  5
461
100
AcDbEntity
  8
7_ALL_FEATURES
100
AcDbLine
 62
7
  6
CONTINUOUS
 10
718.8001703278
 20
723.8566809544
 11
152.2804113306
 21
723.8566809544
  0
LINE
  5
462
100
AcDbEntity
  8
6_ALL_SURFS
100
AcDbLine
 62
7
  6
CONTINUOUS
 10
152.2804113306
 20
723.8566809544
 11
151.0080541603
 21
723.8566809544
  0
LINE
  5
463
100
AcDbEntity
  8
6_ALL_SURFS
100
AcDbLine
 62
7
  6
CONTINUOUS
 10
145.2922864954
 20
723.8566809544
 11
129.6001703278
 21
723.8566809544
  0
LINE
  5
464
100
AcDbEntity
  8
7_ALL_FEATURES
100
AcDbLine
 62
7
  6
CONTINUOUS
 10
99.1199293251
 20
723.8566809544
 11
100.3922864954
 21
723.8566809544
  0
LINE
  5
465
100
AcDbEntity
  8
7_ALL_FEATURES
100
AcDbLine
 62
7
  6
CONTINUOUS
 10
106.1080541603
 20
723.8566809544
 11
121.8001703278
 21
723.8566809544
  0
LINE
  5
466
100
AcDbEntity
  8
7_ALL_FEATURES
100
AcDbLine
 62
9
  6
CONTINUOUS
 10
718.8001703278
 20
725.0317100799
 11
153.7447862589
 21
725.0317100799
  0
LINE
  5
467
100
AcDbEntity
  8
7_ALL_FEATURES
100
AcDbLine
 62
7
  6
CONTINUOUS
 10
99.6013753412
 20
725.4566809544
 11
127.7001703278
 21
725.4566809544
  0
LINE
  5
468
100
AcDbEntity
  8
6_ALL_SURFS
100
AcDbLine
 62
7
  6
CONTINUOUS
 10
127.7001703278
 20
725.4566809544
 11
151.7989653145
 21
725.4566809544
  0
LINE
  5
469
100
AcDbEntity
  8
7_ALL_FEATURES
100
AcDbLine
 62
9
  6
CONTINUOUS
 10
99.1132503651
 20
725.8483573296
 11
108.4584939527
 21
725.8483573296
  0
LINE
  5
46A
100
AcDbEntity
  8
7_ALL_FEATURES
100
AcDbLine
 62
9
  6
CONTINUOUS
 10
134.291846703
 20
725.8483573296
 11
152.2870902906
 21
725.8483573296
  0
LINE
  5
46B
100
AcDbEntity
  8
3_ALL_AXES
100
AcDbLine
 62
7
  6
CONTINUOUS
 10
134.3001703278
 20
725.8566809544
 11
133.2001703278
 21
725.8566809544
  0
LINE
  5
46C
100
AcDbEntity
  8
3_ALL_AXES
100
AcDbLine
 62
7
  6
CONTINUOUS
 10
118.2001703278
 20
725.8566809544
 11
108.4501703278
 21
725.8566809544
  0
LINE
  5
46D
100
AcDbEntity
  8
3_ALL_AXES
100
AcDbLine
 62
7
  6
CONTINUOUS
 10
134.3001703278
 20
726.1566809544
 11
133.2001703278
 21
726.1566809544
  0
LINE
  5
46E
100
AcDbEntity
  8
3_ALL_AXES
100
AcDbLine
 62
7
  6
CONTINUOUS
 10
118.2001703278
 20
726.1566809544
 11
108.4501703278
 21
726.1566809544
  0
LINE
  5
46F
100
AcDbEntity
  8
7_ALL_FEATURES
100
AcDbLine
 62
7
  6
CONTINUOUS
 10
133.2001703278
 20
726.4566809544
 11
118.2001703278
 21
726.4566809544
  0
LINE
  5
470
100
AcDbEntity
  8
7_ALL_FEATURES
100
AcDbLine
 62
7
  6
CONTINUOUS
 10
121.7001703278
 20
728.4848841847
 11
129.7001703278
 21
728.4848841847
  0
LINE
  5
471
100
AcDbEntity
  8
7_ALL_FEATURES
100
AcDbLine
 62
7
  6
CONTINUOUS
 10
157.8501703278
 20
739.9566809544
 11
202.8501703278
 21
739.9566809544
  0
LINE
  5
472
100
AcDbEntity
  8
7_ALL_FEATURES
100
AcDbLine
 62
9
  6
CONTINUOUS
 10
718.8001703278
 20
742.9961711659
 11
202.8501703278
 21
742.9961711659
  0
LINE
  5
473
100
AcDbEntity
  8
7_ALL_FEATURES
100
AcDbLine
 62
9
  6
CONTINUOUS
 10
157.8501703278
 20
742.9961711659
 11
157.731420089
 21
742.9961711659
  0
LINE
  5
474
100
AcDbEntity
  8
3_ALL_AXES
100
AcDbLine
 62
7
  6
CONTINUOUS
 10
155.2501703278
 20
743.4566809544
 11
155.5501703278
 21
743.4566809544
  0
LINE
  5
475
100
AcDbEntity
  8
7_ALL_FEATURES
100
AcDbLine
 62
9
  6
CONTINUOUS
 10
95.204477351
 20
743.4619641215
 11
155.2501703278
 21
743.4619641215
  0
LINE
  5
476
100
AcDbEntity
  8
7_ALL_FEATURES
100
AcDbLine
 62
9
  6
CONTINUOUS
 10
155.5501703278
 20
743.4619641215
 11
156.1958633047
 21
743.4619641215
  0
LINE
  5
477
100
AcDbEntity
  8
7_ALL_FEATURES
100
AcDbLine
 62
9
  6
CONTINUOUS
 10
95.3947462937
 20
743.8088660827
 11
155.2501703278
 21
743.8088660827
  0
LINE
  5
478
100
AcDbEntity
  8
7_ALL_FEATURES
100
AcDbLine
 62
9
  6
CONTINUOUS
 10
155.9023554561
 20
743.8088660827
 11
156.005594362
 21
743.8088660827
  0
LINE
  5
479
100
AcDbEntity
  8
7_ALL_FEATURES
100
AcDbLine
 62
9
  6
CONTINUOUS
 10
155.2501703278
 20
743.8902193438
 11
95.6182625416
 21
743.8902193438
  0
LINE
  5
47A
100
AcDbEntity
  8
3_ALL_AXES
100
AcDbLine
 62
9
  6
CONTINUOUS
 10
718.8001703278
 20
744.0794074143
 11
202.8501703278
 21
744.0794074143
  0
LINE
  5
47B
100
AcDbEntity
  8
3_ALL_AXES
100
AcDbLine
 62
7
  6
CONTINUOUS
 10
162.8501703278
 20
744.1066809544
 11
160.8501703278
 21
744.1066809544
  0
LINE
  5
47C
100
AcDbEntity
  8
3_ALL_AXES
100
AcDbLine
 62
9
  6
CONTINUOUS
 10
155.2501703278
 20
744.274733173
 11
95.7975642849
 21
744.274733173
  0
LINE
  5
47D
100
AcDbEntity
  8
3_ALL_AXES
100
AcDbLine
 62
9
  6
CONTINUOUS
 10
95.2707850863
 20
745.7220471261
 11
155.2501703278
 21
745.7220471261
  0
LINE
  5
47E
100
AcDbEntity
  8
3_ALL_AXES
100
AcDbLine
 62
9
  6
CONTINUOUS
 10
95.1501703278
 20
746.4060874128
 11
155.2501703278
 21
746.4060874128
  0
LINE
  5
47F
100
AcDbEntity
  8
3_ALL_AXES
100
AcDbLine
 62
7
  6
CONTINUOUS
 10
162.8501703278
 20
752.8066809544
 11
160.8501703278
 21
752.8066809544
  0
LINE
  5
480
100
AcDbEntity
  8
3_ALL_AXES
100
AcDbLine
 62
7
  6
CONTINUOUS
 10
155.2501703278
 20
753.4566809544
 11
155.5501703278
 21
753.4566809544
  0
LINE
  5
481
100
AcDbEntity
  8
7_ALL_FEATURES
100
AcDbLine
 62
7
  6
CONTINUOUS
 10
157.8501703278
 20
764.9566809544
 11
202.8501703278
 21
764.9566809544
  0
LINE
  5
482
100
AcDbEntity
  8
7_ALL_FEATURES
100
AcDbLine
 62
9
  6
CONTINUOUS
 10
157.8501703278
 20
779.2566809544
 11
718.8001703278
 21
779.2566809544
  0
LINE
  5
483
100
AcDbEntity
  8
6_ALL_SURFS
100
AcDbLine
 62
7
  6
CONTINUOUS
 10
159.2501703278
 20
779.5566809544
 11
158.1501703278
 21
779.5566809544
  0
LINE
  5
484
100
AcDbEntity
  8
7_ALL_FEATURES
100
AcDbLine
 62
7
  6
CONTINUOUS
 10
718.8001703278
 20
779.5566809544
 11
159.2501703278
 21
779.5566809544
  0
LINE
  5
485
100
AcDbEntity
  8
7_ALL_FEATURES
100
AcDbLine
 62
7
  6
CONTINUOUS
 10
92.1501703278
 20
779.5566809544
 11
93.2501703278
 21
779.5566809544
  0
LINE
  5
486
100
AcDbEntity
  8
7_ALL_FEATURES
100
AcDbLine
 62
9
  6
CONTINUOUS
 10
718.8001703278
 20
781.0566809544
 11
160.7501703278
 21
781.0566809544
  0
LINE
  5
487
100
AcDbEntity
  8
7_ALL_FEATURES
100
AcDbLine
 62
9
  6
CONTINUOUS
 10
156.2501703278
 20
781.3597154429
 11
95.1501703278
 21
781.3597154429
  0
LINE
  5
488
100
AcDbEntity
  8
7_ALL_FEATURES
100
AcDbLine
 62
9
  6
CONTINUOUS
 10
158.8330599444
 20
781.6071152704
 11
156.8661793988
 21
781.6071152704
  0
LINE
  5
489
100
AcDbEntity
  8
7_ALL_FEATURES
100
AcDbLine
 62
9
  6
CONTINUOUS
 10
156.4001703278
 20
781.6195230641
 11
95.0001703278
 21
781.6195230641
  0
LINE
  5
48A
100
AcDbEntity
  8
7_ALL_FEATURES
100
AcDbLine
 62
9
  6
CONTINUOUS
 10
156.489104569
 20
781.6708692721
 11
94.9112360867
 21
781.6708692721
  0
LINE
  5
48B
100
AcDbEntity
  8
7_ALL_FEATURES
100
AcDbLine
 62
7
  6
CONTINUOUS
 10
158.9132924277
 20
781.711061651
 11
156.639104569
 21
781.711061651
  0
LINE
  5
48C
100
AcDbEntity
  8
6_ALL_SURFS
100
AcDbLine
 62
7
  6
CONTINUOUS
 10
94.7612360867
 20
781.711061651
 11
156.639104576
 21
781.711061651
  0
LINE
  5
48D
100
AcDbEntity
  8
7_ALL_FEATURES
100
AcDbLine
 62
7
  6
CONTINUOUS
 10
158.9132924277
 20
783.2023002578
 11
156.639104569
 21
783.2023002578
  0
LINE
  5
48E
100
AcDbEntity
  8
6_ALL_SURFS
100
AcDbLine
 62
7
  6
CONTINUOUS
 10
94.7612360867
 20
783.2023002578
 11
156.639104569
 21
783.2023002578
  0
LINE
  5
48F
100
AcDbEntity
  8
7_ALL_FEATURES
100
AcDbLine
 62
9
  6
CONTINUOUS
 10
156.489104569
 20
783.2424926367
 11
94.9112360867
 21
783.2424926367
  0
LINE
  5
490
100
AcDbEntity
  8
7_ALL_FEATURES
100
AcDbLine
 62
9
  6
CONTINUOUS
 10
156.4001703278
 20
783.2938388447
 11
95.0001703278
 21
783.2938388447
  0
LINE
  5
491
100
AcDbEntity
  8
7_ALL_FEATURES
100
AcDbLine
 62
9
  6
CONTINUOUS
 10
158.8330599444
 20
783.3062466384
 11
156.8661793988
 21
783.3062466384
  0
LINE
  5
492
100
AcDbEntity
  8
7_ALL_FEATURES
100
AcDbLine
 62
9
  6
CONTINUOUS
 10
156.2501703278
 20
783.5536464659
 11
95.1501703278
 21
783.5536464659
  0
LINE
  5
493
100
AcDbEntity
  8
7_ALL_FEATURES
100
AcDbLine
 62
9
  6
CONTINUOUS
 10
718.8001703278
 20
783.8566809544
 11
160.7501703278
 21
783.8566809544
  0
LINE
  5
494
100
AcDbEntity
  8
7_ALL_FEATURES
100
AcDbLine
 62
9
  6
CONTINUOUS
 10
95.1501703278
 20
784.8324168857
 11
156.2501703278
 21
784.8324168857
  0
LINE
  5
495
100
AcDbEntity
  8
7_ALL_FEATURES
100
AcDbLine
 62
9
  6
CONTINUOUS
 10
95.0623023622
 20
785.04454892
 11
156.3380382935
 21
785.04454892
  0
LINE
  5
496
100
AcDbEntity
  8
7_ALL_FEATURES
100
AcDbLine
 62
9
  6
CONTINUOUS
 10
156.4623023622
 20
785.1688129888
 11
94.9380382935
 21
785.1688129888
  0
LINE
  5
497
100
AcDbEntity
  8
7_ALL_FEATURES
100
AcDbLine
 62
7
  6
CONTINUOUS
 10
718.8001703278
 20
785.3566809544
 11
159.2501703278
 21
785.3566809544
  0
LINE
  5
498
100
AcDbEntity
  8
7_ALL_FEATURES
100
AcDbLine
 62
7
  6
CONTINUOUS
 10
92.9501703278
 20
785.3566809544
 11
92.1501703278
 21
785.3566809544
  0
LINE
  5
499
100
AcDbEntity
  8
6_ALL_SURFS
100
AcDbLine
 62
7
  6
CONTINUOUS
 10
158.4501703278
 20
785.3566809544
 11
159.2501703278
 21
785.3566809544
  0
LINE
  5
49A
100
AcDbEntity
  8
7_ALL_FEATURES
100
AcDbLine
 62
9
  6
CONTINUOUS
 10
156.5501703278
 20
785.3809450231
 11
94.8501703278
 21
785.3809450231
  0
LINE
  5
49B
100
AcDbEntity
  8
7_ALL_FEATURES
100
AcDbLine
 62
9
  6
CONTINUOUS
 10
158.1501703278
 20
785.6566809544
 11
718.8001703278
 21
785.6566809544
  0
LINE
  5
49C
100
AcDbEntity
  8
7_ALL_FEATURES
100
AcDbLine
 62
9
  6
CONTINUOUS
 10
156.5501703278
 20
786.9324168857
 11
94.8501703278
 21
786.9324168857
  0
LINE
  5
49D
100
AcDbEntity
  8
7_ALL_FEATURES
100
AcDbLine
 62
9
  6
CONTINUOUS
 10
158.1501703278
 20
787.0667203232
 11
718.8001703278
 21
787.0667203232
  0
LINE
  5
49E
100
AcDbEntity
  8
7_ALL_FEATURES
100
AcDbLine
 62
9
  6
CONTINUOUS
 10
156.4623023622
 20
787.14454892
 11
94.9380382935
 21
787.14454892
  0
LINE
  5
49F
100
AcDbEntity
  8
7_ALL_FEATURES
100
AcDbLine
 62
9
  6
CONTINUOUS
 10
156.3380382935
 20
787.2688129888
 11
95.0623023622
 21
787.2688129888
  0
LINE
  5
4A0
100
AcDbEntity
  8
7_ALL_FEATURES
100
AcDbLine
 62
9
  6
CONTINUOUS
 10
158.2307642174
 20
787.2713198312
 11
718.8001703278
 21
787.2713198312
  0
LINE
  5
4A1
100
AcDbEntity
  8
7_ALL_FEATURES
100
AcDbLine
 62
9
  6
CONTINUOUS
 10
156.2501703278
 20
787.4809450231
 11
95.1501703278
 21
787.4809450231
  0
LINE
  5
4A2
100
AcDbEntity
  8
7_ALL_FEATURES
100
AcDbLine
 62
9
  6
CONTINUOUS
 10
156.2501703278
 20
788.6566809544
 11
95.1501703278
 21
788.6566809544
  0
LINE
  5
4A3
100
AcDbEntity
  8
7_ALL_FEATURES
100
AcDbLine
 62
7
  6
CONTINUOUS
 10
156.5501703278
 20
788.9566809544
 11
93.7793866695
 21
788.9566809544
  0
LINE
  5
4A4
100
AcDbEntity
  8
6_ALL_SURFS
100
AcDbLine
 62
7
  6
CONTINUOUS
 10
156.5501703278
 20
788.9566809544
 11
157.6209539862
 21
788.9566809544
  0
LINE
  5
4A5
100
AcDbEntity
  8
7_ALL_FEATURES
100
AcDbLine
 62
9
  6
CONTINUOUS
 10
93.5599805591
 20
789.0520814464
 11
157.8403600966
 21
789.0520814464
  0
LINE
  5
4A6
100
AcDbEntity
  8
7_ALL_FEATURES
100
AcDbLine
 62
9
  6
CONTINUOUS
 10
718.8001703278
 20
789.4336834143
 11
160.2472008803
 21
789.4336834143
  0
LINE
  5
4A7
100
AcDbEntity
  8
3_ALL_AXES
100
AcDbLine
 62
7
  6
CONTINUOUS
 10
158.4974097676
 20
789.7566809544
 11
95.0609587174
 21
789.7566809544
  0
LINE
  5
4A8
100
AcDbEntity
  8
7_ALL_FEATURES
100
AcDbLine
 62
9
  6
CONTINUOUS
 10
92.3307642174
 20
790.3702545891
 11
92.9265110764
 21
790.3702545891
  0
LINE
  5
4A9
100
AcDbEntity
  8
7_ALL_FEATURES
100
AcDbLine
 62
9
  6
CONTINUOUS
 10
93.9984007785
 20
790.3702545891
 11
94.3263745207
 21
790.3702545891
  0
LINE
  5
4AA
100
AcDbEntity
  8
7_ALL_FEATURES
100
AcDbLine
 62
9
  6
CONTINUOUS
 10
158.8468404577
 20
790.4294802984
 11
158.5142165221
 21
790.4294802984
  0
LINE
  5
4AB
100
AcDbEntity
  8
7_ALL_FEATURES
100
AcDbLine
 62
9
  6
CONTINUOUS
 10
157.4468404577
 20
790.4294802984
 11
95.353500198
 21
790.4294802984
  0
LINE
  5
4AC
100
AcDbEntity
  8
7_ALL_FEATURES
100
AcDbLine
 62
9
  6
CONTINUOUS
 10
718.8001703278
 20
790.4566809544
 11
160.6501703278
 21
790.4566809544
  0
LINE
  5
4AD
100
AcDbEntity
  8
7_ALL_FEATURES
100
AcDbLine
 62
9
  6
CONTINUOUS
 10
92.2501703278
 20
790.5748540971
 11
92.811529155
 21
790.5748540971
  0
LINE
  5
4AE
100
AcDbEntity
  8
7_ALL_FEATURES
100
AcDbLine
 62
9
  6
CONTINUOUS
 10
93.8179369377
 20
790.5748540971
 11
94.2126288659
 21
790.5748540971
  0
LINE
  5
4AF
100
AcDbEntity
  8
7_ALL_FEATURES
100
AcDbLine
 62
9
  6
CONTINUOUS
 10
159.1501703278
 20
790.8202812824
 11
158.6547068162
 21
790.8202812824
  0
LINE
  5
4B0
100
AcDbEntity
  8
7_ALL_FEATURES
100
AcDbLine
 62
9
  6
CONTINUOUS
 10
157.8112682709
 20
790.8202812824
 11
94.9890723848
 21
790.8202812824
  0
LINE
  5
4B1
100
AcDbEntity
  8
7_ALL_FEATURES
100
AcDbLine
 62
9
  6
CONTINUOUS
 10
159.1501703278
 20
791.1246809544
 11
158.650757393
 21
791.1246809544
  0
LINE
  5
4B2
100
AcDbEntity
  8
7_ALL_FEATURES
100
AcDbLine
 62
9
  6
CONTINUOUS
 10
157.7735148103
 20
791.1246809544
 11
95.0268258454
 21
791.1246809544
  0
LINE
  5
4B3
100
AcDbEntity
  8
7_ALL_FEATURES
100
AcDbLine
 62
9
  6
CONTINUOUS
 10
92.2501703278
 20
791.6566809544
 11
93.0226241372
 21
791.6566809544
  0
LINE
  5
4B4
100
AcDbEntity
  8
7_ALL_FEATURES
100
AcDbLine
 62
9
  6
CONTINUOUS
 10
94.1595177336
 20
791.6566809544
 11
94.4247446339
 21
791.6566809544
  0
LINE
  5
4B5
100
AcDbEntity
  8
6_ALL_SURFS
100
AcDbLine
 62
7
  6
CONTINUOUS
 10
158.8501703278
 20
791.9566809544
 11
158.1361752805
 21
791.9566809544
  0
LINE
  5
4B6
100
AcDbEntity
  8
7_ALL_FEATURES
100
AcDbLine
 62
7
  6
CONTINUOUS
 10
92.5501703278
 20
791.9566809544
 11
93.3823149757
 21
791.9566809544
  0
LINE
  5
4B7
100
AcDbEntity
  8
7_ALL_FEATURES
100
AcDbLine
 62
7
  6
CONTINUOUS
 10
94.3152884492
 20
791.9566809544
 11
94.7806750887
 21
791.9566809544
  0
LINE
  5
4B8
100
AcDbEntity
  8
7_ALL_FEATURES
100
AcDbLine
 62
9
  6
CONTINUOUS
 10
93.4228360433
 20
792.2784332402
 11
93.5836197906
 21
792.2784332402
  0
LINE
  5
4B9
100
AcDbEntity
  8
7_ALL_FEATURES
100
AcDbLine
 62
9
  6
CONTINUOUS
 10
94.4126221775
 20
792.2784332402
 11
94.9823007814
 21
792.2784332402
  0
LINE
  5
4BA
100
AcDbEntity
  8
7_ALL_FEATURES
100
AcDbLine
 62
9
  6
CONTINUOUS
 10
158.2523977519
 20
792.6366809544
 11
157.7501703278
 21
792.6366809544
  0
LINE
  5
4BB
100
AcDbEntity
  8
7_ALL_FEATURES
100
AcDbLine
 62
9
  6
CONTINUOUS
 10
156.9501703278
 20
792.6366809544
 11
95.8501703278
 21
792.6366809544
  0
LINE
  5
4BC
100
AcDbEntity
  8
7_ALL_FEATURES
100
AcDbLine
 62
9
  6
CONTINUOUS
 10
158.3444769905
 20
792.7566809544
 11
157.7501703278
 21
792.7566809544
  0
LINE
  5
4BD
100
AcDbEntity
  8
7_ALL_FEATURES
100
AcDbLine
 62
9
  6
CONTINUOUS
 10
156.9501703278
 20
792.7566809544
 11
95.8501703278
 21
792.7566809544
  0
LINE
  5
4BE
100
AcDbEntity
  8
7_ALL_FEATURES
100
AcDbLine
 62
7
  6
CONTINUOUS
 10
94.6501703278
 20
792.9566809544
 11
156.7501703278
 21
792.9566809544
  0
LINE
  5
4BF
100
AcDbEntity
  8
7_ALL_FEATURES
100
AcDbLine
 62
7
  6
CONTINUOUS
 10
157.7501703278
 20
792.9566809544
 11
158.1501703278
 21
792.9566809544
  0
LINE
  5
4C0
100
AcDbEntity
  8
7_ALL_FEATURES
100
AcDbLine
 62
7
  6
CONTINUOUS
 10
92.6001703278
 20
793.4566809544
 11
93.4501703278
 21
793.4566809544
  0
LINE
  5
4C1
100
AcDbEntity
  8
7_ALL_FEATURES
100
AcDbLine
 62
7
  6
CONTINUOUS
 10
157.9501703278
 20
793.4566809544
 11
158.8001703278
 21
793.4566809544
  0
LINE
  5
4C2
100
AcDbEntity
  8
7_ALL_FEATURES
100
AcDbLine
 62
9
  6
CONTINUOUS
 10
92.3121643258
 20
793.7258888034
 11
92.4001703278
 21
793.7258888034
  0
LINE
  5
4C3
100
AcDbEntity
  8
7_ALL_FEATURES
100
AcDbLine
 62
9
  6
CONTINUOUS
 10
92.2501703278
 20
793.9085172321
 11
92.4001703278
 21
793.9085172321
  0
LINE
  5
4C4
100
AcDbEntity
  8
7_ALL_FEATURES
100
AcDbLine
 62
7
  6
CONTINUOUS
 10
160.6501703278
 20
793.9647885817
 11
718.8001703278
 21
793.9647885817
  0
LINE
  5
4C5
100
AcDbEntity
  8
7_ALL_FEATURES
100
AcDbLine
 62
7
  6
CONTINUOUS
 10
159.1501703278
 20
794.4566809544
 11
92.6001703278
 21
794.4566809544
  0
LINE
  5
4C6
100
AcDbEntity
  8
7_ALL_FEATURES
100
AcDbLine
 62
9
  6
CONTINUOUS
 10
92.2501703278
 20
794.5715789376
 11
159.1501703278
 21
794.5715789376
  0
LINE
  5
4C7
100
AcDbEntity
  8
7_ALL_FEATURES
100
AcDbLine
 62
9
  6
CONTINUOUS
 10
92.0606966436
 20
794.8504766492
 11
159.3396440121
 21
794.8504766492
  0
LINE
  5
4C8
100
AcDbEntity
  8
7_ALL_FEATURES
100
AcDbLine
 62
9
  6
CONTINUOUS
 10
159.3396440121
 20
796.0590333993
 11
92.0606966436
 21
796.0590333993
  0
LINE
  5
4C9
100
AcDbEntity
  8
7_ALL_FEATURES
100
AcDbLine
 62
9
  6
CONTINUOUS
 10
159.1501703278
 20
796.3379311109
 11
92.2501703278
 21
796.3379311109
  0
LINE
  5
4CA
100
AcDbEntity
  8
7_ALL_FEATURES
100
AcDbLine
 62
7
  6
CONTINUOUS
 10
160.6501703278
 20
796.9447214668
 11
718.8001703278
 21
796.9447214668
  0
LINE
  5
4CB
100
AcDbEntity
  8
7_ALL_FEATURES
100
AcDbLine
 62
9
  6
CONTINUOUS
 10
160.6501703278
 20
806.6566809544
 11
718.8001703278
 21
806.6566809544
  0
LINE
  5
4CC
100
AcDbEntity
  8
7_ALL_FEATURES
100
AcDbLine
 62
7
  6
CONTINUOUS
 10
73.2501703278
 20
806.8066809544
 11
90.7088618073
 21
806.8066809544
  0
LINE
  5
4CD
100
AcDbEntity
  8
7_ALL_FEATURES
100
AcDbLine
 62
7
  6
CONTINUOUS
 10
163.1501703278
 20
806.8066809544
 11
718.8001703278
 21
806.8066809544
  0
LINE
  5
4CE
100
AcDbEntity
  8
6_ALL_SURFS
100
AcDbLine
 62
7
  6
CONTINUOUS
 10
180.2564669699
 20
806.9566809544
 11
178.4501703278
 21
806.9566809544
  0
LINE
  5
4CF
100
AcDbEntity
  8
6_ALL_SURFS
100
AcDbLine
 62
7
  6
CONTINUOUS
 10
177.8501703278
 20
806.9566809544
 11
175.4501703278
 21
806.9566809544
  0
LINE
  5
4D0
100
AcDbEntity
  8
6_ALL_SURFS
100
AcDbLine
 62
7
  6
CONTINUOUS
 10
174.8501703278
 20
806.9566809544
 11
172.4501703278
 21
806.9566809544
  0
LINE
  5
4D1
100
AcDbEntity
  8
6_ALL_SURFS
100
AcDbLine
 62
7
  6
CONTINUOUS
 10
171.8501703278
 20
806.9566809544
 11
169.4501703278
 21
806.9566809544
  0
LINE
  5
4D2
100
AcDbEntity
  8
6_ALL_SURFS
100
AcDbLine
 62
7
  6
CONTINUOUS
 10
168.8501703278
 20
806.9566809544
 11
166.4501703278
 21
806.9566809544
  0
LINE
  5
4D3
100
AcDbEntity
  8
6_ALL_SURFS
100
AcDbLine
 62
7
  6
CONTINUOUS
 10
165.8501703278
 20
806.9566809544
 11
163.4501703278
 21
806.9566809544
  0
LINE
  5
4D4
100
AcDbEntity
  8
6_ALL_SURFS
100
AcDbLine
 62
7
  6
CONTINUOUS
 10
162.8501703278
 20
806.9566809544
 11
160.9501703278
 21
806.9566809544
  0
LINE
  5
4D5
100
AcDbEntity
  8
7_ALL_FEATURES
100
AcDbLine
 62
7
  6
CONTINUOUS
 10
71.1438736858
 20
806.9566809544
 11
72.9501703278
 21
806.9566809544
  0
LINE
  5
4D6
100
AcDbEntity
  8
6_ALL_SURFS
100
AcDbLine
 62
7
  6
CONTINUOUS
 10
73.5501703278
 20
806.9566809544
 11
75.9501703278
 21
806.9566809544
  0
LINE
  5
4D7
100
AcDbEntity
  8
6_ALL_SURFS
100
AcDbLine
 62
7
  6
CONTINUOUS
 10
76.5501703278
 20
806.9566809544
 11
78.9501703278
 21
806.9566809544
  0
LINE
  5
4D8
100
AcDbEntity
  8
6_ALL_SURFS
100
AcDbLine
 62
7
  6
CONTINUOUS
 10
79.5501703278
 20
806.9566809544
 11
81.9501703278
 21
806.9566809544
  0
LINE
  5
4D9
100
AcDbEntity
  8
6_ALL_SURFS
100
AcDbLine
 62
7
  6
CONTINUOUS
 10
82.5501703278
 20
806.9566809544
 11
84.9501703278
 21
806.9566809544
  0
LINE
  5
4DA
100
AcDbEntity
  8
6_ALL_SURFS
100
AcDbLine
 62
7
  6
CONTINUOUS
 10
85.5501703278
 20
806.9566809544
 11
87.9501703278
 21
806.9566809544
  0
LINE
  5
4DB
100
AcDbEntity
  8
7_ALL_FEATURES
100
AcDbLine
 62
7
  6
CONTINUOUS
 10
88.5501703278
 20
806.9566809544
 11
90.4501703278
 21
806.9566809544
  0
LINE
  5
4DC
100
AcDbEntity
  8
7_ALL_FEATURES
100
AcDbLine
 62
7
  6
CONTINUOUS
 10
180.2564669699
 20
806.9566809544
 11
718.8001703278
 21
806.9566809544
  0
LINE
  5
4DD
100
AcDbEntity
  8
6_ALL_SURFS
100
AcDbLine
 62
7
  6
CONTINUOUS
 10
178.1501703278
 20
807.9566809544
 11
180.2956419182
 21
807.7421337954
  0
LINE
  5
4DE
100
AcDbEntity
  8
7_ALL_FEATURES
100
AcDbLine
 62
9
  6
CONTINUOUS
 10
180.2956419182
 20
807.7421337954
 11
718.8001703278
 21
807.7421337954
  0
LINE
  5
4DF
100
AcDbEntity
  8
6_ALL_SURFS
100
AcDbLine
 62
7
  6
CONTINUOUS
 10
87.9501703278
 20
807.9566809544
 11
85.5501703278
 21
807.9566809544
  0
LINE
  5
4E0
100
AcDbEntity
  8
6_ALL_SURFS
100
AcDbLine
 62
7
  6
CONTINUOUS
 10
84.9501703278
 20
807.9566809544
 11
82.5501703278
 21
807.9566809544
  0
LINE
  5
4E1
100
AcDbEntity
  8
6_ALL_SURFS
100
AcDbLine
 62
7
  6
CONTINUOUS
 10
81.9501703278
 20
807.9566809544
 11
79.5501703278
 21
807.9566809544
  0
LINE
  5
4E2
100
AcDbEntity
  8
6_ALL_SURFS
100
AcDbLine
 62
7
  6
CONTINUOUS
 10
78.9501703278
 20
807.9566809544
 11
76.5501703278
 21
807.9566809544
  0
LINE
  5
4E3
100
AcDbEntity
  8
6_ALL_SURFS
100
AcDbLine
 62
7
  6
CONTINUOUS
 10
75.9501703278
 20
807.9566809544
 11
73.2501703278
 21
807.9566809544
  0
LINE
  5
4E4
100
AcDbEntity
  8
7_ALL_FEATURES
100
AcDbLine
 62
7
  6
CONTINUOUS
 10
75.9501703278
 20
807.9566809544
 11
76.5501703278
 21
807.9566809544
  0
LINE
  5
4E5
100
AcDbEntity
  8
7_ALL_FEATURES
100
AcDbLine
 62
7
  6
CONTINUOUS
 10
78.9501703278
 20
807.9566809544
 11
79.5501703278
 21
807.9566809544
  0
LINE
  5
4E6
100
AcDbEntity
  8
7_ALL_FEATURES
100
AcDbLine
 62
7
  6
CONTINUOUS
 10
81.9501703278
 20
807.9566809544
 11
82.5501703278
 21
807.9566809544
  0
LINE
  5
4E7
100
AcDbEntity
  8
7_ALL_FEATURES
100
AcDbLine
 62
7
  6
CONTINUOUS
 10
84.9501703278
 20
807.9566809544
 11
85.5501703278
 21
807.9566809544
  0
LINE
  5
4E8
100
AcDbEntity
  8
7_ALL_FEATURES
100
AcDbLine
 62
7
  6
CONTINUOUS
 10
87.9501703278
 20
807.9566809544
 11
90.7001703278
 21
807.9566809544
  0
LINE
  5
4E9
100
AcDbEntity
  8
6_ALL_SURFS
100
AcDbLine
 62
7
  6
CONTINUOUS
 10
160.7001703278
 20
807.9566809544
 11
162.8501703278
 21
807.9566809544
  0
LINE
  5
4EA
100
AcDbEntity
  8
7_ALL_FEATURES
100
AcDbLine
 62
7
  6
CONTINUOUS
 10
162.8501703278
 20
807.9566809544
 11
163.4501703278
 21
807.9566809544
  0
LINE
  5
4EB
100
AcDbEntity
  8
6_ALL_SURFS
100
AcDbLine
 62
7
  6
CONTINUOUS
 10
163.4501703278
 20
807.9566809544
 11
165.8501703278
 21
807.9566809544
  0
LINE
  5
4EC
100
AcDbEntity
  8
6_ALL_SURFS
100
AcDbLine
 62
7
  6
CONTINUOUS
 10
166.4501703278
 20
807.9566809544
 11
168.8501703278
 21
807.9566809544
  0
LINE
  5
4ED
100
AcDbEntity
  8
7_ALL_FEATURES
100
AcDbLine
 62
7
  6
CONTINUOUS
 10
165.8501703278
 20
807.9566809544
 11
166.4501703278
 21
807.9566809544
  0
LINE
  5
4EE
100
AcDbEntity
  8
6_ALL_SURFS
100
AcDbLine
 62
7
  6
CONTINUOUS
 10
169.4501703278
 20
807.9566809544
 11
171.8501703278
 21
807.9566809544
  0
LINE
  5
4EF
100
AcDbEntity
  8
7_ALL_FEATURES
100
AcDbLine
 62
7
  6
CONTINUOUS
 10
168.8501703278
 20
807.9566809544
 11
169.4501703278
 21
807.9566809544
  0
LINE
  5
4F0
100
AcDbEntity
  8
7_ALL_FEATURES
100
AcDbLine
 62
7
  6
CONTINUOUS
 10
171.8501703278
 20
807.9566809544
 11
172.4501703278
 21
807.9566809544
  0
LINE
  5
4F1
100
AcDbEntity
  8
6_ALL_SURFS
100
AcDbLine
 62
7
  6
CONTINUOUS
 10
172.4501703278
 20
807.9566809544
 11
174.8501703278
 21
807.9566809544
  0
LINE
  5
4F2
100
AcDbEntity
  8
6_ALL_SURFS
100
AcDbLine
 62
7
  6
CONTINUOUS
 10
175.4501703278
 20
807.9566809544
 11
178.1501703278
 21
807.9566809544
  0
LINE
  5
4F3
100
AcDbEntity
  8
7_ALL_FEATURES
100
AcDbLine
 62
7
  6
CONTINUOUS
 10
174.8501703278
 20
807.9566809544
 11
175.4501703278
 21
807.9566809544
  0
LINE
  5
4F4
100
AcDbEntity
  8
7_ALL_FEATURES
100
AcDbLine
 62
7
  6
CONTINUOUS
 10
178.1501703278
 20
807.9566809544
 11
718.8001703278
 21
807.9566809544
  0
LINE
  5
4F5
100
AcDbEntity
  8
7_ALL_FEATURES
100
AcDbLine
 62
9
  6
CONTINUOUS
 10
160.4001703278
 20
808.2566809544
 11
718.8001703278
 21
808.2566809544
  0
LINE
  5
4F6
100
AcDbEntity
  8
7_ALL_FEATURES
100
AcDbLine
 62
9
  6
CONTINUOUS
 10
718.8001703278
 20
809.1566809544
 11
160.4001703278
 21
809.1566809544
  0
LINE
  5
4F7
100
AcDbEntity
  8
7_ALL_FEATURES
100
AcDbLine
 62
9
  6
CONTINUOUS
 10
159.1501703278
 20
809.1566809544
 11
92.2501703278
 21
809.1566809544
  0
LINE
  5
4F8
100
AcDbEntity
  8
7_ALL_FEATURES
100
AcDbLine
 62
7
  6
CONTINUOUS
 10
718.8001703278
 20
809.4566809544
 11
160.1001703278
 21
809.4566809544
  0
LINE
  5
4F9
100
AcDbEntity
  8
7_ALL_FEATURES
100
AcDbLine
 62
7
  6
CONTINUOUS
 10
159.4501703278
 20
809.4566809544
 11
91.3001703278
 21
809.4566809544
  0
LINE
  5
4FA
100
AcDbEntity
  8
6_ALL_SURFS
100
AcDbLine
 62
7
  6
CONTINUOUS
 10
159.4501703278
 20
809.4566809544
 11
160.1001703278
 21
809.4566809544
  0
LINE
  5
4FB
100
AcDbEntity
  8
7_ALL_FEATURES
100
AcDbLine
 62
7
  6
CONTINUOUS
 10
73.2501703278
 20
807.9566809544
 11
71.1046987375
 21
807.7421337954
  0
LINE
  5
4FC
100
AcDbEntity
  8
7_ALL_FEATURES
100
AcDbLine
 62
7
  6
CONTINUOUS
 10
718.8001703278
 20
809.4566809544
 11
718.8001703278
 21
806.9566809544
  0
LINE
  5
4FD
100
AcDbEntity
  8
6_ALL_SURFS
100
AcDbLine
 62
7
  6
CONTINUOUS
 10
718.8001703278
 20
806.9566809544
 11
718.8001703278
 21
806.8066809544
  0
LINE
  5
4FE
100
AcDbEntity
  8
7_ALL_FEATURES
100
AcDbLine
 62
7
  6
CONTINUOUS
 10
718.8001703278
 20
806.7714859841
 11
718.8001703278
 21
718.4566809544
  0
ARC
  5
4FF
100
AcDbEntity
  8
6_ALL_SURFS
100
AcDbCircle
 62
7
  6
CONTINUOUS
 10
174.6501703278
 20
270.562789267
 40
4.7990381057
100
AcDbArc
 50
87.6115056179
 51
117.2855350899
  0
ARC
  5
500
100
AcDbEntity
  8
7_ALL_FEATURES
100
AcDbCircle
 62
7
  6
CONTINUOUS
 10
76.7501703278
 20
270.562789267
 40
4.7990381057
100
AcDbArc
 50
99.5960093944
 51
136.828815981
  0
ARC
  5
501
100
AcDbEntity
  8
7_ALL_FEATURES
100
AcDbCircle
 62
7
  6
CONTINUOUS
 10
76.7501703278
 20
70.562789267
 40
4.7990381057
100
AcDbArc
 50
99.5960093944
 51
136.828815981
  0
ARC
  5
502
100
AcDbEntity
  8
7_ALL_FEATURES
100
AcDbCircle
 62
7
  6
CONTINUOUS
 10
76.7501703278
 20
270.562789267
 40
4.7990381057
100
AcDbArc
 50
223.171184019
 51
260.4039906056
  0
ARC
  5
503
100
AcDbEntity
  8
7_ALL_FEATURES
100
AcDbCircle
 62
7
  6
CONTINUOUS
 10
76.7501703278
 20
70.562789267
 40
4.7990381057
100
AcDbArc
 50
223.171184019
 51
260.4039906056
  0
ARC
  5
504
100
AcDbEntity
  8
7_ALL_FEATURES
100
AcDbCircle
 62
7
  6
CONTINUOUS
 10
76.7501703278
 20
270.562789267
 40
4.7990381057
100
AcDbArc
 50
62.7144649101
 51
92.3884943821
  0
ARC
  5
505
100
AcDbEntity
  8
7_ALL_FEATURES
100
AcDbCircle
 62
7
  6
CONTINUOUS
 10
76.7501703278
 20
70.562789267
 40
4.7990381057
100
AcDbArc
 50
62.7144649101
 51
92.3884943821
  0
ARC
  5
506
100
AcDbEntity
  8
7_ALL_FEATURES
100
AcDbCircle
 62
7
  6
CONTINUOUS
 10
76.7501703278
 20
270.562789267
 40
4.7990381057
100
AcDbArc
 50
267.6115056179
 51
297.2855350899
  0
ARC
  5
507
100
AcDbEntity
  8
7_ALL_FEATURES
100
AcDbCircle
 62
7
  6
CONTINUOUS
 10
76.7501703278
 20
70.562789267
 40
4.7990381057
100
AcDbArc
 50
267.6115056179
 51
297.2855350899
  0
ARC
  5
508
100
AcDbEntity
  8
7_ALL_FEATURES
100
AcDbCircle
 62
7
  6
CONTINUOUS
 10
76.7501703278
 20
270.562789267
 40
4.7990381057
100
AcDbArc
 50
305.6935828234
 51
54.3064171766
  0
ARC
  5
509
100
AcDbEntity
  8
7_ALL_FEATURES
100
AcDbCircle
 62
7
  6
CONTINUOUS
 10
76.7501703278
 20
70.562789267
 40
4.7990381057
100
AcDbArc
 50
305.6935828234
 51
54.3064171766
  0
ARC
  5
50A
100
AcDbEntity
  8
6_ALL_SURFS
100
AcDbCircle
 62
7
  6
CONTINUOUS
 10
174.6501703278
 20
70.562789267
 40
4.7990381057
100
AcDbArc
 50
279.5960093944
 51
316.828815981
  0
ARC
  5
50B
100
AcDbEntity
  8
6_ALL_SURFS
100
AcDbCircle
 62
7
  6
CONTINUOUS
 10
174.6501703278
 20
270.562789267
 40
4.7990381057
100
AcDbArc
 50
279.5960093944
 51
316.828815981
  0
ARC
  5
50C
100
AcDbEntity
  8
6_ALL_SURFS
100
AcDbCircle
 62
7
  6
CONTINUOUS
 10
174.6501703278
 20
70.562789267
 40
4.7990381057
100
AcDbArc
 50
43.171184019
 51
80.4039906056
  0
ARC
  5
50D
100
AcDbEntity
  8
6_ALL_SURFS
100
AcDbCircle
 62
7
  6
CONTINUOUS
 10
174.6501703278
 20
270.562789267
 40
4.7990381057
100
AcDbArc
 50
43.171184019
 51
80.4039906056
  0
ARC
  5
50E
100
AcDbEntity
  8
6_ALL_SURFS
100
AcDbCircle
 62
7
  6
CONTINUOUS
 10
174.6501703278
 20
270.562789267
 40
4.7990381057
100
AcDbArc
 50
125.6935828234
 51
234.3064171766
  0
ARC
  5
50F
100
AcDbEntity
  8
6_ALL_SURFS
100
AcDbCircle
 62
7
  6
CONTINUOUS
 10
174.6501703278
 20
70.562789267
 40
4.7990381057
100
AcDbArc
 50
125.6935828234
 51
234.3064171766
  0
ARC
  5
510
100
AcDbEntity
  8
6_ALL_SURFS
100
AcDbCircle
 62
7
  6
CONTINUOUS
 10
174.6501703278
 20
70.562789267
 40
4.7990381057
100
AcDbArc
 50
242.7144649101
 51
272.3884943821
  0
ARC
  5
511
100
AcDbEntity
  8
6_ALL_SURFS
100
AcDbCircle
 62
7
  6
CONTINUOUS
 10
174.6501703278
 20
270.562789267
 40
4.7990381057
100
AcDbArc
 50
242.7144649101
 51
272.3884943821
  0
ARC
  5
512
100
AcDbEntity
  8
6_ALL_SURFS
100
AcDbCircle
 62
7
  6
CONTINUOUS
 10
174.6501703278
 20
70.562789267
 40
4.7990381057
100
AcDbArc
 50
87.6115056179
 51
117.2855350899
  0
CIRCLE
  5
513
100
AcDbEntity
  8
6_ALL_SURFS
100
AcDbCircle
 62
7
  6
CONTINUOUS
 10
76.7501703278
 20
270.562789267
 40
3.5
  0
CIRCLE
  5
514
100
AcDbEntity
  8
6_ALL_SURFS
100
AcDbCircle
 62
7
  6
CONTINUOUS
 10
76.7501703278
 20
70.562789267
 40
3.5
  0
CIRCLE
  5
515
100
AcDbEntity
  8
6_ALL_SURFS
100
AcDbCircle
 62
7
  6
CONTINUOUS
 10
174.6501703278
 20
70.562789267
 40
3.5
  0
CIRCLE
  5
516
100
AcDbEntity
  8
6_ALL_SURFS
100
AcDbCircle
 62
7
  6
CONTINUOUS
 10
174.6501703278
 20
270.562789267
 40
3.5
  0
ARC
  5
517
100
AcDbEntity
  8
6_ALL_SURFS
100
AcDbCircle
 62
7
  6
CONTINUOUS
 10
174.6501703278
 20
470.562789267
 40
4.7990381057
100
AcDbArc
 50
242.7144649101
 51
272.3884943821
  0
ARC
  5
518
100
AcDbEntity
  8
6_ALL_SURFS
100
AcDbCircle
 62
7
  6
CONTINUOUS
 10
174.6501703278
 20
470.562789267
 40
4.7990381057
100
AcDbArc
 50
87.6115056179
 51
117.2855350899
  0
ARC
  5
519
100
AcDbEntity
  8
7_ALL_FEATURES
100
AcDbCircle
 62
7
  6
CONTINUOUS
 10
76.7501703278
 20
470.562789267
 40
4.7990381057
100
AcDbArc
 50
99.5960093944
 51
136.828815981
  0
ARC
  5
51A
100
AcDbEntity
  8
7_ALL_FEATURES
100
AcDbCircle
 62
7
  6
CONTINUOUS
 10
76.7501703278
 20
470.562789267
 40
4.7990381057
100
AcDbArc
 50
223.171184019
 51
260.4039906056
  0
ARC
  5
51B
100
AcDbEntity
  8
7_ALL_FEATURES
100
AcDbCircle
 62
7
  6
CONTINUOUS
 10
76.7501703278
 20
470.562789267
 40
4.7990381057
100
AcDbArc
 50
62.7144649101
 51
92.3884943821
  0
ARC
  5
51C
100
AcDbEntity
  8
7_ALL_FEATURES
100
AcDbCircle
 62
7
  6
CONTINUOUS
 10
76.7501703278
 20
470.562789267
 40
4.7990381057
100
AcDbArc
 50
267.6115056179
 51
297.2855350899
  0
ARC
  5
51D
100
AcDbEntity
  8
7_ALL_FEATURES
100
AcDbCircle
 62
7
  6
CONTINUOUS
 10
76.7501703278
 20
470.562789267
 40
4.7990381057
100
AcDbArc
 50
305.6935828234
 51
54.3064171766
  0
ARC
  5
51E
100
AcDbEntity
  8
6_ALL_SURFS
100
AcDbCircle
 62
7
  6
CONTINUOUS
 10
174.6501703278
 20
470.562789267
 40
4.7990381057
100
AcDbArc
 50
279.5960093944
 51
316.828815981
  0
ARC
  5
51F
100
AcDbEntity
  8
6_ALL_SURFS
100
AcDbCircle
 62
7
  6
CONTINUOUS
 10
174.6501703278
 20
470.562789267
 40
4.7990381057
100
AcDbArc
 50
43.171184019
 51
80.4039906056
  0
ARC
  5
520
100
AcDbEntity
  8
6_ALL_SURFS
100
AcDbCircle
 62
7
  6
CONTINUOUS
 10
174.6501703278
 20
470.562789267
 40
4.7990381057
100
AcDbArc
 50
125.6935828234
 51
234.3064171766
  0
ARC
  5
521
100
AcDbEntity
  8
6_ALL_SURFS
100
AcDbCircle
 62
7
  6
CONTINUOUS
 10
225.8001703278
 20
610.062789267
 40
4.7990381057
100
AcDbArc
 50
332.7144649101
 51
2.3884943821
  0
ARC
  5
522
100
AcDbEntity
  8
6_ALL_SURFS
100
AcDbCircle
 62
7
  6
CONTINUOUS
 10
225.8001703278
 20
610.062789267
 40
4.7990381057
100
AcDbArc
 50
177.6115056179
 51
207.2855350899
  0
ARC
  5
523
100
AcDbEntity
  8
7_ALL_FEATURES
100
AcDbCircle
 62
7
  6
CONTINUOUS
 10
225.8001703278
 20
512.162789267
 40
4.7990381057
100
AcDbArc
 50
189.5960093944
 51
226.828815981
  0
ARC
  5
524
100
AcDbEntity
  8
7_ALL_FEATURES
100
AcDbCircle
 62
7
  6
CONTINUOUS
 10
225.8001703278
 20
512.162789267
 40
4.7990381057
100
AcDbArc
 50
313.171184019
 51
350.4039906056
  0
ARC
  5
525
100
AcDbEntity
  8
7_ALL_FEATURES
100
AcDbCircle
 62
7
  6
CONTINUOUS
 10
225.8001703278
 20
512.162789267
 40
4.7990381057
100
AcDbArc
 50
152.7144649101
 51
182.3884943821
  0
ARC
  5
526
100
AcDbEntity
  8
7_ALL_FEATURES
100
AcDbCircle
 62
7
  6
CONTINUOUS
 10
225.8001703278
 20
512.162789267
 40
4.7990381057
100
AcDbArc
 50
357.6115056179
 51
27.2855350899
  0
ARC
  5
527
100
AcDbEntity
  8
7_ALL_FEATURES
100
AcDbCircle
 62
7
  6
CONTINUOUS
 10
225.8001703278
 20
512.162789267
 40
4.7990381057
100
AcDbArc
 50
35.6935828234
 51
144.3064171766
  0
ARC
  5
528
100
AcDbEntity
  8
6_ALL_SURFS
100
AcDbCircle
 62
7
  6
CONTINUOUS
 10
225.8001703278
 20
610.062789267
 40
4.7990381057
100
AcDbArc
 50
9.5960093944
 51
46.828815981
  0
ARC
  5
529
100
AcDbEntity
  8
6_ALL_SURFS
100
AcDbCircle
 62
7
  6
CONTINUOUS
 10
225.8001703278
 20
610.062789267
 40
4.7990381057
100
AcDbArc
 50
133.171184019
 51
170.4039906056
  0
ARC
  5
52A
100
AcDbEntity
  8
6_ALL_SURFS
100
AcDbCircle
 62
7
  6
CONTINUOUS
 10
225.8001703278
 20
610.062789267
 40
4.7990381057
100
AcDbArc
 50
215.6935828234
 51
324.3064171766
  0
CIRCLE
  5
52B
100
AcDbEntity
  8
6_ALL_SURFS
100
AcDbCircle
 62
7
  6
CONTINUOUS
 10
76.7501703278
 20
470.562789267
 40
3.5
  0
CIRCLE
  5
52C
100
AcDbEntity
  8
6_ALL_SURFS
100
AcDbCircle
 62
7
  6
CONTINUOUS
 10
174.6501703278
 20
470.562789267
 40
3.5
  0
CIRCLE
  5
52D
100
AcDbEntity
  8
6_ALL_SURFS
100
AcDbCircle
 62
7
  6
CONTINUOUS
 10
225.8001703278
 20
512.162789267
 40
3.5
  0
CIRCLE
  5
52E
100
AcDbEntity
  8
6_ALL_SURFS
100
AcDbCircle
 62
7
  6
CONTINUOUS
 10
225.8001703278
 20
610.062789267
 40
3.5
  0
ARC
  5
52F
100
AcDbEntity
  8
6_ALL_SURFS
100
AcDbCircle
 62
7
  6
CONTINUOUS
 10
425.8001703278
 20
610.062789267
 40
4.7990381057
100
AcDbArc
 50
177.6115056179
 51
207.2855350899
  0
ARC
  5
530
100
AcDbEntity
  8
7_ALL_FEATURES
100
AcDbCircle
 62
7
  6
CONTINUOUS
 10
425.8001703278
 20
512.162789267
 40
4.7990381057
100
AcDbArc
 50
189.5960093944
 51
226.828815981
  0
ARC
  5
531
100
AcDbEntity
  8
7_ALL_FEATURES
100
AcDbCircle
 62
7
  6
CONTINUOUS
 10
625.8001703278
 20
512.162789267
 40
4.7990381057
100
AcDbArc
 50
189.5960093944
 51
226.828815981
  0
ARC
  5
532
100
AcDbEntity
  8
7_ALL_FEATURES
100
AcDbCircle
 62
7
  6
CONTINUOUS
 10
425.8001703278
 20
512.162789267
 40
4.7990381057
100
AcDbArc
 50
313.171184019
 51
350.4039906056
  0
ARC
  5
533
100
AcDbEntity
  8
7_ALL_FEATURES
100
AcDbCircle
 62
7
  6
CONTINUOUS
 10
625.8001703278
 20
512.162789267
 40
4.7990381057
100
AcDbArc
 50
313.171184019
 51
350.4039906056
  0
ARC
  5
534
100
AcDbEntity
  8
7_ALL_FEATURES
100
AcDbCircle
 62
7
  6
CONTINUOUS
 10
425.8001703278
 20
512.162789267
 40
4.7990381057
100
AcDbArc
 50
152.7144649101
 51
182.3884943821
  0
ARC
  5
535
100
AcDbEntity
  8
7_ALL_FEATURES
100
AcDbCircle
 62
7
  6
CONTINUOUS
 10
625.8001703278
 20
512.162789267
 40
4.7990381057
100
AcDbArc
 50
152.7144649101
 51
182.3884943821
  0
ARC
  5
536
100
AcDbEntity
  8
7_ALL_FEATURES
100
AcDbCircle
 62
7
  6
CONTINUOUS
 10
425.8001703278
 20
512.162789267
 40
4.7990381057
100
AcDbArc
 50
357.6115056179
 51
27.2855350899
  0
ARC
  5
537
100
AcDbEntity
  8
7_ALL_FEATURES
100
AcDbCircle
 62
7
  6
CONTINUOUS
 10
625.8001703278
 20
512.162789267
 40
4.7990381057
100
AcDbArc
 50
357.6115056179
 51
27.2855350899
  0
ARC
  5
538
100
AcDbEntity
  8
7_ALL_FEATURES
100
AcDbCircle
 62
7
  6
CONTINUOUS
 10
425.8001703278
 20
512.162789267
 40
4.7990381057
100
AcDbArc
 50
35.6935828234
 51
144.3064171766
  0
ARC
  5
539
100
AcDbEntity
  8
7_ALL_FEATURES
100
AcDbCircle
 62
7
  6
CONTINUOUS
 10
625.8001703278
 20
512.162789267
 40
4.7990381057
100
AcDbArc
 50
35.6935828234
 51
144.3064171766
  0
ARC
  5
53A
100
AcDbEntity
  8
6_ALL_SURFS
100
AcDbCircle
 62
7
  6
CONTINUOUS
 10
625.8001703278
 20
610.062789267
 40
4.7990381057
100
AcDbArc
 50
9.5960093944
 51
46.828815981
  0
ARC
  5
53B
100
AcDbEntity
  8
6_ALL_SURFS
100
AcDbCircle
 62
7
  6
CONTINUOUS
 10
425.8001703278
 20
610.062789267
 40
4.7990381057
100
AcDbArc
 50
9.5960093944
 51
46.828815981
  0
ARC
  5
53C
100
AcDbEntity
  8
6_ALL_SURFS
100
AcDbCircle
 62
7
  6
CONTINUOUS
 10
625.8001703278
 20
610.062789267
 40
4.7990381057
100
AcDbArc
 50
133.171184019
 51
170.4039906056
  0
ARC
  5
53D
100
AcDbEntity
  8
6_ALL_SURFS
100
AcDbCircle
 62
7
  6
CONTINUOUS
 10
425.8001703278
 20
610.062789267
 40
4.7990381057
100
AcDbArc
 50
133.171184019
 51
170.4039906056
  0
ARC
  5
53E
100
AcDbEntity
  8
6_ALL_SURFS
100
AcDbCircle
 62
7
  6
CONTINUOUS
 10
425.8001703278
 20
610.062789267
 40
4.7990381057
100
AcDbArc
 50
215.6935828234
 51
324.3064171766
  0
ARC
  5
53F
100
AcDbEntity
  8
6_ALL_SURFS
100
AcDbCircle
 62
7
  6
CONTINUOUS
 10
625.8001703278
 20
610.062789267
 40
4.7990381057
100
AcDbArc
 50
215.6935828234
 51
324.3064171766
  0
ARC
  5
540
100
AcDbEntity
  8
6_ALL_SURFS
100
AcDbCircle
 62
7
  6
CONTINUOUS
 10
625.8001703278
 20
610.062789267
 40
4.7990381057
100
AcDbArc
 50
332.7144649101
 51
2.3884943821
  0
ARC
  5
541
100
AcDbEntity
  8
6_ALL_SURFS
100
AcDbCircle
 62
7
  6
CONTINUOUS
 10
425.8001703278
 20
610.062789267
 40
4.7990381057
100
AcDbArc
 50
332.7144649101
 51
2.3884943821
  0
ARC
  5
542
100
AcDbEntity
  8
6_ALL_SURFS
100
AcDbCircle
 62
7
  6
CONTINUOUS
 10
625.8001703278
 20
610.062789267
 40
4.7990381057
100
AcDbArc
 50
177.6115056179
 51
207.2855350899
  0
CIRCLE
  5
543
100
AcDbEntity
  8
6_ALL_SURFS
100
AcDbCircle
 62
7
  6
CONTINUOUS
 10
425.8001703278
 20
512.162789267
 40
3.5
  0
CIRCLE
  5
544
100
AcDbEntity
  8
6_ALL_SURFS
100
AcDbCircle
 62
7
  6
CONTINUOUS
 10
625.8001703278
 20
512.162789267
 40
3.5
  0
CIRCLE
  5
545
100
AcDbEntity
  8
6_ALL_SURFS
100
AcDbCircle
 62
7
  6
CONTINUOUS
 10
625.8001703278
 20
610.062789267
 40
3.5
  0
CIRCLE
  5
546
100
AcDbEntity
  8
6_ALL_SURFS
100
AcDbCircle
 62
7
  6
CONTINUOUS
 10
425.8001703278
 20
610.062789267
 40
3.5
  0
CIRCLE
  5
547
100
AcDbEntity
  8
3_ALL_AXES
100
AcDbCircle
 62
7
  6
CONTINUOUS
 10
831.5449458454
 20
498.562789267
 40
4.5
  0
ARC
  5
548
100
AcDbEntity
  8
7_ALL_FEATURES
100
AcDbCircle
 62
7
  6
CONTINUOUS
 10
827.1676723053
 20
588.262789267
 40
5.0
100
AcDbArc
 50
90.0
 51
102.5121857833
  0
ARC
  5
549
100
AcDbEntity
  8
7_ALL_FEATURES
100
AcDbCircle
 62
7
  6
CONTINUOUS
 10
804.7949458454
 20
583.562789267
 40
2.8
100
AcDbArc
 50
60.0
 51
116.0652184826
  0
ARC
  5
54A
100
AcDbEntity
  8
7_ALL_FEATURES
100
AcDbCircle
 62
7
  6
CONTINUOUS
 10
808.4449458454
 20
587.6930302698
 40
1.5
100
AcDbArc
 50
102.5121857833
 51
180.0
  0
ARC
  5
54B
100
AcDbEntity
  8
7_ALL_FEATURES
100
AcDbCircle
 62
7
  6
CONTINUOUS
 10
806.4449458454
 20
586.4206730995
 40
0.5
100
AcDbArc
 50
240.0
 51
360.0
  0
ARC
  5
54C
100
AcDbEntity
  8
7_ALL_FEATURES
100
AcDbCircle
 62
7
  6
CONTINUOUS
 10
803.3449458454
 20
586.5271610385
 40
0.5
100
AcDbArc
 50
180.0
 51
296.0652184826
  0
ARC
  5
54D
100
AcDbEntity
  8
7_ALL_FEATURES
100
AcDbCircle
 62
7
  6
CONTINUOUS
 10
802.5449458454
 20
587.5706730995
 40
0.3
100
AcDbArc
 50
0.0000000001
 51
90.0
  0
ARC
  5
54E
100
AcDbEntity
  8
7_ALL_FEATURES
100
AcDbCircle
 62
7
  6
CONTINUOUS
 10
801.8449458454
 20
587.5706730995
 40
0.3
100
AcDbArc
 50
90.0
 51
179.9999999999
  0
ARC
  5
54F
100
AcDbEntity
  8
7_ALL_FEATURES
100
AcDbCircle
 62
7
  6
CONTINUOUS
 10
878.5430199152
 20
594.512789267
 40
2.15
100
AcDbArc
 50
46.1313356567
 51
133.8686643433
  0
ARC
  5
550
100
AcDbEntity
  8
7_ALL_FEATURES
100
AcDbCircle
 62
7
  6
CONTINUOUS
 10
873.5449458454
 20
594.562789267
 40
1.5
100
AcDbArc
 50
90.0
 51
133.0
  0
ARC
  5
551
100
AcDbEntity
  8
7_ALL_FEATURES
100
AcDbCircle
 62
7
  6
CONTINUOUS
 10
866.9449458454
 20
594.662789267
 40
1.5
100
AcDbArc
 50
0.0
 51
90.0
  0
ARC
  5
552
100
AcDbEntity
  8
7_ALL_FEATURES
100
AcDbCircle
 62
7
  6
CONTINUOUS
 10
864.1449458454
 20
594.662789267
 40
1.5
100
AcDbArc
 50
90.0
 51
180.0
  0
ARC
  5
553
100
AcDbEntity
  8
7_ALL_FEATURES
100
AcDbCircle
 62
7
  6
CONTINUOUS
 10
890.4386492033
 20
615.6690859091
 40
0.3937033579
100
AcDbArc
 50
5.7105931375
 51
180.0
  0
ARC
  5
554
100
AcDbEntity
  8
7_ALL_FEATURES
100
AcDbCircle
 62
7
  6
CONTINUOUS
 10
892.2449458454
 20
595.512789267
 40
0.3
100
AcDbArc
 50
0.0
 51
90.0
  0
ARC
  5
555
100
AcDbEntity
  8
7_ALL_FEATURES
100
AcDbCircle
 62
7
  6
CONTINUOUS
 10
891.3449458454
 20
596.112789267
 40
0.3
100
AcDbArc
 50
180.0
 51
270.0
  0
ARC
  5
556
100
AcDbEntity
  8
7_ALL_FEATURES
100
AcDbCircle
 62
7
  6
CONTINUOUS
 10
889.7449458454
 20
596.362789267
 40
0.3
100
AcDbArc
 50
270.0
 51
300.0482556917
  0
ARC
  5
557
100
AcDbEntity
  8
7_ALL_FEATURES
100
AcDbCircle
 62
7
  6
CONTINUOUS
 10
870.1549852142
 20
593.862789267
 40
0.3
100
AcDbArc
 50
269.9999999999
 51
313.0
  0
ARC
  5
558
100
AcDbEntity
  8
7_ALL_FEATURES
100
AcDbCircle
 62
7
  6
CONTINUOUS
 10
868.7449458454
 20
593.862789267
 40
0.3
100
AcDbArc
 50
180.0
 51
270.0
  0
ARC
  5
559
100
AcDbEntity
  8
7_ALL_FEATURES
100
AcDbCircle
 62
7
  6
CONTINUOUS
 10
862.3449458454
 20
593.562789267
 40
0.3
100
AcDbArc
 50
270.0
 51
360.0
  0
ARC
  5
55A
100
AcDbEntity
  8
7_ALL_FEATURES
100
AcDbCircle
 62
7
  6
CONTINUOUS
 10
125.7001703278
 20
721.5566809544
 40
8.0
100
AcDbArc
 50
60.0
 51
75.5224878141
  0
ARC
  5
55B
100
AcDbEntity
  8
7_ALL_FEATURES
100
AcDbCircle
 62
7
  6
CONTINUOUS
 10
125.7001703278
 20
721.5566809544
 40
8.0
100
AcDbArc
 50
104.4775121859
 51
120.0
  0
ARC
  5
55C
100
AcDbEntity
  8
7_ALL_FEATURES
100
AcDbCircle
 62
7
  6
CONTINUOUS
 10
125.7001703278
 20
721.5566809544
 40
7.9843597113
100
AcDbArc
 50
75.4935070353
 51
86.4096498625
  0
ARC
  5
55D
100
AcDbEntity
  8
7_ALL_FEATURES
100
AcDbCircle
 62
7
  6
CONTINUOUS
 10
125.7001703278
 20
721.5566809544
 40
7.9843597113
100
AcDbArc
 50
93.5903501375
 51
104.5064929647
  0
ARC
  5
55E
100
AcDbEntity
  8
7_ALL_FEATURES
100
AcDbCircle
 62
7
  6
CONTINUOUS
 10
125.7001703278
 20
721.5566809544
 40
7.7459666924
100
AcDbArc
 50
86.2990001561
 51
93.7009998439
  0
ARC
  5
55F
100
AcDbEntity
  8
7_ALL_FEATURES
100
AcDbCircle
 62
7
  6
CONTINUOUS
 10
98.5501703278
 20
744.0794074143
 40
5.0
100
AcDbArc
 50
180.0
 51
192.5121857833
  0
ARC
  5
560
100
AcDbEntity
  8
7_ALL_FEATURES
100
AcDbCircle
 62
7
  6
CONTINUOUS
 10
103.2501703278
 20
721.7066809544
 40
2.8
100
AcDbArc
 50
150.0
 51
206.0652184826
  0
ARC
  5
561
100
AcDbEntity
  8
7_ALL_FEATURES
100
AcDbCircle
 62
7
  6
CONTINUOUS
 10
103.2501703278
 20
721.7066809544
 40
2.8
100
AcDbArc
 50
0.0
 51
30.0
  0
ARC
  5
562
100
AcDbEntity
  8
7_ALL_FEATURES
100
AcDbCircle
 62
7
  6
CONTINUOUS
 10
97.1501703278
 20
746.4060874128
 40
2.0
100
AcDbArc
 50
180.0
 51
200.0
  0
ARC
  5
563
100
AcDbEntity
  8
6_ALL_SURFS
100
AcDbCircle
 62
7
  6
CONTINUOUS
 10
127.8001703278
 20
719.9566809544
 40
1.5
100
AcDbArc
 50
270.0
 51
360.0
  0
ARC
  5
564
100
AcDbEntity
  8
7_ALL_FEATURES
100
AcDbCircle
 62
7
  6
CONTINUOUS
 10
99.1199293251
 20
725.3566809544
 40
1.5
100
AcDbArc
 50
192.5121857833
 51
270.0
  0
ARC
  5
565
100
AcDbEntity
  8
7_ALL_FEATURES
100
AcDbCircle
 62
7
  6
CONTINUOUS
 10
123.6001703278
 20
719.9566809544
 40
1.5
100
AcDbArc
 50
180.0
 51
270.0
  0
ARC
  5
566
100
AcDbEntity
  8
7_ALL_FEATURES
100
AcDbCircle
 62
7
  6
CONTINUOUS
 10
103.2501703278
 20
721.6566809544
 40
1.3
100
AcDbArc
 50
310.8069228722
 51
229.1930771247
  0
ARC
  5
567
100
AcDbEntity
  8
7_ALL_FEATURES
100
AcDbCircle
 62
7
  6
CONTINUOUS
 10
100.2857985563
 20
720.2566809544
 40
0.5
100
AcDbArc
 50
270.0
 51
26.0652184826
  0
ARC
  5
568
100
AcDbEntity
  8
7_ALL_FEATURES
100
AcDbCircle
 62
7
  6
CONTINUOUS
 10
100.3922864954
 20
723.3566809544
 40
0.5
100
AcDbArc
 50
330.0
 51
90.0
  0
ARC
  5
569
100
AcDbEntity
  8
7_ALL_FEATURES
100
AcDbCircle
 62
7
  6
CONTINUOUS
 10
106.1080541603
 20
723.3566809544
 40
0.5
100
AcDbArc
 50
90.0
 51
210.0
  0
ARC
  5
56A
100
AcDbEntity
  8
7_ALL_FEATURES
100
AcDbCircle
 62
7
  6
CONTINUOUS
 10
99.6013753412
 20
725.9566809544
 40
0.5
100
AcDbArc
 50
192.5121857832
 51
270.0
  0
ARC
  5
56B
100
AcDbEntity
  8
7_ALL_FEATURES
100
AcDbCircle
 62
7
  6
CONTINUOUS
 10
121.8001703278
 20
723.5566809544
 40
0.3
100
AcDbArc
 50
0.0
 51
90.0
  0
ARC
  5
56C
100
AcDbEntity
  8
7_ALL_FEATURES
100
AcDbCircle
 62
7
  6
CONTINUOUS
 10
124.3001703278
 20
720.3566809544
 40
0.3
100
AcDbArc
 50
180.0
 51
270.0
  0
ARC
  5
56D
100
AcDbEntity
  8
7_ALL_FEATURES
100
AcDbCircle
 62
7
  6
CONTINUOUS
 10
95.4973523367
 20
743.5269582964
 40
0.3
100
AcDbArc
 50
110.0
 51
192.5121857832
  0
ARC
  5
56E
100
AcDbEntity
  8
6_ALL_SURFS
100
AcDbCircle
 62
7
  6
CONTINUOUS
 10
127.7001703278
 20
725.1566809544
 40
0.3
100
AcDbArc
 50
90.0
 51
180.0
  0
ARC
  5
56F
100
AcDbEntity
  8
7_ALL_FEATURES
100
AcDbCircle
 62
7
  6
CONTINUOUS
 10
123.7001703278
 20
725.1566809544
 40
0.3
100
AcDbArc
 50
0.0
 51
90.0
  0
ARC
  5
570
100
AcDbEntity
  8
7_ALL_FEATURES
100
AcDbCircle
 62
7
  6
CONTINUOUS
 10
95.5156564986
 20
744.17212713
 40
0.3
100
AcDbArc
 50
290.0
 51
20.0
  0
ARC
  5
571
100
AcDbEntity
  8
6_ALL_SURFS
100
AcDbCircle
 62
7
  6
CONTINUOUS
 10
127.1001703278
 20
720.3566809544
 40
0.3
100
AcDbArc
 50
270.0
 51
360.0
  0
ARC
  5
572
100
AcDbEntity
  8
7_ALL_FEATURES
100
AcDbCircle
 62
7
  6
CONTINUOUS
 10
99.2422864954
 20
719.4566809544
 40
0.3
100
AcDbArc
 50
90.0
 51
180.0
  0
ARC
  5
573
100
AcDbEntity
  8
7_ALL_FEATURES
100
AcDbCircle
 62
7
  6
CONTINUOUS
 10
99.2422864954
 20
718.7566809544
 40
0.3
100
AcDbArc
 50
180.0
 51
270.0
  0
ARC
  5
574
100
AcDbEntity
  8
7_ALL_FEATURES
100
AcDbCircle
 62
7
  6
CONTINUOUS
 10
101.2294443856
 20
718.7566809544
 40
0.3
100
AcDbArc
 50
270.0
 51
329.9999999985
  0
ARC
  5
575
100
AcDbEntity
  8
7_ALL_FEATURES
100
AcDbCircle
 62
7
  6
CONTINUOUS
 10
102.2045510244
 20
720.4456151955
 40
0.3
100
AcDbArc
 50
329.9999999985
 51
49.1930771247
  0
ARC
  5
576
100
AcDbEntity
  8
7_ALL_FEATURES
100
AcDbCircle
 62
7
  6
CONTINUOUS
 10
104.2957896312
 20
720.4456151955
 40
0.3
100
AcDbArc
 50
130.8069228722
 51
210.0000000015
  0
ARC
  5
577
100
AcDbEntity
  8
7_ALL_FEATURES
100
AcDbCircle
 62
7
  6
CONTINUOUS
 10
105.27089627
 20
718.7566809544
 40
0.3
100
AcDbArc
 50
210.0000000015
 51
270.0
  0
ARC
  5
578
100
AcDbEntity
  8
7_ALL_FEATURES
100
AcDbCircle
 62
7
  6
CONTINUOUS
 10
105.7501703278
 20
718.7566809544
 40
0.3
100
AcDbArc
 50
270.0
 51
360.0
  0
ARC
  5
579
100
AcDbEntity
  8
6_ALL_SURFS
100
AcDbCircle
 62
7
  6
CONTINUOUS
 10
82.2501703278
 20
808.3566809544
 40
0.5
100
AcDbArc
 50
233.1301023542
 51
306.8698976458
  0
ARC
  5
57A
100
AcDbEntity
  8
6_ALL_SURFS
100
AcDbCircle
 62
7
  6
CONTINUOUS
 10
79.2501703278
 20
808.3566809544
 40
0.5
100
AcDbArc
 50
233.1301023542
 51
306.8698976458
  0
ARC
  5
57B
100
AcDbEntity
  8
6_ALL_SURFS
100
AcDbCircle
 62
7
  6
CONTINUOUS
 10
76.2501703278
 20
808.3566809544
 40
0.5
100
AcDbArc
 50
233.1301023542
 51
306.8698976458
  0
ARC
  5
57C
100
AcDbEntity
  8
7_ALL_FEATURES
100
AcDbCircle
 62
7
  6
CONTINUOUS
 10
71.1438736858
 20
807.3503843123
 40
0.3937033579
100
AcDbArc
 50
95.7105931375
 51
270.0
  0
ARC
  5
57D
100
AcDbEntity
  8
3_ALL_AXES
100
AcDbCircle
 62
7
  6
CONTINUOUS
 10
92.6501703278
 20
792.6366809544
 40
1.8
100
AcDbArc
 50
302.8598803789
 51
360.0
  0
ARC
  5
57E
100
AcDbEntity
  8
7_ALL_FEATURES
100
AcDbCircle
 62
7
  6
CONTINUOUS
 10
92.2501703278
 20
790.4566809544
 40
1.5
100
AcDbArc
 50
180.0
 51
223.0
  0
ARC
  5
57F
100
AcDbEntity
  8
7_ALL_FEATURES
100
AcDbCircle
 62
7
  6
CONTINUOUS
 10
92.1501703278
 20
783.8566809544
 40
1.5
100
AcDbArc
 50
90.0
 51
180.0
  0
ARC
  5
580
100
AcDbEntity
  8
7_ALL_FEATURES
100
AcDbCircle
 62
7
  6
CONTINUOUS
 10
92.1501703278
 20
781.0566809544
 40
1.5
100
AcDbArc
 50
180.0
 51
270.0
  0
ARC
  5
581
100
AcDbEntity
  8
7_ALL_FEATURES
100
AcDbCircle
 62
7
  6
CONTINUOUS
 10
93.5501703278
 20
782.4566809544
 40
1.3
100
AcDbArc
 50
40.8069228749
 51
319.1930771252
  0
ARC
  5
582
100
AcDbEntity
  8
3_ALL_AXES
100
AcDbCircle
 62
7
  6
CONTINUOUS
 10
93.7353431251
 20
790.9566809544
 40
1.0
100
AcDbArc
 50
122.8598803789
 51
223.0
  0
ARC
  5
583
100
AcDbEntity
  8
3_ALL_AXES
100
AcDbCircle
 62
7
  6
CONTINUOUS
 10
92.6501703278
 20
792.6366809544
 40
1.0
100
AcDbArc
 50
302.8598803789
 51
360.0
  0
ARC
  5
584
100
AcDbEntity
  8
3_ALL_AXES
100
AcDbCircle
 62
7
  6
CONTINUOUS
 10
93.6609587174
 20
790.1566809544
 40
0.4
100
AcDbArc
 50
223.0
 51
43.0
  0
ARC
  5
585
100
AcDbEntity
  8
7_ALL_FEATURES
100
AcDbCircle
 62
7
  6
CONTINUOUS
 10
92.5501703278
 20
793.9085172321
 40
0.3
100
AcDbArc
 50
180.0
 51
217.5
  0
ARC
  5
586
100
AcDbEntity
  8
7_ALL_FEATURES
100
AcDbCircle
 62
7
  6
CONTINUOUS
 10
93.2501703278
 20
779.2566809544
 40
0.3
100
AcDbArc
 50
0.0
 51
90.0
  0
ARC
  5
587
100
AcDbEntity
  8
7_ALL_FEATURES
100
AcDbCircle
 62
7
  6
CONTINUOUS
 10
95.1501703278
 20
785.3809450231
 40
0.3
100
AcDbArc
 50
180.0
 51
225.0
  0
ARC
  5
588
100
AcDbEntity
  8
7_ALL_FEATURES
100
AcDbCircle
 62
7
  6
CONTINUOUS
 10
95.1501703278
 20
786.9324168857
 40
0.3
100
AcDbArc
 50
135.0
 51
180.0
  0
ARC
  5
589
100
AcDbEntity
  8
7_ALL_FEATURES
100
AcDbCircle
 62
7
  6
CONTINUOUS
 10
93.7793866695
 20
789.2566809544
 40
0.3
100
AcDbArc
 50
223.0
 51
270.0
  0
ARC
  5
58A
100
AcDbEntity
  8
7_ALL_FEATURES
100
AcDbCircle
 62
7
  6
CONTINUOUS
 10
92.5501703278
 20
790.5748540971
 40
0.3
100
AcDbArc
 50
180.0
 51
223.0
  0
ARC
  5
58B
100
AcDbEntity
  8
7_ALL_FEATURES
100
AcDbCircle
 62
7
  6
CONTINUOUS
 10
92.5501703278
 20
791.6566809544
 40
0.3
100
AcDbArc
 50
90.0
 51
180.0
  0
ARC
  5
58C
100
AcDbEntity
  8
7_ALL_FEATURES
100
AcDbCircle
 62
7
  6
CONTINUOUS
 10
92.9501703278
 20
785.6566809544
 40
0.3
100
AcDbArc
 50
270.0
 51
360.0
  0
ARC
  5
58D
100
AcDbEntity
  8
7_ALL_FEATURES
100
AcDbCircle
 62
7
  6
CONTINUOUS
 10
92.9501703278
 20
787.0667203232
 40
0.3
100
AcDbArc
 50
0.0
 51
43.0
  0
ARC
  5
58E
100
AcDbEntity
  8
7_ALL_FEATURES
100
AcDbCircle
 62
7
  6
CONTINUOUS
 10
94.8501703278
 20
781.3597154429
 40
0.3
100
AcDbArc
 50
0.0
 51
60.0
  0
ARC
  5
58F
100
AcDbEntity
  8
7_ALL_FEATURES
100
AcDbCircle
 62
7
  6
CONTINUOUS
 10
94.7612360867
 20
781.411061651
 40
0.3
100
AcDbArc
 50
60.0
 51
139.1930771251
  0
ARC
  5
590
100
AcDbEntity
  8
7_ALL_FEATURES
100
AcDbCircle
 62
7
  6
CONTINUOUS
 10
94.7612360867
 20
783.5023002578
 40
0.3
100
AcDbArc
 50
220.8069228749
 51
300.0
  0
ARC
  5
591
100
AcDbEntity
  8
7_ALL_FEATURES
100
AcDbCircle
 62
7
  6
CONTINUOUS
 10
94.8501703278
 20
783.5536464659
 40
0.3
100
AcDbArc
 50
300.0
 51
360.0
  0
ARC
  5
592
100
AcDbEntity
  8
7_ALL_FEATURES
100
AcDbCircle
 62
7
  6
CONTINUOUS
 10
94.8501703278
 20
784.8324168857
 40
0.3
100
AcDbArc
 50
0.0
 51
45.0
  0
ARC
  5
593
100
AcDbEntity
  8
7_ALL_FEATURES
100
AcDbCircle
 62
7
  6
CONTINUOUS
 10
94.8501703278
 20
787.4809450231
 40
0.3
100
AcDbArc
 50
315.0
 51
360.0
  0
ARC
  5
594
100
AcDbEntity
  8
7_ALL_FEATURES
100
AcDbCircle
 62
7
  6
CONTINUOUS
 10
94.8501703278
 20
788.6566809544
 40
0.3
100
AcDbArc
 50
0.0
 51
90.0
  0
ARC
  5
595
100
AcDbEntity
  8
7_ALL_FEATURES
100
AcDbCircle
 62
7
  6
CONTINUOUS
 10
92.6001703278
 20
793.6566809544
 40
0.2
100
AcDbArc
 50
180.0
 51
270.0
  0
ARC
  5
596
100
AcDbEntity
  8
3_ALL_AXES
100
AcDbCircle
 62
7
  6
CONTINUOUS
 10
93.7353431251
 20
790.9566809544
 40
0.2
100
AcDbArc
 50
122.8598803789
 51
223.0
  0
ARC
  5
597
100
AcDbEntity
  8
7_ALL_FEATURES
100
AcDbCircle
 62
7
  6
CONTINUOUS
 10
94.6501703278
 20
792.7566809544
 40
0.2
100
AcDbArc
 50
90.0
 51
180.0
  0
ARC
  5
598
100
AcDbEntity
  8
7_ALL_FEATURES
100
AcDbCircle
 62
7
  6
CONTINUOUS
 10
93.4501703278
 20
793.2566809544
 40
0.2
100
AcDbArc
 50
0.0
 51
90.0
  0
ARC
  5
599
100
AcDbEntity
  8
7_ALL_FEATURES
100
AcDbCircle
 62
7
  6
CONTINUOUS
 10
93.2641653752
 20
792.1566809544
 40
0.2
100
AcDbArc
 50
270.0
 51
37.5
  0
ARC
  5
59A
100
AcDbEntity
  8
7_ALL_FEATURES
100
AcDbCircle
 62
7
  6
CONTINUOUS
 10
92.3001703278
 20
795.4547550242
 40
2.15
100
AcDbArc
 50
136.1313356567
 51
223.8686643433
  0
ARC
  5
59B
100
AcDbEntity
  8
7_ALL_FEATURES
100
AcDbCircle
 62
7
  6
CONTINUOUS
 10
92.3001703278
 20
795.4547550242
 40
0.65
100
AcDbArc
 50
111.6182724222
 51
248.3817275778
  0
ARC
  5
59C
100
AcDbEntity
  8
6_ALL_SURFS
100
AcDbCircle
 62
7
  6
CONTINUOUS
 10
88.2501703278
 20
808.3566809544
 40
0.5
100
AcDbArc
 50
233.1301023542
 51
306.8698976458
  0
ARC
  5
59D
100
AcDbEntity
  8
6_ALL_SURFS
100
AcDbCircle
 62
7
  6
CONTINUOUS
 10
85.2501703278
 20
808.3566809544
 40
0.5
100
AcDbArc
 50
233.1301023542
 51
306.8698976458
  0
ARC
  5
59E
100
AcDbEntity
  8
7_ALL_FEATURES
100
AcDbCircle
 62
7
  6
CONTINUOUS
 10
90.4501703278
 20
806.6566809544
 40
0.3
100
AcDbArc
 50
0.0
 51
90.0
  0
ARC
  5
59F
100
AcDbEntity
  8
7_ALL_FEATURES
100
AcDbCircle
 62
7
  6
CONTINUOUS
 10
90.7001703278
 20
808.2566809544
 40
0.3
100
AcDbArc
 50
270.0
 51
360.0
  0
ARC
  5
5A0
100
AcDbEntity
  8
7_ALL_FEATURES
100
AcDbCircle
 62
7
  6
CONTINUOUS
 10
91.9501703278
 20
794.5715789376
 40
0.3
100
AcDbArc
 50
0.0
 51
68.3817275778
  0
ARC
  5
5A1
100
AcDbEntity
  8
7_ALL_FEATURES
100
AcDbCircle
 62
7
  6
CONTINUOUS
 10
91.9501703278
 20
796.3379311109
 40
0.3
100
AcDbArc
 50
291.6182724222
 51
360.0
  0
ARC
  5
5A2
100
AcDbEntity
  8
7_ALL_FEATURES
100
AcDbCircle
 62
7
  6
CONTINUOUS
 10
91.9501703278
 20
809.1566809544
 40
0.3
100
AcDbArc
 50
0.0
 51
90.0
  0
ARC
  5
5A3
100
AcDbEntity
  8
7_ALL_FEATURES
100
AcDbCircle
 62
7
  6
CONTINUOUS
 10
91.3001703278
 20
809.1566809544
 40
0.3
100
AcDbArc
 50
90.0
 51
180.0
  0
ARC
  5
5A4
100
AcDbEntity
  8
7_ALL_FEATURES
100
AcDbCircle
 62
7
  6
CONTINUOUS
 10
92.6001703278
 20
794.2566809544
 40
0.2
100
AcDbArc
 50
90.0
 51
180.0
  0
ARC
  5
5A5
100
AcDbEntity
  8
6_ALL_SURFS
100
AcDbCircle
 62
7
  6
CONTINUOUS
 10
152.8501703278
 20
744.0794074143
 40
5.0
100
AcDbArc
 50
347.4878142167
 51
360.0
  0
CIRCLE
  5
5A6
100
AcDbEntity
  8
3_ALL_AXES
100
AcDbCircle
 62
7
  6
CONTINUOUS
 10
175.3501703278
 20
748.4566809544
 40
4.35
  0
ARC
  5
5A7
100
AcDbEntity
  8
6_ALL_SURFS
100
AcDbCircle
 62
7
  6
CONTINUOUS
 10
148.1501703278
 20
721.7066809544
 40
2.8
100
AcDbArc
 50
150.0
 51
180.0
  0
ARC
  5
5A8
100
AcDbEntity
  8
6_ALL_SURFS
100
AcDbCircle
 62
7
  6
CONTINUOUS
 10
148.1501703278
 20
721.7066809544
 40
2.8
100
AcDbArc
 50
333.9347815174
 51
30.0
  0
ARC
  5
5A9
100
AcDbEntity
  8
0
100
AcDbCircle
 62
2
  6
CONTINUOUS
 10
175.3501703278
 20
748.4566809544
 40
2.5
100
AcDbArc
 50
255.0
 51
360.0
  0
ARC
  5
5AA
100
AcDbEntity
  8
0
100
AcDbCircle
 62
2
  6
CONTINUOUS
 10
175.3501703278
 20
748.4566809544
 40
2.5
100
AcDbArc
 50
180.0
 51
195.0
  0
ARC
  5
5AB
100
AcDbEntity
  8
7_ALL_FEATURES
100
AcDbCircle
 62
7
  6
CONTINUOUS
 10
175.8501703278
 20
748.4566809544
 40
2.5
100
AcDbArc
 50
180.0
 51
213.0692338485
  0
CIRCLE
  5
5AC
100
AcDbEntity
  8
3_ALL_AXES
100
AcDbCircle
 62
7
  6
CONTINUOUS
 10
187.8501703278
 20
748.4566809544
 40
2.5
  0
ARC
  5
5AD
100
AcDbEntity
  8
7_ALL_FEATURES
100
AcDbCircle
 62
7
  6
CONTINUOUS
 10
175.3501703278
 20
748.4566809544
 40
2.1
100
AcDbArc
 50
180.0
 51
360.0
  0
CIRCLE
  5
5AE
100
AcDbEntity
  8
7_ALL_FEATURES
100
AcDbCircle
 62
7
  6
CONTINUOUS
 10
175.8501703278
 20
748.4566809544
 40
2.0
  0
ARC
  5
5AF
100
AcDbEntity
  8
6_ALL_SURFS
100
AcDbCircle
 62
7
  6
CONTINUOUS
 10
154.2501703278
 20
746.4060874128
 40
2.0
100
AcDbArc
 50
340.0
 51
360.0
  0
ARC
  5
5B0
100
AcDbEntity
  8
6_ALL_SURFS
100
AcDbCircle
 62
7
  6
CONTINUOUS
 10
152.2804113306
 20
725.3566809544
 40
1.5
100
AcDbArc
 50
270.0
 51
347.4878142167
  0
ARC
  5
5B1
100
AcDbEntity
  8
6_ALL_SURFS
100
AcDbCircle
 62
7
  6
CONTINUOUS
 10
148.1501703278
 20
721.6566809544
 40
1.3
100
AcDbArc
 50
310.8069228753
 51
229.1930771278
  0
ARC
  5
5B2
100
AcDbEntity
  8
6_ALL_SURFS
100
AcDbCircle
 62
7
  6
CONTINUOUS
 10
151.7989653145
 20
725.9566809544
 40
0.5
100
AcDbArc
 50
270.0
 51
347.4878142168
  0
ARC
  5
5B3
100
AcDbEntity
  8
6_ALL_SURFS
100
AcDbCircle
 62
7
  6
CONTINUOUS
 10
145.2922864954
 20
723.3566809544
 40
0.5
100
AcDbArc
 50
330.0
 51
90.0
  0
ARC
  5
5B4
100
AcDbEntity
  8
6_ALL_SURFS
100
AcDbCircle
 62
7
  6
CONTINUOUS
 10
151.0080541603
 20
723.3566809544
 40
0.5
100
AcDbArc
 50
90.0
 51
210.0
  0
ARC
  5
5B5
100
AcDbEntity
  8
6_ALL_SURFS
100
AcDbCircle
 62
7
  6
CONTINUOUS
 10
151.1145420994
 20
720.2566809544
 40
0.5
100
AcDbArc
 50
153.9347815174
 51
270.0
  0
ARC
  5
5B6
100
AcDbEntity
  8
6_ALL_SURFS
100
AcDbCircle
 62
7
  6
CONTINUOUS
 10
145.6501703278
 20
718.7566809544
 40
0.3
100
AcDbArc
 50
180.0
 51
270.0
  0
ARC
  5
5B7
100
AcDbEntity
  8
6_ALL_SURFS
100
AcDbCircle
 62
7
  6
CONTINUOUS
 10
146.1294443857
 20
718.7566809544
 40
0.3
100
AcDbArc
 50
270.0
 51
329.9999999985
  0
ARC
  5
5B8
100
AcDbEntity
  8
6_ALL_SURFS
100
AcDbCircle
 62
7
  6
CONTINUOUS
 10
147.1045510245
 20
720.4456151955
 40
0.3
100
AcDbArc
 50
329.9999999985
 51
49.1930771278
  0
ARC
  5
5B9
100
AcDbEntity
  8
6_ALL_SURFS
100
AcDbCircle
 62
7
  6
CONTINUOUS
 10
149.1957896313
 20
720.4456151955
 40
0.3
100
AcDbArc
 50
130.8069228753
 51
210.0000000015
  0
ARC
  5
5BA
100
AcDbEntity
  8
6_ALL_SURFS
100
AcDbCircle
 62
7
  6
CONTINUOUS
 10
150.1708962701
 20
718.7566809544
 40
0.3
100
AcDbArc
 50
210.0000000015
 51
270.0
  0
ARC
  5
5BB
100
AcDbEntity
  8
6_ALL_SURFS
100
AcDbCircle
 62
7
  6
CONTINUOUS
 10
152.1580541603
 20
718.7566809544
 40
0.3
100
AcDbArc
 50
270.0
 51
360.0
  0
ARC
  5
5BC
100
AcDbEntity
  8
6_ALL_SURFS
100
AcDbCircle
 62
7
  6
CONTINUOUS
 10
152.1580541603
 20
719.4566809544
 40
0.3
100
AcDbArc
 50
0.0
 51
90.0
  0
ARC
  5
5BD
100
AcDbEntity
  8
6_ALL_SURFS
100
AcDbCircle
 62
7
  6
CONTINUOUS
 10
155.8846841571
 20
744.17212713
 40
0.3
100
AcDbArc
 50
160.0
 51
250.0
  0
ARC
  5
5BE
100
AcDbEntity
  8
6_ALL_SURFS
100
AcDbCircle
 62
7
  6
CONTINUOUS
 10
155.902988319
 20
743.5269582964
 40
0.3
100
AcDbArc
 50
347.4878142168
 51
70.0
  0
ARC
  5
5BF
100
AcDbEntity
  8
6_ALL_SURFS
100
AcDbCircle
 62
7
  6
CONTINUOUS
 10
129.6001703278
 20
723.5566809544
 40
0.3
100
AcDbArc
 50
90.0
 51
180.0
  0
ARC
  5
5C0
100
AcDbEntity
  8
3_ALL_AXES
100
AcDbCircle
 62
7
  6
CONTINUOUS
 10
158.7501703278
 20
792.6366809544
 40
1.8
100
AcDbArc
 50
180.0
 51
237.1401196211
  0
ARC
  5
5C1
100
AcDbEntity
  8
6_ALL_SURFS
100
AcDbCircle
 62
7
  6
CONTINUOUS
 10
159.2501703278
 20
781.0566809544
 40
1.5
100
AcDbArc
 50
270.0
 51
360.0
  0
ARC
  5
5C2
100
AcDbEntity
  8
6_ALL_SURFS
100
AcDbCircle
 62
7
  6
CONTINUOUS
 10
159.2501703278
 20
783.8566809544
 40
1.5
100
AcDbArc
 50
0.0
 51
90.0
  0
ARC
  5
5C3
100
AcDbEntity
  8
6_ALL_SURFS
100
AcDbCircle
 62
7
  6
CONTINUOUS
 10
159.1501703278
 20
790.4566809544
 40
1.5
100
AcDbArc
 50
317.0
 51
360.0
  0
ARC
  5
5C4
100
AcDbEntity
  8
6_ALL_SURFS
100
AcDbCircle
 62
7
  6
CONTINUOUS
 10
157.8501703278
 20
782.4566809544
 40
1.3
100
AcDbArc
 50
220.8069228749
 51
139.1930771251
  0
ARC
  5
5C5
100
AcDbEntity
  8
3_ALL_AXES
100
AcDbCircle
 62
7
  6
CONTINUOUS
 10
158.7501703278
 20
792.6366809544
 40
1.0
100
AcDbArc
 50
180.0
 51
237.1401196211
  0
ARC
  5
5C6
100
AcDbEntity
  8
3_ALL_AXES
100
AcDbCircle
 62
7
  6
CONTINUOUS
 10
157.6649975305
 20
790.9566809544
 40
1.0
100
AcDbArc
 50
317.0
 51
57.1401196211
  0
ARC
  5
5C7
100
AcDbEntity
  8
3_ALL_AXES
100
AcDbCircle
 62
7
  6
CONTINUOUS
 10
157.7393819383
 20
790.1566809544
 40
0.4
100
AcDbArc
 50
137.0
 51
317.0
  0
ARC
  5
5C8
100
AcDbEntity
  8
6_ALL_SURFS
100
AcDbCircle
 62
7
  6
CONTINUOUS
 10
156.5501703278
 20
788.6566809544
 40
0.3
100
AcDbArc
 50
90.0
 51
180.0
  0
ARC
  5
5C9
100
AcDbEntity
  8
6_ALL_SURFS
100
AcDbCircle
 62
7
  6
CONTINUOUS
 10
156.5501703278
 20
787.4809450231
 40
0.3
100
AcDbArc
 50
180.0
 51
225.0
  0
ARC
  5
5CA
100
AcDbEntity
  8
6_ALL_SURFS
100
AcDbCircle
 62
7
  6
CONTINUOUS
 10
156.5501703278
 20
784.8324168857
 40
0.3
100
AcDbArc
 50
135.0
 51
180.0
  0
ARC
  5
5CB
100
AcDbEntity
  8
6_ALL_SURFS
100
AcDbCircle
 62
7
  6
CONTINUOUS
 10
156.5501703278
 20
783.5536464659
 40
0.3
100
AcDbArc
 50
180.0
 51
240.0
  0
ARC
  5
5CC
100
AcDbEntity
  8
6_ALL_SURFS
100
AcDbCircle
 62
7
  6
CONTINUOUS
 10
156.639104569
 20
783.5023002578
 40
0.3
100
AcDbArc
 50
240.0
 51
319.1930771251
  0
ARC
  5
5CD
100
AcDbEntity
  8
6_ALL_SURFS
100
AcDbCircle
 62
7
  6
CONTINUOUS
 10
156.639104569
 20
781.411061651
 40
0.3
100
AcDbArc
 50
40.8069228749
 51
120.0
  0
ARC
  5
5CE
100
AcDbEntity
  8
6_ALL_SURFS
100
AcDbCircle
 62
7
  6
CONTINUOUS
 10
156.5501703278
 20
781.3597154429
 40
0.3
100
AcDbArc
 50
120.0
 51
180.0
  0
ARC
  5
5CF
100
AcDbEntity
  8
6_ALL_SURFS
100
AcDbCircle
 62
7
  6
CONTINUOUS
 10
158.4501703278
 20
787.0667203232
 40
0.3
100
AcDbArc
 50
137.0
 51
180.0
  0
ARC
  5
5D0
100
AcDbEntity
  8
6_ALL_SURFS
100
AcDbCircle
 62
7
  6
CONTINUOUS
 10
158.4501703278
 20
785.6566809544
 40
0.3
100
AcDbArc
 50
180.0
 51
270.0
  0
ARC
  5
5D1
100
AcDbEntity
  8
6_ALL_SURFS
100
AcDbCircle
 62
7
  6
CONTINUOUS
 10
158.8501703278
 20
791.6566809544
 40
0.3
100
AcDbArc
 50
0.0
 51
90.0
  0
ARC
  5
5D2
100
AcDbEntity
  8
6_ALL_SURFS
100
AcDbCircle
 62
7
  6
CONTINUOUS
 10
158.8501703278
 20
790.5748540971
 40
0.3
100
AcDbArc
 50
317.0
 51
360.0
  0
ARC
  5
5D3
100
AcDbEntity
  8
6_ALL_SURFS
100
AcDbCircle
 62
7
  6
CONTINUOUS
 10
157.6209539862
 20
789.2566809544
 40
0.3
100
AcDbArc
 50
270.0
 51
317.0
  0
ARC
  5
5D4
100
AcDbEntity
  8
6_ALL_SURFS
100
AcDbCircle
 62
7
  6
CONTINUOUS
 10
156.2501703278
 20
786.9324168857
 40
0.3
100
AcDbArc
 50
0.0
 51
45.0
  0
ARC
  5
5D5
100
AcDbEntity
  8
6_ALL_SURFS
100
AcDbCircle
 62
7
  6
CONTINUOUS
 10
156.2501703278
 20
785.3809450231
 40
0.3
100
AcDbArc
 50
315.0
 51
360.0
  0
ARC
  5
5D6
100
AcDbEntity
  8
6_ALL_SURFS
100
AcDbCircle
 62
7
  6
CONTINUOUS
 10
158.1501703278
 20
779.2566809544
 40
0.3
100
AcDbArc
 50
90.0
 51
180.0
  0
ARC
  5
5D7
100
AcDbEntity
  8
6_ALL_SURFS
100
AcDbCircle
 62
7
  6
CONTINUOUS
 10
158.8501703278
 20
793.9085172321
 40
0.3
100
AcDbArc
 50
322.5
 51
360.0
  0
ARC
  5
5D8
100
AcDbEntity
  8
7_ALL_FEATURES
100
AcDbCircle
 62
7
  6
CONTINUOUS
 10
158.8001703278
 20
793.6566809544
 40
0.2
100
AcDbArc
 50
270.0
 51
360.0
  0
ARC
  5
5D9
100
AcDbEntity
  8
3_ALL_AXES
100
AcDbCircle
 62
7
  6
CONTINUOUS
 10
157.6649975305
 20
790.9566809544
 40
0.2
100
AcDbArc
 50
317.0
 51
57.1401196211
  0
ARC
  5
5DA
100
AcDbEntity
  8
7_ALL_FEATURES
100
AcDbCircle
 62
7
  6
CONTINUOUS
 10
156.7501703278
 20
792.7566809544
 40
0.2
100
AcDbArc
 50
0.0
 51
90.0
  0
ARC
  5
5DB
100
AcDbEntity
  8
7_ALL_FEATURES
100
AcDbCircle
 62
7
  6
CONTINUOUS
 10
157.9501703278
 20
793.2566809544
 40
0.2
100
AcDbArc
 50
90.0
 51
180.0
  0
ARC
  5
5DC
100
AcDbEntity
  8
6_ALL_SURFS
100
AcDbCircle
 62
7
  6
CONTINUOUS
 10
158.1361752805
 20
792.1566809544
 40
0.2
100
AcDbArc
 50
142.5
 51
270.0
  0
ARC
  5
5DD
100
AcDbEntity
  8
6_ALL_SURFS
100
AcDbCircle
 62
7
  6
CONTINUOUS
 10
159.1001703278
 20
795.4547550242
 40
2.15
100
AcDbArc
 50
316.1313356567
 51
43.8686643433
  0
ARC
  5
5DE
100
AcDbEntity
  8
6_ALL_SURFS
100
AcDbCircle
 62
7
  6
CONTINUOUS
 10
159.1001703278
 20
795.4547550242
 40
0.65
100
AcDbArc
 50
291.6182724222
 51
68.3817275778
  0
ARC
  5
5DF
100
AcDbEntity
  8
6_ALL_SURFS
100
AcDbCircle
 62
7
  6
CONTINUOUS
 10
166.1501703278
 20
808.3566809544
 40
0.5
100
AcDbArc
 50
233.1301023542
 51
306.8698976458
  0
ARC
  5
5E0
100
AcDbEntity
  8
6_ALL_SURFS
100
AcDbCircle
 62
7
  6
CONTINUOUS
 10
163.1501703278
 20
808.3566809544
 40
0.5
100
AcDbArc
 50
233.1301023542
 51
306.8698976458
  0
ARC
  5
5E1
100
AcDbEntity
  8
6_ALL_SURFS
100
AcDbCircle
 62
7
  6
CONTINUOUS
 10
160.1001703278
 20
809.1566809544
 40
0.3
100
AcDbArc
 50
0.0
 51
90.0
  0
ARC
  5
5E2
100
AcDbEntity
  8
6_ALL_SURFS
100
AcDbCircle
 62
7
  6
CONTINUOUS
 10
159.4501703278
 20
809.1566809544
 40
0.3
100
AcDbArc
 50
90.0
 51
180.0
  0
ARC
  5
5E3
100
AcDbEntity
  8
6_ALL_SURFS
100
AcDbCircle
 62
7
  6
CONTINUOUS
 10
159.4501703278
 20
796.3379311109
 40
0.3
100
AcDbArc
 50
180.0
 51
248.3817275778
  0
ARC
  5
5E4
100
AcDbEntity
  8
6_ALL_SURFS
100
AcDbCircle
 62
7
  6
CONTINUOUS
 10
159.4501703278
 20
794.5715789376
 40
0.3
100
AcDbArc
 50
111.6182724222
 51
180.0
  0
ARC
  5
5E5
100
AcDbEntity
  8
6_ALL_SURFS
100
AcDbCircle
 62
7
  6
CONTINUOUS
 10
160.7001703278
 20
808.2566809544
 40
0.3
100
AcDbArc
 50
180.0
 51
270.0
  0
ARC
  5
5E6
100
AcDbEntity
  8
6_ALL_SURFS
100
AcDbCircle
 62
7
  6
CONTINUOUS
 10
160.9501703278
 20
806.6566809544
 40
0.3
100
AcDbArc
 50
90.0
 51
180.0
  0
ARC
  5
5E7
100
AcDbEntity
  8
7_ALL_FEATURES
100
AcDbCircle
 62
7
  6
CONTINUOUS
 10
158.8001703278
 20
794.2566809544
 40
0.2
100
AcDbArc
 50
0.0
 51
90.0
  0
ARC
  5
5E8
100
AcDbEntity
  8
6_ALL_SURFS
100
AcDbCircle
 62
7
  6
CONTINUOUS
 10
175.1501703278
 20
808.3566809544
 40
0.5
100
AcDbArc
 50
233.1301023542
 51
306.8698976458
  0
ARC
  5
5E9
100
AcDbEntity
  8
6_ALL_SURFS
100
AcDbCircle
 62
7
  6
CONTINUOUS
 10
172.1501703278
 20
808.3566809544
 40
0.5
100
AcDbArc
 50
233.1301023542
 51
306.8698976458
  0
ARC
  5
5EA
100
AcDbEntity
  8
6_ALL_SURFS
100
AcDbCircle
 62
7
  6
CONTINUOUS
 10
169.1501703278
 20
808.3566809544
 40
0.5
100
AcDbArc
 50
233.1301023542
 51
306.8698976458
  0
ARC
  5
5EB
100
AcDbEntity
  8
6_ALL_SURFS
100
AcDbCircle
 62
7
  6
CONTINUOUS
 10
180.2564669699
 20
807.3503843123
 40
0.3937033579
100
AcDbArc
 50
270.0
 51
84.2894068625
  0
SPLINE
  5
5EC
100
AcDbEntity
  8
6_ALL_SURFS
100
AcDbSpline
 62
7
  6
CONTINUOUS
 70
0
 71
3
 72
12
 73
8
 74
0
 42
0.0000001
 43
0.0000001
 44
0.0000000001
 40
0.0
 40
0.0
 40
0.0
 40
0.0
 40
0.2446066047
 40
0.5006100557
 40
0.6314140682
 40
0.7589408215
 40
1.0
 40
1.0
 40
1.0
 40
1.0
 10
174.8501703278
 20
65.7679204742
 30
0.0
 10
174.8845770891
 20
65.814090182
 30
0.0
 10
174.9663050004
 20
65.901113327
 30
0.0
 10
175.1068547107
 20
65.9670729578
 30
0.0
 10
175.2299232677
 20
65.9669858413
 30
0.0
 10
175.3435025213
 20
65.931210835
 30
0.0
 10
175.4129060591
 20
65.8736955273
 30
0.0
 10
175.4501703278
 20
65.8309009822
 30
0.0
  0
SPLINE
  5
5ED
100
AcDbEntity
  8
6_ALL_SURFS
100
AcDbSpline
 62
7
  6
CONTINUOUS
 70
0
 71
3
 72
12
 73
8
 74
0
 42
0.0000001
 43
0.0000001
 44
0.0000000001
 40
0.0
 40
0.0
 40
0.0
 40
0.0
 40
0.2446066047
 40
0.5006100557
 40
0.6314140682
 40
0.7589408215
 40
1.0
 40
1.0
 40
1.0
 40
1.0
 10
174.8501703278
 20
265.7679204742
 30
0.0
 10
174.8845770891
 20
265.814090182
 30
0.0
 10
174.9663050004
 20
265.901113327
 30
0.0
 10
175.1068547107
 20
265.9670729578
 30
0.0
 10
175.2299232677
 20
265.9669858413
 30
0.0
 10
175.3435025213
 20
265.931210835
 30
0.0
 10
175.4129060591
 20
265.8736955273
 30
0.0
 10
175.4501703278
 20
265.8309009822
 30
0.0
  0
SPLINE
  5
5EE
100
AcDbEntity
  8
7_ALL_FEATURES
100
AcDbSpline
 62
7
  6
CONTINUOUS
 70
0
 71
3
 72
12
 73
8
 74
0
 42
0.0000001
 43
0.0000001
 44
0.0000000001
 40
0.0
 40
0.0
 40
0.0
 40
0.0
 40
0.2410591563
 40
0.3685859154
 40
0.4993899558
 40
0.7553934268
 40
1.0
 40
1.0
 40
1.0
 40
1.0
 10
75.9501703278
 20
475.2946775518
 30
0.0
 10
75.9874345932
 20
475.2518830106
 30
0.0
 10
76.0568381264
 20
475.1943677048
 30
0.0
 10
76.1704173811
 20
475.1585926927
 30
0.0
 10
76.2934859517
 20
475.1585055759
 30
0.0
 10
76.4340356642
 20
475.2244652134
 30
0.0
 10
76.515763571
 20
475.311488358
 30
0.0
 10
76.5501703278
 20
475.3576580597
 30
0.0
  0
SPLINE
  5
5EF
100
AcDbEntity
  8
7_ALL_FEATURES
100
AcDbSpline
 62
7
  6
CONTINUOUS
 70
0
 71
3
 72
12
 73
8
 74
0
 42
0.0000001
 43
0.0000001
 44
0.0000000001
 40
0.0
 40
0.0
 40
0.0
 40
0.0
 40
0.2410591563
 40
0.3685859154
 40
0.4993899558
 40
0.7553934268
 40
1.0
 40
1.0
 40
1.0
 40
1.0
 10
75.9501703278
 20
275.2946775518
 30
0.0
 10
75.9874345932
 20
275.2518830106
 30
0.0
 10
76.0568381264
 20
275.1943677048
 30
0.0
 10
76.1704173811
 20
275.1585926927
 30
0.0
 10
76.2934859517
 20
275.1585055759
 30
0.0
 10
76.4340356642
 20
275.2244652134
 30
0.0
 10
76.515763571
 20
275.311488358
 30
0.0
 10
76.5501703278
 20
275.3576580597
 30
0.0
  0
SPLINE
  5
5F0
100
AcDbEntity
  8
7_ALL_FEATURES
100
AcDbSpline
 62
7
  6
CONTINUOUS
 70
0
 71
3
 72
12
 73
8
 74
0
 42
0.0000001
 43
0.0000001
 44
0.0000000001
 40
0.0
 40
0.0
 40
0.0
 40
0.0
 40
0.2446066047
 40
0.5006100557
 40
0.6314140682
 40
0.7589408215
 40
1.0
 40
1.0
 40
1.0
 40
1.0
 10
76.5501703278
 20
465.7679204742
 30
0.0
 10
76.5157635666
 20
465.814090182
 30
0.0
 10
76.4340356553
 20
465.901113327
 30
0.0
 10
76.2934859449
 20
465.9670729578
 30
0.0
 10
76.1704173879
 20
465.9669858413
 30
0.0
 10
76.0568381344
 20
465.931210835
 30
0.0
 10
75.9874345966
 20
465.8736955273
 30
0.0
 10
75.9501703278
 20
465.8309009822
 30
0.0
  0
SPLINE
  5
5F1
100
AcDbEntity
  8
7_ALL_FEATURES
100
AcDbSpline
 62
7
  6
CONTINUOUS
 70
0
 71
3
 72
12
 73
8
 74
0
 42
0.0000001
 43
0.0000001
 44
0.0000000001
 40
0.0
 40
0.0
 40
0.0
 40
0.0
 40
0.2410591563
 40
0.3685859154
 40
0.4993899558
 40
0.7553934268
 40
1.0
 40
1.0
 40
1.0
 40
1.0
 10
75.9501703278
 20
75.2946775518
 30
0.0
 10
75.9874345932
 20
75.2518830106
 30
0.0
 10
76.0568381264
 20
75.1943677048
 30
0.0
 10
76.1704173811
 20
75.1585926927
 30
0.0
 10
76.2934859517
 20
75.1585055759
 30
0.0
 10
76.4340356642
 20
75.2244652134
 30
0.0
 10
76.515763571
 20
75.311488358
 30
0.0
 10
76.5501703278
 20
75.3576580597
 30
0.0
  0
SPLINE
  5
5F2
100
AcDbEntity
  8
7_ALL_FEATURES
100
AcDbSpline
 62
7
  6
CONTINUOUS
 70
0
 71
3
 72
12
 73
8
 74
0
 42
0.0000001
 43
0.0000001
 44
0.0000000001
 40
0.0
 40
0.0
 40
0.0
 40
0.0
 40
0.2446066047
 40
0.5006100557
 40
0.6314140682
 40
0.7589408215
 40
1.0
 40
1.0
 40
1.0
 40
1.0
 10
76.5501703278
 20
265.7679204742
 30
0.0
 10
76.5157635666
 20
265.814090182
 30
0.0
 10
76.4340356553
 20
265.901113327
 30
0.0
 10
76.2934859449
 20
265.9670729578
 30
0.0
 10
76.1704173879
 20
265.9669858413
 30
0.0
 10
76.0568381344
 20
265.931210835
 30
0.0
 10
75.9874345966
 20
265.8736955273
 30
0.0
 10
75.9501703278
 20
265.8309009822
 30
0.0
  0
SPLINE
  5
5F3
100
AcDbEntity
  8
6_ALL_SURFS
100
AcDbSpline
 62
7
  6
CONTINUOUS
 70
0
 71
3
 72
12
 73
8
 74
0
 42
0.0000001
 43
0.0000001
 44
0.0000000001
 40
0.0
 40
0.0
 40
0.0
 40
0.0
 40
0.2410591563
 40
0.3685859154
 40
0.4993899558
 40
0.7553934268
 40
1.0
 40
1.0
 40
1.0
 40
1.0
 10
175.4501703278
 20
75.2946775518
 30
0.0
 10
175.4129060625
 20
75.2518830106
 30
0.0
 10
175.3435025293
 20
75.1943677048
 30
0.0
 10
175.2299232746
 20
75.1585926927
 30
0.0
 10
175.106854704
 20
75.1585055759
 30
0.0
 10
174.9663049915
 20
75.2244652134
 30
0.0
 10
174.8845770847
 20
75.311488358
 30
0.0
 10
174.8501703278
 20
75.3576580597
 30
0.0
  0
SPLINE
  5
5F4
100
AcDbEntity
  8
7_ALL_FEATURES
100
AcDbSpline
 62
7
  6
CONTINUOUS
 70
0
 71
3
 72
12
 73
8
 74
0
 42
0.0000001
 43
0.0000001
 44
0.0000000001
 40
0.0
 40
0.0
 40
0.0
 40
0.0
 40
0.2446066047
 40
0.5006100557
 40
0.6314140682
 40
0.7589408215
 40
1.0
 40
1.0
 40
1.0
 40
1.0
 10
76.5501703278
 20
65.7679204742
 30
0.0
 10
76.5157635666
 20
65.814090182
 30
0.0
 10
76.4340356553
 20
65.901113327
 30
0.0
 10
76.2934859449
 20
65.9670729578
 30
0.0
 10
76.1704173879
 20
65.9669858413
 30
0.0
 10
76.0568381344
 20
65.931210835
 30
0.0
 10
75.9874345966
 20
65.8736955273
 30
0.0
 10
75.9501703278
 20
65.8309009822
 30
0.0
  0
SPLINE
  5
5F5
100
AcDbEntity
  8
7_ALL_FEATURES
100
AcDbSpline
 62
7
  6
CONTINUOUS
 70
0
 71
3
 72
13
 73
9
 74
0
 42
0.0000001
 43
0.0000001
 44
0.0000000001
 40
0.0
 40
0.0
 40
0.0
 40
0.0
 40
0.2496839714
 40
0.5055590201
 40
0.6355742313
 40
0.7638962679
 40
0.885242709
 40
1.0
 40
1.0
 40
1.0
 40
1.0
 10
78.9501703278
 20
474.8278527764
 30
0.0
 10
78.9804513716
 20
474.7679722234
 30
0.0
 10
79.0493871697
 20
474.6505264544
 30
0.0
 10
79.1605874593
 20
474.5183861266
 30
0.0
 10
79.2726311556
 20
474.4361882021
 30
0.0
 10
79.3696743943
 20
474.3982179734
 30
0.0
 10
79.4714047714
 20
474.405075861
 30
0.0
 10
79.5270305731
 20
474.4399341475
 30
0.0
 10
79.5501703278
 20
474.4603226844
 30
0.0
  0
SPLINE
  5
5F6
100
AcDbEntity
  8
7_ALL_FEATURES
100
AcDbSpline
 62
7
  6
CONTINUOUS
 70
0
 71
3
 72
13
 73
9
 74
0
 42
0.0000001
 43
0.0000001
 44
0.0000000001
 40
0.0
 40
0.0
 40
0.0
 40
0.0
 40
0.2496839714
 40
0.5055590201
 40
0.6355742313
 40
0.7638962679
 40
0.885242709
 40
1.0
 40
1.0
 40
1.0
 40
1.0
 10
78.9501703278
 20
274.8278527764
 30
0.0
 10
78.9804513716
 20
274.7679722234
 30
0.0
 10
79.0493871697
 20
274.6505264544
 30
0.0
 10
79.1605874593
 20
274.5183861266
 30
0.0
 10
79.2726311556
 20
274.4361882021
 30
0.0
 10
79.3696743943
 20
274.3982179734
 30
0.0
 10
79.4714047714
 20
274.405075861
 30
0.0
 10
79.5270305731
 20
274.4399341475
 30
0.0
 10
79.5501703278
 20
274.4603226844
 30
0.0
  0
SPLINE
  5
5F7
100
AcDbEntity
  8
7_ALL_FEATURES
100
AcDbSpline
 62
7
  6
CONTINUOUS
 70
0
 71
3
 72
13
 73
9
 74
0
 42
0.0000001
 43
0.0000001
 44
0.0000000001
 40
0.0
 40
0.0
 40
0.0
 40
0.0
 40
0.1147559839
 40
0.2361004759
 40
0.3644238097
 40
0.4944403146
 40
0.7503160254
 40
1.0
 40
1.0
 40
1.0
 40
1.0
 10
79.5501703278
 20
466.6652558496
 30
0.0
 10
79.5270308356
 20
466.6856441552
 30
0.0
 10
79.4714059066
 20
466.7205019829
 30
0.0
 10
79.3696762617
 20
466.7273609829
 30
0.0
 10
79.2726325
 20
466.6893912151
 30
0.0
 10
79.1605879321
 20
466.6071929835
 30
0.0
 10
79.0493872614
 20
466.4750522385
 30
0.0
 10
78.9804513733
 20
466.357606314
 30
0.0
 10
78.9501703278
 20
466.2977257575
 30
0.0
  0
SPLINE
  5
5F8
100
AcDbEntity
  8
7_ALL_FEATURES
100
AcDbSpline
 62
7
  6
CONTINUOUS
 70
0
 71
3
 72
13
 73
9
 74
0
 42
0.0000001
 43
0.0000001
 44
0.0000000001
 40
0.0
 40
0.0
 40
0.0
 40
0.0
 40
0.2496839714
 40
0.5055590201
 40
0.6355742313
 40
0.7638962679
 40
0.885242709
 40
1.0
 40
1.0
 40
1.0
 40
1.0
 10
78.9501703278
 20
74.8278527764
 30
0.0
 10
78.9804513716
 20
74.7679722234
 30
0.0
 10
79.0493871697
 20
74.6505264544
 30
0.0
 10
79.1605874593
 20
74.5183861266
 30
0.0
 10
79.2726311556
 20
74.4361882021
 30
0.0
 10
79.3696743943
 20
74.3982179734
 30
0.0
 10
79.4714047714
 20
74.405075861
 30
0.0
 10
79.5270305731
 20
74.4399341475
 30
0.0
 10
79.5501703278
 20
74.4603226844
 30
0.0
  0
SPLINE
  5
5F9
100
AcDbEntity
  8
7_ALL_FEATURES
100
AcDbSpline
 62
7
  6
CONTINUOUS
 70
0
 71
3
 72
13
 73
9
 74
0
 42
0.0000001
 43
0.0000001
 44
0.0000000001
 40
0.0
 40
0.0
 40
0.0
 40
0.0
 40
0.1147559839
 40
0.2361004759
 40
0.3644238097
 40
0.4944403146
 40
0.7503160254
 40
1.0
 40
1.0
 40
1.0
 40
1.0
 10
79.5501703278
 20
266.6652558496
 30
0.0
 10
79.5270308356
 20
266.6856441552
 30
0.0
 10
79.4714059066
 20
266.720501983
 30
0.0
 10
79.3696762617
 20
266.7273609829
 30
0.0
 10
79.2726325
 20
266.6893912151
 30
0.0
 10
79.1605879321
 20
266.6071929835
 30
0.0
 10
79.0493872614
 20
266.4750522385
 30
0.0
 10
78.9804513733
 20
266.357606314
 30
0.0
 10
78.9501703278
 20
266.2977257575
 30
0.0
  0
SPLINE
  5
5FA
100
AcDbEntity
  8
7_ALL_FEATURES
100
AcDbSpline
 62
7
  6
CONTINUOUS
 70
0
 71
3
 72
13
 73
9
 74
0
 42
0.0000001
 43
0.0000001
 44
0.0000000001
 40
0.0
 40
0.0
 40
0.0
 40
0.0
 40
0.1147559839
 40
0.2361004759
 40
0.3644238097
 40
0.4944403146
 40
0.7503160254
 40
1.0
 40
1.0
 40
1.0
 40
1.0
 10
79.5501703278
 20
66.6652558496
 30
0.0
 10
79.5270308356
 20
66.6856441552
 30
0.0
 10
79.4714059066
 20
66.7205019829
 30
0.0
 10
79.3696762617
 20
66.7273609829
 30
0.0
 10
79.2726325
 20
66.6893912151
 30
0.0
 10
79.1605879321
 20
66.6071929835
 30
0.0
 10
79.0493872614
 20
66.4750522385
 30
0.0
 10
78.9804513733
 20
66.357606314
 30
0.0
 10
78.9501703278
 20
66.2977257575
 30
0.0
  0
SPLINE
  5
5FB
100
AcDbEntity
  8
6_ALL_SURFS
100
AcDbSpline
 62
7
  6
CONTINUOUS
 70
0
 71
3
 72
12
 73
8
 74
0
 42
0.0000001
 43
0.0000001
 44
0.0000000001
 40
0.0
 40
0.0
 40
0.0
 40
0.0
 40
0.2446066047
 40
0.5006100557
 40
0.6314140682
 40
0.7589408215
 40
1.0
 40
1.0
 40
1.0
 40
1.0
 10
174.8501703278
 20
465.7679204742
 30
0.0
 10
174.8845770891
 20
465.814090182
 30
0.0
 10
174.9663050004
 20
465.901113327
 30
0.0
 10
175.1068547107
 20
465.9670729578
 30
0.0
 10
175.2299232678
 20
465.9669858413
 30
0.0
 10
175.3435025213
 20
465.931210835
 30
0.0
 10
175.4129060591
 20
465.8736955273
 30
0.0
 10
175.4501703278
 20
465.8309009822
 30
0.0
  0
SPLINE
  5
5FC
100
AcDbEntity
  8
6_ALL_SURFS
100
AcDbSpline
 62
7
  6
CONTINUOUS
 70
0
 71
3
 72
12
 73
8
 74
0
 42
0.0000001
 43
0.0000001
 44
0.0000000001
 40
0.0
 40
0.0
 40
0.0
 40
0.0
 40
0.2410591563
 40
0.3685859154
 40
0.4993899558
 40
0.7553934268
 40
1.0
 40
1.0
 40
1.0
 40
1.0
 10
175.4501703278
 20
275.2946775518
 30
0.0
 10
175.4129060625
 20
275.2518830106
 30
0.0
 10
175.3435025293
 20
275.1943677048
 30
0.0
 10
175.2299232746
 20
275.1585926927
 30
0.0
 10
175.106854704
 20
275.1585055759
 30
0.0
 10
174.9663049915
 20
275.2244652134
 30
0.0
 10
174.8845770847
 20
275.311488358
 30
0.0
 10
174.8501703278
 20
275.3576580597
 30
0.0
  0
SPLINE
  5
5FD
100
AcDbEntity
  8
6_ALL_SURFS
100
AcDbSpline
 62
7
  6
CONTINUOUS
 70
0
 71
3
 72
12
 73
8
 74
0
 42
0.0000001
 43
0.0000001
 44
0.0000000001
 40
0.0
 40
0.0
 40
0.0
 40
0.0
 40
0.2410591563
 40
0.3685859154
 40
0.4993899558
 40
0.7553934268
 40
1.0
 40
1.0
 40
1.0
 40
1.0
 10
175.4501703278
 20
475.2946775518
 30
0.0
 10
175.4129060625
 20
475.2518830106
 30
0.0
 10
175.3435025293
 20
475.1943677048
 30
0.0
 10
175.2299232746
 20
475.1585926927
 30
0.0
 10
175.106854704
 20
475.1585055759
 30
0.0
 10
174.9663049915
 20
475.2244652134
 30
0.0
 10
174.8845770847
 20
475.311488358
 30
0.0
 10
174.8501703278
 20
475.3576580597
 30
0.0
  0
SPLINE
  5
5FE
100
AcDbEntity
  8
6_ALL_SURFS
100
AcDbSpline
 62
7
  6
CONTINUOUS
 70
0
 71
3
 72
13
 73
9
 74
0
 42
0.0000001
 43
0.0000001
 44
0.0000000001
 40
0.0
 40
0.0
 40
0.0
 40
0.0
 40
0.1147559839
 40
0.2361004759
 40
0.3644238097
 40
0.4944403146
 40
0.7503160254
 40
1.0
 40
1.0
 40
1.0
 40
1.0
 10
171.8501703278
 20
66.6652558496
 30
0.0
 10
171.8733098201
 20
66.6856441552
 30
0.0
 10
171.9289347491
 20
66.7205019829
 30
0.0
 10
172.030664394
 20
66.7273609829
 30
0.0
 10
172.1277081557
 20
66.6893912151
 30
0.0
 10
172.2397527236
 20
66.6071929835
 30
0.0
 10
172.3509533943
 20
66.4750522385
 30
0.0
 10
172.4198892824
 20
66.357606314
 30
0.0
 10
172.4501703278
 20
66.2977257575
 30
0.0
  0
SPLINE
  5
5FF
100
AcDbEntity
  8
6_ALL_SURFS
100
AcDbSpline
 62
7
  6
CONTINUOUS
 70
0
 71
3
 72
13
 73
9
 74
0
 42
0.0000001
 43
0.0000001
 44
0.0000000001
 40
0.0
 40
0.0
 40
0.0
 40
0.0
 40
0.1147559839
 40
0.2361004759
 40
0.3644238097
 40
0.4944403146
 40
0.7503160254
 40
1.0
 40
1.0
 40
1.0
 40
1.0
 10
171.8501703278
 20
266.6652558496
 30
0.0
 10
171.8733098201
 20
266.6856441552
 30
0.0
 10
171.9289347491
 20
266.7205019829
 30
0.0
 10
172.030664394
 20
266.7273609829
 30
0.0
 10
172.1277081557
 20
266.6893912151
 30
0.0
 10
172.2397527236
 20
266.6071929835
 30
0.0
 10
172.3509533943
 20
266.4750522385
 30
0.0
 10
172.4198892824
 20
266.357606314
 30
0.0
 10
172.4501703278
 20
266.2977257575
 30
0.0
  0
SPLINE
  5
600
100
AcDbEntity
  8
6_ALL_SURFS
100
AcDbSpline
 62
7
  6
CONTINUOUS
 70
0
 71
3
 72
13
 73
9
 74
0
 42
0.0000001
 43
0.0000001
 44
0.0000000001
 40
0.0
 40
0.0
 40
0.0
 40
0.0
 40
0.2496839714
 40
0.5055590201
 40
0.6355742313
 40
0.7638962679
 40
0.885242709
 40
1.0
 40
1.0
 40
1.0
 40
1.0
 10
172.4501703278
 20
74.8278527764
 30
0.0
 10
172.4198892841
 20
74.7679722234
 30
0.0
 10
172.350953486
 20
74.6505264544
 30
0.0
 10
172.2397531964
 20
74.5183861266
 30
0.0
 10
172.1277095001
 20
74.4361882021
 30
0.0
 10
172.0306662614
 20
74.3982179734
 30
0.0
 10
171.9289358843
 20
74.405075861
 30
0.0
 10
171.8733100826
 20
74.4399341475
 30
0.0
 10
171.8501703278
 20
74.4603226844
 30
0.0
  0
SPLINE
  5
601
100
AcDbEntity
  8
6_ALL_SURFS
100
AcDbSpline
 62
7
  6
CONTINUOUS
 70
0
 71
3
 72
13
 73
9
 74
0
 42
0.0000001
 43
0.0000001
 44
0.0000000001
 40
0.0
 40
0.0
 40
0.0
 40
0.0
 40
0.1147559839
 40
0.2361004759
 40
0.3644238097
 40
0.4944403146
 40
0.7503160254
 40
1.0
 40
1.0
 40
1.0
 40
1.0
 10
171.8501703278
 20
466.6652558496
 30
0.0
 10
171.8733098201
 20
466.6856441552
 30
0.0
 10
171.9289347491
 20
466.720501983
 30
0.0
 10
172.030664394
 20
466.7273609829
 30
0.0
 10
172.1277081557
 20
466.6893912151
 30
0.0
 10
172.2397527236
 20
466.6071929835
 30
0.0
 10
172.3509533943
 20
466.4750522385
 30
0.0
 10
172.4198892824
 20
466.357606314
 30
0.0
 10
172.4501703278
 20
466.2977257575
 30
0.0
  0
SPLINE
  5
602
100
AcDbEntity
  8
6_ALL_SURFS
100
AcDbSpline
 62
7
  6
CONTINUOUS
 70
0
 71
3
 72
13
 73
9
 74
0
 42
0.0000001
 43
0.0000001
 44
0.0000000001
 40
0.0
 40
0.0
 40
0.0
 40
0.0
 40
0.2496839714
 40
0.5055590201
 40
0.6355742313
 40
0.7638962679
 40
0.885242709
 40
1.0
 40
1.0
 40
1.0
 40
1.0
 10
172.4501703278
 20
274.8278527764
 30
0.0
 10
172.4198892841
 20
274.7679722234
 30
0.0
 10
172.350953486
 20
274.6505264544
 30
0.0
 10
172.2397531964
 20
274.5183861266
 30
0.0
 10
172.1277095001
 20
274.4361882021
 30
0.0
 10
172.0306662614
 20
274.3982179734
 30
0.0
 10
171.9289358843
 20
274.405075861
 30
0.0
 10
171.8733100826
 20
274.4399341475
 30
0.0
 10
171.8501703278
 20
274.4603226844
 30
0.0
  0
SPLINE
  5
603
100
AcDbEntity
  8
6_ALL_SURFS
100
AcDbSpline
 62
7
  6
CONTINUOUS
 70
0
 71
3
 72
13
 73
9
 74
0
 42
0.0000001
 43
0.0000001
 44
0.0000000001
 40
0.0
 40
0.0
 40
0.0
 40
0.0
 40
0.2496839714
 40
0.5055590201
 40
0.6355742313
 40
0.7638962679
 40
0.885242709
 40
1.0
 40
1.0
 40
1.0
 40
1.0
 10
172.4501703278
 20
474.8278527764
 30
0.0
 10
172.4198892841
 20
474.7679722234
 30
0.0
 10
172.350953486
 20
474.6505264544
 30
0.0
 10
172.2397531964
 20
474.5183861266
 30
0.0
 10
172.1277095001
 20
474.4361882021
 30
0.0
 10
172.0306662614
 20
474.3982179734
 30
0.0
 10
171.9289358843
 20
474.405075861
 30
0.0
 10
171.8733100826
 20
474.4399341475
 30
0.0
 10
171.8501703278
 20
474.4603226844
 30
0.0
  0
SPLINE
  5
604
100
AcDbEntity
  8
6_ALL_SURFS
100
AcDbSpline
 62
7
  6
CONTINUOUS
 70
0
 71
3
 72
10
 73
6
 74
0
 42
0.0000001
 43
0.0000001
 44
0.0000000001
 40
0.0
 40
0.0
 40
0.0
 40
0.0
 40
0.4973995946
 40
0.7559907344
 40
1.0
 40
1.0
 40
1.0
 40
1.0
 10
630.5950391206
 20
610.262789267
 30
0.0
 10
630.5022899942
 20
610.3319081158
 30
0.0
 10
630.3728117816
 20
610.488400149
 30
0.0
 10
630.4112370864
 20
610.7330930329
 30
0.0
 10
630.4892642547
 20
610.8255251612
 30
0.0
 10
630.5320586126
 20
610.862789267
 30
0.0
  0
SPLINE
  5
605
100
AcDbEntity
  8
6_ALL_SURFS
100
AcDbSpline
 62
7
  6
CONTINUOUS
 70
0
 71
3
 72
10
 73
6
 74
0
 42
0.0000001
 43
0.0000001
 44
0.0000000001
 40
0.0
 40
0.0
 40
0.0
 40
0.0
 40
0.4973995946
 40
0.7559907344
 40
1.0
 40
1.0
 40
1.0
 40
1.0
 10
430.5950391206
 20
610.262789267
 30
0.0
 10
430.5022899942
 20
610.3319081158
 30
0.0
 10
430.3728117816
 20
610.488400149
 30
0.0
 10
430.4112370864
 20
610.7330930329
 30
0.0
 10
430.4892642547
 20
610.8255251612
 30
0.0
 10
430.5320586126
 20
610.862789267
 30
0.0
  0
SPLINE
  5
606
100
AcDbEntity
  8
6_ALL_SURFS
100
AcDbSpline
 62
7
  6
CONTINUOUS
 70
0
 71
3
 72
10
 73
6
 74
0
 42
0.0000001
 43
0.0000001
 44
0.0000000001
 40
0.0
 40
0.0
 40
0.0
 40
0.0
 40
0.2440092412
 40
0.502600416
 40
1.0
 40
1.0
 40
1.0
 40
1.0
 10
621.0682820431
 20
610.862789267
 30
0.0
 10
621.1110763967
 20
610.8255251649
 30
0.0
 10
621.1891035677
 20
610.7330930372
 30
0.0
 10
621.2275288765
 20
610.48840015
 30
0.0
 10
621.0980506595
 20
610.3319081143
 30
0.0
 10
621.0053015351
 20
610.262789267
 30
0.0
  0
SPLINE
  5
607
100
AcDbEntity
  8
7_ALL_FEATURES
100
AcDbSpline
 62
7
  6
CONTINUOUS
 70
0
 71
3
 72
10
 73
6
 74
0
 42
0.0000001
 43
0.0000001
 44
0.0000000001
 40
0.0
 40
0.0
 40
0.0
 40
0.0
 40
0.2440092412
 40
0.502600416
 40
1.0
 40
1.0
 40
1.0
 40
1.0
 10
221.0682820431
 20
511.362789267
 30
0.0
 10
221.1110763967
 20
511.400053369
 30
0.0
 10
221.1891035677
 20
511.4924854967
 30
0.0
 10
221.2275288765
 20
511.737178384
 30
0.0
 10
221.0980506595
 20
511.8936704197
 30
0.0
 10
221.0053015351
 20
511.962789267
 30
0.0
  0
SPLINE
  5
608
100
AcDbEntity
  8
7_ALL_FEATURES
100
AcDbSpline
 62
7
  6
CONTINUOUS
 70
0
 71
3
 72
10
 73
6
 74
0
 42
0.0000001
 43
0.0000001
 44
0.0000000001
 40
0.0
 40
0.0
 40
0.0
 40
0.0
 40
0.2440092412
 40
0.502600416
 40
1.0
 40
1.0
 40
1.0
 40
1.0
 10
421.0682820431
 20
511.362789267
 30
0.0
 10
421.1110763967
 20
511.400053369
 30
0.0
 10
421.1891035677
 20
511.4924854967
 30
0.0
 10
421.2275288765
 20
511.737178384
 30
0.0
 10
421.0980506595
 20
511.8936704197
 30
0.0
 10
421.0053015351
 20
511.962789267
 30
0.0
  0
SPLINE
  5
609
100
AcDbEntity
  8
7_ALL_FEATURES
100
AcDbSpline
 62
7
  6
CONTINUOUS
 70
0
 71
3
 72
10
 73
6
 74
0
 42
0.0000001
 43
0.0000001
 44
0.0000000001
 40
0.0
 40
0.0
 40
0.0
 40
0.0
 40
0.4973995946
 40
0.7559907344
 40
1.0
 40
1.0
 40
1.0
 40
1.0
 10
230.5950391206
 20
511.962789267
 30
0.0
 10
230.5022899942
 20
511.8936704182
 30
0.0
 10
230.3728117816
 20
511.737178385
 30
0.0
 10
230.4112370864
 20
511.4924855011
 30
0.0
 10
230.4892642547
 20
511.4000533728
 30
0.0
 10
230.5320586126
 20
511.362789267
 30
0.0
  0
SPLINE
  5
60A
100
AcDbEntity
  8
7_ALL_FEATURES
100
AcDbSpline
 62
7
  6
CONTINUOUS
 70
0
 71
3
 72
10
 73
6
 74
0
 42
0.0000001
 43
0.0000001
 44
0.0000000001
 40
0.0
 40
0.0
 40
0.0
 40
0.0
 40
0.2440092412
 40
0.502600416
 40
1.0
 40
1.0
 40
1.0
 40
1.0
 10
621.0682820431
 20
511.362789267
 30
0.0
 10
621.1110763967
 20
511.400053369
 30
0.0
 10
621.1891035677
 20
511.4924854967
 30
0.0
 10
621.2275288765
 20
511.737178384
 30
0.0
 10
621.0980506595
 20
511.8936704197
 30
0.0
 10
621.0053015351
 20
511.962789267
 30
0.0
  0
SPLINE
  5
60B
100
AcDbEntity
  8
7_ALL_FEATURES
100
AcDbSpline
 62
7
  6
CONTINUOUS
 70
0
 71
3
 72
10
 73
6
 74
0
 42
0.0000001
 43
0.0000001
 44
0.0000000001
 40
0.0
 40
0.0
 40
0.0
 40
0.0
 40
0.4973995946
 40
0.7559907344
 40
1.0
 40
1.0
 40
1.0
 40
1.0
 10
430.5950391206
 20
511.962789267
 30
0.0
 10
430.5022899942
 20
511.8936704182
 30
0.0
 10
430.3728117816
 20
511.737178385
 30
0.0
 10
430.4112370864
 20
511.4924855011
 30
0.0
 10
430.4892642547
 20
511.4000533728
 30
0.0
 10
430.5320586126
 20
511.362789267
 30
0.0
  0
SPLINE
  5
60C
100
AcDbEntity
  8
7_ALL_FEATURES
100
AcDbSpline
 62
7
  6
CONTINUOUS
 70
0
 71
3
 72
10
 73
6
 74
0
 42
0.0000001
 43
0.0000001
 44
0.0000000001
 40
0.0
 40
0.0
 40
0.0
 40
0.0
 40
0.4973995946
 40
0.7559907344
 40
1.0
 40
1.0
 40
1.0
 40
1.0
 10
630.5950391206
 20
511.962789267
 30
0.0
 10
630.5022899942
 20
511.8936704182
 30
0.0
 10
630.3728117816
 20
511.737178385
 30
0.0
 10
630.4112370864
 20
511.4924855011
 30
0.0
 10
630.4892642547
 20
511.4000533728
 30
0.0
 10
630.5320586126
 20
511.362789267
 30
0.0
  0
SPLINE
  5
60D
100
AcDbEntity
  8
6_ALL_SURFS
100
AcDbSpline
 62
7
  6
CONTINUOUS
 70
0
 71
3
 72
10
 73
6
 74
0
 42
0.0000001
 43
0.0000001
 44
0.0000000001
 40
0.0
 40
0.0
 40
0.0
 40
0.0
 40
0.4973995946
 40
0.7559907344
 40
1.0
 40
1.0
 40
1.0
 40
1.0
 10
230.5950391206
 20
610.262789267
 30
0.0
 10
230.5022899942
 20
610.3319081158
 30
0.0
 10
230.3728117816
 20
610.488400149
 30
0.0
 10
230.4112370864
 20
610.7330930329
 30
0.0
 10
230.4892642547
 20
610.8255251612
 30
0.0
 10
230.5320586126
 20
610.862789267
 30
0.0
  0
SPLINE
  5
60E
100
AcDbEntity
  8
6_ALL_SURFS
100
AcDbSpline
 62
7
  6
CONTINUOUS
 70
0
 71
3
 72
10
 73
6
 74
0
 42
0.0000001
 43
0.0000001
 44
0.0000000001
 40
0.0
 40
0.0
 40
0.0
 40
0.0
 40
0.2440092412
 40
0.502600416
 40
1.0
 40
1.0
 40
1.0
 40
1.0
 10
421.0682820431
 20
610.862789267
 30
0.0
 10
421.1110763967
 20
610.8255251649
 30
0.0
 10
421.1891035677
 20
610.7330930372
 30
0.0
 10
421.2275288765
 20
610.48840015
 30
0.0
 10
421.0980506595
 20
610.3319081143
 30
0.0
 10
421.0053015351
 20
610.262789267
 30
0.0
  0
SPLINE
  5
60F
100
AcDbEntity
  8
7_ALL_FEATURES
100
AcDbSpline
 62
7
  6
CONTINUOUS
 70
0
 71
3
 72
13
 73
9
 74
0
 42
0.0000001
 43
0.0000001
 44
0.0000000001
 40
0.0
 40
0.0
 40
0.0
 40
0.0
 40
0.2496596291
 40
0.5055163201
 40
0.6355336785
 40
0.7638662758
 40
0.8852332231
 40
1.0
 40
1.0
 40
1.0
 40
1.0
 10
221.5351068184
 20
514.362789267
 30
0.0
 10
221.5949816192
 20
514.3930674019
 30
0.0
 10
221.7124178833
 20
514.4619972143
 30
0.0
 10
221.8445518247
 20
514.5731868583
 30
0.0
 10
221.9267579133
 20
514.6852228151
 30
0.0
 10
221.964740012
 20
514.7822707745
 30
0.0
 10
221.9578913101
 20
514.8840147697
 30
0.0
 10
221.9230271619
 20
514.9396475664
 30
0.0
 10
221.9026369105
 20
514.962789267
 30
0.0
  0
SPLINE
  5
610
100
AcDbEntity
  8
7_ALL_FEATURES
100
AcDbSpline
 62
7
  6
CONTINUOUS
 70
0
 71
3
 72
13
 73
9
 74
0
 42
0.0000001
 43
0.0000001
 44
0.0000000001
 40
0.0
 40
0.0
 40
0.0
 40
0.0
 40
0.2496596291
 40
0.5055163201
 40
0.6355336785
 40
0.7638662758
 40
0.8852332231
 40
1.0
 40
1.0
 40
1.0
 40
1.0
 10
421.5351068184
 20
514.362789267
 30
0.0
 10
421.5949816192
 20
514.3930674019
 30
0.0
 10
421.7124178833
 20
514.4619972143
 30
0.0
 10
421.8445518247
 20
514.5731868583
 30
0.0
 10
421.9267579133
 20
514.6852228151
 30
0.0
 10
421.964740012
 20
514.7822707745
 30
0.0
 10
421.9578913101
 20
514.8840147697
 30
0.0
 10
421.9230271619
 20
514.9396475664
 30
0.0
 10
421.9026369105
 20
514.962789267
 30
0.0
  0
SPLINE
  5
611
100
AcDbEntity
  8
7_ALL_FEATURES
100
AcDbSpline
 62
7
  6
CONTINUOUS
 70
0
 71
3
 72
13
 73
9
 74
0
 42
0.0000001
 43
0.0000001
 44
0.0000000001
 40
0.0
 40
0.0
 40
0.0
 40
0.0
 40
0.114764444
 40
0.2361287491
 40
0.3644630724
 40
0.4944825697
 40
0.7503402537
 40
1.0
 40
1.0
 40
1.0
 40
1.0
 10
229.6977037452
 20
514.962789267
 30
0.0
 10
229.6773139116
 20
514.9396480405
 30
0.0
 10
229.6424504347
 20
514.884016553
 30
0.0
 10
229.6356005487
 20
514.7822737907
 30
0.0
 10
229.6735812426
 20
514.6852247923
 30
0.0
 10
229.7557880134
 20
514.5731876273
 30
0.0
 10
229.8879224772
 20
514.4619973295
 30
0.0
 10
230.0053590182
 20
514.3930674112
 30
0.0
 10
230.0652338373
 20
514.362789267
 30
0.0
  0
SPLINE
  5
612
100
AcDbEntity
  8
7_ALL_FEATURES
100
AcDbSpline
 62
7
  6
CONTINUOUS
 70
0
 71
3
 72
13
 73
9
 74
0
 42
0.0000001
 43
0.0000001
 44
0.0000000001
 40
0.0
 40
0.0
 40
0.0
 40
0.0
 40
0.2496596291
 40
0.5055163201
 40
0.6355336785
 40
0.7638662758
 40
0.8852332231
 40
1.0
 40
1.0
 40
1.0
 40
1.0
 10
621.5351068184
 20
514.362789267
 30
0.0
 10
621.5949816192
 20
514.3930674019
 30
0.0
 10
621.7124178833
 20
514.4619972143
 30
0.0
 10
621.8445518247
 20
514.5731868583
 30
0.0
 10
621.9267579133
 20
514.6852228151
 30
0.0
 10
621.964740012
 20
514.7822707745
 30
0.0
 10
621.9578913101
 20
514.8840147697
 30
0.0
 10
621.9230271619
 20
514.9396475664
 30
0.0
 10
621.9026369105
 20
514.962789267
 30
0.0
  0
SPLINE
  5
613
100
AcDbEntity
  8
7_ALL_FEATURES
100
AcDbSpline
 62
7
  6
CONTINUOUS
 70
0
 71
3
 72
13
 73
9
 74
0
 42
0.0000001
 43
0.0000001
 44
0.0000000001
 40
0.0
 40
0.0
 40
0.0
 40
0.0
 40
0.114764444
 40
0.2361287491
 40
0.3644630724
 40
0.4944825697
 40
0.7503402537
 40
1.0
 40
1.0
 40
1.0
 40
1.0
 10
429.6977037452
 20
514.962789267
 30
0.0
 10
429.6773139116
 20
514.9396480405
 30
0.0
 10
429.6424504347
 20
514.884016553
 30
0.0
 10
429.6356005487
 20
514.7822737907
 30
0.0
 10
429.6735812426
 20
514.6852247923
 30
0.0
 10
429.7557880134
 20
514.5731876273
 30
0.0
 10
429.8879224772
 20
514.4619973295
 30
0.0
 10
430.0053590182
 20
514.3930674112
 30
0.0
 10
430.0652338373
 20
514.362789267
 30
0.0
  0
SPLINE
  5
614
100
AcDbEntity
  8
7_ALL_FEATURES
100
AcDbSpline
 62
7
  6
CONTINUOUS
 70
0
 71
3
 72
13
 73
9
 74
0
 42
0.0000001
 43
0.0000001
 44
0.0000000001
 40
0.0
 40
0.0
 40
0.0
 40
0.0
 40
0.114764444
 40
0.2361287491
 40
0.3644630724
 40
0.4944825697
 40
0.7503402537
 40
1.0
 40
1.0
 40
1.0
 40
1.0
 10
629.6977037452
 20
514.962789267
 30
0.0
 10
629.6773139116
 20
514.9396480405
 30
0.0
 10
629.6424504347
 20
514.884016553
 30
0.0
 10
629.6356005487
 20
514.7822737907
 30
0.0
 10
629.6735812426
 20
514.6852247923
 30
0.0
 10
629.7557880134
 20
514.5731876273
 30
0.0
 10
629.8879224772
 20
514.4619973295
 30
0.0
 10
630.0053590182
 20
514.3930674112
 30
0.0
 10
630.0652338373
 20
514.362789267
 30
0.0
  0
SPLINE
  5
615
100
AcDbEntity
  8
6_ALL_SURFS
100
AcDbSpline
 62
7
  6
CONTINUOUS
 70
0
 71
3
 72
10
 73
6
 74
0
 42
0.0000001
 43
0.0000001
 44
0.0000000001
 40
0.0
 40
0.0
 40
0.0
 40
0.0
 40
0.2440092412
 40
0.502600416
 40
1.0
 40
1.0
 40
1.0
 40
1.0
 10
221.0682820431
 20
610.862789267
 30
0.0
 10
221.1110763967
 20
610.8255251649
 30
0.0
 10
221.1891035677
 20
610.7330930372
 30
0.0
 10
221.2275288765
 20
610.48840015
 30
0.0
 10
221.0980506595
 20
610.3319081143
 30
0.0
 10
221.0053015351
 20
610.262789267
 30
0.0
  0
SPLINE
  5
616
100
AcDbEntity
  8
6_ALL_SURFS
100
AcDbSpline
 62
7
  6
CONTINUOUS
 70
0
 71
3
 72
13
 73
9
 74
0
 42
0.0000001
 43
0.0000001
 44
0.0000000001
 40
0.0
 40
0.0
 40
0.0
 40
0.0
 40
0.114764444
 40
0.2361287491
 40
0.3644630724
 40
0.4944825697
 40
0.7503402537
 40
1.0
 40
1.0
 40
1.0
 40
1.0
 10
629.6977037452
 20
607.262789267
 30
0.0
 10
629.6773139116
 20
607.2859304934
 30
0.0
 10
629.6424504347
 20
607.341561981
 30
0.0
 10
629.6356005487
 20
607.4433047432
 30
0.0
 10
629.6735812426
 20
607.5403537417
 30
0.0
 10
629.7557880134
 20
607.6523909067
 30
0.0
 10
629.8879224772
 20
607.7635812045
 30
0.0
 10
630.0053590182
 20
607.8325111228
 30
0.0
 10
630.0652338373
 20
607.862789267
 30
0.0
  0
SPLINE
  5
617
100
AcDbEntity
  8
6_ALL_SURFS
100
AcDbSpline
 62
7
  6
CONTINUOUS
 70
0
 71
3
 72
13
 73
9
 74
0
 42
0.0000001
 43
0.0000001
 44
0.0000000001
 40
0.0
 40
0.0
 40
0.0
 40
0.0
 40
0.114764444
 40
0.2361287491
 40
0.3644630724
 40
0.4944825697
 40
0.7503402537
 40
1.0
 40
1.0
 40
1.0
 40
1.0
 10
429.6977037452
 20
607.262789267
 30
0.0
 10
429.6773139116
 20
607.2859304934
 30
0.0
 10
429.6424504347
 20
607.341561981
 30
0.0
 10
429.6356005487
 20
607.4433047432
 30
0.0
 10
429.6735812426
 20
607.5403537417
 30
0.0
 10
429.7557880134
 20
607.6523909067
 30
0.0
 10
429.8879224772
 20
607.7635812045
 30
0.0
 10
430.0053590182
 20
607.8325111228
 30
0.0
 10
430.0652338373
 20
607.862789267
 30
0.0
  0
SPLINE
  5
618
100
AcDbEntity
  8
6_ALL_SURFS
100
AcDbSpline
 62
7
  6
CONTINUOUS
 70
0
 71
3
 72
13
 73
9
 74
0
 42
0.0000001
 43
0.0000001
 44
0.0000000001
 40
0.0
 40
0.0
 40
0.0
 40
0.0
 40
0.2496596291
 40
0.5055163201
 40
0.6355336785
 40
0.7638662758
 40
0.8852332231
 40
1.0
 40
1.0
 40
1.0
 40
1.0
 10
621.5351068184
 20
607.862789267
 30
0.0
 10
621.5949816192
 20
607.8325111321
 30
0.0
 10
621.7124178833
 20
607.7635813197
 30
0.0
 10
621.8445518247
 20
607.6523916757
 30
0.0
 10
621.9267579133
 20
607.5403557188
 30
0.0
 10
621.964740012
 20
607.4433077594
 30
0.0
 10
621.9578913101
 20
607.3415637643
 30
0.0
 10
621.9230271619
 20
607.2859309676
 30
0.0
 10
621.9026369105
 20
607.262789267
 30
0.0
  0
SPLINE
  5
619
100
AcDbEntity
  8
6_ALL_SURFS
100
AcDbSpline
 62
7
  6
CONTINUOUS
 70
0
 71
3
 72
13
 73
9
 74
0
 42
0.0000001
 43
0.0000001
 44
0.0000000001
 40
0.0
 40
0.0
 40
0.0
 40
0.0
 40
0.114764444
 40
0.2361287491
 40
0.3644630724
 40
0.4944825697
 40
0.7503402537
 40
1.0
 40
1.0
 40
1.0
 40
1.0
 10
229.6977037452
 20
607.262789267
 30
0.0
 10
229.6773139116
 20
607.2859304934
 30
0.0
 10
229.6424504347
 20
607.341561981
 30
0.0
 10
229.6356005487
 20
607.4433047432
 30
0.0
 10
229.6735812426
 20
607.5403537417
 30
0.0
 10
229.7557880134
 20
607.6523909067
 30
0.0
 10
229.8879224772
 20
607.7635812045
 30
0.0
 10
230.0053590182
 20
607.8325111228
 30
0.0
 10
230.0652338373
 20
607.862789267
 30
0.0
  0
SPLINE
  5
61A
100
AcDbEntity
  8
6_ALL_SURFS
100
AcDbSpline
 62
7
  6
CONTINUOUS
 70
0
 71
3
 72
13
 73
9
 74
0
 42
0.0000001
 43
0.0000001
 44
0.0000000001
 40
0.0
 40
0.0
 40
0.0
 40
0.0
 40
0.2496596291
 40
0.5055163201
 40
0.6355336785
 40
0.7638662758
 40
0.8852332231
 40
1.0
 40
1.0
 40
1.0
 40
1.0
 10
421.5351068184
 20
607.862789267
 30
0.0
 10
421.5949816192
 20
607.8325111321
 30
0.0
 10
421.7124178833
 20
607.7635813197
 30
0.0
 10
421.8445518247
 20
607.6523916757
 30
0.0
 10
421.9267579133
 20
607.5403557188
 30
0.0
 10
421.964740012
 20
607.4433077594
 30
0.0
 10
421.9578913101
 20
607.3415637643
 30
0.0
 10
421.9230271619
 20
607.2859309676
 30
0.0
 10
421.9026369105
 20
607.262789267
 30
0.0
  0
SPLINE
  5
61B
100
AcDbEntity
  8
6_ALL_SURFS
100
AcDbSpline
 62
7
  6
CONTINUOUS
 70
0
 71
3
 72
13
 73
9
 74
0
 42
0.0000001
 43
0.0000001
 44
0.0000000001
 40
0.0
 40
0.0
 40
0.0
 40
0.0
 40
0.2496596291
 40
0.5055163201
 40
0.6355336785
 40
0.7638662758
 40
0.8852332231
 40
1.0
 40
1.0
 40
1.0
 40
1.0
 10
221.5351068184
 20
607.862789267
 30
0.0
 10
221.5949816192
 20
607.8325111321
 30
0.0
 10
221.7124178833
 20
607.7635813197
 30
0.0
 10
221.8445518247
 20
607.6523916757
 30
0.0
 10
221.9267579133
 20
607.5403557188
 30
0.0
 10
221.964740012
 20
607.4433077594
 30
0.0
 10
221.9578913101
 20
607.3415637643
 30
0.0
 10
221.9230271619
 20
607.2859309676
 30
0.0
 10
221.9026369105
 20
607.262789267
 30
0.0
  0
ELLIPSE
  5
61C
100
AcDbEntity
  8
7_ALL_FEATURES
100
AcDbEllipse
 62
7
  6
CONTINUOUS
 10
77.7153432997
 20
70.562789267
 30
0.0
 11
5.5724287509
 21
-0.0
 31
0.0
 40
0.9848857802
 41
2.5002570966
 42
3.7829282106
  0
ELLIPSE
  5
61D
100
AcDbEntity
  8
7_ALL_FEATURES
100
AcDbEllipse
 62
7
  6
CONTINUOUS
 10
77.7153432997
 20
270.562789267
 30
0.0
 11
5.5724287509
 21
0.0
 31
0.0
 40
0.9848857802
 41
2.5002570966
 42
3.7829282106
  0
ELLIPSE
  5
61E
100
AcDbEntity
  8
7_ALL_FEATURES
100
AcDbEllipse
 62
7
  6
CONTINUOUS
 10
77.7153432997
 20
470.562789267
 30
0.0
 11
5.5724287509
 21
0.0
 31
0.0
 40
0.9848857802
 41
2.5002570966
 42
3.7829282106
  0
ELLIPSE
  5
61F
100
AcDbEntity
  8
6_ALL_SURFS
100
AcDbEllipse
 62
7
  6
CONTINUOUS
 10
173.684997356
 20
70.562789267
 30
0.0
 11
5.5724287509
 21
0.0
 31
0.0
 40
0.9848857802
 41
5.6418497502
 42
6.9245208642
  0
ELLIPSE
  5
620
100
AcDbEntity
  8
6_ALL_SURFS
100
AcDbEllipse
 62
7
  6
CONTINUOUS
 10
173.684997356
 20
270.562789267
 30
0.0
 11
5.5724287509
 21
0.0
 31
0.0
 40
0.9848857802
 41
5.6418497502
 42
6.9245208642
  0
ELLIPSE
  5
621
100
AcDbEntity
  8
6_ALL_SURFS
100
AcDbEllipse
 62
7
  6
CONTINUOUS
 10
173.684997356
 20
470.562789267
 30
0.0
 11
5.5724287509
 21
0.0
 31
0.0
 40
0.9848857802
 41
5.6418497502
 42
6.9245208642
  0
ELLIPSE
  5
622
100
AcDbEntity
  8
7_ALL_FEATURES
100
AcDbEllipse
 62
7
  6
CONTINUOUS
 10
625.8001703278
 20
513.1279622388
 30
0.0
 11
0.0
 21
5.5724287509
 31
0.0
 40
0.9848857802
 41
-3.7829282106
 42
-2.5002570966
  0
ELLIPSE
  5
623
100
AcDbEntity
  8
7_ALL_FEATURES
100
AcDbEllipse
 62
7
  6
CONTINUOUS
 10
425.8001703278
 20
513.1279622388
 30
0.0
 11
-0.0
 21
5.5724287509
 31
0.0
 40
0.9848857802
 41
-3.7829282106
 42
-2.5002570966
  0
ELLIPSE
  5
624
100
AcDbEntity
  8
7_ALL_FEATURES
100
AcDbEllipse
 62
7
  6
CONTINUOUS
 10
225.8001703278
 20
513.1279622388
 30
0.0
 11
0.0
 21
5.5724287509
 31
0.0
 40
0.9848857802
 41
-3.7829282106
 42
-2.5002570966
  0
ELLIPSE
  5
625
100
AcDbEntity
  8
6_ALL_SURFS
100
AcDbEllipse
 62
7
  6
CONTINUOUS
 10
625.8001703278
 20
609.0976162952
 30
0.0
 11
0.0
 21
5.5724287509
 31
0.0
 40
0.9848857802
 41
5.6418497502
 42
6.9245208642
  0
ELLIPSE
  5
626
100
AcDbEntity
  8
6_ALL_SURFS
100
AcDbEllipse
 62
7
  6
CONTINUOUS
 10
425.8001703278
 20
609.0976162952
 30
0.0
 11
-0.0
 21
5.5724287509
 31
0.0
 40
0.9848857802
 41
5.6418497502
 42
6.9245208642
  0
ELLIPSE
  5
627
100
AcDbEntity
  8
6_ALL_SURFS
100
AcDbEllipse
 62
7
  6
CONTINUOUS
 10
225.8001703278
 20
609.0976162952
 30
0.0
 11
0.0
 21
5.5724287509
 31
0.0
 40
0.9848857802
 41
5.6418497502
 42
6.9245208642
  0
ELLIPSE
  5
628
100
AcDbEntity
  8
7_ALL_FEATURES
100
AcDbEllipse
 62
7
  6
CONTINUOUS
 10
862.3449458454
 20
593.562789267
 30
0.0
 11
0.3
 21
-0.0
 31
0.0
 40
1.0
 41
-1.5707963268
 42
-1.426588907
  0
ELLIPSE
  5
629
100
AcDbEntity
  8
7_ALL_FEATURES
100
AcDbEllipse
 62
7
  6
CONTINUOUS
 10
862.3449458454
 20
593.562789267
 30
0.0
 11
0.0
 21
0.3
 31
0.0
 40
1.0
 41
3.2858000734
 42
4.7123889804
  0
ELLIPSE
  5
62A
100
AcDbEntity
  8
7_ALL_FEATURES
100
AcDbEllipse
 62
7
  6
CONTINUOUS
 10
803.3449458454
 20
586.5271610385
 30
0.0
 11
0.5
 21
0.0
 31
0.0
 40
1.0
 41
3.1415926536
 42
5.1673128632
  0
ELLIPSE
  5
62B
100
AcDbEntity
  8
7_ALL_FEATURES
100
AcDbEllipse
 62
7
  6
CONTINUOUS
 10
806.4449458454
 20
586.4206730995
 30
0.0
 11
0.0
 21
0.5
 31
0.0
 40
1.0
 41
-3.6651914292
 42
-3.5150332777
  0
ELLIPSE
  5
62C
100
AcDbEntity
  8
7_ALL_FEATURES
100
AcDbEllipse
 62
7
  6
CONTINUOUS
 10
806.4449458454
 20
586.4206730995
 30
0.0
 11
0.5
 21
-0.0
 31
0.0
 40
1.0
 41
-1.9442369509
 42
-1.6622205145
  0
ELLIPSE
  5
62D
100
AcDbEntity
  8
7_ALL_FEATURES
100
AcDbEllipse
 62
7
  6
CONTINUOUS
 10
806.4449458454
 20
586.4206730995
 30
0.0
 11
0.0
 21
0.5
 31
0.0
 40
1.0
 41
3.0501684659
 42
3.1873461528
  0
ELLIPSE
  5
62E
100
AcDbEntity
  8
7_ALL_FEATURES
100
AcDbEllipse
 62
7
  6
CONTINUOUS
 10
806.4449458454
 20
586.4206730995
 30
0.0
 11
0.5
 21
-0.0
 31
0.0
 40
1.0
 41
-1.5250428276
 42
-1.4339974209
  0
ELLIPSE
  5
62F
100
AcDbEntity
  8
7_ALL_FEATURES
100
AcDbEllipse
 62
7
  6
CONTINUOUS
 10
806.4449458454
 20
586.4206730995
 30
0.0
 11
0.0
 21
0.5
 31
0.0
 40
1.0
 41
-3.0047937477
 42
-2.9575509048
  0
ELLIPSE
  5
630
100
AcDbEntity
  8
7_ALL_FEATURES
100
AcDbEllipse
 62
7
  6
CONTINUOUS
 10
806.4449458454
 20
586.4206730995
 30
0.0
 11
0.5
 21
0.0
 31
0.0
 40
1.0
 41
4.8964307291
 42
6.2831853072
  0
ELLIPSE
  5
631
100
AcDbEntity
  8
7_ALL_FEATURES
100
AcDbEllipse
 62
7
  6
CONTINUOUS
 10
868.7449458454
 20
593.862789267
 30
0.0
 11
0.3
 21
-0.0
 31
0.0
 40
1.0
 41
3.1415926536
 42
4.5681815606
  0
ELLIPSE
  5
632
100
AcDbEntity
  8
7_ALL_FEATURES
100
AcDbEllipse
 62
7
  6
CONTINUOUS
 10
868.7449458454
 20
593.862789267
 30
0.0
 11
-0.0
 21
0.3
 31
0.0
 40
1.0
 41
-3.2858000734
 42
-3.1415926536
  0
ELLIPSE
  5
633
100
AcDbEntity
  8
7_ALL_FEATURES
100
AcDbEllipse
 62
7
  6
CONTINUOUS
 10
870.1549852142
 20
593.862789267
 30
0.0
 11
0.3
 21
0.0
 31
0.0
 40
1.0
 41
-1.5707963268
 42
-1.4356277166
  0
ELLIPSE
  5
634
100
AcDbEntity
  8
7_ALL_FEATURES
100
AcDbEllipse
 62
7
  6
CONTINUOUS
 10
870.1549852142
 20
593.862789267
 30
0.0
 11
-0.0
 21
0.3
 31
0.0
 40
1.0
 41
-3.0064240434
 42
-2.9462678334
  0
ELLIPSE
  5
635
100
AcDbEntity
  8
7_ALL_FEATURES
100
AcDbEllipse
 62
7
  6
CONTINUOUS
 10
870.1549852142
 20
593.862789267
 30
0.0
 11
0.3
 21
0.0
 31
0.0
 40
1.0
 41
-1.3754715066
 42
-1.2888170797
  0
ELLIPSE
  5
636
100
AcDbEntity
  8
7_ALL_FEATURES
100
AcDbEllipse
 62
7
  6
CONTINUOUS
 10
870.1549852142
 20
593.862789267
 30
0.0
 11
0.0
 21
0.3
 31
0.0
 40
1.0
 41
3.4235719006
 42
3.6728143606
  0
ELLIPSE
  5
637
100
AcDbEntity
  8
7_ALL_FEATURES
100
AcDbEllipse
 62
7
  6
CONTINUOUS
 10
870.1549852142
 20
593.862789267
 30
0.0
 11
0.3
 21
-0.0
 31
0.0
 40
1.0
 41
5.2436106874
 42
5.4628805587
  0
ELLIPSE
  5
638
100
AcDbEntity
  8
7_ALL_FEATURES
100
AcDbEllipse
 62
7
  6
CONTINUOUS
 10
889.7449458454
 20
596.362789267
 30
0.0
 11
0.3
 21
0.0
 31
0.0
 40
1.0
 41
-1.5707963268
 42
-1.426588907
  0
ELLIPSE
  5
639
100
AcDbEntity
  8
7_ALL_FEATURES
100
AcDbEllipse
 62
7
  6
CONTINUOUS
 10
889.7449458454
 20
596.362789267
 30
0.0
 11
0.0
 21
0.3
 31
0.0
 40
1.0
 41
-2.9973852338
 42
-2.6150249078
  0
ELLIPSE
  5
63A
100
AcDbEntity
  8
7_ALL_FEATURES
100
AcDbEllipse
 62
7
  6
CONTINUOUS
 10
891.3449458454
 20
596.112789267
 30
0.0
 11
0.3
 21
-0.0
 31
0.0
 40
1.0
 41
3.1415926536
 42
3.3551874514
  0
ELLIPSE
  5
63B
100
AcDbEntity
  8
7_ALL_FEATURES
100
AcDbEllipse
 62
7
  6
CONTINUOUS
 10
891.3449458454
 20
596.112789267
 30
0.0
 11
-0.0
 21
0.3
 31
0.0
 40
1.0
 41
-4.4987941826
 42
-3.2858000734
  0
ELLIPSE
  5
63C
100
AcDbEntity
  8
7_ALL_FEATURES
100
AcDbEllipse
 62
7
  6
CONTINUOUS
 10
891.3449458454
 20
596.112789267
 30
0.0
 11
0.3
 21
0.0
 31
0.0
 40
1.0
 41
-1.7150037466
 42
-1.5707963268
  0
ELLIPSE
  5
63D
100
AcDbEntity
  8
7_ALL_FEATURES
100
AcDbEllipse
 62
7
  6
CONTINUOUS
 10
892.2449458454
 20
595.512789267
 30
0.0
 11
0.3
 21
0.0
 31
0.0
 40
1.0
 41
-0.0
 42
1.5707963268
  0
ELLIPSE
  5
63E
100
AcDbEntity
  8
7_ALL_FEATURES
100
AcDbEllipse
 62
7
  6
CONTINUOUS
 10
890.4386492033
 20
615.6690859091
 30
0.0
 11
0.0
 21
0.3937033579
 31
0.0
 40
1.0
 41
-1.4711276743
 42
1.5707963268
  0
ELLIPSE
  5
63F
100
AcDbEntity
  8
7_ALL_FEATURES
100
AcDbEllipse
 62
7
  6
CONTINUOUS
 10
878.5430199152
 20
594.512789267
 30
0.0
 11
2.15
 21
-0.0
 31
0.0
 40
1.0
 41
0.8051436956
 42
2.336448958
  0
ELLIPSE
  5
640
100
AcDbEntity
  8
7_ALL_FEATURES
100
AcDbEllipse
 62
7
  6
CONTINUOUS
 10
873.5449458454
 20
594.562789267
 30
0.0
 11
0.0
 21
1.5
 31
0.0
 40
1.0
 41
0.0
 42
0.7504915784
  0
ELLIPSE
  5
641
100
AcDbEntity
  8
7_ALL_FEATURES
100
AcDbEllipse
 62
7
  6
CONTINUOUS
 10
866.9449458454
 20
594.662789267
 30
0.0
 11
0.0
 21
1.5
 31
0.0
 40
1.0
 41
-1.5707963268
 42
0.0
  0
ELLIPSE
  5
642
100
AcDbEntity
  8
7_ALL_FEATURES
100
AcDbEllipse
 62
7
  6
CONTINUOUS
 10
864.1449458454
 20
594.662789267
 30
0.0
 11
0.0
 21
1.5
 31
0.0
 40
1.0
 41
0.0
 42
1.5707963268
  0
ELLIPSE
  5
643
100
AcDbEntity
  8
7_ALL_FEATURES
100
AcDbEllipse
 62
7
  6
CONTINUOUS
 10
827.1676723053
 20
588.262789267
 30
0.0
 11
0.0
 21
5.0
 31
0.0
 40
1.0
 41
0.0
 42
0.2183788385
  0
ELLIPSE
  5
644
100
AcDbEntity
  8
7_ALL_FEATURES
100
AcDbEllipse
 62
7
  6
CONTINUOUS
 10
808.4449458454
 20
587.6930302698
 30
0.0
 11
0.0
 21
1.5
 31
0.0
 40
1.0
 41
0.2183788385
 42
1.5707963268
  0
ELLIPSE
  5
645
100
AcDbEntity
  8
7_ALL_FEATURES
100
AcDbEllipse
 62
7
  6
CONTINUOUS
 10
804.7949458454
 20
583.562789267
 30
0.0
 11
0.0
 21
2.8
 31
0.0
 40
1.0
 41
-0.5235987756
 42
0.4549238828
  0
ELLIPSE
  5
646
100
AcDbEntity
  8
7_ALL_FEATURES
100
AcDbEllipse
 62
7
  6
CONTINUOUS
 10
802.5449458454
 20
587.5706730995
 30
0.0
 11
-0.0
 21
0.3
 31
0.0
 40
1.0
 41
-1.5707963268
 42
0.0
  0
ELLIPSE
  5
647
100
AcDbEntity
  8
7_ALL_FEATURES
100
AcDbEllipse
 62
7
  6
CONTINUOUS
 10
801.8449458454
 20
587.5706730995
 30
0.0
 11
0.0
 21
0.3
 31
0.0
 40
1.0
 41
0.0
 42
1.5707963268
  0
ELLIPSE
  5
648
100
AcDbEntity
  8
7_ALL_FEATURES
100
AcDbEllipse
 62
7
  6
CONTINUOUS
 10
891.4914631426
 20
70.562789267
 30
0.0
 11
0.0
 21
5.4882058378
 31
0.0
 40
0.1015346165
 41
0.9294607698
 42
2.2121318838
  0
ELLIPSE
  5
649
100
AcDbEntity
  8
7_ALL_FEATURES
100
AcDbEllipse
 62
7
  6
CONTINUOUS
 10
891.4914631426
 20
270.562789267
 30
0.0
 11
-0.0
 21
5.4882058378
 31
0.0
 40
0.1015346165
 41
0.9294607698
 42
2.2121318838
  0
ELLIPSE
  5
64A
100
AcDbEntity
  8
7_ALL_FEATURES
100
AcDbEllipse
 62
7
  6
CONTINUOUS
 10
891.4914631426
 20
470.562789267
 30
0.0
 11
0.0
 21
5.4882058378
 31
0.0
 40
0.1015346165
 41
0.9294607698
 42
2.2121318838
  0
ELLIPSE
  5
64B
100
AcDbEntity
  8
7_ALL_FEATURES
100
AcDbEllipse
 62
7
  6
CONTINUOUS
 10
158.1501703278
 20
792.7566809544
 30
0.0
 11
0.0
 21
0.2
 31
0.0
 40
1.0
 41
-1.5370862628
 42
0.0
  0
ELLIPSE
  5
64C
100
AcDbEntity
  8
7_ALL_FEATURES
100
AcDbEllipse
 62
7
  6
CONTINUOUS
 10
94.0501703278
 20
792.6366809544
 30
0.0
 11
1.0
 21
-0.0
 31
0.0
 40
1.0
 41
-0.9972832224
 42
-0.7502839994
  0
ELLIPSE
  5
64D
100
AcDbEntity
  8
7_ALL_FEATURES
100
AcDbEllipse
 62
7
  6
CONTINUOUS
 10
94.0501703278
 20
792.6366809544
 30
0.0
 11
0.0
 21
1.0
 31
0.0
 40
1.0
 41
-2.3210803262
 42
-1.5707963268
  0
ELLIPSE
  5
64E
100
AcDbEntity
  8
7_ALL_FEATURES
100
AcDbEllipse
 62
7
  6
CONTINUOUS
 10
95.1353431251
 20
790.9566809544
 30
0.0
 11
0.0
 21
1.0
 31
0.0
 40
1.0
 41
0.5735131044
 42
2.3212879052
  0
ELLIPSE
  5
64F
100
AcDbEntity
  8
7_ALL_FEATURES
100
AcDbEllipse
 62
7
  6
CONTINUOUS
 10
95.0609587174
 20
790.1566809544
 30
0.0
 11
0.4
 21
0.0
 31
0.0
 40
1.0
 41
-2.3911010752
 42
-1.5707962785
  0
ELLIPSE
  5
650
100
AcDbEntity
  8
7_ALL_FEATURES
100
AcDbEllipse
 62
7
  6
CONTINUOUS
 10
160.1501703278
 20
792.6366809544
 30
0.0
 11
1.8
 21
-0.0
 31
0.0
 40
1.0
 41
-2.7537985802
 42
-2.1601965012
  0
ELLIPSE
  5
651
100
AcDbEntity
  8
7_ALL_FEATURES
100
AcDbEllipse
 62
7
  6
CONTINUOUS
 10
159.1393819383
 20
790.1566809544
 30
0.0
 11
-0.0
 21
0.4
 31
0.0
 40
1.0
 41
0.8203047484
 42
1.8761270712
  0
ELLIPSE
  5
652
100
AcDbEntity
  8
7_ALL_FEATURES
100
AcDbEllipse
 62
7
  6
CONTINUOUS
 10
95.1353431251
 20
790.9566809544
 30
0.0
 11
0.0
 21
0.2
 31
0.0
 40
1.0
 41
0.5735131044
 42
2.3212879051
  0
ELLIPSE
  5
653
100
AcDbEntity
  8
7_ALL_FEATURES
100
AcDbEllipse
 62
7
  6
CONTINUOUS
 10
94.0501703278
 20
792.6366809544
 30
0.0
 11
0.0
 21
1.8
 31
0.0
 40
1.0
 41
-2.5680795492
 42
-1.5707963268
  0
ELLIPSE
  5
654
100
AcDbEntity
  8
7_ALL_FEATURES
100
AcDbEllipse
 62
7
  6
CONTINUOUS
 10
95.0609587174
 20
790.1566809544
 30
0.0
 11
0.0
 21
0.4
 31
0.0
 40
1.0
 41
-3.1415926053
 42
-0.8203047484
  0
ELLIPSE
  5
655
100
AcDbEntity
  8
7_ALL_FEATURES
100
AcDbEllipse
 62
7
  6
CONTINUOUS
 10
96.0501703278
 20
792.7566809544
 30
0.0
 11
-0.0
 21
0.2
 31
0.0
 40
1.0
 41
0.0
 42
1.5707963268
  0
ELLIPSE
  5
656
100
AcDbEntity
  8
7_ALL_FEATURES
100
AcDbEllipse
 62
7
  6
CONTINUOUS
 10
625.8001703278
 20
808.4031982516
 30
0.0
 11
5.4882058378
 21
0.0
 31
0.0
 40
0.1015346165
 41
-2.2121318838
 42
-0.9294607698
  0
ELLIPSE
  5
657
100
AcDbEntity
  8
7_ALL_FEATURES
100
AcDbEllipse
 62
7
  6
CONTINUOUS
 10
425.8001703278
 20
808.4031982516
 30
0.0
 11
5.4882058378
 21
-0.0
 31
0.0
 40
0.1015346165
 41
-2.2121318838
 42
-0.9294607698
  0
ELLIPSE
  5
658
100
AcDbEntity
  8
7_ALL_FEATURES
100
AcDbEllipse
 62
7
  6
CONTINUOUS
 10
225.8001703278
 20
808.4031982516
 30
0.0
 11
5.4882058378
 21
0.0
 31
0.0
 40
0.1015346165
 41
-2.2121318838
 42
-0.9294607698
  0
ENDSEC
  0
SECTION
  2
OBJECTS
  0
DICTIONARY
  5
659
100
AcDbDictionary
  3
ACAD_GROUP
350
65A
  3
ACAD_MLINESTYLE
350
65B
  0
DICTIONARY
  5
65A
102
{ACAD_REACTORS
330
659
102
}
100
AcDbDictionary
  0
DICTIONARY
  5
65B
102
{ACAD_REACTORS
330
659
102
}
100
AcDbDictionary
  3
STANDARD
350
65C
  0
MLINESTYLE
  5
65C
102
{ACAD_REACTORS
330
65B
102
}
100
AcDbMlineStyle
  2
STANDARD
 70
0
  3

 62
256
 51
90.0
 52
90.0
 71
2
 49
0.5
 62
256
  6
BYLAYER
 49
-0.5
 62
256
  6
BYLAYER
  0
ENDSEC
  0
EOF
